  0
SECTION
  2
HEADER
  9
$ACADVER
  1
AC1021
  9
$ACADMAINTVER
 70
     1
  9
$DWGCODEPAGE
  3
ANSI_936
  9
$LASTSAVEDBY
  1
Administrator
  9
$INSBASE
 10
0.0
 20
0.0
 30
0.0
  9
$EXTMIN
 10
5453.601105578851
 20
4952.016501278093
 30
-0.0000000000000053
  9
$EXTMAX
 10
6233.227815063336
 20
5478.187384740737
 30
0.0000000000000099
  9
$LIMMIN
 10
0.0
 20
0.0
  9
$LIMMAX
 10
420.0
 20
297.0
  9
$ORTHOMODE
 70
     1
  9
$REGENMODE
 70
     1
  9
$FILLMODE
 70
     1
  9
$QTEXTMODE
 70
     0
  9
$MIRRTEXT
 70
     0
  9
$LTSCALE
 40
1.0
  9
$ATTMODE
 70
     1
  9
$TEXTSIZE
 40
2.5
  9
$TRACEWID
 40
1.0
  9
$TEXTSTYLE
  7
Standard
  9
$CLAYER
  8
0
  9
$CELTYPE
  6
ByLayer
  9
$CECOLOR
 62
   256
  9
$CELTSCALE
 40
1.0
  9
$DISPSILH
 70
     0
  9
$DIMSCALE
 40
1.0
  9
$DIMASZ
 40
8.0
  9
$DIMEXO
 40
3.0
  9
$DIMDLI
 40
3.0
  9
$DIMRND
 40
0.0
  9
$DIMDLE
 40
0.0
  9
$DIMEXE
 40
3.0
  9
$DIMTP
 40
0.0
  9
$DIMTM
 40
0.0
  9
$DIMTXT
 40
15.0
  9
$DIMCEN
 40
2.5
  9
$DIMTSZ
 40
0.0
  9
$DIMTOL
 70
     0
  9
$DIMLIM
 70
     0
  9
$DIMTIH
 70
     0
  9
$DIMTOH
 70
     0
  9
$DIMSE1
 70
     0
  9
$DIMSE2
 70
     0
  9
$DIMTAD
 70
     0
  9
$DIMZIN
 70
     8
  9
$DIMBLK
  1

  9
$DIMASO
 70
     1
  9
$DIMSHO
 70
     1
  9
$DIMPOST
  1
mm
  9
$DIMAPOST
  1
"
  9
$DIMALT
 70
     1
  9
$DIMALTD
 70
     2
  9
$DIMALTF
 40
0.03937007874016
  9
$DIMLFAC
 40
1.0
  9
$DIMTOFL
 70
     1
  9
$DIMTVP
 40
0.0
  9
$DIMTIX
 70
     0
  9
$DIMSOXD
 70
     0
  9
$DIMSAH
 70
     0
  9
$DIMBLK1
  1

  9
$DIMBLK2
  1

  9
$DIMSTYLE
  2
ISO-25
  9
$DIMCLRD
 70
     1
  9
$DIMCLRE
 70
     1
  9
$DIMCLRT
 70
     1
  9
$DIMTFAC
 40
1.0
  9
$DIMGAP
 40
3.0
  9
$DIMJUST
 70
     0
  9
$DIMSD1
 70
     0
  9
$DIMSD2
 70
     0
  9
$DIMTOLJ
 70
     0
  9
$DIMTZIN
 70
     8
  9
$DIMALTZ
 70
     0
  9
$DIMALTTZ
 70
     0
  9
$DIMUPT
 70
     0
  9
$DIMDEC
 70
     1
  9
$DIMTDEC
 70
     1
  9
$DIMALTU
 70
     2
  9
$DIMALTTD
 70
     2
  9
$DIMTXSTY
  7
Standard
  9
$DIMAUNIT
 70
     0
  9
$DIMADEC
 70
     0
  9
$DIMALTRND
 40
0.0
  9
$DIMAZIN
 70
     0
  9
$DIMDSEP
 70
    46
  9
$DIMATFIT
 70
     3
  9
$DIMFRAC
 70
     0
  9
$DIMLDRBLK
  1

  9
$DIMLUNIT
 70
     2
  9
$DIMLWD
 70
    15
  9
$DIMLWE
 70
    15
  9
$DIMTMOVE
 70
     0
  9
$DIMFXL
 40
1.0
  9
$DIMFXLON
 70
     0
  9
$DIMJOGANG
 40
0.7853981633974483
  9
$DIMTFILL
 70
     0
  9
$DIMTFILLCLR
 70
     0
  9
$DIMARCSYM
 70
     0
  9
$DIMLTYPE
  6

  9
$DIMLTEX1
  6

  9
$DIMLTEX2
  6

  9
$LUNITS
 70
     2
  9
$LUPREC
 70
     4
  9
$SKETCHINC
 40
1.0
  9
$FILLETRAD
 40
0.0
  9
$AUNITS
 70
     0
  9
$AUPREC
 70
     0
  9
$MENU
  1
.
  9
$ELEVATION
 40
0.0
  9
$PELEVATION
 40
0.0
  9
$THICKNESS
 40
0.0
  9
$LIMCHECK
 70
     0
  9
$CHAMFERA
 40
0.0
  9
$CHAMFERB
 40
0.0
  9
$CHAMFERC
 40
0.0
  9
$CHAMFERD
 40
0.0
  9
$SKPOLY
 70
     0
  9
$TDCREATE
 40
2456816.873540579
  9
$TDUCREATE
 40
2456816.540207245
  9
$TDUPDATE
 40
2458732.725746585
  9
$TDUUPDATE
 40
2458732.392413252
  9
$TDINDWG
 40
2.3757254167
  9
$TDUSRTIMER
 40
2.3757252315
  9
$USRTIMER
 70
     1
  9
$ANGBASE
 50
0.0
  9
$ANGDIR
 70
     0
  9
$PDMODE
 70
     0
  9
$PDSIZE
 40
0.0
  9
$PLINEWID
 40
0.0
  9
$SPLFRAME
 70
     0
  9
$SPLINETYPE
 70
     6
  9
$SPLINESEGS
 70
     8
  9
$HANDSEED
  5
16BEC
  9
$SURFTAB1
 70
     6
  9
$SURFTAB2
 70
     6
  9
$SURFTYPE
 70
     6
  9
$SURFU
 70
     6
  9
$SURFV
 70
     6
  9
$UCSBASE
  2

  9
$UCSNAME
  2

  9
$UCSORG
 10
0.0
 20
0.0
 30
0.0
  9
$UCSXDIR
 10
1.0
 20
0.0
 30
0.0
  9
$UCSYDIR
 10
0.0
 20
1.0
 30
0.0
  9
$UCSORTHOREF
  2

  9
$UCSORTHOVIEW
 70
     0
  9
$UCSORGTOP
 10
0.0
 20
0.0
 30
0.0
  9
$UCSORGBOTTOM
 10
0.0
 20
0.0
 30
0.0
  9
$UCSORGLEFT
 10
0.0
 20
0.0
 30
0.0
  9
$UCSORGRIGHT
 10
0.0
 20
0.0
 30
0.0
  9
$UCSORGFRONT
 10
0.0
 20
0.0
 30
0.0
  9
$UCSORGBACK
 10
0.0
 20
0.0
 30
0.0
  9
$PUCSBASE
  2

  9
$PUCSNAME
  2

  9
$PUCSORG
 10
0.0
 20
0.0
 30
0.0
  9
$PUCSXDIR
 10
1.0
 20
0.0
 30
0.0
  9
$PUCSYDIR
 10
0.0
 20
1.0
 30
0.0
  9
$PUCSORTHOREF
  2

  9
$PUCSORTHOVIEW
 70
     0
  9
$PUCSORGTOP
 10
0.0
 20
0.0
 30
0.0
  9
$PUCSORGBOTTOM
 10
0.0
 20
0.0
 30
0.0
  9
$PUCSORGLEFT
 10
0.0
 20
0.0
 30
0.0
  9
$PUCSORGRIGHT
 10
0.0
 20
0.0
 30
0.0
  9
$PUCSORGFRONT
 10
0.0
 20
0.0
 30
0.0
  9
$PUCSORGBACK
 10
0.0
 20
0.0
 30
0.0
  9
$USERI1
 70
     0
  9
$USERI2
 70
     0
  9
$USERI3
 70
     0
  9
$USERI4
 70
     0
  9
$USERI5
 70
     0
  9
$USERR1
 40
0.0
  9
$USERR2
 40
0.0
  9
$USERR3
 40
0.0
  9
$USERR4
 40
0.0
  9
$USERR5
 40
0.0
  9
$WORLDVIEW
 70
     1
  9
$SHADEDGE
 70
     3
  9
$SHADEDIF
 70
    70
  9
$TILEMODE
 70
     1
  9
$MAXACTVP
 70
    64
  9
$PINSBASE
 10
0.0
 20
0.0
 30
0.0
  9
$PLIMCHECK
 70
     0
  9
$PEXTMIN
 10
25.69999999999999
 20
19.5
 30
0.0
  9
$PEXTMAX
 10
231.3
 20
175.5
 30
0.0
  9
$PLIMMIN
 10
-20.0
 20
-7.5
  9
$PLIMMAX
 10
277.0
 20
202.5
  9
$UNITMODE
 70
     0
  9
$VISRETAIN
 70
     1
  9
$PLINEGEN
 70
     0
  9
$PSLTSCALE
 70
     1
  9
$TREEDEPTH
 70
  3020
  9
$CMLSTYLE
  2
Standard
  9
$CMLJUST
 70
     0
  9
$CMLSCALE
 40
20.0
  9
$PROXYGRAPHICS
 70
     1
  9
$MEASUREMENT
 70
     1
  9
$CELWEIGHT
370
    -1
  9
$ENDCAPS
280
     0
  9
$JOINSTYLE
280
     0
  9
$LWDISPLAY
290
     0
  9
$INSUNITS
 70
     4
  9
$HYPERLINKBASE
  1

  9
$STYLESHEET
  1

  9
$XEDIT
290
     1
  9
$CEPSNTYPE
380
     0
  9
$PSTYLEMODE
290
     1
  9
$FINGERPRINTGUID
  2
{9E78CFBD-443D-4113-867F-DC609A13AF75}
  9
$VERSIONGUID
  2
{A447F7CF-75AC-42FF-BDC7-6FC6A800CD8C}
  9
$EXTNAMES
290
     1
  9
$PSVPSCALE
 40
0.0
  9
$OLESTARTUP
290
     0
  9
$SORTENTS
280
   127
  9
$INDEXCTL
280
     0
  9
$HIDETEXT
280
     1
  9
$XCLIPFRAME
290
     0
  9
$HALOGAP
280
     0
  9
$OBSCOLOR
 70
   257
  9
$OBSLTYPE
280
     0
  9
$INTERSECTIONDISPLAY
280
     0
  9
$INTERSECTIONCOLOR
 70
   257
  9
$DIMASSOC
280
     2
  9
$PROJECTNAME
  1

  9
$CAMERADISPLAY
290
     0
  9
$LENSLENGTH
 40
50.0
  9
$CAMERAHEIGHT
 40
0.0
  9
$STEPSPERSEC
 40
2.0
  9
$STEPSIZE
 40
6.0
  9
$3DDWFPREC
 40
2.0
  9
$PSOLWIDTH
 40
5.0
  9
$PSOLHEIGHT
 40
80.0
  9
$LOFTANG1
 40
1.570796326794896
  9
$LOFTANG2
 40
1.570796326794896
  9
$LOFTMAG1
 40
0.0
  9
$LOFTMAG2
 40
0.0
  9
$LOFTPARAM
 70
     7
  9
$LOFTNORMALS
280
     1
  9
$LATITUDE
 40
37.795
  9
$LONGITUDE
 40
-122.394
  9
$NORTHDIRECTION
 40
0.0
  9
$TIMEZONE
 70
 -8000
  9
$LIGHTGLYPHDISPLAY
280
     1
  9
$TILEMODELIGHTSYNCH
280
     1
  9
$CMATERIAL
347
ED
  9
$SOLIDHIST
280
     1
  9
$SHOWHIST
280
     1
  9
$DWFFRAME
280
     2
  9
$DGNFRAME
280
     0
  9
$REALWORLDSCALE
290
     1
  9
$INTERFERECOLOR
 62
     1
  9
$INTERFEREOBJVS
345
FA
  9
$INTERFEREVPVS
346
F7
  9
$CSHADOW
280
     0
  9
$SHADOWPLANELOCATION
 40
0.0
  0
ENDSEC
  0
SECTION
  2
CLASSES
  0
CLASS
  1
ACDBDICTIONARYWDFLT
  2
AcDbDictionaryWithDefault
  3
ObjectDBX Classes
 90
        0
 91
        1
280
     0
281
     0
  0
CLASS
  1
DICTIONARYVAR
  2
AcDbDictionaryVar
  3
ObjectDBX Classes
 90
        0
 91
        3
280
     0
281
     0
  0
CLASS
  1
TABLESTYLE
  2
AcDbTableStyle
  3
ObjectDBX Classes
 90
     4095
 91
        1
280
     0
281
     0
  0
CLASS
  1
MATERIAL
  2
AcDbMaterial
  3
ObjectDBX Classes
 90
     1024
 91
        3
280
     0
281
     0
  0
CLASS
  1
VISUALSTYLE
  2
AcDbVisualStyle
  3
ObjectDBX Classes
 90
     4095
 91
       16
280
     0
281
     0
  0
CLASS
  1
SORTENTSTABLE
  2
AcDbSortentsTable
  3
ObjectDBX Classes
 90
        0
 91
        1
280
     0
281
     0
  0
CLASS
  1
DIMASSOC
  2
AcDbDimAssoc
  3
"AcDbDimAssoc|Product Desc:     AcDim ARX App For Dimension|Company:          Autodesk, Inc.|WEB Address:      www.autodesk.com"
 90
        0
 91
       58
280
     0
281
     0
  0
ENDSEC
  0
SECTION
  2
TABLES
  0
TABLE
  2
VPORT
  5
8
330
0
100
AcDbSymbolTable
 70
     1
  0
VPORT
  5
EB
330
8
100
AcDbSymbolTableRecord
100
AcDbViewportTableRecord
  2
*Active
 70
     0
 10
0.0
 20
0.0
 11
1.0
 21
1.0
 12
5843.414460321094
 22
5215.101943009415
 13
0.0
 23
0.0
 14
10.0
 24
10.0
 15
10.0
 25
10.0
 16
0.0
 26
0.0
 36
1.0
 17
0.0
 27
0.0
 37
0.0
 40
532.1614438056731
 41
2.427756653992395
 42
50.0
 43
0.0
 44
0.0
 50
0.0
 51
0.0
 71
     0
 72
  1000
 73
     1
 74
     3
 75
     0
 76
     0
 77
     0
 78
     0
281
     0
 65
     1
110
0.0
120
0.0
130
0.0
111
1.0
121
0.0
131
0.0
112
0.0
122
1.0
132
0.0
 79
     0
146
0.0
348
F6
 60
     2
 61
     5
292
     1
282
     1
141
0.0
142
0.0
 63
   250
421
  3355443
  0
ENDTAB
  0
TABLE
  2
LTYPE
  5
5
330
0
100
AcDbSymbolTable
 70
     3
  0
LTYPE
  5
14
330
5
100
AcDbSymbolTableRecord
100
AcDbLinetypeTableRecord
  2
ByBlock
 70
     0
  3

 72
    65
 73
     0
 40
0.0
  0
LTYPE
  5
15
330
5
100
AcDbSymbolTableRecord
100
AcDbLinetypeTableRecord
  2
ByLayer
 70
     0
  3

 72
    65
 73
     0
 40
0.0
  0
LTYPE
  5
16
330
5
100
AcDbSymbolTableRecord
100
AcDbLinetypeTableRecord
  2
Continuous
 70
     0
  3
Solid line
 72
    65
 73
     0
 40
0.0
  0
LTYPE
  5
3F5
330
5
100
AcDbSymbolTableRecord
100
AcDbLinetypeTableRecord
  2
DASHED
 70
     0
  3
Dashed __ __ __ __ __ __ __ __ __ __ __ __ __ _
 72
    65
 73
     2
 40
19.05
 49
12.7
 74
     0
 49
-6.349999999999999
 74
     0
  0
LTYPE
  5
12E06
330
5
100
AcDbSymbolTableRecord
100
AcDbLinetypeTableRecord
  2
CENTER
 70
     0
  3
Center ____ _ ____ _ ____ _ ____ _ ____ _ ____
 72
    65
 73
     4
 40
50.8
 49
31.75
 74
     0
 49
-6.349999999999999
 74
     0
 49
6.349999999999999
 74
     0
 49
-6.349999999999999
 74
     0
  0
ENDTAB
  0
TABLE
  2
LAYER
  5
2
102
{ACAD_XDICTIONARY
360
245
102
}
330
0
100
AcDbSymbolTable
 70
     2
  0
LAYER
  5
10
330
2
100
AcDbSymbolTableRecord
100
AcDbLayerTableRecord
  2
0
 70
     0
 62
     7
  6
Continuous
370
    -3
390
F
347
EF
  0
LAYER
  5
243
330
2
100
AcDbSymbolTableRecord
100
AcDbLayerTableRecord
  2
Defpoints
 70
     0
 62
     7
  6
Continuous
290
     0
370
    -3
390
F
347
EF
  0
ENDTAB
  0
TABLE
  2
STYLE
  5
3
330
0
100
AcDbSymbolTable
 70
     2
  0
STYLE
  5
11
330
3
100
AcDbSymbolTableRecord
100
AcDbTextStyleTableRecord
  2
Standard
 70
     0
 40
0.0
 41
1.0
 50
0.0
 71
     0
 42
2.5
  3
txt
  4
gbcbig.shx
  0
STYLE
  5
3F4
330
3
100
AcDbSymbolTableRecord
100
AcDbTextStyleTableRecord
  2

 70
     1
 40
0.0
 41
1.0
 50
0.0
 71
     0
 42
2.5
  3
ltypeshp.shx
  4

  0
ENDTAB
  0
TABLE
  2
VIEW
  5
6
330
0
100
AcDbSymbolTable
 70
     0
  0
ENDTAB
  0
TABLE
  2
UCS
  5
7
330
0
100
AcDbSymbolTable
 70
     0
  0
ENDTAB
  0
TABLE
  2
APPID
  5
9
330
0
100
AcDbSymbolTable
 70
     4
  0
APPID
  5
12
330
9
100
AcDbSymbolTableRecord
100
AcDbRegAppTableRecord
  2
ACAD
 70
     0
  0
APPID
  5
9E
330
9
100
AcDbSymbolTableRecord
100
AcDbRegAppTableRecord
  2
ACAD_PSEXT
 70
     0
  0
APPID
  5
169
330
9
100
AcDbSymbolTableRecord
100
AcDbRegAppTableRecord
  2
ACAD_EXEMPT_FROM_CAD_STANDARDS
 70
     0
  0
APPID
  5
75D5
330
9
100
AcDbSymbolTableRecord
100
AcDbRegAppTableRecord
  2
DCO15
 70
     0
  0
ENDTAB
  0
TABLE
  2
DIMSTYLE
  5
A
330
0
100
AcDbSymbolTable
 70
     2
100
AcDbDimStyleTable
 71
     2
340
27
340
244
  0
DIMSTYLE
105
27
102
{ACAD_REACTORS
330
1609C
330
160B6
102
}
330
A
100
AcDbSymbolTableRecord
100
AcDbDimStyleTableRecord
  2
ISO-25
 70
     0
  3
mm
  4
"
 41
8.0
 42
3.0
 43
3.0
 44
3.0
 73
     0
 74
     0
 78
     8
140
15.0
141
2.5
143
0.03937007874016
147
3.0
170
     1
172
     1
176
     1
177
     1
178
     1
271
     1
272
     1
283
     0
284
     8
340
11
371
    15
372
    15
  0
DIMSTYLE
105
244
330
A
100
AcDbSymbolTableRecord
100
AcDbDimStyleTableRecord
  2
Standard
 70
     0
 43
1.0
 44
1.0
 77
     2
140
1.0
147
1.0
340
11
  0
ENDTAB
  0
TABLE
  2
BLOCK_RECORD
  5
1
330
0
100
AcDbSymbolTable
 70
    98
  0
BLOCK_RECORD
  5
1F
102
{ACAD_XDICTIONARY
360
126
102
}
330
1
100
AcDbSymbolTableRecord
100
AcDbBlockTableRecord
  2
*Model_Space
340
22
 70
     0
280
     1
281
     0
  0
BLOCK_RECORD
  5
D2
330
1
100
AcDbSymbolTableRecord
100
AcDbBlockTableRecord
  2
*Paper_Space
340
D3
 70
     0
280
     1
281
     0
  0
BLOCK_RECORD
  5
D6
330
1
100
AcDbSymbolTableRecord
100
AcDbBlockTableRecord
  2
*Paper_Space0
340
D7
 70
     0
280
     1
281
     0
  0
BLOCK_RECORD
  5
151AF
330
1
100
AcDbSymbolTableRecord
100
AcDbBlockTableRecord
  2
*D1
340
0
 70
     0
280
     1
281
     0
  0
BLOCK_RECORD
  5
151C9
330
1
100
AcDbSymbolTableRecord
100
AcDbBlockTableRecord
  2
*D2
340
0
 70
     0
280
     1
281
     0
  0
BLOCK_RECORD
  5
151E3
330
1
100
AcDbSymbolTableRecord
100
AcDbBlockTableRecord
  2
*D3
340
0
 70
     0
280
     1
281
     0
  0
BLOCK_RECORD
  5
151FD
330
1
100
AcDbSymbolTableRecord
100
AcDbBlockTableRecord
  2
*D4
340
0
 70
     0
280
     1
281
     0
  0
BLOCK_RECORD
  5
15217
330
1
100
AcDbSymbolTableRecord
100
AcDbBlockTableRecord
  2
*D5
340
0
 70
     0
280
     1
281
     0
  0
BLOCK_RECORD
  5
15231
330
1
100
AcDbSymbolTableRecord
100
AcDbBlockTableRecord
  2
*D6
340
0
 70
     0
280
     1
281
     0
  0
BLOCK_RECORD
  5
1525B
330
1
100
AcDbSymbolTableRecord
100
AcDbBlockTableRecord
  2
*D7
340
0
 70
     0
280
     1
281
     0
  0
BLOCK_RECORD
  5
15272
330
1
100
AcDbSymbolTableRecord
100
AcDbBlockTableRecord
  2
*D8
340
0
 70
     0
280
     1
281
     0
  0
BLOCK_RECORD
  5
15281
330
1
100
AcDbSymbolTableRecord
100
AcDbBlockTableRecord
  2
*D9
340
0
 70
     0
280
     1
281
     0
  0
BLOCK_RECORD
  5
152D6
330
1
100
AcDbSymbolTableRecord
100
AcDbBlockTableRecord
  2
*D10
340
0
 70
     0
280
     1
281
     0
  0
BLOCK_RECORD
  5
152F0
330
1
100
AcDbSymbolTableRecord
100
AcDbBlockTableRecord
  2
*D11
340
0
 70
     0
280
     1
281
     0
  0
BLOCK_RECORD
  5
1530A
330
1
100
AcDbSymbolTableRecord
100
AcDbBlockTableRecord
  2
*D12
340
0
 70
     0
280
     1
281
     0
  0
BLOCK_RECORD
  5
15324
330
1
100
AcDbSymbolTableRecord
100
AcDbBlockTableRecord
  2
*D13
340
0
 70
     0
280
     1
281
     0
  0
BLOCK_RECORD
  5
1533E
330
1
100
AcDbSymbolTableRecord
100
AcDbBlockTableRecord
  2
*D14
340
0
 70
     0
280
     1
281
     0
  0
BLOCK_RECORD
  5
15358
330
1
100
AcDbSymbolTableRecord
100
AcDbBlockTableRecord
  2
*D15
340
0
 70
     0
280
     1
281
     0
  0
BLOCK_RECORD
  5
15372
330
1
100
AcDbSymbolTableRecord
100
AcDbBlockTableRecord
  2
*D16
340
0
 70
     0
280
     1
281
     0
  0
BLOCK_RECORD
  5
15380
330
1
100
AcDbSymbolTableRecord
100
AcDbBlockTableRecord
  2
*D17
340
0
 70
     0
280
     1
281
     0
  0
BLOCK_RECORD
  5
15390
330
1
100
AcDbSymbolTableRecord
100
AcDbBlockTableRecord
  2
*D18
340
0
 70
     0
280
     1
281
     0
  0
BLOCK_RECORD
  5
153CD
330
1
100
AcDbSymbolTableRecord
100
AcDbBlockTableRecord
  2
*D19
340
0
 70
     0
280
     1
281
     0
  0
BLOCK_RECORD
  5
153DB
330
1
100
AcDbSymbolTableRecord
100
AcDbBlockTableRecord
  2
*D20
340
0
 70
     0
280
     1
281
     0
  0
BLOCK_RECORD
  5
153F5
330
1
100
AcDbSymbolTableRecord
100
AcDbBlockTableRecord
  2
*D21
340
0
 70
     0
280
     1
281
     0
  0
BLOCK_RECORD
  5
1540D
330
1
100
AcDbSymbolTableRecord
100
AcDbBlockTableRecord
  2
*D22
340
0
 70
     0
280
     1
281
     0
  0
BLOCK_RECORD
  5
15427
330
1
100
AcDbSymbolTableRecord
100
AcDbBlockTableRecord
  2
*D23
340
0
 70
     0
280
     1
281
     0
  0
BLOCK_RECORD
  5
15441
330
1
100
AcDbSymbolTableRecord
100
AcDbBlockTableRecord
  2
*D24
340
0
 70
     0
280
     1
281
     0
  0
BLOCK_RECORD
  5
1545B
330
1
100
AcDbSymbolTableRecord
100
AcDbBlockTableRecord
  2
*D25
340
0
 70
     0
280
     1
281
     0
  0
BLOCK_RECORD
  5
15475
330
1
100
AcDbSymbolTableRecord
100
AcDbBlockTableRecord
  2
*D26
340
0
 70
     0
280
     1
281
     0
  0
BLOCK_RECORD
  5
1548F
330
1
100
AcDbSymbolTableRecord
100
AcDbBlockTableRecord
  2
*D27
340
0
 70
     0
280
     1
281
     0
  0
BLOCK_RECORD
  5
15867
330
1
100
AcDbSymbolTableRecord
100
AcDbBlockTableRecord
  2
*D28
340
0
 70
     0
280
     1
281
     0
  0
BLOCK_RECORD
  5
1592D
330
1
100
AcDbSymbolTableRecord
100
AcDbBlockTableRecord
  2
*D29
340
0
 70
     0
280
     1
281
     0
  0
BLOCK_RECORD
  5
1594A
330
1
100
AcDbSymbolTableRecord
100
AcDbBlockTableRecord
  2
*D30
340
0
 70
     0
280
     1
281
     0
  0
BLOCK_RECORD
  5
159AE
330
1
100
AcDbSymbolTableRecord
100
AcDbBlockTableRecord
  2
*D31
340
0
 70
     0
280
     1
281
     0
  0
BLOCK_RECORD
  5
159F1
330
1
100
AcDbSymbolTableRecord
100
AcDbBlockTableRecord
  2
*D32
340
0
 70
     0
280
     1
281
     0
  0
BLOCK_RECORD
  5
15A0B
330
1
100
AcDbSymbolTableRecord
100
AcDbBlockTableRecord
  2
*D33
340
0
 70
     0
280
     1
281
     0
  0
BLOCK_RECORD
  5
15B23
330
1
100
AcDbSymbolTableRecord
100
AcDbBlockTableRecord
  2
*D34
340
0
 70
     0
280
     1
281
     0
  0
BLOCK_RECORD
  5
15B3D
330
1
100
AcDbSymbolTableRecord
100
AcDbBlockTableRecord
  2
*D35
340
0
 70
     0
280
     1
281
     0
  0
BLOCK_RECORD
  5
15B57
330
1
100
AcDbSymbolTableRecord
100
AcDbBlockTableRecord
  2
*D36
340
0
 70
     0
280
     1
281
     0
  0
BLOCK_RECORD
  5
15B71
330
1
100
AcDbSymbolTableRecord
100
AcDbBlockTableRecord
  2
*D37
340
0
 70
     0
280
     1
281
     0
  0
BLOCK_RECORD
  5
15B8B
330
1
100
AcDbSymbolTableRecord
100
AcDbBlockTableRecord
  2
*D38
340
0
 70
     0
280
     1
281
     0
  0
BLOCK_RECORD
  5
15BA5
330
1
100
AcDbSymbolTableRecord
100
AcDbBlockTableRecord
  2
*D39
340
0
 70
     0
280
     1
281
     0
  0
BLOCK_RECORD
  5
15BBF
330
1
100
AcDbSymbolTableRecord
100
AcDbBlockTableRecord
  2
*D40
340
0
 70
     0
280
     1
281
     0
  0
BLOCK_RECORD
  5
15BD9
330
1
100
AcDbSymbolTableRecord
100
AcDbBlockTableRecord
  2
*D41
340
0
 70
     0
280
     1
281
     0
  0
BLOCK_RECORD
  5
15BF3
330
1
100
AcDbSymbolTableRecord
100
AcDbBlockTableRecord
  2
*D42
340
0
 70
     0
280
     1
281
     0
  0
BLOCK_RECORD
  5
15E3A
330
1
100
AcDbSymbolTableRecord
100
AcDbBlockTableRecord
  2
*D43
340
0
 70
     0
280
     1
281
     0
  0
BLOCK_RECORD
  5
15E56
330
1
100
AcDbSymbolTableRecord
100
AcDbBlockTableRecord
  2
*D44
340
0
 70
     0
280
     1
281
     0
  0
BLOCK_RECORD
  5
15E70
330
1
100
AcDbSymbolTableRecord
100
AcDbBlockTableRecord
  2
*D45
340
0
 70
     0
280
     1
281
     0
  0
BLOCK_RECORD
  5
15E8A
330
1
100
AcDbSymbolTableRecord
100
AcDbBlockTableRecord
  2
*D46
340
0
 70
     0
280
     1
281
     0
  0
BLOCK_RECORD
  5
15EA4
330
1
100
AcDbSymbolTableRecord
100
AcDbBlockTableRecord
  2
*D47
340
0
 70
     0
280
     1
281
     0
  0
BLOCK_RECORD
  5
15EBE
330
1
100
AcDbSymbolTableRecord
100
AcDbBlockTableRecord
  2
*D48
340
0
 70
     0
280
     1
281
     0
  0
BLOCK_RECORD
  5
15ED8
330
1
100
AcDbSymbolTableRecord
100
AcDbBlockTableRecord
  2
*D49
340
0
 70
     0
280
     1
281
     0
  0
BLOCK_RECORD
  5
1609D
330
1
100
AcDbSymbolTableRecord
100
AcDbBlockTableRecord
  2
*D50
340
0
 70
     0
280
     1
281
     0
  0
BLOCK_RECORD
  5
160B7
330
1
100
AcDbSymbolTableRecord
100
AcDbBlockTableRecord
  2
*D51
340
0
 70
     0
280
     1
281
     0
  0
BLOCK_RECORD
  5
160D1
330
1
100
AcDbSymbolTableRecord
100
AcDbBlockTableRecord
  2
*D52
340
0
 70
     0
280
     1
281
     0
  0
BLOCK_RECORD
  5
160EB
330
1
100
AcDbSymbolTableRecord
100
AcDbBlockTableRecord
  2
*D53
340
0
 70
     0
280
     1
281
     0
  0
BLOCK_RECORD
  5
16105
330
1
100
AcDbSymbolTableRecord
100
AcDbBlockTableRecord
  2
*D54
340
0
 70
     0
280
     1
281
     0
  0
BLOCK_RECORD
  5
1611F
330
1
100
AcDbSymbolTableRecord
100
AcDbBlockTableRecord
  2
*D55
340
0
 70
     0
280
     1
281
     0
  0
BLOCK_RECORD
  5
167BA
330
1
100
AcDbSymbolTableRecord
100
AcDbBlockTableRecord
  2
*D77
340
0
 70
     0
280
     1
281
     0
  0
BLOCK_RECORD
  5
167D4
330
1
100
AcDbSymbolTableRecord
100
AcDbBlockTableRecord
  2
*D78
340
0
 70
     0
280
     1
281
     0
  0
BLOCK_RECORD
  5
167EE
330
1
100
AcDbSymbolTableRecord
100
AcDbBlockTableRecord
  2
*D79
340
0
 70
     0
280
     1
281
     0
  0
BLOCK_RECORD
  5
16808
330
1
100
AcDbSymbolTableRecord
100
AcDbBlockTableRecord
  2
*D80
340
0
 70
     0
280
     1
281
     0
  0
BLOCK_RECORD
  5
16822
330
1
100
AcDbSymbolTableRecord
100
AcDbBlockTableRecord
  2
*D81
340
0
 70
     0
280
     1
281
     0
  0
BLOCK_RECORD
  5
1683C
330
1
100
AcDbSymbolTableRecord
100
AcDbBlockTableRecord
  2
*D82
340
0
 70
     0
280
     1
281
     0
  0
BLOCK_RECORD
  5
16856
330
1
100
AcDbSymbolTableRecord
100
AcDbBlockTableRecord
  2
*D83
340
0
 70
     0
280
     1
281
     0
  0
BLOCK_RECORD
  5
168C4
330
1
100
AcDbSymbolTableRecord
100
AcDbBlockTableRecord
  2
*D84
340
0
 70
     0
280
     1
281
     0
  0
BLOCK_RECORD
  5
168DE
330
1
100
AcDbSymbolTableRecord
100
AcDbBlockTableRecord
  2
*D85
340
0
 70
     0
280
     1
281
     0
  0
BLOCK_RECORD
  5
168F8
330
1
100
AcDbSymbolTableRecord
100
AcDbBlockTableRecord
  2
*D86
340
0
 70
     0
280
     1
281
     0
  0
BLOCK_RECORD
  5
16912
330
1
100
AcDbSymbolTableRecord
100
AcDbBlockTableRecord
  2
*D87
340
0
 70
     0
280
     1
281
     0
  0
BLOCK_RECORD
  5
1692C
330
1
100
AcDbSymbolTableRecord
100
AcDbBlockTableRecord
  2
*D88
340
0
 70
     0
280
     1
281
     0
  0
BLOCK_RECORD
  5
16946
330
1
100
AcDbSymbolTableRecord
100
AcDbBlockTableRecord
  2
*D89
340
0
 70
     0
280
     1
281
     0
  0
BLOCK_RECORD
  5
16960
330
1
100
AcDbSymbolTableRecord
100
AcDbBlockTableRecord
  2
*D90
340
0
 70
     0
280
     1
281
     0
  0
BLOCK_RECORD
  5
1697A
330
1
100
AcDbSymbolTableRecord
100
AcDbBlockTableRecord
  2
*D91
340
0
 70
     0
280
     1
281
     0
  0
BLOCK_RECORD
  5
16994
330
1
100
AcDbSymbolTableRecord
100
AcDbBlockTableRecord
  2
*D92
340
0
 70
     0
280
     1
281
     0
  0
BLOCK_RECORD
  5
169AE
330
1
100
AcDbSymbolTableRecord
100
AcDbBlockTableRecord
  2
*D93
340
0
 70
     0
280
     1
281
     0
  0
BLOCK_RECORD
  5
169C8
330
1
100
AcDbSymbolTableRecord
100
AcDbBlockTableRecord
  2
*D94
340
0
 70
     0
280
     1
281
     0
  0
BLOCK_RECORD
  5
169E2
330
1
100
AcDbSymbolTableRecord
100
AcDbBlockTableRecord
  2
*D95
340
0
 70
     0
280
     1
281
     0
  0
BLOCK_RECORD
  5
169FC
330
1
100
AcDbSymbolTableRecord
100
AcDbBlockTableRecord
  2
*D96
340
0
 70
     0
280
     1
281
     0
  0
BLOCK_RECORD
  5
16A16
330
1
100
AcDbSymbolTableRecord
100
AcDbBlockTableRecord
  2
*D97
340
0
 70
     0
280
     1
281
     0
  0
ENDTAB
  0
ENDSEC
  0
SECTION
  2
BLOCKS
  0
BLOCK
  5
20
330
1F
100
AcDbEntity
  8
0
100
AcDbBlockBegin
  2
*Model_Space
 70
     0
 10
0.0
 20
0.0
 30
0.0
  3
*Model_Space
  1

  0
ENDBLK
  5
21
330
1F
100
AcDbEntity
  8
0
100
AcDbBlockEnd
  0
BLOCK
  5
D4
330
D2
100
AcDbEntity
 67
     1
  8
0
100
AcDbBlockBegin
  2
*Paper_Space
 70
     0
 10
0.0
 20
0.0
 30
0.0
  3
*Paper_Space
  1

  0
ENDBLK
  5
D5
330
D2
100
AcDbEntity
 67
     1
  8
0
100
AcDbBlockEnd
  0
BLOCK
  5
D8
330
D6
100
AcDbEntity
 67
     1
  8
0
100
AcDbBlockBegin
  2
*Paper_Space0
 70
     0
 10
0.0
 20
0.0
 30
0.0
  3
*Paper_Space0
  1

  0
VIEWPORT
  5
15F85
330
D6
100
AcDbEntity
 67
     1
  8
0
100
AcDbViewport
 10
88.55671267422009
 20
92.31929171746052
 30
0.0
 40
40.94726214256252
 41
16.86629591776655
 68
     0
 69
     0
 12
88.55671267422009
 22
92.31929171746052
 13
0.0
 23
0.0
 14
10.0
 24
10.0
 15
10.0
 25
10.0
 16
0.0
 26
0.0
 36
1.0
 17
0.0
 27
0.0
 37
0.0
 42
50.0
 43
0.0
 44
0.0
 45
16.86629591776655
 50
0.0
 51
0.0
 72
  1000
 90
   819232
  1

281
     0
 71
     1
 74
     0
110
0.0
120
0.0
130
0.0
111
1.0
121
0.0
131
0.0
112
0.0
122
1.0
132
0.0
 79
     0
146
0.0
170
     0
 61
     5
348
F6
292
     1
282
     1
141
0.0
142
0.0
 63
   250
421
  3355443
  0
VIEWPORT
  5
15F87
330
D6
100
AcDbEntity
 67
     1
  8
0
100
AcDbViewport
 10
128.5
 20
97.5
 30
0.0
 40
205.6
 41
156.0
 68
     0
 69
     0
 12
7173.010528045536
 22
211.6450793558088
 13
0.0
 23
0.0
 14
10.0
 24
10.0
 15
10.0
 25
10.0
 16
0.0
 26
0.0
 36
1.0
 17
0.0
 27
0.0
 37
0.0
 42
50.0
 43
0.0
 44
0.0
 45
4749.880965155059
 50
0.0
 51
0.0
 72
  1000
 90
   557152
  1

281
     0
 71
     1
 74
     0
110
0.0
120
0.0
130
0.0
111
1.0
121
0.0
131
0.0
112
0.0
122
1.0
132
0.0
 79
     0
146
0.0
170
     0
 61
     5
348
F6
292
     1
282
     1
141
0.0
142
0.0
 63
   250
421
  3355443
  0
ENDBLK
  5
D9
330
D6
100
AcDbEntity
 67
     1
  8
0
100
AcDbBlockEnd
  0
BLOCK
  5
151BA
330
151AF
100
AcDbEntity
  8
0
100
AcDbBlockBegin
  2
*D1
 70
     1
 10
0.0
 20
0.0
 30
0.0
  3
*D1
  1

  0
LINE
  5
1591A
330
151AF
100
AcDbEntity
  8
0
 62
     1
370
    15
100
AcDbLine
 10
5459.042369606546
 20
2408.47516087297
 30
0.0
 11
5459.042369606546
 21
2493.87516087297
 31
0.0
  0
LINE
  5
1591B
330
151AF
100
AcDbEntity
  8
0
 62
     1
370
    15
100
AcDbLine
 10
6170.242369606548
 20
2408.47516087297
 30
0.0
 11
6170.242369606548
 21
2493.87516087297
 31
0.0
  0
LINE
  5
1591C
330
151AF
100
AcDbEntity
  8
0
 62
     1
370
    15
100
AcDbLine
 10
5467.042369606546
 20
2490.87516087297
 30
0.0
 11
5719.142369606547
 21
2490.87516087297
 31
0.0
  0
LINE
  5
1591D
330
151AF
100
AcDbEntity
  8
0
 62
     1
370
    15
100
AcDbLine
 10
6162.242369606548
 20
2490.87516087297
 30
0.0
 11
5910.142369606546
 21
2490.87516087297
 31
0.0
  0
SOLID
  5
1591E
330
151AF
100
AcDbEntity
  8
0
 62
     1
100
AcDbTrace
 10
5467.042369606546
 20
2492.208494206304
 30
0.0
 11
5467.042369606546
 21
2489.541827539637
 31
0.0
 12
5459.042369606546
 22
2490.87516087297
 32
0.0
 13
5459.042369606546
 23
2490.87516087297
 33
0.0
  0
SOLID
  5
1591F
330
151AF
100
AcDbEntity
  8
0
 62
     1
100
AcDbTrace
 10
6162.242369606548
 20
2492.208494206304
 30
0.0
 11
6162.242369606548
 21
2489.541827539637
 31
0.0
 12
6170.242369606548
 22
2490.87516087297
 32
0.0
 13
6170.242369606548
 23
2490.87516087297
 33
0.0
  0
MTEXT
  5
15920
330
151AF
100
AcDbEntity
  8
0
 62
     1
100
AcDbMText
 10
5814.642369606547
 20
2490.87516087297
 30
0.0
 40
15.0
 41
0.0
 46
0.0
 71
     5
 72
     1
  1
711.2mm [28.00"]
 73
     1
 44
1.0
  0
POINT
  5
15921
330
151AF
100
AcDbEntity
  8
Defpoints
 62
     0
100
AcDbPoint
 10
5459.042369606546
 20
2405.47516087297
 30
0.0
  0
POINT
  5
15922
330
151AF
100
AcDbEntity
  8
Defpoints
 62
     0
100
AcDbPoint
 10
6170.242369606548
 20
2405.47516087297
 30
0.0
  0
POINT
  5
15923
330
151AF
100
AcDbEntity
  8
Defpoints
 62
     0
100
AcDbPoint
 10
6170.242369606548
 20
2490.87516087297
 30
0.0
  0
ENDBLK
  5
151BB
330
151AF
100
AcDbEntity
  8
0
100
AcDbBlockEnd
  0
BLOCK
  5
151D4
330
151C9
100
AcDbEntity
  8
0
100
AcDbBlockBegin
  2
*D2
 70
     1
 10
0.0
 20
0.0
 30
0.0
  3
*D2
  1

  0
LINE
  5
151D7
330
151C9
100
AcDbEntity
  8
0
 62
     1
370
    15
100
AcDbLine
 10
5433.642369606548
 20
2443.87516087297
 30
0.0
 11
5433.642369606548
 21
2543.87516087297
 31
0.0
  0
LINE
  5
151D8
330
151C9
100
AcDbEntity
  8
0
 62
     1
370
    15
100
AcDbLine
 10
6195.642369606547
 20
2443.87516087297
 30
0.0
 11
6195.642369606547
 21
2543.87516087297
 31
0.0
  0
LINE
  5
151D9
330
151C9
100
AcDbEntity
  8
0
 62
     1
370
    15
100
AcDbLine
 10
5441.642369606547
 20
2540.87516087297
 30
0.0
 11
5725.392369606547
 21
2540.87516087297
 31
0.0
  0
LINE
  5
151DA
330
151C9
100
AcDbEntity
  8
0
 62
     1
370
    15
100
AcDbLine
 10
6187.642369606546
 20
2540.87516087297
 30
0.0
 11
5903.892369606547
 21
2540.87516087297
 31
0.0
  0
SOLID
  5
151DB
330
151C9
100
AcDbEntity
  8
0
 62
     1
100
AcDbTrace
 10
5441.642369606547
 20
2542.208494206303
 30
0.0
 11
5441.642369606547
 21
2539.541827539637
 31
0.0
 12
5433.642369606548
 22
2540.87516087297
 32
0.0
 13
5433.642369606548
 23
2540.87516087297
 33
0.0
  0
SOLID
  5
151DC
330
151C9
100
AcDbEntity
  8
0
 62
     1
100
AcDbTrace
 10
6187.642369606546
 20
2542.208494206303
 30
0.0
 11
6187.642369606546
 21
2539.541827539637
 31
0.0
 12
6195.642369606547
 22
2540.87516087297
 32
0.0
 13
6195.642369606547
 23
2540.87516087297
 33
0.0
  0
MTEXT
  5
151DD
330
151C9
100
AcDbEntity
  8
0
 62
     1
100
AcDbMText
 10
5814.642369606547
 20
2540.87516087297
 30
0.0
 40
15.0
 41
0.0
 46
0.0
 71
     5
 72
     1
  1
762mm [30.00"]
 73
     1
 44
1.0
  0
POINT
  5
151DE
330
151C9
100
AcDbEntity
  8
Defpoints
 62
     0
100
AcDbPoint
 10
5433.642369606548
 20
2440.87516087297
 30
0.0
  0
POINT
  5
151DF
330
151C9
100
AcDbEntity
  8
Defpoints
 62
     0
100
AcDbPoint
 10
6195.642369606547
 20
2440.87516087297
 30
0.0
  0
POINT
  5
151E0
330
151C9
100
AcDbEntity
  8
Defpoints
 62
     0
100
AcDbPoint
 10
6195.642369606547
 20
2540.87516087297
 30
0.0
  0
ENDBLK
  5
151D5
330
151C9
100
AcDbEntity
  8
0
100
AcDbBlockEnd
  0
BLOCK
  5
151EE
330
151E3
100
AcDbEntity
  8
0
100
AcDbBlockBegin
  2
*D3
 70
     1
 10
0.0
 20
0.0
 30
0.0
  3
*D3
  1

  0
LINE
  5
151F1
330
151E3
100
AcDbEntity
  8
0
 62
     1
370
    15
100
AcDbLine
 10
6198.642369606546
 20
2440.87516087297
 30
0.0
 11
6348.642369606547
 21
2440.87516087297
 31
0.0
  0
LINE
  5
151F2
330
151E3
100
AcDbEntity
  8
0
 62
     1
370
    15
100
AcDbLine
 10
5817.642369606547
 20
1882.07516087297
 30
0.0
 11
6348.642369606547
 21
1882.07516087297
 31
0.0
  0
LINE
  5
151F3
330
151E3
100
AcDbEntity
  8
0
 62
     1
370
    15
100
AcDbLine
 10
6345.642369606547
 20
2432.87516087297
 30
0.0
 11
6345.642369606547
 21
2261.97516087297
 31
0.0
  0
LINE
  5
151F4
330
151E3
100
AcDbEntity
  8
0
 62
     1
370
    15
100
AcDbLine
 10
6345.642369606547
 20
1890.07516087297
 30
0.0
 11
6345.642369606547
 21
2060.97516087297
 31
0.0
  0
SOLID
  5
151F5
330
151E3
100
AcDbEntity
  8
0
 62
     1
100
AcDbTrace
 10
6344.309036273215
 20
2432.87516087297
 30
0.0
 11
6346.975702939881
 21
2432.87516087297
 31
0.0
 12
6345.642369606547
 22
2440.87516087297
 32
0.0
 13
6345.642369606547
 23
2440.87516087297
 33
0.0
  0
SOLID
  5
151F6
330
151E3
100
AcDbEntity
  8
0
 62
     1
100
AcDbTrace
 10
6344.309036273213
 20
1890.07516087297
 30
0.0
 11
6346.97570293988
 21
1890.07516087297
 31
0.0
 12
6345.642369606547
 22
1882.07516087297
 32
0.0
 13
6345.642369606547
 23
1882.07516087297
 33
0.0
  0
MTEXT
  5
151F7
330
151E3
100
AcDbEntity
  8
0
 62
     1
100
AcDbMText
 10
6345.642369606547
 20
2161.475160872971
 30
0.0
 40
15.0
 41
0.0
 46
0.0
 71
     5
 72
     1
  1
558.8mm [22.00"]
 11
0.0000000000000001
 21
1.0
 31
0.0
 73
     1
 44
1.0
  0
POINT
  5
151F8
330
151E3
100
AcDbEntity
  8
Defpoints
 62
     0
100
AcDbPoint
 10
6195.642369606547
 20
2440.87516087297
 30
0.0
  0
POINT
  5
151F9
330
151E3
100
AcDbEntity
  8
Defpoints
 62
     0
100
AcDbPoint
 10
5814.642369606547
 20
1882.07516087297
 30
0.0
  0
POINT
  5
151FA
330
151E3
100
AcDbEntity
  8
Defpoints
 62
     0
100
AcDbPoint
 10
6345.642369606547
 20
1882.07516087297
 30
0.0
  0
ENDBLK
  5
151EF
330
151E3
100
AcDbEntity
  8
0
100
AcDbBlockEnd
  0
BLOCK
  5
15208
330
151FD
100
AcDbEntity
  8
0
100
AcDbBlockBegin
  2
*D4
 70
     1
 10
0.0
 20
0.0
 30
0.0
  3
*D4
  1

  0
LINE
  5
1520B
330
151FD
100
AcDbEntity
  8
0
 62
     1
370
    15
100
AcDbLine
 10
6198.642369606546
 20
1932.87516087297
 30
0.0
 11
6298.642369606546
 21
1932.87516087297
 31
0.0
  0
LINE
  5
1520C
330
151FD
100
AcDbEntity
  8
0
 62
     1
370
    15
100
AcDbLine
 10
6198.642369606546
 20
2440.87516087297
 30
0.0
 11
6298.642369606547
 21
2440.87516087297
 31
0.0
  0
LINE
  5
1520D
330
151FD
100
AcDbEntity
  8
0
 62
     1
370
    15
100
AcDbLine
 10
6295.642369606546
 20
1940.87516087297
 30
0.0
 11
6295.642369606547
 21
2098.87516087297
 31
0.0
  0
LINE
  5
1520E
330
151FD
100
AcDbEntity
  8
0
 62
     1
370
    15
100
AcDbLine
 10
6295.642369606547
 20
2432.87516087297
 30
0.0
 11
6295.642369606547
 21
2274.87516087297
 31
0.0
  0
SOLID
  5
1520F
330
151FD
100
AcDbEntity
  8
0
 62
     1
100
AcDbTrace
 10
6294.309036273213
 20
1940.87516087297
 30
0.0
 11
6296.975702939879
 21
1940.87516087297
 31
0.0
 12
6295.642369606546
 22
1932.87516087297
 32
0.0
 13
6295.642369606546
 23
1932.87516087297
 33
0.0
  0
SOLID
  5
15210
330
151FD
100
AcDbEntity
  8
0
 62
     1
100
AcDbTrace
 10
6294.309036273213
 20
2432.87516087297
 30
0.0
 11
6296.97570293988
 21
2432.87516087297
 31
0.0
 12
6295.642369606547
 22
2440.87516087297
 32
0.0
 13
6295.642369606547
 23
2440.87516087297
 33
0.0
  0
MTEXT
  5
15211
330
151FD
100
AcDbEntity
  8
0
 62
     1
100
AcDbMText
 10
6295.642369606546
 20
2186.875160872971
 30
0.0
 40
15.0
 41
0.0
 46
0.0
 71
     5
 72
     1
  1
508mm [20.00"]
 11
0.0000000000000001
 21
1.0
 31
0.0
 73
     1
 44
1.0
  0
POINT
  5
15212
330
151FD
100
AcDbEntity
  8
Defpoints
 62
     0
100
AcDbPoint
 10
6195.642369606547
 20
1932.87516087297
 30
0.0
  0
POINT
  5
15213
330
151FD
100
AcDbEntity
  8
Defpoints
 62
     0
100
AcDbPoint
 10
6195.642369606547
 20
2440.87516087297
 30
0.0
  0
POINT
  5
15214
330
151FD
100
AcDbEntity
  8
Defpoints
 62
     0
100
AcDbPoint
 10
6295.642369606547
 20
2440.87516087297
 30
0.0
  0
ENDBLK
  5
15209
330
151FD
100
AcDbEntity
  8
0
100
AcDbBlockEnd
  0
BLOCK
  5
15222
330
15217
100
AcDbEntity
  8
0
100
AcDbBlockBegin
  2
*D5
 70
     1
 10
0.0
 20
0.0
 30
0.0
  3
*D5
  1

  0
LINE
  5
15225
330
15217
100
AcDbEntity
  8
0
 62
     1
370
    15
100
AcDbLine
 10
6163.242369606548
 20
2415.475160872971
 30
0.0
 11
6248.642369606548
 21
2415.475160872971
 31
0.0
  0
LINE
  5
15226
330
15217
100
AcDbEntity
  8
0
 62
     1
370
    15
100
AcDbLine
 10
6163.242369606548
 20
1958.27516087297
 30
0.0
 11
6248.642369606546
 21
1958.27516087297
 31
0.0
  0
LINE
  5
15227
330
15217
100
AcDbEntity
  8
0
 62
     1
370
    15
100
AcDbLine
 10
6245.642369606548
 20
2407.47516087297
 30
0.0
 11
6245.642369606548
 21
2284.87516087297
 31
0.0
  0
LINE
  5
15228
330
15217
100
AcDbEntity
  8
0
 62
     1
370
    15
100
AcDbLine
 10
6245.642369606547
 20
1966.27516087297
 30
0.0
 11
6245.642369606548
 21
2088.87516087297
 31
0.0
  0
SOLID
  5
15229
330
15217
100
AcDbEntity
  8
0
 62
     1
100
AcDbTrace
 10
6244.309036273214
 20
2407.47516087297
 30
0.0
 11
6246.975702939881
 21
2407.47516087297
 31
0.0
 12
6245.642369606548
 22
2415.475160872971
 32
0.0
 13
6245.642369606548
 23
2415.475160872971
 33
0.0
  0
SOLID
  5
1522A
330
15217
100
AcDbEntity
  8
0
 62
     1
100
AcDbTrace
 10
6244.309036273214
 20
1966.27516087297
 30
0.0
 11
6246.97570293988
 21
1966.27516087297
 31
0.0
 12
6245.642369606547
 22
1958.27516087297
 32
0.0
 13
6245.642369606547
 23
1958.27516087297
 33
0.0
  0
MTEXT
  5
1522B
330
15217
100
AcDbEntity
  8
0
 62
     1
100
AcDbMText
 10
6245.642369606547
 20
2186.875160872971
 30
0.0
 40
15.0
 41
0.0
 46
0.0
 71
     5
 72
     1
  1
457.2mm [18.00"]
 11
0.0000000000000001
 21
1.0
 31
0.0
 73
     1
 44
1.0
  0
POINT
  5
1522C
330
15217
100
AcDbEntity
  8
Defpoints
 62
     0
100
AcDbPoint
 10
6160.242369606548
 20
2415.475160872971
 30
0.0
  0
POINT
  5
1522D
330
15217
100
AcDbEntity
  8
Defpoints
 62
     0
100
AcDbPoint
 10
6160.242369606548
 20
1958.27516087297
 30
0.0
  0
POINT
  5
1522E
330
15217
100
AcDbEntity
  8
Defpoints
 62
     0
100
AcDbPoint
 10
6245.642369606547
 20
1958.27516087297
 30
0.0
  0
ENDBLK
  5
15223
330
15217
100
AcDbEntity
  8
0
100
AcDbBlockEnd
  0
BLOCK
  5
1523C
330
15231
100
AcDbEntity
  8
0
100
AcDbBlockBegin
  2
*D6
 70
     1
 10
0.0
 20
0.0
 30
0.0
  3
*D6
  1

  0
LINE
  5
1523F
330
15231
100
AcDbEntity
  8
0
 62
     1
370
    15
100
AcDbLine
 10
6198.642369606546
 20
1782.07516087297
 30
0.0
 11
6248.642369606546
 21
1782.07516087297
 31
0.0
  0
LINE
  5
15240
330
15231
100
AcDbEntity
  8
0
 62
     1
370
    15
100
AcDbLine
 10
5862.642369606547
 20
1553.475160872969
 30
0.0
 11
6248.642369606546
 21
1553.475160872969
 31
0.0
  0
LINE
  5
15241
330
15231
100
AcDbEntity
  8
0
 62
     1
370
    15
100
AcDbLine
 10
6245.642369606547
 20
1774.07516087297
 30
0.0
 11
6245.642369606547
 21
1760.775160872969
 31
0.0
  0
LINE
  5
15242
330
15231
100
AcDbEntity
  8
0
 62
     1
370
    15
100
AcDbLine
 10
6245.642369606547
 20
1561.475160872969
 30
0.0
 11
6245.642369606547
 21
1574.77516087297
 31
0.0
  0
SOLID
  5
15243
330
15231
100
AcDbEntity
  8
0
 62
     1
100
AcDbTrace
 10
6244.309036273214
 20
1774.07516087297
 30
0.0
 11
6246.97570293988
 21
1774.07516087297
 31
0.0
 12
6245.642369606547
 22
1782.07516087297
 32
0.0
 13
6245.642369606547
 23
1782.07516087297
 33
0.0
  0
SOLID
  5
15244
330
15231
100
AcDbEntity
  8
0
 62
     1
100
AcDbTrace
 10
6244.309036273214
 20
1561.475160872969
 30
0.0
 11
6246.97570293988
 21
1561.475160872969
 31
0.0
 12
6245.642369606547
 22
1553.475160872969
 32
0.0
 13
6245.642369606547
 23
1553.475160872969
 33
0.0
  0
MTEXT
  5
15245
330
15231
100
AcDbEntity
  8
0
 62
     1
100
AcDbMText
 10
6245.642369606547
 20
1667.77516087297
 30
0.0
 40
15.0
 41
0.0
 46
0.0
 71
     5
 72
     1
  1
228.6mm [9.00"]
 11
0.0000000000000001
 21
1.0
 31
0.0
 73
     1
 44
1.0
  0
POINT
  5
15246
330
15231
100
AcDbEntity
  8
Defpoints
 62
     0
100
AcDbPoint
 10
6195.642369606547
 20
1782.07516087297
 30
0.0
  0
POINT
  5
15247
330
15231
100
AcDbEntity
  8
Defpoints
 62
     0
100
AcDbPoint
 10
5859.642369606547
 20
1553.475160872969
 30
0.0
  0
POINT
  5
15248
330
15231
100
AcDbEntity
  8
Defpoints
 62
     0
100
AcDbPoint
 10
6245.642369606547
 20
1553.475160872969
 30
0.0
  0
ENDBLK
  5
1523D
330
15231
100
AcDbEntity
  8
0
100
AcDbBlockEnd
  0
BLOCK
  5
15261
330
1525B
100
AcDbEntity
  8
0
100
AcDbBlockBegin
  2
*D7
 70
     1
 10
0.0
 20
0.0
 30
0.0
  3
*D7
  1

  0
LINE
  5
16AC3
330
1525B
100
AcDbEntity
  8
0
 62
     1
370
    15
100
AcDbLine
 10
5557.230363087886
 20
1982.92452046757
 30
0.0
 11
5467.069405582801
 21
1967.947421706785
 31
0.0
  0
MTEXT
  5
16AC4
330
1525B
100
AcDbEntity
  8
0
 62
     1
100
AcDbMText
 10
5576.220141816328
 20
1986.079009942078
 30
0.0
 40
15.0
 41
0.0
 46
0.0
 71
     5
 72
     1
  1
R10
 11
0.9864820118671589
 21
0.1638695830913178
 31
0.0
 73
     1
 44
1.0
  0
SOLID
  5
16AC5
330
1525B
100
AcDbEntity
  8
0
 62
     1
100
AcDbTrace
 10
5466.850912805345
 20
1969.262731055941
 30
0.0
 11
5467.287898360256
 21
1966.632112357629
 31
0.0
 12
5459.177549487864
 22
1966.636465042055
 32
0.0
 13
5459.177549487864
 23
1966.636465042055
 33
0.0
  0
POINT
  5
16AC6
330
1525B
100
AcDbEntity
  8
Defpoints
 62
     0
100
AcDbPoint
 10
5459.177549487864
 20
1966.636465042055
 30
0.0
  0
POINT
  5
16AC7
330
1525B
100
AcDbEntity
  8
Defpoints
 62
     0
100
AcDbPoint
 10
5469.042369606547
 20
1968.275160872969
 30
0.0
  0
ENDBLK
  5
15262
330
1525B
100
AcDbEntity
  8
0
100
AcDbBlockEnd
  0
BLOCK
  5
15278
330
15272
100
AcDbEntity
  8
0
100
AcDbBlockBegin
  2
*D8
 70
     1
 10
0.0
 20
0.0
 30
0.0
  3
*D8
  1

  0
LINE
  5
158E1
330
15272
100
AcDbEntity
  8
0
 62
     1
370
    15
100
AcDbLine
 10
5557.230363087898
 20
1588.124520467569
 30
0.0
 11
5467.069405582813
 21
1573.147421706786
 31
0.0
  0
MTEXT
  5
158E2
330
15272
100
AcDbEntity
  8
0
 62
     1
100
AcDbMText
 10
5576.220141816341
 20
1591.279009942077
 30
0.0
 40
15.0
 41
0.0
 46
0.0
 71
     5
 72
     1
  1
R10
 11
0.9864820118671627
 21
0.1638695830912959
 31
0.0
 73
     1
 44
1.0
  0
SOLID
  5
158E3
330
15272
100
AcDbEntity
  8
0
 62
     1
100
AcDbTrace
 10
5466.850912805359
 20
1574.462731055942
 30
0.0
 11
5467.287898360268
 21
1571.83211235763
 31
0.0
 12
5459.177549487876
 22
1571.836465042056
 32
0.0
 13
5459.177549487876
 23
1571.836465042056
 33
0.0
  0
POINT
  5
158E4
330
15272
100
AcDbEntity
  8
Defpoints
 62
     0
100
AcDbPoint
 10
5459.177549487876
 20
1571.836465042056
 30
0.0
  0
POINT
  5
158E5
330
15272
100
AcDbEntity
  8
Defpoints
 62
     0
100
AcDbPoint
 10
5469.042369606559
 20
1573.475160872971
 30
0.0
  0
ENDBLK
  5
15279
330
15272
100
AcDbEntity
  8
0
100
AcDbBlockEnd
  0
BLOCK
  5
1528C
330
15281
100
AcDbEntity
  8
0
100
AcDbBlockBegin
  2
*D9
 70
     1
 10
0.0
 20
0.0
 30
0.0
  3
*D9
  1

  0
LINE
  5
1529A
330
15281
100
AcDbEntity
  8
0
 62
     1
370
    15
100
AcDbLine
 10
5430.642369606546
 20
1932.87516087297
 30
0.0
 11
5380.642369606547
 21
1932.87516087297
 31
0.0
  0
LINE
  5
1529B
330
15281
100
AcDbEntity
  8
0
 62
     1
370
    15
100
AcDbLine
 10
5430.642369606548
 20
2082.87516087297
 30
0.0
 11
5380.642369606547
 21
2082.87516087297
 31
0.0
  0
LINE
  5
1529C
330
15281
100
AcDbEntity
  8
0
 62
     1
370
    15
100
AcDbLine
 10
5383.642369606547
 20
1940.87516087297
 30
0.0
 11
5383.642369606547
 21
1973.62516087297
 31
0.0
  0
LINE
  5
1529D
330
15281
100
AcDbEntity
  8
0
 62
     1
370
    15
100
AcDbLine
 10
5383.642369606548
 20
2074.87516087297
 30
0.0
 11
5383.642369606547
 21
2042.12516087297
 31
0.0
  0
SOLID
  5
1529E
330
15281
100
AcDbEntity
  8
0
 62
     1
100
AcDbTrace
 10
5382.309036273213
 20
1940.87516087297
 30
0.0
 11
5384.97570293988
 21
1940.87516087297
 31
0.0
 12
5383.642369606547
 22
1932.87516087297
 32
0.0
 13
5383.642369606547
 23
1932.87516087297
 33
0.0
  0
SOLID
  5
1529F
330
15281
100
AcDbEntity
  8
0
 62
     1
100
AcDbTrace
 10
5382.309036273214
 20
2074.87516087297
 30
0.0
 11
5384.975702939881
 21
2074.87516087297
 31
0.0
 12
5383.642369606548
 22
2082.87516087297
 32
0.0
 13
5383.642369606548
 23
2082.87516087297
 33
0.0
  0
MTEXT
  5
152A0
330
15281
100
AcDbEntity
  8
0
 62
     1
100
AcDbMText
 10
5383.642369606547
 20
2007.875160872971
 30
0.0
 40
15.0
 41
0.0
 46
0.0
 71
     5
 72
     1
  1
150mm
 11
0.0000000000000001
 21
1.0
 31
0.0
 73
     1
 44
1.0
  0
POINT
  5
152A1
330
15281
100
AcDbEntity
  8
Defpoints
 62
     0
100
AcDbPoint
 10
5433.642369606547
 20
1932.87516087297
 30
0.0
  0
POINT
  5
152A2
330
15281
100
AcDbEntity
  8
Defpoints
 62
     0
100
AcDbPoint
 10
5433.642369606548
 20
2082.87516087297
 30
0.0
  0
POINT
  5
152A3
330
15281
100
AcDbEntity
  8
Defpoints
 62
     0
100
AcDbPoint
 10
5383.642369606548
 20
2082.87516087297
 30
0.0
  0
ENDBLK
  5
1528D
330
15281
100
AcDbEntity
  8
0
100
AcDbBlockEnd
  0
BLOCK
  5
152E1
330
152D6
100
AcDbEntity
  8
0
100
AcDbBlockBegin
  2
*D10
 70
     1
 10
0.0
 20
0.0
 30
0.0
  3
*D10
  1

  0
LINE
  5
152E4
330
152D6
100
AcDbEntity
  8
0
 62
     1
370
    15
100
AcDbLine
 10
6721.042369606546
 20
2408.47516087297
 30
0.0
 11
6721.042369606546
 21
2493.87516087297
 31
0.0
  0
LINE
  5
152E5
330
152D6
100
AcDbEntity
  8
0
 62
     1
370
    15
100
AcDbLine
 10
7508.442369606547
 20
2408.47516087297
 30
0.0
 11
7508.442369606547
 21
2493.87516087297
 31
0.0
  0
LINE
  5
152E6
330
152D6
100
AcDbEntity
  8
0
 62
     1
370
    15
100
AcDbLine
 10
6729.042369606546
 20
2490.87516087297
 30
0.0
 11
7016.742369606546
 21
2490.87516087297
 31
0.0
  0
LINE
  5
152E7
330
152D6
100
AcDbEntity
  8
0
 62
     1
370
    15
100
AcDbLine
 10
7500.442369606547
 20
2490.87516087297
 30
0.0
 11
7212.742369606548
 21
2490.87516087297
 31
0.0
  0
SOLID
  5
152E8
330
152D6
100
AcDbEntity
  8
0
 62
     1
100
AcDbTrace
 10
6729.042369606546
 20
2492.208494206304
 30
0.0
 11
6729.042369606546
 21
2489.541827539637
 31
0.0
 12
6721.042369606546
 22
2490.87516087297
 32
0.0
 13
6721.042369606546
 23
2490.87516087297
 33
0.0
  0
SOLID
  5
152E9
330
152D6
100
AcDbEntity
  8
0
 62
     1
100
AcDbTrace
 10
7500.442369606547
 20
2492.208494206304
 30
0.0
 11
7500.442369606547
 21
2489.541827539637
 31
0.0
 12
7508.442369606547
 22
2490.87516087297
 32
0.0
 13
7508.442369606547
 23
2490.87516087297
 33
0.0
  0
MTEXT
  5
152EA
330
152D6
100
AcDbEntity
  8
0
 62
     1
100
AcDbMText
 10
7114.742369606547
 20
2490.87516087297
 30
0.0
 40
15.0
 41
0.0
 46
0.0
 71
     5
 72
     1
  1
787.4mm [31.00"]
 73
     1
 44
1.0
  0
POINT
  5
152EB
330
152D6
100
AcDbEntity
  8
Defpoints
 62
     0
100
AcDbPoint
 10
6721.042369606546
 20
2405.47516087297
 30
0.0
  0
POINT
  5
152EC
330
152D6
100
AcDbEntity
  8
Defpoints
 62
     0
100
AcDbPoint
 10
7508.442369606547
 20
2405.47516087297
 30
0.0
  0
POINT
  5
152ED
330
152D6
100
AcDbEntity
  8
Defpoints
 62
     0
100
AcDbPoint
 10
7508.442369606547
 20
2490.87516087297
 30
0.0
  0
ENDBLK
  5
152E2
330
152D6
100
AcDbEntity
  8
0
100
AcDbBlockEnd
  0
BLOCK
  5
152FB
330
152F0
100
AcDbEntity
  8
0
100
AcDbBlockBegin
  2
*D11
 70
     1
 10
0.0
 20
0.0
 30
0.0
  3
*D11
  1

  0
LINE
  5
152FE
330
152F0
100
AcDbEntity
  8
0
 62
     1
370
    15
100
AcDbLine
 10
6695.642369606547
 20
2443.87516087297
 30
0.0
 11
6695.642369606547
 21
2543.87516087297
 31
0.0
  0
LINE
  5
152FF
330
152F0
100
AcDbEntity
  8
0
 62
     1
370
    15
100
AcDbLine
 10
7533.842369606546
 20
2443.87516087297
 30
0.0
 11
7533.842369606546
 21
2543.87516087297
 31
0.0
  0
LINE
  5
15300
330
152F0
100
AcDbEntity
  8
0
 62
     1
370
    15
100
AcDbLine
 10
6703.642369606547
 20
2540.87516087297
 30
0.0
 11
7014.242369606548
 21
2540.87516087297
 31
0.0
  0
LINE
  5
15301
330
152F0
100
AcDbEntity
  8
0
 62
     1
370
    15
100
AcDbLine
 10
7525.842369606547
 20
2540.87516087297
 30
0.0
 11
7215.242369606547
 21
2540.87516087297
 31
0.0
  0
SOLID
  5
15302
330
152F0
100
AcDbEntity
  8
0
 62
     1
100
AcDbTrace
 10
6703.642369606547
 20
2542.208494206303
 30
0.0
 11
6703.642369606547
 21
2539.541827539637
 31
0.0
 12
6695.642369606547
 22
2540.87516087297
 32
0.0
 13
6695.642369606547
 23
2540.87516087297
 33
0.0
  0
SOLID
  5
15303
330
152F0
100
AcDbEntity
  8
0
 62
     1
100
AcDbTrace
 10
7525.842369606547
 20
2542.208494206303
 30
0.0
 11
7525.842369606547
 21
2539.541827539637
 31
0.0
 12
7533.842369606546
 22
2540.87516087297
 32
0.0
 13
7533.842369606546
 23
2540.87516087297
 33
0.0
  0
MTEXT
  5
15304
330
152F0
100
AcDbEntity
  8
0
 62
     1
100
AcDbMText
 10
7114.742369606547
 20
2540.87516087297
 30
0.0
 40
15.0
 41
0.0
 46
0.0
 71
     5
 72
     1
  1
838.2mm [33.00"]
 73
     1
 44
1.0
  0
POINT
  5
15305
330
152F0
100
AcDbEntity
  8
Defpoints
 62
     0
100
AcDbPoint
 10
6695.642369606547
 20
2440.87516087297
 30
0.0
  0
POINT
  5
15306
330
152F0
100
AcDbEntity
  8
Defpoints
 62
     0
100
AcDbPoint
 10
7533.842369606546
 20
2440.87516087297
 30
0.0
  0
POINT
  5
15307
330
152F0
100
AcDbEntity
  8
Defpoints
 62
     0
100
AcDbPoint
 10
7533.842369606546
 20
2540.87516087297
 30
0.0
  0
ENDBLK
  5
152FC
330
152F0
100
AcDbEntity
  8
0
100
AcDbBlockEnd
  0
BLOCK
  5
15315
330
1530A
100
AcDbEntity
  8
0
100
AcDbBlockBegin
  2
*D12
 70
     1
 10
0.0
 20
0.0
 30
0.0
  3
*D12
  1

  0
LINE
  5
15318
330
1530A
100
AcDbEntity
  8
0
 62
     1
370
    15
100
AcDbLine
 10
7536.842369606546
 20
2440.87516087297
 30
0.0
 11
7686.842369606548
 21
2440.87516087297
 31
0.0
  0
LINE
  5
15319
330
1530A
100
AcDbEntity
  8
0
 62
     1
370
    15
100
AcDbLine
 10
7117.742369606546
 20
1882.07516087297
 30
0.0
 11
7686.842369606546
 21
1882.075160872969
 31
0.0
  0
LINE
  5
1531A
330
1530A
100
AcDbEntity
  8
0
 62
     1
370
    15
100
AcDbLine
 10
7683.842369606548
 20
2432.87516087297
 30
0.0
 11
7683.842369606548
 21
2261.97516087297
 31
0.0
  0
LINE
  5
1531B
330
1530A
100
AcDbEntity
  8
0
 62
     1
370
    15
100
AcDbLine
 10
7683.842369606546
 20
1890.075160872969
 30
0.0
 11
7683.842369606548
 21
2060.97516087297
 31
0.0
  0
SOLID
  5
1531C
330
1530A
100
AcDbEntity
  8
0
 62
     1
100
AcDbTrace
 10
7682.509036273214
 20
2432.87516087297
 30
0.0
 11
7685.175702939881
 21
2432.87516087297
 31
0.0
 12
7683.842369606548
 22
2440.87516087297
 32
0.0
 13
7683.842369606548
 23
2440.87516087297
 33
0.0
  0
SOLID
  5
1531D
330
1530A
100
AcDbEntity
  8
0
 62
     1
100
AcDbTrace
 10
7682.509036273214
 20
1890.075160872969
 30
0.0
 11
7685.175702939879
 21
1890.075160872969
 31
0.0
 12
7683.842369606546
 22
1882.075160872969
 32
0.0
 13
7683.842369606546
 23
1882.075160872969
 33
0.0
  0
MTEXT
  5
1531E
330
1530A
100
AcDbEntity
  8
0
 62
     1
100
AcDbMText
 10
7683.842369606546
 20
2161.475160872971
 30
0.0
 40
15.0
 41
0.0
 46
0.0
 71
     5
 72
     1
  1
558.8mm [22.00"]
 11
0.0000000000000001
 21
1.0
 31
0.0
 73
     1
 44
1.0
  0
POINT
  5
1531F
330
1530A
100
AcDbEntity
  8
Defpoints
 62
     0
100
AcDbPoint
 10
7533.842369606546
 20
2440.87516087297
 30
0.0
  0
POINT
  5
15320
330
1530A
100
AcDbEntity
  8
Defpoints
 62
     0
100
AcDbPoint
 10
7114.742369606545
 20
1882.07516087297
 30
0.0
  0
POINT
  5
15321
330
1530A
100
AcDbEntity
  8
Defpoints
 62
     0
100
AcDbPoint
 10
7683.842369606546
 20
1882.075160872969
 30
0.0
  0
ENDBLK
  5
15316
330
1530A
100
AcDbEntity
  8
0
100
AcDbBlockEnd
  0
BLOCK
  5
1532F
330
15324
100
AcDbEntity
  8
0
100
AcDbBlockBegin
  2
*D13
 70
     1
 10
0.0
 20
0.0
 30
0.0
  3
*D13
  1

  0
LINE
  5
15332
330
15324
100
AcDbEntity
  8
0
 62
     1
370
    15
100
AcDbLine
 10
7536.842369606546
 20
1932.87516087297
 30
0.0
 11
7636.842369606546
 21
1932.87516087297
 31
0.0
  0
LINE
  5
15333
330
15324
100
AcDbEntity
  8
0
 62
     1
370
    15
100
AcDbLine
 10
7536.842369606546
 20
2440.87516087297
 30
0.0
 11
7636.842369606546
 21
2440.87516087297
 31
0.0
  0
LINE
  5
15334
330
15324
100
AcDbEntity
  8
0
 62
     1
370
    15
100
AcDbLine
 10
7633.842369606546
 20
1940.87516087297
 30
0.0
 11
7633.842369606546
 21
2098.87516087297
 31
0.0
  0
LINE
  5
15335
330
15324
100
AcDbEntity
  8
0
 62
     1
370
    15
100
AcDbLine
 10
7633.842369606546
 20
2432.87516087297
 30
0.0
 11
7633.842369606546
 21
2274.87516087297
 31
0.0
  0
SOLID
  5
15336
330
15324
100
AcDbEntity
  8
0
 62
     1
100
AcDbTrace
 10
7632.509036273212
 20
1940.87516087297
 30
0.0
 11
7635.175702939879
 21
1940.87516087297
 31
0.0
 12
7633.842369606546
 22
1932.87516087297
 32
0.0
 13
7633.842369606546
 23
1932.87516087297
 33
0.0
  0
SOLID
  5
15337
330
15324
100
AcDbEntity
  8
0
 62
     1
100
AcDbTrace
 10
7632.509036273214
 20
2432.87516087297
 30
0.0
 11
7635.175702939879
 21
2432.87516087297
 31
0.0
 12
7633.842369606546
 22
2440.87516087297
 32
0.0
 13
7633.842369606546
 23
2440.87516087297
 33
0.0
  0
MTEXT
  5
15338
330
15324
100
AcDbEntity
  8
0
 62
     1
100
AcDbMText
 10
7633.842369606546
 20
2186.875160872971
 30
0.0
 40
15.0
 41
0.0
 46
0.0
 71
     5
 72
     1
  1
508mm [20.00"]
 11
0.0000000000000001
 21
1.0
 31
0.0
 73
     1
 44
1.0
  0
POINT
  5
15339
330
15324
100
AcDbEntity
  8
Defpoints
 62
     0
100
AcDbPoint
 10
7533.842369606546
 20
1932.87516087297
 30
0.0
  0
POINT
  5
1533A
330
15324
100
AcDbEntity
  8
Defpoints
 62
     0
100
AcDbPoint
 10
7533.842369606546
 20
2440.87516087297
 30
0.0
  0
POINT
  5
1533B
330
15324
100
AcDbEntity
  8
Defpoints
 62
     0
100
AcDbPoint
 10
7633.842369606546
 20
2440.87516087297
 30
0.0
  0
ENDBLK
  5
15330
330
15324
100
AcDbEntity
  8
0
100
AcDbBlockEnd
  0
BLOCK
  5
15349
330
1533E
100
AcDbEntity
  8
0
100
AcDbBlockBegin
  2
*D14
 70
     1
 10
0.0
 20
0.0
 30
0.0
  3
*D14
  1

  0
LINE
  5
1534C
330
1533E
100
AcDbEntity
  8
0
 62
     1
370
    15
100
AcDbLine
 10
7501.442369606547
 20
2415.47516087297
 30
0.0
 11
7586.842369606547
 21
2415.47516087297
 31
0.0
  0
LINE
  5
1534D
330
1533E
100
AcDbEntity
  8
0
 62
     1
370
    15
100
AcDbLine
 10
7501.442369606547
 20
1958.27516087297
 30
0.0
 11
7586.842369606547
 21
1958.27516087297
 31
0.0
  0
LINE
  5
1534E
330
1533E
100
AcDbEntity
  8
0
 62
     1
370
    15
100
AcDbLine
 10
7583.842369606547
 20
2407.47516087297
 30
0.0
 11
7583.842369606547
 21
2284.87516087297
 31
0.0
  0
LINE
  5
1534F
330
1533E
100
AcDbEntity
  8
0
 62
     1
370
    15
100
AcDbLine
 10
7583.842369606546
 20
1966.27516087297
 30
0.0
 11
7583.842369606547
 21
2088.87516087297
 31
0.0
  0
SOLID
  5
15350
330
1533E
100
AcDbEntity
  8
0
 62
     1
100
AcDbTrace
 10
7582.509036273214
 20
2407.47516087297
 30
0.0
 11
7585.175702939881
 21
2407.47516087297
 31
0.0
 12
7583.842369606547
 22
2415.47516087297
 32
0.0
 13
7583.842369606547
 23
2415.47516087297
 33
0.0
  0
SOLID
  5
15351
330
1533E
100
AcDbEntity
  8
0
 62
     1
100
AcDbTrace
 10
7582.509036273214
 20
1966.27516087297
 30
0.0
 11
7585.17570293988
 21
1966.27516087297
 31
0.0
 12
7583.842369606546
 22
1958.27516087297
 32
0.0
 13
7583.842369606546
 23
1958.27516087297
 33
0.0
  0
MTEXT
  5
15352
330
1533E
100
AcDbEntity
  8
0
 62
     1
100
AcDbMText
 10
7583.842369606546
 20
2186.875160872971
 30
0.0
 40
15.0
 41
0.0
 46
0.0
 71
     5
 72
     1
  1
457.2mm [18.00"]
 11
0.0000000000000001
 21
1.0
 31
0.0
 73
     1
 44
1.0
  0
POINT
  5
15353
330
1533E
100
AcDbEntity
  8
Defpoints
 62
     0
100
AcDbPoint
 10
7498.442369606547
 20
2415.47516087297
 30
0.0
  0
POINT
  5
15354
330
1533E
100
AcDbEntity
  8
Defpoints
 62
     0
100
AcDbPoint
 10
7498.442369606547
 20
1958.27516087297
 30
0.0
  0
POINT
  5
15355
330
1533E
100
AcDbEntity
  8
Defpoints
 62
     0
100
AcDbPoint
 10
7583.842369606546
 20
1958.27516087297
 30
0.0
  0
ENDBLK
  5
1534A
330
1533E
100
AcDbEntity
  8
0
100
AcDbBlockEnd
  0
BLOCK
  5
15363
330
15358
100
AcDbEntity
  8
0
100
AcDbBlockBegin
  2
*D15
 70
     1
 10
0.0
 20
0.0
 30
0.0
  3
*D15
  1

  0
LINE
  5
15366
330
15358
100
AcDbEntity
  8
0
 62
     1
370
    15
100
AcDbLine
 10
7536.842369606546
 20
1782.07516087297
 30
0.0
 11
7586.842369606547
 21
1782.07516087297
 31
0.0
  0
LINE
  5
15367
330
15358
100
AcDbEntity
  8
0
 62
     1
370
    15
100
AcDbLine
 10
7162.742369606547
 20
1553.475160872969
 30
0.0
 11
7586.842369606547
 21
1553.475160872969
 31
0.0
  0
LINE
  5
15368
330
15358
100
AcDbEntity
  8
0
 62
     1
370
    15
100
AcDbLine
 10
7583.842369606547
 20
1774.07516087297
 30
0.0
 11
7583.842369606547
 21
1760.775160872969
 31
0.0
  0
LINE
  5
15369
330
15358
100
AcDbEntity
  8
0
 62
     1
370
    15
100
AcDbLine
 10
7583.842369606547
 20
1561.475160872969
 30
0.0
 11
7583.842369606547
 21
1574.77516087297
 31
0.0
  0
SOLID
  5
1536A
330
15358
100
AcDbEntity
  8
0
 62
     1
100
AcDbTrace
 10
7582.509036273214
 20
1774.07516087297
 30
0.0
 11
7585.175702939881
 21
1774.07516087297
 31
0.0
 12
7583.842369606547
 22
1782.07516087297
 32
0.0
 13
7583.842369606547
 23
1782.07516087297
 33
0.0
  0
SOLID
  5
1536B
330
15358
100
AcDbEntity
  8
0
 62
     1
100
AcDbTrace
 10
7582.509036273214
 20
1561.475160872969
 30
0.0
 11
7585.175702939881
 21
1561.475160872969
 31
0.0
 12
7583.842369606547
 22
1553.475160872969
 32
0.0
 13
7583.842369606547
 23
1553.475160872969
 33
0.0
  0
MTEXT
  5
1536C
330
15358
100
AcDbEntity
  8
0
 62
     1
100
AcDbMText
 10
7583.842369606547
 20
1667.775160872971
 30
0.0
 40
15.0
 41
0.0
 46
0.0
 71
     5
 72
     1
  1
228.6mm [9.00"]
 11
0.0000000000000001
 21
1.0
 31
0.0
 73
     1
 44
1.0
  0
POINT
  5
1536D
330
15358
100
AcDbEntity
  8
Defpoints
 62
     0
100
AcDbPoint
 10
7533.842369606546
 20
1782.07516087297
 30
0.0
  0
POINT
  5
1536E
330
15358
100
AcDbEntity
  8
Defpoints
 62
     0
100
AcDbPoint
 10
7159.742369606547
 20
1553.475160872969
 30
0.0
  0
POINT
  5
1536F
330
15358
100
AcDbEntity
  8
Defpoints
 62
     0
100
AcDbPoint
 10
7583.842369606547
 20
1553.475160872969
 30
0.0
  0
ENDBLK
  5
15364
330
15358
100
AcDbEntity
  8
0
100
AcDbBlockEnd
  0
BLOCK
  5
15378
330
15372
100
AcDbEntity
  8
0
100
AcDbBlockBegin
  2
*D16
 70
     1
 10
0.0
 20
0.0
 30
0.0
  3
*D16
  1

  0
LINE
  5
1590B
330
15372
100
AcDbEntity
  8
0
 62
     1
370
    15
100
AcDbLine
 10
6819.230363087894
 20
1588.12452046757
 30
0.0
 11
6729.069405582811
 21
1573.147421706786
 31
0.0
  0
MTEXT
  5
1590C
330
15372
100
AcDbEntity
  8
0
 62
     1
100
AcDbMText
 10
6838.220141816337
 20
1591.279009942077
 30
0.0
 40
15.0
 41
0.0
 46
0.0
 71
     5
 72
     1
  1
R10
 11
0.9864820118671604
 21
0.1638695830913111
 31
0.0
 73
     1
 44
1.0
  0
SOLID
  5
1590D
330
15372
100
AcDbEntity
  8
0
 62
     1
100
AcDbTrace
 10
6728.850912805356
 20
1574.462731055942
 30
0.0
 11
6729.287898360266
 21
1571.832112357629
 31
0.0
 12
6721.177549487873
 22
1571.836465042055
 32
0.0
 13
6721.177549487873
 23
1571.836465042055
 33
0.0
  0
POINT
  5
1590E
330
15372
100
AcDbEntity
  8
Defpoints
 62
     0
100
AcDbPoint
 10
6721.177549487873
 20
1571.836465042055
 30
0.0
  0
POINT
  5
1590F
330
15372
100
AcDbEntity
  8
Defpoints
 62
     0
100
AcDbPoint
 10
6731.042369606555
 20
1573.47516087297
 30
0.0
  0
ENDBLK
  5
15379
330
15372
100
AcDbEntity
  8
0
100
AcDbBlockEnd
  0
BLOCK
  5
15386
330
15380
100
AcDbEntity
  8
0
100
AcDbBlockBegin
  2
*D17
 70
     1
 10
0.0
 20
0.0
 30
0.0
  3
*D17
  1

  0
LINE
  5
15906
330
15380
100
AcDbEntity
  8
0
 62
     1
370
    15
100
AcDbLine
 10
6819.230363087894
 20
1982.924520467568
 30
0.0
 11
6729.069405582811
 21
1967.947421706786
 31
0.0
  0
MTEXT
  5
15907
330
15380
100
AcDbEntity
  8
0
 62
     1
100
AcDbMText
 10
6838.220141816337
 20
1986.079009942076
 30
0.0
 40
15.0
 41
0.0
 46
0.0
 71
     5
 72
     1
  1
R10
 11
0.9864820118671627
 21
0.1638695830912959
 31
0.0
 73
     1
 44
1.0
  0
SOLID
  5
15908
330
15380
100
AcDbEntity
  8
0
 62
     1
100
AcDbTrace
 10
6728.850912805356
 20
1969.262731055942
 30
0.0
 11
6729.287898360266
 21
1966.632112357629
 31
0.0
 12
6721.177549487873
 22
1966.636465042055
 32
0.0
 13
6721.177549487873
 23
1966.636465042055
 33
0.0
  0
POINT
  5
15909
330
15380
100
AcDbEntity
  8
Defpoints
 62
     0
100
AcDbPoint
 10
6721.177549487873
 20
1966.636465042055
 30
0.0
  0
POINT
  5
1590A
330
15380
100
AcDbEntity
  8
Defpoints
 62
     0
100
AcDbPoint
 10
6731.042369606557
 20
1968.27516087297
 30
0.0
  0
ENDBLK
  5
15387
330
15380
100
AcDbEntity
  8
0
100
AcDbBlockEnd
  0
BLOCK
  5
1539B
330
15390
100
AcDbEntity
  8
0
100
AcDbBlockBegin
  2
*D18
 70
     1
 10
0.0
 20
0.0
 30
0.0
  3
*D18
  1

  0
LINE
  5
1539D
330
15390
100
AcDbEntity
  8
0
 62
     1
370
    15
100
AcDbLine
 10
6692.642369606545
 20
1932.87516087297
 30
0.0
 11
6642.642369606545
 21
1932.87516087297
 31
0.0
  0
LINE
  5
1539E
330
15390
100
AcDbEntity
  8
0
 62
     1
370
    15
100
AcDbLine
 10
6692.642369606547
 20
2082.87516087297
 30
0.0
 11
6642.642369606547
 21
2082.87516087297
 31
0.0
  0
LINE
  5
1539F
330
15390
100
AcDbEntity
  8
0
 62
     1
370
    15
100
AcDbLine
 10
6645.642369606545
 20
1940.87516087297
 30
0.0
 11
6645.642369606545
 21
1973.62516087297
 31
0.0
  0
LINE
  5
153A0
330
15390
100
AcDbEntity
  8
0
 62
     1
370
    15
100
AcDbLine
 10
6645.642369606547
 20
2074.87516087297
 30
0.0
 11
6645.642369606545
 21
2042.12516087297
 31
0.0
  0
SOLID
  5
153A1
330
15390
100
AcDbEntity
  8
0
 62
     1
100
AcDbTrace
 10
6644.309036273213
 20
1940.87516087297
 30
0.0
 11
6646.975702939879
 21
1940.87516087297
 31
0.0
 12
6645.642369606545
 22
1932.87516087297
 32
0.0
 13
6645.642369606545
 23
1932.87516087297
 33
0.0
  0
SOLID
  5
153A2
330
15390
100
AcDbEntity
  8
0
 62
     1
100
AcDbTrace
 10
6644.309036273213
 20
2074.87516087297
 30
0.0
 11
6646.975702939879
 21
2074.87516087297
 31
0.0
 12
6645.642369606547
 22
2082.87516087297
 32
0.0
 13
6645.642369606547
 23
2082.87516087297
 33
0.0
  0
MTEXT
  5
153A3
330
15390
100
AcDbEntity
  8
0
 62
     1
100
AcDbMText
 10
6645.642369606545
 20
2007.875160872971
 30
0.0
 40
15.0
 41
0.0
 46
0.0
 71
     5
 72
     1
  1
150mm
 11
0.0000000000000001
 21
1.0
 31
0.0
 73
     1
 44
1.0
  0
POINT
  5
153A4
330
15390
100
AcDbEntity
  8
Defpoints
 62
     0
100
AcDbPoint
 10
6695.642369606545
 20
1932.87516087297
 30
0.0
  0
POINT
  5
153A5
330
15390
100
AcDbEntity
  8
Defpoints
 62
     0
100
AcDbPoint
 10
6695.642369606547
 20
2082.87516087297
 30
0.0
  0
POINT
  5
153A6
330
15390
100
AcDbEntity
  8
Defpoints
 62
     0
100
AcDbPoint
 10
6645.642369606547
 20
2082.87516087297
 30
0.0
  0
ENDBLK
  5
1539C
330
15390
100
AcDbEntity
  8
0
100
AcDbBlockEnd
  0
BLOCK
  5
153D3
330
153CD
100
AcDbEntity
  8
0
100
AcDbBlockBegin
  2
*D19
 70
     1
 10
0.0
 20
0.0
 30
0.0
  3
*D19
  1

  0
LINE
  5
15915
330
153CD
100
AcDbEntity
  8
0
 62
     1
370
    15
100
AcDbLine
 10
8157.430363087897
 20
1588.124520467569
 30
0.0
 11
8067.269405582813
 21
1573.147421706787
 31
0.0
  0
MTEXT
  5
15916
330
153CD
100
AcDbEntity
  8
0
 62
     1
100
AcDbMText
 10
8176.42014181634
 20
1591.279009942077
 30
0.0
 40
15.0
 41
0.0
 46
0.0
 71
     5
 72
     1
  1
R10
 11
0.9864820118671627
 21
0.1638695830912959
 31
0.0
 73
     1
 44
1.0
  0
SOLID
  5
15917
330
153CD
100
AcDbEntity
  8
0
 62
     1
100
AcDbTrace
 10
8067.050912805358
 20
1574.462731055943
 30
0.0
 11
8067.487898360267
 21
1571.83211235763
 31
0.0
 12
8059.377549487875
 22
1571.836465042056
 32
0.0
 13
8059.377549487875
 23
1571.836465042056
 33
0.0
  0
POINT
  5
15918
330
153CD
100
AcDbEntity
  8
Defpoints
 62
     0
100
AcDbPoint
 10
8059.377549487875
 20
1571.836465042056
 30
0.0
  0
POINT
  5
15919
330
153CD
100
AcDbEntity
  8
Defpoints
 62
     0
100
AcDbPoint
 10
8069.242369606556
 20
1573.475160872971
 30
0.0
  0
ENDBLK
  5
153D4
330
153CD
100
AcDbEntity
  8
0
100
AcDbBlockEnd
  0
BLOCK
  5
153E1
330
153DB
100
AcDbEntity
  8
0
100
AcDbBlockBegin
  2
*D20
 70
     1
 10
0.0
 20
0.0
 30
0.0
  3
*D20
  1

  0
LINE
  5
15910
330
153DB
100
AcDbEntity
  8
0
 62
     1
370
    15
100
AcDbLine
 10
8157.430363087891
 20
1982.924520467569
 30
0.0
 11
8067.269405582811
 21
1967.947421706785
 31
0.0
  0
MTEXT
  5
15911
330
153DB
100
AcDbEntity
  8
0
 62
     1
100
AcDbMText
 10
8176.420141816334
 20
1986.079009942077
 30
0.0
 40
15.0
 41
0.0
 46
0.0
 71
     5
 72
     1
  1
R10
 11
0.9864820118671604
 21
0.1638695830913111
 31
0.0
 73
     1
 44
1.0
  0
SOLID
  5
15912
330
153DB
100
AcDbEntity
  8
0
 62
     1
100
AcDbTrace
 10
8067.050912805354
 20
1969.262731055942
 30
0.0
 11
8067.487898360266
 21
1966.632112357629
 31
0.0
 12
8059.377549487873
 22
1966.636465042055
 32
0.0
 13
8059.377549487873
 23
1966.636465042055
 33
0.0
  0
POINT
  5
15913
330
153DB
100
AcDbEntity
  8
Defpoints
 62
     0
100
AcDbPoint
 10
8059.377549487873
 20
1966.636465042055
 30
0.0
  0
POINT
  5
15914
330
153DB
100
AcDbEntity
  8
Defpoints
 62
     0
100
AcDbPoint
 10
8069.242369606556
 20
1968.27516087297
 30
0.0
  0
ENDBLK
  5
153E2
330
153DB
100
AcDbEntity
  8
0
100
AcDbBlockEnd
  0
BLOCK
  5
15400
330
153F5
100
AcDbEntity
  8
0
100
AcDbBlockBegin
  2
*D21
 70
     1
 10
0.0
 20
0.0
 30
0.0
  3
*D21
  1

  0
LINE
  5
15402
330
153F5
100
AcDbEntity
  8
0
 62
     1
370
    15
100
AcDbLine
 10
8030.842369606544
 20
1932.875160872967
 30
0.0
 11
7980.842369606545
 21
1932.875160872967
 31
0.0
  0
LINE
  5
15403
330
153F5
100
AcDbEntity
  8
0
 62
     1
370
    15
100
AcDbLine
 10
8030.842369606546
 20
2082.875160872967
 30
0.0
 11
7980.842369606546
 21
2082.875160872967
 31
0.0
  0
LINE
  5
15404
330
153F5
100
AcDbEntity
  8
0
 62
     1
370
    15
100
AcDbLine
 10
7983.842369606545
 20
1940.875160872968
 30
0.0
 11
7983.842369606545
 21
1973.625160872968
 31
0.0
  0
LINE
  5
15405
330
153F5
100
AcDbEntity
  8
0
 62
     1
370
    15
100
AcDbLine
 10
7983.842369606546
 20
2074.875160872968
 30
0.0
 11
7983.842369606545
 21
2042.125160872968
 31
0.0
  0
SOLID
  5
15406
330
153F5
100
AcDbEntity
  8
0
 62
     1
100
AcDbTrace
 10
7982.509036273211
 20
1940.875160872968
 30
0.0
 11
7985.175702939878
 21
1940.875160872968
 31
0.0
 12
7983.842369606545
 22
1932.875160872967
 32
0.0
 13
7983.842369606545
 23
1932.875160872967
 33
0.0
  0
SOLID
  5
15407
330
153F5
100
AcDbEntity
  8
0
 62
     1
100
AcDbTrace
 10
7982.509036273213
 20
2074.875160872968
 30
0.0
 11
7985.175702939878
 21
2074.875160872968
 31
0.0
 12
7983.842369606546
 22
2082.875160872967
 32
0.0
 13
7983.842369606546
 23
2082.875160872967
 33
0.0
  0
MTEXT
  5
15408
330
153F5
100
AcDbEntity
  8
0
 62
     1
100
AcDbMText
 10
7983.842369606545
 20
2007.875160872969
 30
0.0
 40
15.0
 41
0.0
 46
0.0
 71
     5
 72
     1
  1
150mm
 11
0.0000000000000001
 21
1.0
 31
0.0
 73
     1
 44
1.0
  0
POINT
  5
15409
330
153F5
100
AcDbEntity
  8
Defpoints
 62
     0
100
AcDbPoint
 10
8033.842369606544
 20
1932.875160872967
 30
0.0
  0
POINT
  5
1540A
330
153F5
100
AcDbEntity
  8
Defpoints
 62
     0
100
AcDbPoint
 10
8033.842369606546
 20
2082.875160872967
 30
0.0
  0
POINT
  5
1540B
330
153F5
100
AcDbEntity
  8
Defpoints
 62
     0
100
AcDbPoint
 10
7983.842369606546
 20
2082.875160872967
 30
0.0
  0
ENDBLK
  5
15401
330
153F5
100
AcDbEntity
  8
0
100
AcDbBlockEnd
  0
BLOCK
  5
15418
330
1540D
100
AcDbEntity
  8
0
100
AcDbBlockBegin
  2
*D22
 70
     1
 10
0.0
 20
0.0
 30
0.0
  3
*D22
  1

  0
LINE
  5
1541B
330
1540D
100
AcDbEntity
  8
0
 62
     1
370
    15
100
AcDbLine
 10
8033.842369606546
 20
2443.87516087297
 30
0.0
 11
8033.842369606546
 21
2543.87516087297
 31
0.0
  0
LINE
  5
1541C
330
1540D
100
AcDbEntity
  8
0
 62
     1
370
    15
100
AcDbLine
 10
8948.242369606546
 20
2443.87516087297
 30
0.0
 11
8948.242369606546
 21
2543.87516087297
 31
0.0
  0
LINE
  5
1541D
330
1540D
100
AcDbEntity
  8
0
 62
     1
370
    15
100
AcDbLine
 10
8041.842369606547
 20
2540.87516087297
 30
0.0
 11
8393.042369606545
 21
2540.87516087297
 31
0.0
  0
LINE
  5
1541E
330
1540D
100
AcDbEntity
  8
0
 62
     1
370
    15
100
AcDbLine
 10
8940.242369606547
 20
2540.87516087297
 30
0.0
 11
8589.042369606547
 21
2540.87516087297
 31
0.0
  0
SOLID
  5
1541F
330
1540D
100
AcDbEntity
  8
0
 62
     1
100
AcDbTrace
 10
8041.842369606547
 20
2542.208494206303
 30
0.0
 11
8041.842369606547
 21
2539.541827539636
 31
0.0
 12
8033.842369606546
 22
2540.87516087297
 32
0.0
 13
8033.842369606546
 23
2540.87516087297
 33
0.0
  0
SOLID
  5
15420
330
1540D
100
AcDbEntity
  8
0
 62
     1
100
AcDbTrace
 10
8940.242369606547
 20
2542.208494206303
 30
0.0
 11
8940.242369606547
 21
2539.541827539636
 31
0.0
 12
8948.242369606546
 22
2540.87516087297
 32
0.0
 13
8948.242369606546
 23
2540.87516087297
 33
0.0
  0
MTEXT
  5
15421
330
1540D
100
AcDbEntity
  8
0
 62
     1
100
AcDbMText
 10
8491.042369606546
 20
2540.87516087297
 30
0.0
 40
15.0
 41
0.0
 46
0.0
 71
     5
 72
     1
  1
914.4mm [36.00"]
 73
     1
 44
1.0
  0
POINT
  5
15422
330
1540D
100
AcDbEntity
  8
Defpoints
 62
     0
100
AcDbPoint
 10
8033.842369606546
 20
2440.87516087297
 30
0.0
  0
POINT
  5
15423
330
1540D
100
AcDbEntity
  8
Defpoints
 62
     0
100
AcDbPoint
 10
8948.242369606546
 20
2440.87516087297
 30
0.0
  0
POINT
  5
15424
330
1540D
100
AcDbEntity
  8
Defpoints
 62
     0
100
AcDbPoint
 10
8948.242369606546
 20
2540.87516087297
 30
0.0
  0
ENDBLK
  5
15419
330
1540D
100
AcDbEntity
  8
0
100
AcDbBlockEnd
  0
BLOCK
  5
15432
330
15427
100
AcDbEntity
  8
0
100
AcDbBlockBegin
  2
*D23
 70
     1
 10
0.0
 20
0.0
 30
0.0
  3
*D23
  1

  0
LINE
  5
15435
330
15427
100
AcDbEntity
  8
0
 62
     1
370
    15
100
AcDbLine
 10
8922.842369606547
 20
2408.47516087297
 30
0.0
 11
8922.842369606547
 21
2493.87516087297
 31
0.0
  0
LINE
  5
15436
330
15427
100
AcDbEntity
  8
0
 62
     1
370
    15
100
AcDbLine
 10
8059.242369606547
 20
2408.47516087297
 30
0.0
 11
8059.242369606547
 21
2493.87516087297
 31
0.0
  0
LINE
  5
15437
330
15427
100
AcDbEntity
  8
0
 62
     1
370
    15
100
AcDbLine
 10
8914.842369606548
 20
2490.87516087297
 30
0.0
 11
8591.542369606548
 21
2490.87516087297
 31
0.0
  0
LINE
  5
15438
330
15427
100
AcDbEntity
  8
0
 62
     1
370
    15
100
AcDbLine
 10
8067.242369606548
 20
2490.87516087297
 30
0.0
 11
8390.542369606547
 21
2490.87516087297
 31
0.0
  0
SOLID
  5
15439
330
15427
100
AcDbEntity
  8
0
 62
     1
100
AcDbTrace
 10
8914.842369606548
 20
2492.208494206303
 30
0.0
 11
8914.842369606548
 21
2489.541827539636
 31
0.0
 12
8922.842369606547
 22
2490.87516087297
 32
0.0
 13
8922.842369606547
 23
2490.87516087297
 33
0.0
  0
SOLID
  5
1543A
330
15427
100
AcDbEntity
  8
0
 62
     1
100
AcDbTrace
 10
8067.242369606548
 20
2492.208494206303
 30
0.0
 11
8067.242369606548
 21
2489.541827539636
 31
0.0
 12
8059.242369606547
 22
2490.87516087297
 32
0.0
 13
8059.242369606547
 23
2490.87516087297
 33
0.0
  0
MTEXT
  5
1543B
330
15427
100
AcDbEntity
  8
0
 62
     1
100
AcDbMText
 10
8491.042369606548
 20
2490.87516087297
 30
0.0
 40
15.0
 41
0.0
 46
0.0
 71
     5
 72
     1
  1
863.6mm [34.00"]
 73
     1
 44
1.0
  0
POINT
  5
1543C
330
15427
100
AcDbEntity
  8
Defpoints
 62
     0
100
AcDbPoint
 10
8922.842369606547
 20
2405.47516087297
 30
0.0
  0
POINT
  5
1543D
330
15427
100
AcDbEntity
  8
Defpoints
 62
     0
100
AcDbPoint
 10
8059.242369606547
 20
2405.47516087297
 30
0.0
  0
POINT
  5
1543E
330
15427
100
AcDbEntity
  8
Defpoints
 62
     0
100
AcDbPoint
 10
8059.242369606547
 20
2490.87516087297
 30
0.0
  0
ENDBLK
  5
15433
330
15427
100
AcDbEntity
  8
0
100
AcDbBlockEnd
  0
BLOCK
  5
1544C
330
15441
100
AcDbEntity
  8
0
100
AcDbBlockBegin
  2
*D24
 70
     1
 10
0.0
 20
0.0
 30
0.0
  3
*D24
  1

  0
LINE
  5
1544F
330
15441
100
AcDbEntity
  8
0
 62
     1
370
    15
100
AcDbLine
 10
8494.042369606546
 20
1882.07516087297
 30
0.0
 11
9101.242369606547
 21
1882.075160872969
 31
0.0
  0
LINE
  5
15450
330
15441
100
AcDbEntity
  8
0
 62
     1
370
    15
100
AcDbLine
 10
8951.242369606546
 20
2440.87516087297
 30
0.0
 11
9101.242369606547
 21
2440.87516087297
 31
0.0
  0
LINE
  5
15451
330
15441
100
AcDbEntity
  8
0
 62
     1
370
    15
100
AcDbLine
 10
9098.242369606547
 20
1890.075160872969
 30
0.0
 11
9098.242369606547
 21
2060.97516087297
 31
0.0
  0
LINE
  5
15452
330
15441
100
AcDbEntity
  8
0
 62
     1
370
    15
100
AcDbLine
 10
9098.242369606547
 20
2432.87516087297
 30
0.0
 11
9098.242369606547
 21
2261.975160872969
 31
0.0
  0
SOLID
  5
15453
330
15441
100
AcDbEntity
  8
0
 62
     1
100
AcDbTrace
 10
9096.909036273213
 20
1890.075160872969
 30
0.0
 11
9099.575702939882
 21
1890.075160872969
 31
0.0
 12
9098.242369606547
 22
1882.075160872969
 32
0.0
 13
9098.242369606547
 23
1882.075160872969
 33
0.0
  0
SOLID
  5
15454
330
15441
100
AcDbEntity
  8
0
 62
     1
100
AcDbTrace
 10
9096.909036273213
 20
2432.87516087297
 30
0.0
 11
9099.575702939882
 21
2432.87516087297
 31
0.0
 12
9098.242369606547
 22
2440.87516087297
 32
0.0
 13
9098.242369606547
 23
2440.87516087297
 33
0.0
  0
MTEXT
  5
15455
330
15441
100
AcDbEntity
  8
0
 62
     1
100
AcDbMText
 10
9098.242369606547
 20
2161.475160872971
 30
0.0
 40
15.0
 41
0.0
 46
0.0
 71
     5
 72
     1
  1
558.8mm [22.00"]
 11
0.0000000000000001
 21
1.0
 31
0.0
 73
     1
 44
1.0
  0
POINT
  5
15456
330
15441
100
AcDbEntity
  8
Defpoints
 62
     0
100
AcDbPoint
 10
8491.042369606546
 20
1882.07516087297
 30
0.0
  0
POINT
  5
15457
330
15441
100
AcDbEntity
  8
Defpoints
 62
     0
100
AcDbPoint
 10
8948.242369606546
 20
2440.87516087297
 30
0.0
  0
POINT
  5
15458
330
15441
100
AcDbEntity
  8
Defpoints
 62
     0
100
AcDbPoint
 10
9098.242369606547
 20
2440.87516087297
 30
0.0
  0
ENDBLK
  5
1544D
330
15441
100
AcDbEntity
  8
0
100
AcDbBlockEnd
  0
BLOCK
  5
15466
330
1545B
100
AcDbEntity
  8
0
100
AcDbBlockBegin
  2
*D25
 70
     1
 10
0.0
 20
0.0
 30
0.0
  3
*D25
  1

  0
LINE
  5
15469
330
1545B
100
AcDbEntity
  8
0
 62
     1
370
    15
100
AcDbLine
 10
8951.242369606546
 20
2440.87516087297
 30
0.0
 11
9051.242369606546
 21
2440.87516087297
 31
0.0
  0
LINE
  5
1546A
330
1545B
100
AcDbEntity
  8
0
 62
     1
370
    15
100
AcDbLine
 10
8951.242369606546
 20
1932.875160872969
 30
0.0
 11
9051.242369606546
 21
1932.875160872969
 31
0.0
  0
LINE
  5
1546B
330
1545B
100
AcDbEntity
  8
0
 62
     1
370
    15
100
AcDbLine
 10
9048.242369606546
 20
2432.87516087297
 30
0.0
 11
9048.242369606546
 21
2274.87516087297
 31
0.0
  0
LINE
  5
1546C
330
1545B
100
AcDbEntity
  8
0
 62
     1
370
    15
100
AcDbLine
 10
9048.242369606546
 20
1940.87516087297
 30
0.0
 11
9048.242369606546
 21
2098.87516087297
 31
0.0
  0
SOLID
  5
1546D
330
1545B
100
AcDbEntity
  8
0
 62
     1
100
AcDbTrace
 10
9046.909036273213
 20
2432.87516087297
 30
0.0
 11
9049.575702939881
 21
2432.87516087297
 31
0.0
 12
9048.242369606546
 22
2440.87516087297
 32
0.0
 13
9048.242369606546
 23
2440.87516087297
 33
0.0
  0
SOLID
  5
1546E
330
1545B
100
AcDbEntity
  8
0
 62
     1
100
AcDbTrace
 10
9046.909036273213
 20
1940.87516087297
 30
0.0
 11
9049.575702939881
 21
1940.87516087297
 31
0.0
 12
9048.242369606546
 22
1932.875160872969
 32
0.0
 13
9048.242369606546
 23
1932.875160872969
 33
0.0
  0
MTEXT
  5
1546F
330
1545B
100
AcDbEntity
  8
0
 62
     1
100
AcDbMText
 10
9048.242369606546
 20
2186.875160872971
 30
0.0
 40
15.0
 41
0.0
 46
0.0
 71
     5
 72
     1
  1
508mm [20.00"]
 11
0.0000000000000001
 21
1.0
 31
0.0
 73
     1
 44
1.0
  0
POINT
  5
15470
330
1545B
100
AcDbEntity
  8
Defpoints
 62
     0
100
AcDbPoint
 10
8948.242369606546
 20
2440.87516087297
 30
0.0
  0
POINT
  5
15471
330
1545B
100
AcDbEntity
  8
Defpoints
 62
     0
100
AcDbPoint
 10
8948.242369606546
 20
1932.875160872969
 30
0.0
  0
POINT
  5
15472
330
1545B
100
AcDbEntity
  8
Defpoints
 62
     0
100
AcDbPoint
 10
9048.242369606546
 20
1932.875160872969
 30
0.0
  0
ENDBLK
  5
15467
330
1545B
100
AcDbEntity
  8
0
100
AcDbBlockEnd
  0
BLOCK
  5
15480
330
15475
100
AcDbEntity
  8
0
100
AcDbBlockBegin
  2
*D26
 70
     1
 10
0.0
 20
0.0
 30
0.0
  3
*D26
  1

  0
LINE
  5
15483
330
15475
100
AcDbEntity
  8
0
 62
     1
370
    15
100
AcDbLine
 10
8915.842369606547
 20
1958.275160872969
 30
0.0
 11
9001.242369606547
 21
1958.275160872969
 31
0.0
  0
LINE
  5
15484
330
15475
100
AcDbEntity
  8
0
 62
     1
370
    15
100
AcDbLine
 10
8915.842369606547
 20
2415.47516087297
 30
0.0
 11
9001.242369606547
 21
2415.47516087297
 31
0.0
  0
LINE
  5
15485
330
15475
100
AcDbEntity
  8
0
 62
     1
370
    15
100
AcDbLine
 10
8998.242369606547
 20
1966.275160872969
 30
0.0
 11
8998.242369606547
 21
2088.87516087297
 31
0.0
  0
LINE
  5
15486
330
15475
100
AcDbEntity
  8
0
 62
     1
370
    15
100
AcDbLine
 10
8998.242369606547
 20
2407.47516087297
 30
0.0
 11
8998.242369606547
 21
2284.87516087297
 31
0.0
  0
SOLID
  5
15487
330
15475
100
AcDbEntity
  8
0
 62
     1
100
AcDbTrace
 10
8996.909036273214
 20
1966.275160872969
 30
0.0
 11
8999.575702939882
 21
1966.275160872969
 31
0.0
 12
8998.242369606547
 22
1958.275160872969
 32
0.0
 13
8998.242369606547
 23
1958.275160872969
 33
0.0
  0
SOLID
  5
15488
330
15475
100
AcDbEntity
  8
0
 62
     1
100
AcDbTrace
 10
8996.909036273214
 20
2407.47516087297
 30
0.0
 11
8999.575702939882
 21
2407.47516087297
 31
0.0
 12
8998.242369606547
 22
2415.47516087297
 32
0.0
 13
8998.242369606547
 23
2415.47516087297
 33
0.0
  0
MTEXT
  5
15489
330
15475
100
AcDbEntity
  8
0
 62
     1
100
AcDbMText
 10
8998.242369606547
 20
2186.875160872971
 30
0.0
 40
15.0
 41
0.0
 46
0.0
 71
     5
 72
     1
  1
457.2mm [18.00"]
 11
0.0000000000000001
 21
1.0
 31
0.0
 73
     1
 44
1.0
  0
POINT
  5
1548A
330
15475
100
AcDbEntity
  8
Defpoints
 62
     0
100
AcDbPoint
 10
8912.842369606549
 20
1958.275160872969
 30
0.0
  0
POINT
  5
1548B
330
15475
100
AcDbEntity
  8
Defpoints
 62
     0
100
AcDbPoint
 10
8912.842369606549
 20
2415.47516087297
 30
0.0
  0
POINT
  5
1548C
330
15475
100
AcDbEntity
  8
Defpoints
 62
     0
100
AcDbPoint
 10
8998.242369606547
 20
2415.47516087297
 30
0.0
  0
ENDBLK
  5
15481
330
15475
100
AcDbEntity
  8
0
100
AcDbBlockEnd
  0
BLOCK
  5
1549A
330
1548F
100
AcDbEntity
  8
0
100
AcDbBlockBegin
  2
*D27
 70
     1
 10
0.0
 20
0.0
 30
0.0
  3
*D27
  1

  0
LINE
  5
1549D
330
1548F
100
AcDbEntity
  8
0
 62
     1
370
    15
100
AcDbLine
 10
8951.242369606546
 20
1782.075160872969
 30
0.0
 11
9001.242369606547
 21
1782.075160872969
 31
0.0
  0
LINE
  5
1549E
330
1548F
100
AcDbEntity
  8
0
 62
     1
370
    15
100
AcDbLine
 10
8539.042369606546
 20
1553.475160872969
 30
0.0
 11
9001.242369606547
 21
1553.475160872969
 31
0.0
  0
LINE
  5
1549F
330
1548F
100
AcDbEntity
  8
0
 62
     1
370
    15
100
AcDbLine
 10
8998.242369606547
 20
1774.075160872969
 30
0.0
 11
8998.242369606547
 21
1760.775160872969
 31
0.0
  0
LINE
  5
154A0
330
1548F
100
AcDbEntity
  8
0
 62
     1
370
    15
100
AcDbLine
 10
8998.242369606547
 20
1561.475160872969
 30
0.0
 11
8998.242369606547
 21
1574.775160872969
 31
0.0
  0
SOLID
  5
154A1
330
1548F
100
AcDbEntity
  8
0
 62
     1
100
AcDbTrace
 10
8996.909036273214
 20
1774.075160872969
 30
0.0
 11
8999.575702939882
 21
1774.075160872969
 31
0.0
 12
8998.242369606547
 22
1782.075160872969
 32
0.0
 13
8998.242369606547
 23
1782.075160872969
 33
0.0
  0
SOLID
  5
154A2
330
1548F
100
AcDbEntity
  8
0
 62
     1
100
AcDbTrace
 10
8996.909036273214
 20
1561.475160872969
 30
0.0
 11
8999.575702939882
 21
1561.475160872969
 31
0.0
 12
8998.242369606547
 22
1553.475160872969
 32
0.0
 13
8998.242369606547
 23
1553.475160872969
 33
0.0
  0
MTEXT
  5
154A3
330
1548F
100
AcDbEntity
  8
0
 62
     1
100
AcDbMText
 10
8998.242369606547
 20
1667.775160872971
 30
0.0
 40
15.0
 41
0.0
 46
0.0
 71
     5
 72
     1
  1
228.6mm [9.00"]
 11
0.0000000000000001
 21
1.0
 31
0.0
 73
     1
 44
1.0
  0
POINT
  5
154A4
330
1548F
100
AcDbEntity
  8
Defpoints
 62
     0
100
AcDbPoint
 10
8948.242369606546
 20
1782.075160872969
 30
0.0
  0
POINT
  5
154A5
330
1548F
100
AcDbEntity
  8
Defpoints
 62
     0
100
AcDbPoint
 10
8536.042369606546
 20
1553.475160872969
 30
0.0
  0
POINT
  5
154A6
330
1548F
100
AcDbEntity
  8
Defpoints
 62
     0
100
AcDbPoint
 10
8998.242369606547
 20
1553.475160872969
 30
0.0
  0
ENDBLK
  5
1549B
330
1548F
100
AcDbEntity
  8
0
100
AcDbBlockEnd
  0
BLOCK
  5
15872
330
15867
100
AcDbEntity
  8
0
100
AcDbBlockBegin
  2
*D28
 70
     1
 10
0.0
 20
0.0
 30
0.0
  3
*D28
  1

  0
LINE
  5
1588C
330
15867
100
AcDbEntity
  8
0
 62
     1
370
    15
100
AcDbLine
 10
5837.642369606546
 20
1747.075160872969
 30
0.0
 11
5887.642369606546
 21
1747.075160872969
 31
0.0
  0
LINE
  5
1588D
330
15867
100
AcDbEntity
  8
0
 62
     1
370
    15
100
AcDbLine
 10
5837.642369606546
 20
1782.07516087297
 30
0.0
 11
5887.642369606546
 21
1782.07516087297
 31
0.0
  0
LINE
  5
1588E
330
15867
100
AcDbEntity
  8
0
 62
     1
370
    15
100
AcDbLine
 10
5884.642369606547
 20
1755.075160872969
 30
0.0
 11
5884.642369606547
 21
1774.07516087297
 31
0.0
  0
LINE
  5
1588F
330
15867
100
AcDbEntity
  8
0
 62
     1
370
    15
100
AcDbLine
 10
5884.642369606547
 20
1782.07516087297
 30
0.0
 11
5884.642369606547
 21
1790.07516087297
 31
0.0
  0
SOLID
  5
15890
330
15867
100
AcDbEntity
  8
0
 62
     1
100
AcDbTrace
 10
5883.309036273214
 20
1755.075160872969
 30
0.0
 11
5885.97570293988
 21
1755.075160872969
 31
0.0
 12
5884.642369606547
 22
1747.075160872969
 32
0.0
 13
5884.642369606547
 23
1747.075160872969
 33
0.0
  0
SOLID
  5
15891
330
15867
100
AcDbEntity
  8
0
 62
     1
100
AcDbTrace
 10
5883.309036273214
 20
1774.07516087297
 30
0.0
 11
5885.97570293988
 21
1774.07516087297
 31
0.0
 12
5884.642369606547
 22
1782.07516087297
 32
0.0
 13
5884.642369606547
 23
1782.07516087297
 33
0.0
  0
MTEXT
  5
15892
330
15867
100
AcDbEntity
  8
0
 62
     1
100
AcDbMText
 10
5884.642369606547
 20
1820.57516087297
 30
0.0
 40
15.0
 41
0.0
 46
0.0
 71
     5
 72
     1
  1
35mm
 11
0.0000000000000001
 21
1.0
 31
0.0
 73
     1
 44
1.0
  0
POINT
  5
15893
330
15867
100
AcDbEntity
  8
Defpoints
 62
     0
100
AcDbPoint
 10
5834.642369606547
 20
1747.075160872969
 30
0.0
  0
POINT
  5
15894
330
15867
100
AcDbEntity
  8
Defpoints
 62
     0
100
AcDbPoint
 10
5834.642369606547
 20
1782.07516087297
 30
0.0
  0
POINT
  5
15895
330
15867
100
AcDbEntity
  8
Defpoints
 62
     0
100
AcDbPoint
 10
5884.642369606547
 20
1782.07516087297
 30
0.0
  0
ENDBLK
  5
15873
330
15867
100
AcDbEntity
  8
0
100
AcDbBlockEnd
  0
BLOCK
  5
15938
330
1592D
100
AcDbEntity
  8
0
100
AcDbBlockBegin
  2
*D29
 70
     1
 10
0.0
 20
0.0
 30
0.0
  3
*D29
  1

  0
LINE
  5
1593A
330
1592D
100
AcDbEntity
  8
0
 62
     1
370
    15
100
AcDbLine
 10
7137.742369606548
 20
1747.075160872969
 30
0.0
 11
7187.742369606548
 21
1747.075160872969
 31
0.0
  0
LINE
  5
1593B
330
1592D
100
AcDbEntity
  8
0
 62
     1
370
    15
100
AcDbLine
 10
7137.742369606548
 20
1782.07516087297
 30
0.0
 11
7187.742369606548
 21
1782.07516087297
 31
0.0
  0
LINE
  5
1593C
330
1592D
100
AcDbEntity
  8
0
 62
     1
370
    15
100
AcDbLine
 10
7184.742369606547
 20
1755.075160872969
 30
0.0
 11
7184.742369606547
 21
1774.07516087297
 31
0.0
  0
LINE
  5
1593D
330
1592D
100
AcDbEntity
  8
0
 62
     1
370
    15
100
AcDbLine
 10
7184.742369606547
 20
1782.07516087297
 30
0.0
 11
7184.742369606547
 21
1790.07516087297
 31
0.0
  0
SOLID
  5
1593E
330
1592D
100
AcDbEntity
  8
0
 62
     1
100
AcDbTrace
 10
7183.409036273214
 20
1755.075160872969
 30
0.0
 11
7186.07570293988
 21
1755.075160872969
 31
0.0
 12
7184.742369606547
 22
1747.075160872969
 32
0.0
 13
7184.742369606547
 23
1747.075160872969
 33
0.0
  0
SOLID
  5
1593F
330
1592D
100
AcDbEntity
  8
0
 62
     1
100
AcDbTrace
 10
7183.409036273214
 20
1774.07516087297
 30
0.0
 11
7186.07570293988
 21
1774.07516087297
 31
0.0
 12
7184.742369606547
 22
1782.07516087297
 32
0.0
 13
7184.742369606547
 23
1782.07516087297
 33
0.0
  0
MTEXT
  5
15940
330
1592D
100
AcDbEntity
  8
0
 62
     1
100
AcDbMText
 10
7184.742369606547
 20
1820.575160872971
 30
0.0
 40
15.0
 41
0.0
 46
0.0
 71
     5
 72
     1
  1
35mm
 11
0.0000000000000001
 21
1.0
 31
0.0
 73
     1
 44
1.0
  0
POINT
  5
15941
330
1592D
100
AcDbEntity
  8
Defpoints
 62
     0
100
AcDbPoint
 10
7134.742369606548
 20
1747.075160872969
 30
0.0
  0
POINT
  5
15942
330
1592D
100
AcDbEntity
  8
Defpoints
 62
     0
100
AcDbPoint
 10
7134.742369606548
 20
1782.07516087297
 30
0.0
  0
POINT
  5
15943
330
1592D
100
AcDbEntity
  8
Defpoints
 62
     0
100
AcDbPoint
 10
7184.742369606547
 20
1782.07516087297
 30
0.0
  0
ENDBLK
  5
15939
330
1592D
100
AcDbEntity
  8
0
100
AcDbBlockEnd
  0
BLOCK
  5
15955
330
1594A
100
AcDbEntity
  8
0
100
AcDbBlockBegin
  2
*D30
 70
     1
 10
0.0
 20
0.0
 30
0.0
  3
*D30
  1

  0
LINE
  5
15957
330
1594A
100
AcDbEntity
  8
0
 62
     1
370
    15
100
AcDbLine
 10
8514.042369606547
 20
1747.075160872969
 30
0.0
 11
8564.042369606548
 21
1747.075160872969
 31
0.0
  0
LINE
  5
15958
330
1594A
100
AcDbEntity
  8
0
 62
     1
370
    15
100
AcDbLine
 10
8514.042369606547
 20
1782.07516087297
 30
0.0
 11
8564.042369606548
 21
1782.07516087297
 31
0.0
  0
LINE
  5
15959
330
1594A
100
AcDbEntity
  8
0
 62
     1
370
    15
100
AcDbLine
 10
8561.042369606548
 20
1755.075160872969
 30
0.0
 11
8561.042369606548
 21
1774.07516087297
 31
0.0
  0
LINE
  5
1595A
330
1594A
100
AcDbEntity
  8
0
 62
     1
370
    15
100
AcDbLine
 10
8561.042369606548
 20
1782.07516087297
 30
0.0
 11
8561.042369606548
 21
1790.07516087297
 31
0.0
  0
SOLID
  5
1595B
330
1594A
100
AcDbEntity
  8
0
 62
     1
100
AcDbTrace
 10
8559.709036273215
 20
1755.075160872969
 30
0.0
 11
8562.375702939881
 21
1755.075160872969
 31
0.0
 12
8561.042369606548
 22
1747.075160872969
 32
0.0
 13
8561.042369606548
 23
1747.075160872969
 33
0.0
  0
SOLID
  5
1595C
330
1594A
100
AcDbEntity
  8
0
 62
     1
100
AcDbTrace
 10
8559.709036273215
 20
1774.07516087297
 30
0.0
 11
8562.375702939881
 21
1774.07516087297
 31
0.0
 12
8561.042369606548
 22
1782.07516087297
 32
0.0
 13
8561.042369606548
 23
1782.07516087297
 33
0.0
  0
MTEXT
  5
1595D
330
1594A
100
AcDbEntity
  8
0
 62
     1
100
AcDbMText
 10
8561.042369606548
 20
1820.575160872971
 30
0.0
 40
15.0
 41
0.0
 46
0.0
 71
     5
 72
     1
  1
35mm
 11
0.0000000000000001
 21
1.0
 31
0.0
 73
     1
 44
1.0
  0
POINT
  5
1595E
330
1594A
100
AcDbEntity
  8
Defpoints
 62
     0
100
AcDbPoint
 10
8511.042369606547
 20
1747.075160872969
 30
0.0
  0
POINT
  5
1595F
330
1594A
100
AcDbEntity
  8
Defpoints
 62
     0
100
AcDbPoint
 10
8511.042369606547
 20
1782.07516087297
 30
0.0
  0
POINT
  5
15960
330
1594A
100
AcDbEntity
  8
Defpoints
 62
     0
100
AcDbPoint
 10
8561.042369606548
 20
1782.07516087297
 30
0.0
  0
ENDBLK
  5
15956
330
1594A
100
AcDbEntity
  8
0
100
AcDbBlockEnd
  0
BLOCK
  5
159B9
330
159AE
100
AcDbEntity
  8
0
100
AcDbBlockBegin
  2
*D31
 70
     1
 10
0.0
 20
0.0
 30
0.0
  3
*D31
  1

  0
LINE
  5
159DE
330
159AE
100
AcDbEntity
  8
0
 62
     1
370
    15
100
AcDbLine
 10
5817.642369606547
 20
2415.475160872971
 30
0.0
 11
5927.642369606547
 21
2415.475160872971
 31
0.0
  0
LINE
  5
159DF
330
159AE
100
AcDbEntity
  8
0
 62
     1
370
    15
100
AcDbLine
 10
5817.642369606547
 20
2295.47516087297
 30
0.0
 11
5927.642369606547
 21
2295.47516087297
 31
0.0
  0
LINE
  5
159E0
330
159AE
100
AcDbEntity
  8
0
 62
     1
370
    15
100
AcDbLine
 10
5924.642369606547
 20
2407.47516087297
 30
0.0
 11
5924.642369606547
 21
2389.72516087297
 31
0.0
  0
LINE
  5
159E1
330
159AE
100
AcDbEntity
  8
0
 62
     1
370
    15
100
AcDbLine
 10
5924.642369606547
 20
2303.47516087297
 30
0.0
 11
5924.642369606547
 21
2321.22516087297
 31
0.0
  0
SOLID
  5
159E2
330
159AE
100
AcDbEntity
  8
0
 62
     1
100
AcDbTrace
 10
5923.309036273213
 20
2407.47516087297
 30
0.0
 11
5925.975702939879
 21
2407.47516087297
 31
0.0
 12
5924.642369606547
 22
2415.475160872971
 32
0.0
 13
5924.642369606547
 23
2415.475160872971
 33
0.0
  0
SOLID
  5
159E3
330
159AE
100
AcDbEntity
  8
0
 62
     1
100
AcDbTrace
 10
5923.309036273213
 20
2303.47516087297
 30
0.0
 11
5925.975702939879
 21
2303.47516087297
 31
0.0
 12
5924.642369606547
 22
2295.47516087297
 32
0.0
 13
5924.642369606547
 23
2295.47516087297
 33
0.0
  0
MTEXT
  5
159E4
330
159AE
100
AcDbEntity
  8
0
 62
     1
100
AcDbMText
 10
5924.642369606545
 20
2355.475160872971
 30
0.0
 40
15.0
 41
0.0
 46
0.0
 71
     5
 72
     1
  1
120mm
 11
0.0000000000000001
 21
1.0
 31
0.0
 73
     1
 44
1.0
  0
POINT
  5
159E5
330
159AE
100
AcDbEntity
  8
Defpoints
 62
     0
100
AcDbPoint
 10
5814.642369606547
 20
2415.475160872971
 30
0.0
  0
POINT
  5
159E6
330
159AE
100
AcDbEntity
  8
Defpoints
 62
     0
100
AcDbPoint
 10
5814.642369606547
 20
2295.47516087297
 30
0.0
  0
POINT
  5
159E7
330
159AE
100
AcDbEntity
  8
Defpoints
 62
     0
100
AcDbPoint
 10
5924.642369606547
 20
2295.47516087297
 30
0.0
  0
ENDBLK
  5
159BA
330
159AE
100
AcDbEntity
  8
0
100
AcDbBlockEnd
  0
BLOCK
  5
159FC
330
159F1
100
AcDbEntity
  8
0
100
AcDbBlockBegin
  2
*D32
 70
     1
 10
0.0
 20
0.0
 30
0.0
  3
*D32
  1

  0
LINE
  5
159FE
330
159F1
100
AcDbEntity
  8
0
 62
     1
370
    15
100
AcDbLine
 10
7117.742369606547
 20
2415.47516087297
 30
0.0
 11
7227.742369606547
 21
2415.475160872969
 31
0.0
  0
LINE
  5
159FF
330
159F1
100
AcDbEntity
  8
0
 62
     1
370
    15
100
AcDbLine
 10
7117.742369606547
 20
2295.475160872969
 30
0.0
 11
7227.742369606547
 21
2295.475160872969
 31
0.0
  0
LINE
  5
15A00
330
159F1
100
AcDbEntity
  8
0
 62
     1
370
    15
100
AcDbLine
 10
7224.742369606547
 20
2407.47516087297
 30
0.0
 11
7224.742369606547
 21
2389.725160872969
 31
0.0
  0
LINE
  5
15A01
330
159F1
100
AcDbEntity
  8
0
 62
     1
370
    15
100
AcDbLine
 10
7224.742369606547
 20
2303.475160872969
 30
0.0
 11
7224.742369606547
 21
2321.22516087297
 31
0.0
  0
SOLID
  5
15A02
330
159F1
100
AcDbEntity
  8
0
 62
     1
100
AcDbTrace
 10
7223.409036273214
 20
2407.47516087297
 30
0.0
 11
7226.07570293988
 21
2407.47516087297
 31
0.0
 12
7224.742369606547
 22
2415.475160872969
 32
0.0
 13
7224.742369606547
 23
2415.475160872969
 33
0.0
  0
SOLID
  5
15A03
330
159F1
100
AcDbEntity
  8
0
 62
     1
100
AcDbTrace
 10
7223.409036273214
 20
2303.475160872969
 30
0.0
 11
7226.07570293988
 21
2303.475160872969
 31
0.0
 12
7224.742369606547
 22
2295.475160872969
 32
0.0
 13
7224.742369606547
 23
2295.475160872969
 33
0.0
  0
MTEXT
  5
15A04
330
159F1
100
AcDbEntity
  8
0
 62
     1
100
AcDbMText
 10
7224.742369606547
 20
2355.475160872971
 30
0.0
 40
15.0
 41
0.0
 46
0.0
 71
     5
 72
     1
  1
120mm
 11
0.0000000000000001
 21
1.0
 31
0.0
 73
     1
 44
1.0
  0
POINT
  5
15A05
330
159F1
100
AcDbEntity
  8
Defpoints
 62
     0
100
AcDbPoint
 10
7114.742369606547
 20
2415.47516087297
 30
0.0
  0
POINT
  5
15A06
330
159F1
100
AcDbEntity
  8
Defpoints
 62
     0
100
AcDbPoint
 10
7114.742369606547
 20
2295.475160872969
 30
0.0
  0
POINT
  5
15A07
330
159F1
100
AcDbEntity
  8
Defpoints
 62
     0
100
AcDbPoint
 10
7224.742369606547
 20
2295.475160872969
 30
0.0
  0
ENDBLK
  5
159FD
330
159F1
100
AcDbEntity
  8
0
100
AcDbBlockEnd
  0
BLOCK
  5
15A16
330
15A0B
100
AcDbEntity
  8
0
100
AcDbBlockBegin
  2
*D33
 70
     1
 10
0.0
 20
0.0
 30
0.0
  3
*D33
  1

  0
LINE
  5
15A18
330
15A0B
100
AcDbEntity
  8
0
 62
     1
370
    15
100
AcDbLine
 10
8494.042369606548
 20
2415.47516087297
 30
0.0
 11
8604.042369606549
 21
2415.47516087297
 31
0.0
  0
LINE
  5
15A19
330
15A0B
100
AcDbEntity
  8
0
 62
     1
370
    15
100
AcDbLine
 10
8494.042369606548
 20
2295.475160872969
 30
0.0
 11
8604.042369606549
 21
2295.475160872969
 31
0.0
  0
LINE
  5
15A1A
330
15A0B
100
AcDbEntity
  8
0
 62
     1
370
    15
100
AcDbLine
 10
8601.042369606549
 20
2407.47516087297
 30
0.0
 11
8601.042369606549
 21
2389.725160872969
 31
0.0
  0
LINE
  5
15A1B
330
15A0B
100
AcDbEntity
  8
0
 62
     1
370
    15
100
AcDbLine
 10
8601.042369606549
 20
2303.475160872969
 30
0.0
 11
8601.042369606549
 21
2321.22516087297
 31
0.0
  0
SOLID
  5
15A1C
330
15A0B
100
AcDbEntity
  8
0
 62
     1
100
AcDbTrace
 10
8599.709036273214
 20
2407.47516087297
 30
0.0
 11
8602.375702939882
 21
2407.47516087297
 31
0.0
 12
8601.042369606549
 22
2415.47516087297
 32
0.0
 13
8601.042369606549
 23
2415.47516087297
 33
0.0
  0
SOLID
  5
15A1D
330
15A0B
100
AcDbEntity
  8
0
 62
     1
100
AcDbTrace
 10
8599.709036273214
 20
2303.475160872969
 30
0.0
 11
8602.375702939882
 21
2303.475160872969
 31
0.0
 12
8601.042369606549
 22
2295.475160872969
 32
0.0
 13
8601.042369606549
 23
2295.475160872969
 33
0.0
  0
MTEXT
  5
15A1E
330
15A0B
100
AcDbEntity
  8
0
 62
     1
100
AcDbMText
 10
8601.042369606549
 20
2355.475160872971
 30
0.0
 40
15.0
 41
0.0
 46
0.0
 71
     5
 72
     1
  1
120mm
 11
0.0000000000000001
 21
1.0
 31
0.0
 73
     1
 44
1.0
  0
POINT
  5
15A1F
330
15A0B
100
AcDbEntity
  8
Defpoints
 62
     0
100
AcDbPoint
 10
8491.042369606548
 20
2415.47516087297
 30
0.0
  0
POINT
  5
15A20
330
15A0B
100
AcDbEntity
  8
Defpoints
 62
     0
100
AcDbPoint
 10
8491.042369606548
 20
2295.475160872969
 30
0.0
  0
POINT
  5
15A21
330
15A0B
100
AcDbEntity
  8
Defpoints
 62
     0
100
AcDbPoint
 10
8601.042369606549
 20
2295.475160872969
 30
0.0
  0
ENDBLK
  5
15A17
330
15A0B
100
AcDbEntity
  8
0
100
AcDbBlockEnd
  0
BLOCK
  5
15B2E
330
15B23
100
AcDbEntity
  8
0
100
AcDbBlockBegin
  2
*D34
 70
     1
 10
0.0
 20
0.0
 30
0.0
  3
*D34
  1

  0
LINE
  5
15B31
330
15B23
100
AcDbEntity
  8
0
 62
     1
370
    15
100
AcDbLine
 10
5413.642369606548
 20
-536.5248391270299
 30
0.0
 11
5413.642369606548
 21
-461.3079308087235
 31
0.0
  0
LINE
  5
15B32
330
15B23
100
AcDbEntity
  8
0
 62
     1
370
    15
100
AcDbLine
 10
6215.642369606547
 20
-536.5248391270299
 30
0.0
 11
6215.642369606547
 21
-461.3079308087235
 31
0.0
  0
LINE
  5
15B33
330
15B23
100
AcDbEntity
  8
0
 62
     1
370
    15
100
AcDbLine
 10
5421.642369606548
 20
-464.3079308087235
 30
0.0
 11
5725.392369606547
 21
-464.3079308087235
 31
0.0
  0
LINE
  5
15B34
330
15B23
100
AcDbEntity
  8
0
 62
     1
370
    15
100
AcDbLine
 10
6207.642369606547
 20
-464.3079308087235
 30
0.0
 11
5903.892369606547
 21
-464.3079308087235
 31
0.0
  0
SOLID
  5
15B35
330
15B23
100
AcDbEntity
  8
0
 62
     1
100
AcDbTrace
 10
5421.642369606548
 20
-462.9745974753902
 30
0.0
 11
5421.642369606548
 21
-465.6412641420568
 31
0.0
 12
5413.642369606548
 22
-464.3079308087235
 32
0.0
 13
5413.642369606548
 23
-464.3079308087235
 33
0.0
  0
SOLID
  5
15B36
330
15B23
100
AcDbEntity
  8
0
 62
     1
100
AcDbTrace
 10
6207.642369606547
 20
-462.9745974753902
 30
0.0
 11
6207.642369606547
 21
-465.6412641420568
 31
0.0
 12
6215.642369606547
 22
-464.3079308087235
 32
0.0
 13
6215.642369606547
 23
-464.3079308087235
 33
0.0
  0
MTEXT
  5
15B37
330
15B23
100
AcDbEntity
  8
0
 62
     1
100
AcDbMText
 10
5814.642369606547
 20
-464.3079308087235
 30
0.0
 40
15.0
 41
0.0
 46
0.0
 71
     5
 72
     1
  1
802mm [31.57"]
 73
     1
 44
1.0
  0
POINT
  5
15B38
330
15B23
100
AcDbEntity
  8
Defpoints
 62
     0
100
AcDbPoint
 10
5413.642369606548
 20
-539.5248391270299
 30
0.0
  0
POINT
  5
15B39
330
15B23
100
AcDbEntity
  8
Defpoints
 62
     0
100
AcDbPoint
 10
6215.642369606547
 20
-539.5248391270299
 30
0.0
  0
POINT
  5
15B3A
330
15B23
100
AcDbEntity
  8
Defpoints
 62
     0
100
AcDbPoint
 10
6215.642369606547
 20
-464.3079308087235
 30
0.0
  0
ENDBLK
  5
15B2F
330
15B23
100
AcDbEntity
  8
0
100
AcDbBlockEnd
  0
BLOCK
  5
15B48
330
15B3D
100
AcDbEntity
  8
0
100
AcDbBlockBegin
  2
*D35
 70
     1
 10
0.0
 20
0.0
 30
0.0
  3
*D35
  1

  0
LINE
  5
15B4B
330
15B3D
100
AcDbEntity
  8
0
 62
     1
370
    15
100
AcDbLine
 10
6218.642369606547
 20
-539.5248391270299
 30
0.0
 11
6288.962950009016
 21
-539.5248391270299
 31
0.0
  0
LINE
  5
15B4C
330
15B3D
100
AcDbEntity
  8
0
 62
     1
370
    15
100
AcDbLine
 10
6218.642369606547
 20
-1147.92483912703
 30
0.0
 11
6288.962950009016
 21
-1147.92483912703
 31
0.0
  0
LINE
  5
15B4D
330
15B3D
100
AcDbEntity
  8
0
 62
     1
370
    15
100
AcDbLine
 10
6285.962950009015
 20
-547.5248391270299
 30
0.0
 11
6285.962950009015
 21
-741.9748391270301
 31
0.0
  0
LINE
  5
15B4E
330
15B3D
100
AcDbEntity
  8
0
 62
     1
370
    15
100
AcDbLine
 10
6285.962950009015
 20
-1139.92483912703
 30
0.0
 11
6285.962950009015
 21
-945.4748391270301
 31
0.0
  0
SOLID
  5
15B4F
330
15B3D
100
AcDbEntity
  8
0
 62
     1
100
AcDbTrace
 10
6284.629616675683
 20
-547.5248391270299
 30
0.0
 11
6287.29628334235
 21
-547.5248391270299
 31
0.0
 12
6285.962950009015
 22
-539.5248391270299
 32
0.0
 13
6285.962950009015
 23
-539.5248391270299
 33
0.0
  0
SOLID
  5
15B50
330
15B3D
100
AcDbEntity
  8
0
 62
     1
100
AcDbTrace
 10
6284.629616675683
 20
-1139.92483912703
 30
0.0
 11
6287.29628334235
 21
-1139.92483912703
 31
0.0
 12
6285.962950009015
 22
-1147.92483912703
 32
0.0
 13
6285.962950009015
 23
-1147.92483912703
 33
0.0
  0
MTEXT
  5
15B51
330
15B3D
100
AcDbEntity
  8
0
 62
     1
100
AcDbMText
 10
6285.962950009015
 20
-843.7248391270291
 30
0.0
 40
15.0
 41
0.0
 46
0.0
 71
     5
 72
     1
  1
608.4mm [23.95"]
 11
0.0000000000000001
 21
1.0
 31
0.0
 73
     1
 44
1.0
  0
POINT
  5
15B52
330
15B3D
100
AcDbEntity
  8
Defpoints
 62
     0
100
AcDbPoint
 10
6215.642369606547
 20
-539.5248391270299
 30
0.0
  0
POINT
  5
15B53
330
15B3D
100
AcDbEntity
  8
Defpoints
 62
     0
100
AcDbPoint
 10
6215.642369606547
 20
-1147.92483912703
 30
0.0
  0
POINT
  5
15B54
330
15B3D
100
AcDbEntity
  8
Defpoints
 62
     0
100
AcDbPoint
 10
6285.962950009015
 20
-1147.92483912703
 30
0.0
  0
ENDBLK
  5
15B49
330
15B3D
100
AcDbEntity
  8
0
100
AcDbBlockEnd
  0
BLOCK
  5
15B62
330
15B57
100
AcDbEntity
  8
0
100
AcDbBlockBegin
  2
*D36
 70
     1
 10
0.0
 20
0.0
 30
0.0
  3
*D36
  1

  0
LINE
  5
15B65
330
15B57
100
AcDbEntity
  8
0
 62
     1
370
    15
100
AcDbLine
 10
6218.642369606547
 20
-1197.92483912703
 30
0.0
 11
6288.962950009016
 21
-1197.92483912703
 31
0.0
  0
LINE
  5
15B66
330
15B57
100
AcDbEntity
  8
0
 62
     1
370
    15
100
AcDbLine
 10
6218.642369606547
 20
-1466.52483912703
 30
0.0
 11
6288.962950009016
 21
-1466.52483912703
 31
0.0
  0
LINE
  5
15B67
330
15B57
100
AcDbEntity
  8
0
 62
     1
370
    15
100
AcDbLine
 10
6285.962950009015
 20
-1205.92483912703
 30
0.0
 11
6285.962950009015
 21
-1232.97483912703
 31
0.0
  0
LINE
  5
15B68
330
15B57
100
AcDbEntity
  8
0
 62
     1
370
    15
100
AcDbLine
 10
6285.962950009015
 20
-1458.52483912703
 30
0.0
 11
6285.962950009015
 21
-1431.47483912703
 31
0.0
  0
SOLID
  5
15B69
330
15B57
100
AcDbEntity
  8
0
 62
     1
100
AcDbTrace
 10
6284.629616675683
 20
-1205.92483912703
 30
0.0
 11
6287.29628334235
 21
-1205.92483912703
 31
0.0
 12
6285.962950009015
 22
-1197.92483912703
 32
0.0
 13
6285.962950009015
 23
-1197.92483912703
 33
0.0
  0
SOLID
  5
15B6A
330
15B57
100
AcDbEntity
  8
0
 62
     1
100
AcDbTrace
 10
6284.629616675683
 20
-1458.52483912703
 30
0.0
 11
6287.29628334235
 21
-1458.52483912703
 31
0.0
 12
6285.962950009015
 22
-1466.52483912703
 32
0.0
 13
6285.962950009015
 23
-1466.52483912703
 33
0.0
  0
MTEXT
  5
15B6B
330
15B57
100
AcDbEntity
  8
0
 62
     1
100
AcDbMText
 10
6285.962950009015
 20
-1332.224839127029
 30
0.0
 40
15.0
 41
0.0
 46
0.0
 71
     5
 72
     1
  1
268.6mm [10.57"]
 11
0.0000000000000001
 21
1.0
 31
0.0
 73
     1
 44
1.0
  0
POINT
  5
15B6C
330
15B57
100
AcDbEntity
  8
Defpoints
 62
     0
100
AcDbPoint
 10
6215.642369606547
 20
-1197.92483912703
 30
0.0
  0
POINT
  5
15B6D
330
15B57
100
AcDbEntity
  8
Defpoints
 62
     0
100
AcDbPoint
 10
6215.642369606547
 20
-1466.52483912703
 30
0.0
  0
POINT
  5
15B6E
330
15B57
100
AcDbEntity
  8
Defpoints
 62
     0
100
AcDbPoint
 10
6285.962950009015
 20
-1466.52483912703
 30
0.0
  0
ENDBLK
  5
15B63
330
15B57
100
AcDbEntity
  8
0
100
AcDbBlockEnd
  0
BLOCK
  5
15B7C
330
15B71
100
AcDbEntity
  8
0
100
AcDbBlockBegin
  2
*D37
 70
     1
 10
0.0
 20
0.0
 30
0.0
  3
*D37
  1

  0
LINE
  5
15B7F
330
15B71
100
AcDbEntity
  8
0
 62
     1
370
    15
100
AcDbLine
 10
6675.642369606546
 20
-536.5248391270299
 30
0.0
 11
6675.642369606546
 21
-461.3079308087235
 31
0.0
  0
LINE
  5
15B80
330
15B71
100
AcDbEntity
  8
0
 62
     1
370
    15
100
AcDbLine
 10
7553.842369606546
 20
-536.5248391270299
 30
0.0
 11
7553.842369606546
 21
-461.3079308087235
 31
0.0
  0
LINE
  5
15B81
330
15B71
100
AcDbEntity
  8
0
 62
     1
370
    15
100
AcDbLine
 10
6683.642369606547
 20
-464.3079308087235
 30
0.0
 11
7011.742369606547
 21
-464.3079308087235
 31
0.0
  0
LINE
  5
15B82
330
15B71
100
AcDbEntity
  8
0
 62
     1
370
    15
100
AcDbLine
 10
7545.842369606546
 20
-464.3079308087235
 30
0.0
 11
7217.742369606547
 21
-464.3079308087235
 31
0.0
  0
SOLID
  5
15B83
330
15B71
100
AcDbEntity
  8
0
 62
     1
100
AcDbTrace
 10
6683.642369606547
 20
-462.9745974753902
 30
0.0
 11
6683.642369606547
 21
-465.6412641420568
 31
0.0
 12
6675.642369606546
 22
-464.3079308087235
 32
0.0
 13
6675.642369606546
 23
-464.3079308087235
 33
0.0
  0
SOLID
  5
15B84
330
15B71
100
AcDbEntity
  8
0
 62
     1
100
AcDbTrace
 10
7545.842369606546
 20
-462.9745974753902
 30
0.0
 11
7545.842369606546
 21
-465.6412641420568
 31
0.0
 12
7553.842369606546
 22
-464.3079308087235
 32
0.0
 13
7553.842369606546
 23
-464.3079308087235
 33
0.0
  0
MTEXT
  5
15B85
330
15B71
100
AcDbEntity
  8
0
 62
     1
100
AcDbMText
 10
7114.742369606547
 20
-464.3079308087235
 30
0.0
 40
15.0
 41
0.0
 46
0.0
 71
     5
 72
     1
  1
878.2mm [34.57"]
 73
     1
 44
1.0
  0
POINT
  5
15B86
330
15B71
100
AcDbEntity
  8
Defpoints
 62
     0
100
AcDbPoint
 10
6675.642369606546
 20
-539.5248391270299
 30
0.0
  0
POINT
  5
15B87
330
15B71
100
AcDbEntity
  8
Defpoints
 62
     0
100
AcDbPoint
 10
7553.842369606546
 20
-539.5248391270299
 30
0.0
  0
POINT
  5
15B88
330
15B71
100
AcDbEntity
  8
Defpoints
 62
     0
100
AcDbPoint
 10
7553.842369606546
 20
-464.3079308087235
 30
0.0
  0
ENDBLK
  5
15B7D
330
15B71
100
AcDbEntity
  8
0
100
AcDbBlockEnd
  0
BLOCK
  5
15B96
330
15B8B
100
AcDbEntity
  8
0
100
AcDbBlockBegin
  2
*D38
 70
     1
 10
0.0
 20
0.0
 30
0.0
  3
*D38
  1

  0
LINE
  5
15B99
330
15B8B
100
AcDbEntity
  8
0
 62
     1
370
    15
100
AcDbLine
 10
7556.842369606546
 20
-539.5248391270299
 30
0.0
 11
7638.957354779567
 21
-539.5248391270299
 31
0.0
  0
LINE
  5
15B9A
330
15B8B
100
AcDbEntity
  8
0
 62
     1
370
    15
100
AcDbLine
 10
7556.842369606546
 20
-1147.92483912703
 30
0.0
 11
7638.957354779567
 21
-1147.92483912703
 31
0.0
  0
LINE
  5
15B9B
330
15B8B
100
AcDbEntity
  8
0
 62
     1
370
    15
100
AcDbLine
 10
7635.957354779566
 20
-547.5248391270299
 30
0.0
 11
7635.957354779566
 21
-741.9748391270301
 31
0.0
  0
LINE
  5
15B9C
330
15B8B
100
AcDbEntity
  8
0
 62
     1
370
    15
100
AcDbLine
 10
7635.957354779566
 20
-1139.92483912703
 30
0.0
 11
7635.957354779566
 21
-945.4748391270301
 31
0.0
  0
SOLID
  5
15B9D
330
15B8B
100
AcDbEntity
  8
0
 62
     1
100
AcDbTrace
 10
7634.624021446232
 20
-547.5248391270299
 30
0.0
 11
7637.2906881129
 21
-547.5248391270299
 31
0.0
 12
7635.957354779566
 22
-539.5248391270299
 32
0.0
 13
7635.957354779566
 23
-539.5248391270299
 33
0.0
  0
SOLID
  5
15B9E
330
15B8B
100
AcDbEntity
  8
0
 62
     1
100
AcDbTrace
 10
7634.624021446232
 20
-1139.92483912703
 30
0.0
 11
7637.2906881129
 21
-1139.92483912703
 31
0.0
 12
7635.957354779566
 22
-1147.92483912703
 32
0.0
 13
7635.957354779566
 23
-1147.92483912703
 33
0.0
  0
MTEXT
  5
15B9F
330
15B8B
100
AcDbEntity
  8
0
 62
     1
100
AcDbMText
 10
7635.957354779566
 20
-843.7248391270289
 30
0.0
 40
15.0
 41
0.0
 46
0.0
 71
     5
 72
     1
  1
608.4mm [23.95"]
 11
0.0000000000000001
 21
1.0
 31
0.0
 73
     1
 44
1.0
  0
POINT
  5
15BA0
330
15B8B
100
AcDbEntity
  8
Defpoints
 62
     0
100
AcDbPoint
 10
7553.842369606546
 20
-539.5248391270299
 30
0.0
  0
POINT
  5
15BA1
330
15B8B
100
AcDbEntity
  8
Defpoints
 62
     0
100
AcDbPoint
 10
7553.842369606546
 20
-1147.92483912703
 30
0.0
  0
POINT
  5
15BA2
330
15B8B
100
AcDbEntity
  8
Defpoints
 62
     0
100
AcDbPoint
 10
7635.957354779566
 20
-1147.92483912703
 30
0.0
  0
ENDBLK
  5
15B97
330
15B8B
100
AcDbEntity
  8
0
100
AcDbBlockEnd
  0
BLOCK
  5
15BB0
330
15BA5
100
AcDbEntity
  8
0
100
AcDbBlockBegin
  2
*D39
 70
     1
 10
0.0
 20
0.0
 30
0.0
  3
*D39
  1

  0
LINE
  5
15BB3
330
15BA5
100
AcDbEntity
  8
0
 62
     1
370
    15
100
AcDbLine
 10
7556.842369606546
 20
-1197.92483912703
 30
0.0
 11
7638.957354779567
 21
-1197.92483912703
 31
0.0
  0
LINE
  5
15BB4
330
15BA5
100
AcDbEntity
  8
0
 62
     1
370
    15
100
AcDbLine
 10
7556.842369606546
 20
-1466.52483912703
 30
0.0
 11
7638.957354779567
 21
-1466.52483912703
 31
0.0
  0
LINE
  5
15BB5
330
15BA5
100
AcDbEntity
  8
0
 62
     1
370
    15
100
AcDbLine
 10
7635.957354779566
 20
-1205.92483912703
 30
0.0
 11
7635.957354779566
 21
-1232.97483912703
 31
0.0
  0
LINE
  5
15BB6
330
15BA5
100
AcDbEntity
  8
0
 62
     1
370
    15
100
AcDbLine
 10
7635.957354779566
 20
-1458.52483912703
 30
0.0
 11
7635.957354779566
 21
-1431.47483912703
 31
0.0
  0
SOLID
  5
15BB7
330
15BA5
100
AcDbEntity
  8
0
 62
     1
100
AcDbTrace
 10
7634.624021446232
 20
-1205.92483912703
 30
0.0
 11
7637.2906881129
 21
-1205.92483912703
 31
0.0
 12
7635.957354779566
 22
-1197.92483912703
 32
0.0
 13
7635.957354779566
 23
-1197.92483912703
 33
0.0
  0
SOLID
  5
15BB8
330
15BA5
100
AcDbEntity
  8
0
 62
     1
100
AcDbTrace
 10
7634.624021446232
 20
-1458.52483912703
 30
0.0
 11
7637.2906881129
 21
-1458.52483912703
 31
0.0
 12
7635.957354779566
 22
-1466.52483912703
 32
0.0
 13
7635.957354779566
 23
-1466.52483912703
 33
0.0
  0
MTEXT
  5
15BB9
330
15BA5
100
AcDbEntity
  8
0
 62
     1
100
AcDbMText
 10
7635.957354779566
 20
-1332.224839127029
 30
0.0
 40
15.0
 41
0.0
 46
0.0
 71
     5
 72
     1
  1
268.6mm [10.57"]
 11
0.0000000000000001
 21
1.0
 31
0.0
 73
     1
 44
1.0
  0
POINT
  5
15BBA
330
15BA5
100
AcDbEntity
  8
Defpoints
 62
     0
100
AcDbPoint
 10
7553.842369606546
 20
-1197.92483912703
 30
0.0
  0
POINT
  5
15BBB
330
15BA5
100
AcDbEntity
  8
Defpoints
 62
     0
100
AcDbPoint
 10
7553.842369606546
 20
-1466.52483912703
 30
0.0
  0
POINT
  5
15BBC
330
15BA5
100
AcDbEntity
  8
Defpoints
 62
     0
100
AcDbPoint
 10
7635.957354779566
 20
-1466.52483912703
 30
0.0
  0
ENDBLK
  5
15BB1
330
15BA5
100
AcDbEntity
  8
0
100
AcDbBlockEnd
  0
BLOCK
  5
15BCA
330
15BBF
100
AcDbEntity
  8
0
100
AcDbBlockBegin
  2
*D40
 70
     1
 10
0.0
 20
0.0
 30
0.0
  3
*D40
  1

  0
LINE
  5
15BCD
330
15BBF
100
AcDbEntity
  8
0
 62
     1
370
    15
100
AcDbLine
 10
8013.842369606546
 20
-536.5248391270299
 30
0.0
 11
8013.842369606546
 21
-461.3079308087235
 31
0.0
  0
LINE
  5
15BCE
330
15BBF
100
AcDbEntity
  8
0
 62
     1
370
    15
100
AcDbLine
 10
8968.242369606548
 20
-536.5248391270299
 30
0.0
 11
8968.242369606548
 21
-461.3079308087235
 31
0.0
  0
LINE
  5
15BCF
330
15BBF
100
AcDbEntity
  8
0
 62
     1
370
    15
100
AcDbLine
 10
8021.842369606545
 20
-464.3079308087235
 30
0.0
 11
8388.042369606546
 21
-464.3079308087235
 31
0.0
  0
LINE
  5
15BD0
330
15BBF
100
AcDbEntity
  8
0
 62
     1
370
    15
100
AcDbLine
 10
8960.242369606547
 20
-464.3079308087235
 30
0.0
 11
8594.042369606546
 21
-464.3079308087235
 31
0.0
  0
SOLID
  5
15BD1
330
15BBF
100
AcDbEntity
  8
0
 62
     1
100
AcDbTrace
 10
8021.842369606545
 20
-462.9745974753902
 30
0.0
 11
8021.842369606545
 21
-465.6412641420568
 31
0.0
 12
8013.842369606546
 22
-464.3079308087235
 32
0.0
 13
8013.842369606546
 23
-464.3079308087235
 33
0.0
  0
SOLID
  5
15BD2
330
15BBF
100
AcDbEntity
  8
0
 62
     1
100
AcDbTrace
 10
8960.242369606547
 20
-462.9745974753902
 30
0.0
 11
8960.242369606547
 21
-465.6412641420568
 31
0.0
 12
8968.242369606548
 22
-464.3079308087235
 32
0.0
 13
8968.242369606548
 23
-464.3079308087235
 33
0.0
  0
MTEXT
  5
15BD3
330
15BBF
100
AcDbEntity
  8
0
 62
     1
100
AcDbMText
 10
8491.042369606546
 20
-464.3079308087235
 30
0.0
 40
15.0
 41
0.0
 46
0.0
 71
     5
 72
     1
  1
954.4mm [37.57"]
 73
     1
 44
1.0
  0
POINT
  5
15BD4
330
15BBF
100
AcDbEntity
  8
Defpoints
 62
     0
100
AcDbPoint
 10
8013.842369606546
 20
-539.5248391270299
 30
0.0
  0
POINT
  5
15BD5
330
15BBF
100
AcDbEntity
  8
Defpoints
 62
     0
100
AcDbPoint
 10
8968.242369606548
 20
-539.5248391270299
 30
0.0
  0
POINT
  5
15BD6
330
15BBF
100
AcDbEntity
  8
Defpoints
 62
     0
100
AcDbPoint
 10
8968.242369606548
 20
-464.3079308087235
 30
0.0
  0
ENDBLK
  5
15BCB
330
15BBF
100
AcDbEntity
  8
0
100
AcDbBlockEnd
  0
BLOCK
  5
15BE4
330
15BD9
100
AcDbEntity
  8
0
100
AcDbBlockBegin
  2
*D41
 70
     1
 10
0.0
 20
0.0
 30
0.0
  3
*D41
  1

  0
LINE
  5
15BE7
330
15BD9
100
AcDbEntity
  8
0
 62
     1
370
    15
100
AcDbLine
 10
8971.242369606548
 20
-539.5248391270299
 30
0.0
 11
9082.857580522999
 21
-539.5248391270299
 31
0.0
  0
LINE
  5
15BE8
330
15BD9
100
AcDbEntity
  8
0
 62
     1
370
    15
100
AcDbLine
 10
8971.242369606548
 20
-1147.92483912703
 30
0.0
 11
9082.857580522999
 21
-1147.92483912703
 31
0.0
  0
LINE
  5
15BE9
330
15BD9
100
AcDbEntity
  8
0
 62
     1
370
    15
100
AcDbLine
 10
9079.857580523
 20
-547.5248391270299
 30
0.0
 11
9079.857580523
 21
-741.9748391270301
 31
0.0
  0
LINE
  5
15BEA
330
15BD9
100
AcDbEntity
  8
0
 62
     1
370
    15
100
AcDbLine
 10
9079.857580523
 20
-1139.92483912703
 30
0.0
 11
9079.857580523
 21
-945.4748391270301
 31
0.0
  0
SOLID
  5
15BEB
330
15BD9
100
AcDbEntity
  8
0
 62
     1
100
AcDbTrace
 10
9078.524247189665
 20
-547.5248391270299
 30
0.0
 11
9081.190913856334
 21
-547.5248391270299
 31
0.0
 12
9079.857580523
 22
-539.5248391270299
 32
0.0
 13
9079.857580523
 23
-539.5248391270299
 33
0.0
  0
SOLID
  5
15BEC
330
15BD9
100
AcDbEntity
  8
0
 62
     1
100
AcDbTrace
 10
9078.524247189665
 20
-1139.92483912703
 30
0.0
 11
9081.190913856334
 21
-1139.92483912703
 31
0.0
 12
9079.857580523
 22
-1147.92483912703
 32
0.0
 13
9079.857580523
 23
-1147.92483912703
 33
0.0
  0
MTEXT
  5
15BED
330
15BD9
100
AcDbEntity
  8
0
 62
     1
100
AcDbMText
 10
9079.857580523
 20
-843.7248391270285
 30
0.0
 40
15.0
 41
0.0
 46
0.0
 71
     5
 72
     1
  1
608.4mm [23.95"]
 11
0.0000000000000001
 21
1.0
 31
0.0
 73
     1
 44
1.0
  0
POINT
  5
15BEE
330
15BD9
100
AcDbEntity
  8
Defpoints
 62
     0
100
AcDbPoint
 10
8968.242369606548
 20
-539.5248391270299
 30
0.0
  0
POINT
  5
15BEF
330
15BD9
100
AcDbEntity
  8
Defpoints
 62
     0
100
AcDbPoint
 10
8968.242369606548
 20
-1147.92483912703
 30
0.0
  0
POINT
  5
15BF0
330
15BD9
100
AcDbEntity
  8
Defpoints
 62
     0
100
AcDbPoint
 10
9079.857580523
 20
-1147.92483912703
 30
0.0
  0
ENDBLK
  5
15BE5
330
15BD9
100
AcDbEntity
  8
0
100
AcDbBlockEnd
  0
BLOCK
  5
15BFE
330
15BF3
100
AcDbEntity
  8
0
100
AcDbBlockBegin
  2
*D42
 70
     1
 10
0.0
 20
0.0
 30
0.0
  3
*D42
  1

  0
LINE
  5
15C01
330
15BF3
100
AcDbEntity
  8
0
 62
     1
370
    15
100
AcDbLine
 10
8971.242369606548
 20
-1197.92483912703
 30
0.0
 11
9082.857580522999
 21
-1197.92483912703
 31
0.0
  0
LINE
  5
15C02
330
15BF3
100
AcDbEntity
  8
0
 62
     1
370
    15
100
AcDbLine
 10
8971.242369606548
 20
-1466.52483912703
 30
0.0
 11
9082.857580522999
 21
-1466.52483912703
 31
0.0
  0
LINE
  5
15C03
330
15BF3
100
AcDbEntity
  8
0
 62
     1
370
    15
100
AcDbLine
 10
9079.857580523
 20
-1205.92483912703
 30
0.0
 11
9079.857580523
 21
-1232.97483912703
 31
0.0
  0
LINE
  5
15C04
330
15BF3
100
AcDbEntity
  8
0
 62
     1
370
    15
100
AcDbLine
 10
9079.857580523
 20
-1458.52483912703
 30
0.0
 11
9079.857580523
 21
-1431.47483912703
 31
0.0
  0
SOLID
  5
15C05
330
15BF3
100
AcDbEntity
  8
0
 62
     1
100
AcDbTrace
 10
9078.524247189665
 20
-1205.92483912703
 30
0.0
 11
9081.190913856334
 21
-1205.92483912703
 31
0.0
 12
9079.857580523
 22
-1197.92483912703
 32
0.0
 13
9079.857580523
 23
-1197.92483912703
 33
0.0
  0
SOLID
  5
15C06
330
15BF3
100
AcDbEntity
  8
0
 62
     1
100
AcDbTrace
 10
9078.524247189665
 20
-1458.52483912703
 30
0.0
 11
9081.190913856334
 21
-1458.52483912703
 31
0.0
 12
9079.857580523
 22
-1466.52483912703
 32
0.0
 13
9079.857580523
 23
-1466.52483912703
 33
0.0
  0
MTEXT
  5
15C07
330
15BF3
100
AcDbEntity
  8
0
 62
     1
100
AcDbMText
 10
9079.857580523
 20
-1332.224839127029
 30
0.0
 40
15.0
 41
0.0
 46
0.0
 71
     5
 72
     1
  1
268.6mm [10.57"]
 11
0.0000000000000001
 21
1.0
 31
0.0
 73
     1
 44
1.0
  0
POINT
  5
15C08
330
15BF3
100
AcDbEntity
  8
Defpoints
 62
     0
100
AcDbPoint
 10
8968.242369606548
 20
-1197.92483912703
 30
0.0
  0
POINT
  5
15C09
330
15BF3
100
AcDbEntity
  8
Defpoints
 62
     0
100
AcDbPoint
 10
8968.242369606548
 20
-1466.52483912703
 30
0.0
  0
POINT
  5
15C0A
330
15BF3
100
AcDbEntity
  8
Defpoints
 62
     0
100
AcDbPoint
 10
9079.857580523
 20
-1466.52483912703
 30
0.0
  0
ENDBLK
  5
15BFF
330
15BF3
100
AcDbEntity
  8
0
100
AcDbBlockEnd
  0
BLOCK
  5
15E46
330
15E3A
100
AcDbEntity
  8
0
100
AcDbBlockBegin
  2
*D43
 70
     1
 10
0.0
 20
0.0
 30
0.0
  3
*D43
  1

  0
LINE
  5
15EFB
330
15E3A
100
AcDbEntity
  8
0
 62
     1
370
    15
100
AcDbLine
 10
5545.742369606546
 20
-82.30336108148549
 30
0.0
 11
5515.742369606546
 21
-82.30336108148547
 31
0.0
  0
LINE
  5
15EFC
330
15E3A
100
AcDbEntity
  8
0
 62
     1
370
    15
100
AcDbLine
 10
5545.742369606546
 20
-92.30336108148549
 30
0.0
 11
5515.742369606546
 21
-92.30336108148547
 31
0.0
  0
LINE
  5
15EFD
330
15E3A
100
AcDbEntity
  8
0
 62
     1
370
    15
100
AcDbLine
 10
5518.742369606546
 20
-74.30336108148548
 30
0.0
 11
5518.742369606546
 21
-66.30336108148547
 31
0.0
  0
LINE
  5
15EFE
330
15E3A
100
AcDbEntity
  8
0
 62
     1
370
    15
100
AcDbLine
 10
5518.742369606546
 20
-100.3033610814854
 30
0.0
 11
5518.742369606546
 21
-108.3033610814854
 31
0.0
  0
LINE
  5
15EFF
330
15E3A
100
AcDbEntity
  8
0
 62
     1
370
    15
100
AcDbLine
 10
5518.742369606546
 20
-82.30336108148547
 30
0.0
 11
5518.742369606546
 21
-92.30336108148547
 31
0.0
  0
SOLID
  5
15F00
330
15E3A
100
AcDbEntity
  8
0
 62
     1
100
AcDbTrace
 10
5517.409036273213
 20
-74.30336108148548
 30
0.0
 11
5520.075702939879
 21
-74.30336108148548
 31
0.0
 12
5518.742369606546
 22
-82.30336108148547
 32
0.0
 13
5518.742369606546
 23
-82.30336108148547
 33
0.0
  0
SOLID
  5
15F01
330
15E3A
100
AcDbEntity
  8
0
 62
     1
100
AcDbTrace
 10
5517.409036273213
 20
-100.3033610814854
 30
0.0
 11
5520.075702939879
 21
-100.3033610814854
 31
0.0
 12
5518.742369606546
 22
-92.30336108148547
 32
0.0
 13
5518.742369606546
 23
-92.30336108148547
 33
0.0
  0
MTEXT
  5
15F02
330
15E3A
100
AcDbEntity
  8
0
 62
     1
100
AcDbMText
 10
5518.742369606546
 20
-135.0533610814846
 30
0.0
 40
15.0
 41
0.0
 46
0.0
 71
     5
 72
     1
  1
10mm
 11
0.0000000000000001
 21
1.0
 31
0.0
 73
     1
 44
1.0
  0
POINT
  5
15F03
330
15E3A
100
AcDbEntity
  8
Defpoints
 62
     0
100
AcDbPoint
 10
5548.742369606546
 20
-82.30336108148549
 30
0.0
  0
POINT
  5
15F04
330
15E3A
100
AcDbEntity
  8
Defpoints
 62
     0
100
AcDbPoint
 10
5548.742369606546
 20
-92.30336108148549
 30
0.0
  0
POINT
  5
15F05
330
15E3A
100
AcDbEntity
  8
Defpoints
 62
     0
100
AcDbPoint
 10
5518.742369606546
 20
-92.30336108148547
 30
0.0
  0
ENDBLK
  5
15E47
330
15E3A
100
AcDbEntity
  8
0
100
AcDbBlockEnd
  0
BLOCK
  5
15E61
330
15E56
100
AcDbEntity
  8
0
100
AcDbBlockBegin
  2
*D44
 70
     1
 10
0.0
 20
0.0
 30
0.0
  3
*D44
  1

  0
LINE
  5
15EF1
330
15E56
100
AcDbEntity
  8
0
 62
     1
370
    15
100
AcDbLine
 10
6081.742369606546
 20
-82.30336108148549
 30
0.0
 11
6111.742369606546
 21
-82.30336108148549
 31
0.0
  0
LINE
  5
15EF2
330
15E56
100
AcDbEntity
  8
0
 62
     1
370
    15
100
AcDbLine
 10
6081.742369606548
 20
-117.3033610814854
 30
0.0
 11
6111.742369606546
 21
-117.3033610814854
 31
0.0
  0
LINE
  5
15EF3
330
15E56
100
AcDbEntity
  8
0
 62
     1
370
    15
100
AcDbLine
 10
6108.742369606546
 20
-90.30336108148549
 30
0.0
 11
6108.742369606546
 21
-109.3033610814855
 31
0.0
  0
LINE
  5
15EF4
330
15E56
100
AcDbEntity
  8
0
 62
     1
370
    15
100
AcDbLine
 10
6108.742369606546
 20
-117.3033610814854
 30
0.0
 11
6108.742369606546
 21
-125.3033610814854
 31
0.0
  0
SOLID
  5
15EF5
330
15E56
100
AcDbEntity
  8
0
 62
     1
100
AcDbTrace
 10
6107.409036273214
 20
-90.30336108148549
 30
0.0
 11
6110.075702939879
 21
-90.30336108148549
 31
0.0
 12
6108.742369606546
 22
-82.30336108148549
 32
0.0
 13
6108.742369606546
 23
-82.30336108148549
 33
0.0
  0
SOLID
  5
15EF6
330
15E56
100
AcDbEntity
  8
0
 62
     1
100
AcDbTrace
 10
6107.409036273214
 20
-109.3033610814855
 30
0.0
 11
6110.075702939879
 21
-109.3033610814855
 31
0.0
 12
6108.742369606546
 22
-117.3033610814854
 32
0.0
 13
6108.742369606546
 23
-117.3033610814854
 33
0.0
  0
MTEXT
  5
15EF7
330
15E56
100
AcDbEntity
  8
0
 62
     1
100
AcDbMText
 10
6108.742369606546
 20
-155.8033610814845
 30
0.0
 40
15.0
 41
0.0
 46
0.0
 71
     5
 72
     1
  1
35mm
 11
0.0000000000000001
 21
1.0
 31
0.0
 73
     1
 44
1.0
  0
POINT
  5
15EF8
330
15E56
100
AcDbEntity
  8
Defpoints
 62
     0
100
AcDbPoint
 10
6078.742369606546
 20
-82.30336108148549
 30
0.0
  0
POINT
  5
15EF9
330
15E56
100
AcDbEntity
  8
Defpoints
 62
     0
100
AcDbPoint
 10
6078.742369606548
 20
-117.3033610814854
 30
0.0
  0
POINT
  5
15EFA
330
15E56
100
AcDbEntity
  8
Defpoints
 62
     0
100
AcDbPoint
 10
6108.742369606546
 20
-117.3033610814854
 30
0.0
  0
ENDBLK
  5
15E62
330
15E56
100
AcDbEntity
  8
0
100
AcDbBlockEnd
  0
BLOCK
  5
15E7B
330
15E70
100
AcDbEntity
  8
0
100
AcDbBlockBegin
  2
*D45
 70
     1
 10
0.0
 20
0.0
 30
0.0
  3
*D45
  1

  0
LINE
  5
16035
330
15E70
100
AcDbEntity
  8
0
 62
     1
370
    15
100
AcDbLine
 10
6081.742369606546
 20
-32.30336108148549
 30
0.0
 11
6111.742369606544
 21
-32.3033610814855
 31
0.0
  0
LINE
  5
16036
330
15E70
100
AcDbEntity
  8
0
 62
     1
370
    15
100
AcDbLine
 10
6081.742369606546
 20
192.6966389185144
 30
0.0
 11
6111.742369606544
 21
192.6966389185144
 31
0.0
  0
LINE
  5
16037
330
15E70
100
AcDbEntity
  8
0
 62
     1
370
    15
100
AcDbLine
 10
6108.742369606544
 20
-24.3033610814855
 30
0.0
 11
6108.742369606544
 21
42.19663891851445
 31
0.0
  0
LINE
  5
16038
330
15E70
100
AcDbEntity
  8
0
 62
     1
370
    15
100
AcDbLine
 10
6108.742369606544
 20
184.6966389185144
 30
0.0
 11
6108.742369606544
 21
118.1966389185144
 31
0.0
  0
SOLID
  5
16039
330
15E70
100
AcDbEntity
  8
0
 62
     1
100
AcDbTrace
 10
6107.409036273211
 20
-24.3033610814855
 30
0.0
 11
6110.075702939878
 21
-24.3033610814855
 31
0.0
 12
6108.742369606544
 22
-32.3033610814855
 32
0.0
 13
6108.742369606544
 23
-32.3033610814855
 33
0.0
  0
SOLID
  5
1603A
330
15E70
100
AcDbEntity
  8
0
 62
     1
100
AcDbTrace
 10
6107.409036273211
 20
184.6966389185144
 30
0.0
 11
6110.075702939878
 21
184.6966389185144
 31
0.0
 12
6108.742369606544
 22
192.6966389185144
 32
0.0
 13
6108.742369606544
 23
192.6966389185144
 33
0.0
  0
MTEXT
  5
1603B
330
15E70
100
AcDbEntity
  8
0
 62
     1
100
AcDbMText
 10
6108.742369606544
 20
80.19663891851545
 30
0.0
 40
15.0
 41
0.0
 46
0.0
 71
     5
 72
     1
  1
225mm
 11
0.0000000000000001
 21
1.0
 31
0.0
 73
     1
 44
1.0
  0
POINT
  5
1603C
330
15E70
100
AcDbEntity
  8
Defpoints
 62
     0
100
AcDbPoint
 10
6078.742369606546
 20
-32.30336108148549
 30
0.0
  0
POINT
  5
1603D
330
15E70
100
AcDbEntity
  8
Defpoints
 62
     0
100
AcDbPoint
 10
6078.742369606546
 20
192.6966389185144
 30
0.0
  0
POINT
  5
1603E
330
15E70
100
AcDbEntity
  8
Defpoints
 62
     0
100
AcDbPoint
 10
6108.742369606544
 20
192.6966389185144
 30
0.0
  0
ENDBLK
  5
15E7C
330
15E70
100
AcDbEntity
  8
0
100
AcDbBlockEnd
  0
BLOCK
  5
15E95
330
15E8A
100
AcDbEntity
  8
0
100
AcDbBlockBegin
  2
*D46
 70
     1
 10
0.0
 20
0.0
 30
0.0
  3
*D46
  1

  0
LINE
  5
1603F
330
15E8A
100
AcDbEntity
  8
0
 62
     1
370
    15
100
AcDbLine
 10
5956.742369606546
 20
192.6966389185144
 30
0.0
 11
5986.742369606546
 21
192.6966389185144
 31
0.0
  0
LINE
  5
16040
330
15E8A
100
AcDbEntity
  8
0
 62
     1
370
    15
100
AcDbLine
 10
5956.742369606546
 20
162.6966389185144
 30
0.0
 11
5986.742369606546
 21
162.6966389185144
 31
0.0
  0
LINE
  5
16041
330
15E8A
100
AcDbEntity
  8
0
 62
     1
370
    15
100
AcDbLine
 10
5983.742369606546
 20
184.6966389185144
 30
0.0
 11
5983.742369606546
 21
170.6966389185144
 31
0.0
  0
LINE
  5
16042
330
15E8A
100
AcDbEntity
  8
0
 62
     1
370
    15
100
AcDbLine
 10
5983.742369606546
 20
162.6966389185144
 30
0.0
 11
5983.742369606546
 21
154.6966389185144
 31
0.0
  0
SOLID
  5
16043
330
15E8A
100
AcDbEntity
  8
0
 62
     1
100
AcDbTrace
 10
5982.409036273214
 20
184.6966389185144
 30
0.0
 11
5985.075702939879
 21
184.6966389185144
 31
0.0
 12
5983.742369606546
 22
192.6966389185144
 32
0.0
 13
5983.742369606546
 23
192.6966389185144
 33
0.0
  0
SOLID
  5
16044
330
15E8A
100
AcDbEntity
  8
0
 62
     1
100
AcDbTrace
 10
5982.409036273214
 20
170.6966389185144
 30
0.0
 11
5985.075702939879
 21
170.6966389185144
 31
0.0
 12
5983.742369606546
 22
162.6966389185144
 32
0.0
 13
5983.742369606546
 23
162.6966389185144
 33
0.0
  0
MTEXT
  5
16045
330
15E8A
100
AcDbEntity
  8
0
 62
     1
100
AcDbMText
 10
5983.742369606546
 20
125.4466389185154
 30
0.0
 40
15.0
 41
0.0
 46
0.0
 71
     5
 72
     1
  1
30mm
 11
0.0000000000000001
 21
1.0
 31
0.0
 73
     1
 44
1.0
  0
POINT
  5
16046
330
15E8A
100
AcDbEntity
  8
Defpoints
 62
     0
100
AcDbPoint
 10
5953.742369606546
 20
192.6966389185144
 30
0.0
  0
POINT
  5
16047
330
15E8A
100
AcDbEntity
  8
Defpoints
 62
     0
100
AcDbPoint
 10
5953.742369606546
 20
162.6966389185144
 30
0.0
  0
POINT
  5
16048
330
15E8A
100
AcDbEntity
  8
Defpoints
 62
     0
100
AcDbPoint
 10
5983.742369606546
 20
162.6966389185144
 30
0.0
  0
ENDBLK
  5
15E96
330
15E8A
100
AcDbEntity
  8
0
100
AcDbBlockEnd
  0
BLOCK
  5
15EAF
330
15EA4
100
AcDbEntity
  8
0
100
AcDbBlockBegin
  2
*D47
 70
     1
 10
0.0
 20
0.0
 30
0.0
  3
*D47
  1

  0
LINE
  5
16049
330
15EA4
100
AcDbEntity
  8
0
 62
     1
370
    15
100
AcDbLine
 10
5953.742369606546
 20
195.6966389185144
 30
0.0
 11
5953.742369606546
 21
225.6966389185144
 31
0.0
  0
LINE
  5
1604A
330
15EA4
100
AcDbEntity
  8
0
 62
     1
370
    15
100
AcDbLine
 10
5873.742369606546
 20
195.6966389185144
 30
0.0
 11
5873.742369606546
 21
225.6966389185144
 31
0.0
  0
LINE
  5
1604B
330
15EA4
100
AcDbEntity
  8
0
 62
     1
370
    15
100
AcDbLine
 10
5961.742369606547
 20
222.6966389185144
 30
0.0
 11
5969.742369606546
 21
222.6966389185144
 31
0.0
  0
LINE
  5
1604C
330
15EA4
100
AcDbEntity
  8
0
 62
     1
370
    15
100
AcDbLine
 10
5865.742369606547
 20
222.6966389185144
 30
0.0
 11
5857.742369606547
 21
222.6966389185144
 31
0.0
  0
LINE
  5
1604D
330
15EA4
100
AcDbEntity
  8
0
 62
     1
370
    15
100
AcDbLine
 10
5953.742369606546
 20
222.6966389185144
 30
0.0
 11
5942.992369606546
 21
222.6966389185144
 31
0.0
  0
LINE
  5
1604E
330
15EA4
100
AcDbEntity
  8
0
 62
     1
370
    15
100
AcDbLine
 10
5873.742369606546
 20
222.6966389185144
 30
0.0
 11
5884.492369606546
 21
222.6966389185144
 31
0.0
  0
SOLID
  5
1604F
330
15EA4
100
AcDbEntity
  8
0
 62
     1
100
AcDbTrace
 10
5961.742369606547
 20
224.0299722518478
 30
0.0
 11
5961.742369606547
 21
221.3633055851811
 31
0.0
 12
5953.742369606546
 22
222.6966389185144
 32
0.0
 13
5953.742369606546
 23
222.6966389185144
 33
0.0
  0
SOLID
  5
16050
330
15EA4
100
AcDbEntity
  8
0
 62
     1
100
AcDbTrace
 10
5865.742369606547
 20
224.0299722518478
 30
0.0
 11
5865.742369606547
 21
221.3633055851811
 31
0.0
 12
5873.742369606546
 22
222.6966389185144
 32
0.0
 13
5873.742369606546
 23
222.6966389185144
 33
0.0
  0
MTEXT
  5
16051
330
15EA4
100
AcDbEntity
  8
0
 62
     1
100
AcDbMText
 10
5913.742369606546
 20
222.6966389185144
 30
0.0
 40
15.0
 41
0.0
 46
0.0
 71
     5
 72
     1
  1
80mm
 73
     1
 44
1.0
  0
POINT
  5
16052
330
15EA4
100
AcDbEntity
  8
Defpoints
 62
     0
100
AcDbPoint
 10
5953.742369606546
 20
192.6966389185144
 30
0.0
  0
POINT
  5
16053
330
15EA4
100
AcDbEntity
  8
Defpoints
 62
     0
100
AcDbPoint
 10
5873.742369606546
 20
192.6966389185144
 30
0.0
  0
POINT
  5
16054
330
15EA4
100
AcDbEntity
  8
Defpoints
 62
     0
100
AcDbPoint
 10
5873.742369606546
 20
222.6966389185144
 30
0.0
  0
ENDBLK
  5
15EB0
330
15EA4
100
AcDbEntity
  8
0
100
AcDbBlockEnd
  0
BLOCK
  5
15EC9
330
15EBE
100
AcDbEntity
  8
0
100
AcDbBlockBegin
  2
*D48
 70
     1
 10
0.0
 20
0.0
 30
0.0
  3
*D48
  1

  0
LINE
  5
16055
330
15EBE
100
AcDbEntity
  8
0
 62
     1
370
    15
100
AcDbLine
 10
5748.742369606546
 20
199.2966389185144
 30
0.0
 11
5748.742369606546
 21
259.296638918513
 31
0.0
  0
LINE
  5
16056
330
15EBE
100
AcDbEntity
  8
0
 62
     1
370
    15
100
AcDbLine
 10
6078.742369606546
 20
195.6966389185144
 30
0.0
 11
6078.742369606546
 21
259.296638918513
 31
0.0
  0
LINE
  5
16057
330
15EBE
100
AcDbEntity
  8
0
 62
     1
370
    15
100
AcDbLine
 10
5756.742369606546
 20
256.2966389185131
 30
0.0
 11
5876.992369606546
 21
256.2966389185131
 31
0.0
  0
LINE
  5
16058
330
15EBE
100
AcDbEntity
  8
0
 62
     1
370
    15
100
AcDbLine
 10
6070.742369606546
 20
256.2966389185131
 30
0.0
 11
5950.492369606546
 21
256.2966389185131
 31
0.0
  0
SOLID
  5
16059
330
15EBE
100
AcDbEntity
  8
0
 62
     1
100
AcDbTrace
 10
5756.742369606546
 20
257.6299722518464
 30
0.0
 11
5756.742369606546
 21
254.9633055851797
 31
0.0
 12
5748.742369606546
 22
256.2966389185131
 32
0.0
 13
5748.742369606546
 23
256.2966389185131
 33
0.0
  0
SOLID
  5
1605A
330
15EBE
100
AcDbEntity
  8
0
 62
     1
100
AcDbTrace
 10
6070.742369606546
 20
257.6299722518464
 30
0.0
 11
6070.742369606546
 21
254.9633055851797
 31
0.0
 12
6078.742369606546
 22
256.2966389185131
 32
0.0
 13
6078.742369606546
 23
256.2966389185131
 33
0.0
  0
MTEXT
  5
1605B
330
15EBE
100
AcDbEntity
  8
0
 62
     1
100
AcDbMText
 10
5913.742369606546
 20
256.2966389185131
 30
0.0
 40
15.0
 41
0.0
 46
0.0
 71
     5
 72
     1
  1
330mm
 73
     1
 44
1.0
  0
POINT
  5
1605C
330
15EBE
100
AcDbEntity
  8
Defpoints
 62
     0
100
AcDbPoint
 10
5748.742369606546
 20
196.2966389185144
 30
0.0
  0
POINT
  5
1605D
330
15EBE
100
AcDbEntity
  8
Defpoints
 62
     0
100
AcDbPoint
 10
6078.742369606546
 20
192.6966389185144
 30
0.0
  0
POINT
  5
1605E
330
15EBE
100
AcDbEntity
  8
Defpoints
 62
     0
100
AcDbPoint
 10
6078.742369606546
 20
256.2966389185131
 30
0.0
  0
ENDBLK
  5
15ECA
330
15EBE
100
AcDbEntity
  8
0
100
AcDbBlockEnd
  0
BLOCK
  5
15EE3
330
15ED8
100
AcDbEntity
  8
0
100
AcDbBlockBegin
  2
*D49
 70
     1
 10
0.0
 20
0.0
 30
0.0
  3
*D49
  1

  0
LINE
  5
1605F
330
15ED8
100
AcDbEntity
  8
0
 62
     1
370
    15
100
AcDbLine
 10
5548.742369606546
 20
195.6966389185144
 30
0.0
 11
5548.742369606546
 21
285.6966389185144
 31
0.0
  0
LINE
  5
16060
330
15ED8
100
AcDbEntity
  8
0
 62
     1
370
    15
100
AcDbLine
 10
6078.742369606548
 20
195.6966389185144
 30
0.0
 11
6078.742369606548
 21
285.6966389185144
 31
0.0
  0
LINE
  5
16061
330
15ED8
100
AcDbEntity
  8
0
 62
     1
370
    15
100
AcDbLine
 10
5556.742369606546
 20
282.6966389185144
 30
0.0
 11
5776.992369606547
 21
282.6966389185144
 31
0.0
  0
LINE
  5
16062
330
15ED8
100
AcDbEntity
  8
0
 62
     1
370
    15
100
AcDbLine
 10
6070.742369606547
 20
282.6966389185144
 30
0.0
 11
5850.492369606548
 21
282.6966389185144
 31
0.0
  0
SOLID
  5
16063
330
15ED8
100
AcDbEntity
  8
0
 62
     1
100
AcDbTrace
 10
5556.742369606546
 20
284.0299722518477
 30
0.0
 11
5556.742369606546
 21
281.3633055851811
 31
0.0
 12
5548.742369606546
 22
282.6966389185144
 32
0.0
 13
5548.742369606546
 23
282.6966389185144
 33
0.0
  0
SOLID
  5
16064
330
15ED8
100
AcDbEntity
  8
0
 62
     1
100
AcDbTrace
 10
6070.742369606547
 20
284.0299722518477
 30
0.0
 11
6070.742369606547
 21
281.3633055851811
 31
0.0
 12
6078.742369606548
 22
282.6966389185144
 32
0.0
 13
6078.742369606548
 23
282.6966389185144
 33
0.0
  0
MTEXT
  5
16065
330
15ED8
100
AcDbEntity
  8
0
 62
     1
100
AcDbMText
 10
5813.742369606547
 20
282.6966389185144
 30
0.0
 40
15.0
 41
0.0
 46
0.0
 71
     5
 72
     1
  1
530mm
 73
     1
 44
1.0
  0
POINT
  5
16066
330
15ED8
100
AcDbEntity
  8
Defpoints
 62
     0
100
AcDbPoint
 10
5548.742369606546
 20
192.6966389185144
 30
0.0
  0
POINT
  5
16067
330
15ED8
100
AcDbEntity
  8
Defpoints
 62
     0
100
AcDbPoint
 10
6078.742369606548
 20
192.6966389185144
 30
0.0
  0
POINT
  5
16068
330
15ED8
100
AcDbEntity
  8
Defpoints
 62
     0
100
AcDbPoint
 10
6078.742369606548
 20
282.6966389185144
 30
0.0
  0
ENDBLK
  5
15EE4
330
15ED8
100
AcDbEntity
  8
0
100
AcDbBlockEnd
  0
BLOCK
  5
160A8
330
1609D
100
AcDbEntity
  8
0
100
AcDbBlockBegin
  2
*D50
 70
     1
 10
0.0
 20
0.0
 30
0.0
  3
*D50
  1

  0
LINE
  5
161FE
330
1609D
100
AcDbEntity
  8
0
 62
     1
370
    15
100
AcDbLine
 10
6178.642369606548
 20
5420.47516087297
 30
0.0
 11
6228.642369606547
 21
5420.47516087297
 31
0.0
  0
LINE
  5
161FF
330
1609D
100
AcDbEntity
  8
0
 62
     1
370
    15
100
AcDbLine
 10
6178.642369606548
 20
4952.47516087297
 30
0.0
 11
6228.642369606547
 21
4952.47516087297
 31
0.0
  0
LINE
  5
16200
330
1609D
100
AcDbEntity
  8
0
 62
     1
370
    15
100
AcDbLine
 10
6225.642369606547
 20
5412.47516087297
 30
0.0
 11
6225.642369606547
 21
5224.47516087297
 31
0.0
  0
LINE
  5
16201
330
1609D
100
AcDbEntity
  8
0
 62
     1
370
    15
100
AcDbLine
 10
6225.642369606547
 20
4960.47516087297
 30
0.0
 11
6225.642369606547
 21
5148.47516087297
 31
0.0
  0
SOLID
  5
16202
330
1609D
100
AcDbEntity
  8
0
 62
     1
100
AcDbTrace
 10
6224.309036273215
 20
5412.47516087297
 30
0.0
 11
6226.975702939881
 21
5412.47516087297
 31
0.0
 12
6225.642369606547
 22
5420.47516087297
 32
0.0
 13
6225.642369606547
 23
5420.47516087297
 33
0.0
  0
SOLID
  5
16203
330
1609D
100
AcDbEntity
  8
0
 62
     1
100
AcDbTrace
 10
6224.309036273215
 20
4960.47516087297
 30
0.0
 11
6226.975702939881
 21
4960.47516087297
 31
0.0
 12
6225.642369606547
 22
4952.47516087297
 32
0.0
 13
6225.642369606547
 23
4952.47516087297
 33
0.0
  0
MTEXT
  5
16204
330
1609D
100
AcDbEntity
  8
0
 62
     1
100
AcDbMText
 10
6225.642369606546
 20
5186.475160872972
 30
0.0
 40
15.0
 41
0.0
 46
0.0
 71
     5
 72
     1
  1
468mm
 11
0.0000000000000001
 21
1.0
 31
0.0
 73
     1
 44
1.0
  0
POINT
  5
16205
330
1609D
100
AcDbEntity
  8
Defpoints
 62
     0
100
AcDbPoint
 10
6175.642369606547
 20
5420.47516087297
 30
0.0
  0
POINT
  5
16206
330
1609D
100
AcDbEntity
  8
Defpoints
 62
     0
100
AcDbPoint
 10
6175.642369606547
 20
4952.47516087297
 30
0.0
  0
POINT
  5
16207
330
1609D
100
AcDbEntity
  8
Defpoints
 62
     0
100
AcDbPoint
 10
6225.642369606547
 20
4952.47516087297
 30
0.0
  0
ENDBLK
  5
160A9
330
1609D
100
AcDbEntity
  8
0
100
AcDbBlockEnd
  0
BLOCK
  5
160C2
330
160B7
100
AcDbEntity
  8
0
100
AcDbBlockBegin
  2
*D51
 70
     1
 10
0.0
 20
0.0
 30
0.0
  3
*D51
  1

  0
LINE
  5
16BD7
330
160B7
100
AcDbEntity
  8
0
 62
     1
370
    15
100
AcDbLine
 10
6175.642369606547
 20
5423.47516087297
 30
0.0
 11
6175.642369606547
 21
5473.47516087297
 31
0.0
  0
LINE
  5
16BD8
330
160B7
100
AcDbEntity
  8
0
 62
     1
370
    15
100
AcDbLine
 10
5453.642369606547
 20
5423.47516087297
 30
0.0
 11
5453.642369606547
 21
5473.47516087297
 31
0.0
  0
LINE
  5
16BD9
330
160B7
100
AcDbEntity
  8
0
 62
     1
370
    15
100
AcDbLine
 10
6167.642369606547
 20
5470.47516087297
 30
0.0
 11
5852.642369606547
 21
5470.47516087297
 31
0.0
  0
LINE
  5
16BDA
330
160B7
100
AcDbEntity
  8
0
 62
     1
370
    15
100
AcDbLine
 10
5461.642369606547
 20
5470.47516087297
 30
0.0
 11
5776.642369606546
 21
5470.47516087297
 31
0.0
  0
SOLID
  5
16BDB
330
160B7
100
AcDbEntity
  8
0
 62
     1
100
AcDbTrace
 10
6167.642369606547
 20
5471.808494206303
 30
0.0
 11
6167.642369606547
 21
5469.141827539637
 31
0.0
 12
6175.642369606547
 22
5470.47516087297
 32
0.0
 13
6175.642369606547
 23
5470.47516087297
 33
0.0
  0
SOLID
  5
16BDC
330
160B7
100
AcDbEntity
  8
0
 62
     1
100
AcDbTrace
 10
5461.642369606547
 20
5471.808494206303
 30
0.0
 11
5461.642369606547
 21
5469.141827539637
 31
0.0
 12
5453.642369606547
 22
5470.47516087297
 32
0.0
 13
5453.642369606547
 23
5470.47516087297
 33
0.0
  0
MTEXT
  5
16BDD
330
160B7
100
AcDbEntity
  8
0
 62
     1
100
AcDbMText
 10
5814.642369606547
 20
5470.47516087297
 30
0.0
 40
15.0
 41
0.0
 46
0.0
 71
     5
 72
     1
  1
722mm
 73
     1
 44
1.0
  0
POINT
  5
16BDE
330
160B7
100
AcDbEntity
  8
Defpoints
 62
     0
100
AcDbPoint
 10
6175.642369606547
 20
5420.47516087297
 30
0.0
  0
POINT
  5
16BDF
330
160B7
100
AcDbEntity
  8
Defpoints
 62
     0
100
AcDbPoint
 10
5453.642369606547
 20
5420.47516087297
 30
0.0
  0
POINT
  5
16BE0
330
160B7
100
AcDbEntity
  8
Defpoints
 62
     0
100
AcDbPoint
 10
5453.642369606547
 20
5470.47516087297
 30
0.0
  0
ENDBLK
  5
160C3
330
160B7
100
AcDbEntity
  8
0
100
AcDbBlockEnd
  0
BLOCK
  5
160DC
330
160D1
100
AcDbEntity
  8
0
100
AcDbBlockBegin
  2
*D52
 70
     1
 10
0.0
 20
0.0
 30
0.0
  3
*D52
  1

  0
LINE
  5
16212
330
160D1
100
AcDbEntity
  8
0
 62
     1
370
    15
100
AcDbLine
 10
6715.742369606546
 20
5423.47516087297
 30
0.0
 11
6715.742369606546
 21
5473.47516087297
 31
0.0
  0
LINE
  5
16213
330
160D1
100
AcDbEntity
  8
0
 62
     1
370
    15
100
AcDbLine
 10
7513.742369606546
 20
5423.47516087297
 30
0.0
 11
7513.742369606546
 21
5473.47516087297
 31
0.0
  0
LINE
  5
16214
330
160D1
100
AcDbEntity
  8
0
 62
     1
370
    15
100
AcDbLine
 10
6723.742369606546
 20
5470.47516087297
 30
0.0
 11
7076.742369606548
 21
5470.47516087297
 31
0.0
  0
LINE
  5
16215
330
160D1
100
AcDbEntity
  8
0
 62
     1
370
    15
100
AcDbLine
 10
7505.742369606547
 20
5470.47516087297
 30
0.0
 11
7152.742369606547
 21
5470.47516087297
 31
0.0
  0
SOLID
  5
16216
330
160D1
100
AcDbEntity
  8
0
 62
     1
100
AcDbTrace
 10
6723.742369606546
 20
5471.808494206303
 30
0.0
 11
6723.742369606546
 21
5469.141827539637
 31
0.0
 12
6715.742369606546
 22
5470.47516087297
 32
0.0
 13
6715.742369606546
 23
5470.47516087297
 33
0.0
  0
SOLID
  5
16217
330
160D1
100
AcDbEntity
  8
0
 62
     1
100
AcDbTrace
 10
7505.742369606547
 20
5471.808494206303
 30
0.0
 11
7505.742369606547
 21
5469.141827539637
 31
0.0
 12
7513.742369606546
 22
5470.47516087297
 32
0.0
 13
7513.742369606546
 23
5470.47516087297
 33
0.0
  0
MTEXT
  5
16218
330
160D1
100
AcDbEntity
  8
0
 62
     1
100
AcDbMText
 10
7114.742369606547
 20
5470.47516087297
 30
0.0
 40
15.0
 41
0.0
 46
0.0
 71
     5
 72
     1
  1
798mm
 73
     1
 44
1.0
  0
POINT
  5
16219
330
160D1
100
AcDbEntity
  8
Defpoints
 62
     0
100
AcDbPoint
 10
6715.742369606546
 20
5420.47516087297
 30
0.0
  0
POINT
  5
1621A
330
160D1
100
AcDbEntity
  8
Defpoints
 62
     0
100
AcDbPoint
 10
7513.742369606546
 20
5420.47516087297
 30
0.0
  0
POINT
  5
1621B
330
160D1
100
AcDbEntity
  8
Defpoints
 62
     0
100
AcDbPoint
 10
7513.742369606546
 20
5470.47516087297
 30
0.0
  0
ENDBLK
  5
160DD
330
160D1
100
AcDbEntity
  8
0
100
AcDbBlockEnd
  0
BLOCK
  5
160F6
330
160EB
100
AcDbEntity
  8
0
100
AcDbBlockBegin
  2
*D53
 70
     1
 10
0.0
 20
0.0
 30
0.0
  3
*D53
  1

  0
LINE
  5
1621C
330
160EB
100
AcDbEntity
  8
0
 62
     1
370
    15
100
AcDbLine
 10
7516.742369606546
 20
5420.47516087297
 30
0.0
 11
7566.742369606547
 21
5420.47516087297
 31
0.0
  0
LINE
  5
1621D
330
160EB
100
AcDbEntity
  8
0
 62
     1
370
    15
100
AcDbLine
 10
7516.742369606546
 20
4952.47516087297
 30
0.0
 11
7566.742369606547
 21
4952.47516087297
 31
0.0
  0
LINE
  5
1621E
330
160EB
100
AcDbEntity
  8
0
 62
     1
370
    15
100
AcDbLine
 10
7563.742369606547
 20
5412.47516087297
 30
0.0
 11
7563.742369606547
 21
5224.47516087297
 31
0.0
  0
LINE
  5
1621F
330
160EB
100
AcDbEntity
  8
0
 62
     1
370
    15
100
AcDbLine
 10
7563.742369606547
 20
4960.47516087297
 30
0.0
 11
7563.742369606547
 21
5148.47516087297
 31
0.0
  0
SOLID
  5
16220
330
160EB
100
AcDbEntity
  8
0
 62
     1
100
AcDbTrace
 10
7562.409036273215
 20
5412.47516087297
 30
0.0
 11
7565.07570293988
 21
5412.47516087297
 31
0.0
 12
7563.742369606547
 22
5420.47516087297
 32
0.0
 13
7563.742369606547
 23
5420.47516087297
 33
0.0
  0
SOLID
  5
16221
330
160EB
100
AcDbEntity
  8
0
 62
     1
100
AcDbTrace
 10
7562.409036273215
 20
4960.47516087297
 30
0.0
 11
7565.07570293988
 21
4960.47516087297
 31
0.0
 12
7563.742369606547
 22
4952.47516087297
 32
0.0
 13
7563.742369606547
 23
4952.47516087297
 33
0.0
  0
MTEXT
  5
16222
330
160EB
100
AcDbEntity
  8
0
 62
     1
100
AcDbMText
 10
7563.742369606547
 20
5186.475160872971
 30
0.0
 40
15.0
 41
0.0
 46
0.0
 71
     5
 72
     1
  1
468mm
 11
0.0000000000000001
 21
1.0
 31
0.0
 73
     1
 44
1.0
  0
POINT
  5
16223
330
160EB
100
AcDbEntity
  8
Defpoints
 62
     0
100
AcDbPoint
 10
7513.742369606546
 20
5420.47516087297
 30
0.0
  0
POINT
  5
16224
330
160EB
100
AcDbEntity
  8
Defpoints
 62
     0
100
AcDbPoint
 10
7513.742369606546
 20
4952.47516087297
 30
0.0
  0
POINT
  5
16225
330
160EB
100
AcDbEntity
  8
Defpoints
 62
     0
100
AcDbPoint
 10
7563.742369606547
 20
4952.47516087297
 30
0.0
  0
ENDBLK
  5
160F7
330
160EB
100
AcDbEntity
  8
0
100
AcDbBlockEnd
  0
BLOCK
  5
16110
330
16105
100
AcDbEntity
  8
0
100
AcDbBlockBegin
  2
*D54
 70
     1
 10
0.0
 20
0.0
 30
0.0
  3
*D54
  1

  0
LINE
  5
16226
330
16105
100
AcDbEntity
  8
0
 62
     1
370
    15
100
AcDbLine
 10
8054.042369606547
 20
5423.47516087297
 30
0.0
 11
8054.042369606547
 21
5473.47516087297
 31
0.0
  0
LINE
  5
16227
330
16105
100
AcDbEntity
  8
0
 62
     1
370
    15
100
AcDbLine
 10
8928.042369606549
 20
5423.47516087297
 30
0.0
 11
8928.042369606549
 21
5473.47516087297
 31
0.0
  0
LINE
  5
16228
330
16105
100
AcDbEntity
  8
0
 62
     1
370
    15
100
AcDbLine
 10
8062.042369606546
 20
5470.47516087297
 30
0.0
 11
8453.042369606547
 21
5470.47516087297
 31
0.0
  0
LINE
  5
16229
330
16105
100
AcDbEntity
  8
0
 62
     1
370
    15
100
AcDbLine
 10
8920.042369606548
 20
5470.47516087297
 30
0.0
 11
8529.042369606548
 21
5470.47516087297
 31
0.0
  0
SOLID
  5
1622A
330
16105
100
AcDbEntity
  8
0
 62
     1
100
AcDbTrace
 10
8062.042369606546
 20
5471.808494206303
 30
0.0
 11
8062.042369606546
 21
5469.141827539637
 31
0.0
 12
8054.042369606547
 22
5470.47516087297
 32
0.0
 13
8054.042369606547
 23
5470.47516087297
 33
0.0
  0
SOLID
  5
1622B
330
16105
100
AcDbEntity
  8
0
 62
     1
100
AcDbTrace
 10
8920.042369606548
 20
5471.808494206303
 30
0.0
 11
8920.042369606548
 21
5469.141827539637
 31
0.0
 12
8928.042369606549
 22
5470.47516087297
 32
0.0
 13
8928.042369606549
 23
5470.47516087297
 33
0.0
  0
MTEXT
  5
1622C
330
16105
100
AcDbEntity
  8
0
 62
     1
100
AcDbMText
 10
8491.042369606548
 20
5470.47516087297
 30
0.0
 40
15.0
 41
0.0
 46
0.0
 71
     5
 72
     1
  1
874mm
 73
     1
 44
1.0
  0
POINT
  5
1622D
330
16105
100
AcDbEntity
  8
Defpoints
 62
     0
100
AcDbPoint
 10
8054.042369606547
 20
5420.47516087297
 30
0.0
  0
POINT
  5
1622E
330
16105
100
AcDbEntity
  8
Defpoints
 62
     0
100
AcDbPoint
 10
8928.042369606549
 20
5420.47516087297
 30
0.0
  0
POINT
  5
1622F
330
16105
100
AcDbEntity
  8
Defpoints
 62
     0
100
AcDbPoint
 10
8928.042369606549
 20
5470.47516087297
 30
0.0
  0
ENDBLK
  5
16111
330
16105
100
AcDbEntity
  8
0
100
AcDbBlockEnd
  0
BLOCK
  5
1612A
330
1611F
100
AcDbEntity
  8
0
100
AcDbBlockBegin
  2
*D55
 70
     1
 10
0.0
 20
0.0
 30
0.0
  3
*D55
  1

  0
LINE
  5
16230
330
1611F
100
AcDbEntity
  8
0
 62
     1
370
    15
100
AcDbLine
 10
8931.042369606549
 20
5420.47516087297
 30
0.0
 11
8981.042369606548
 21
5420.47516087297
 31
0.0
  0
LINE
  5
16231
330
1611F
100
AcDbEntity
  8
0
 62
     1
370
    15
100
AcDbLine
 10
8931.042369606549
 20
4952.47516087297
 30
0.0
 11
8981.042369606548
 21
4952.47516087297
 31
0.0
  0
LINE
  5
16232
330
1611F
100
AcDbEntity
  8
0
 62
     1
370
    15
100
AcDbLine
 10
8978.042369606548
 20
5412.47516087297
 30
0.0
 11
8978.042369606548
 21
5224.47516087297
 31
0.0
  0
LINE
  5
16233
330
1611F
100
AcDbEntity
  8
0
 62
     1
370
    15
100
AcDbLine
 10
8978.042369606548
 20
4960.47516087297
 30
0.0
 11
8978.042369606548
 21
5148.47516087297
 31
0.0
  0
SOLID
  5
16234
330
1611F
100
AcDbEntity
  8
0
 62
     1
100
AcDbTrace
 10
8976.709036273215
 20
5412.47516087297
 30
0.0
 11
8979.375702939881
 21
5412.47516087297
 31
0.0
 12
8978.042369606548
 22
5420.47516087297
 32
0.0
 13
8978.042369606548
 23
5420.47516087297
 33
0.0
  0
SOLID
  5
16235
330
1611F
100
AcDbEntity
  8
0
 62
     1
100
AcDbTrace
 10
8976.709036273215
 20
4960.47516087297
 30
0.0
 11
8979.375702939881
 21
4960.47516087297
 31
0.0
 12
8978.042369606548
 22
4952.47516087297
 32
0.0
 13
8978.042369606548
 23
4952.47516087297
 33
0.0
  0
MTEXT
  5
16236
330
1611F
100
AcDbEntity
  8
0
 62
     1
100
AcDbMText
 10
8978.042369606546
 20
5186.475160872971
 30
0.0
 40
15.0
 41
0.0
 46
0.0
 71
     5
 72
     1
  1
468mm
 11
0.0000000000000001
 21
1.0
 31
0.0
 73
     1
 44
1.0
  0
POINT
  5
16237
330
1611F
100
AcDbEntity
  8
Defpoints
 62
     0
100
AcDbPoint
 10
8928.042369606549
 20
5420.47516087297
 30
0.0
  0
POINT
  5
16238
330
1611F
100
AcDbEntity
  8
Defpoints
 62
     0
100
AcDbPoint
 10
8928.042369606549
 20
4952.47516087297
 30
0.0
  0
POINT
  5
16239
330
1611F
100
AcDbEntity
  8
Defpoints
 62
     0
100
AcDbPoint
 10
8978.042369606548
 20
4952.47516087297
 30
0.0
  0
ENDBLK
  5
1612B
330
1611F
100
AcDbEntity
  8
0
100
AcDbBlockEnd
  0
BLOCK
  5
167C5
330
167BA
100
AcDbEntity
  8
0
100
AcDbBlockBegin
  2
*D77
 70
     1
 10
0.0
 20
0.0
 30
0.0
  3
*D77
  1

  0
LINE
  5
1686F
330
167BA
100
AcDbEntity
  8
0
 62
     1
370
    15
100
AcDbLine
 10
5431.642369606548
 20
3046.07516087297
 30
0.0
 11
5431.642369606548
 21
2996.07516087297
 31
0.0
  0
LINE
  5
16870
330
167BA
100
AcDbEntity
  8
0
 62
     1
370
    15
100
AcDbLine
 10
6197.642369606546
 20
3046.075160872967
 30
0.0
 11
6197.642369606546
 21
2996.07516087297
 31
0.0
  0
LINE
  5
16871
330
167BA
100
AcDbEntity
  8
0
 62
     1
370
    15
100
AcDbLine
 10
5439.642369606548
 20
2999.07516087297
 30
0.0
 11
5776.642369606546
 21
2999.07516087297
 31
0.0
  0
LINE
  5
16872
330
167BA
100
AcDbEntity
  8
0
 62
     1
370
    15
100
AcDbLine
 10
6189.642369606546
 20
2999.07516087297
 30
0.0
 11
5852.642369606547
 21
2999.07516087297
 31
0.0
  0
SOLID
  5
16873
330
167BA
100
AcDbEntity
  8
0
 62
     1
100
AcDbTrace
 10
5439.642369606548
 20
3000.408494206303
 30
0.0
 11
5439.642369606548
 21
2997.741827539636
 31
0.0
 12
5431.642369606548
 22
2999.07516087297
 32
0.0
 13
5431.642369606548
 23
2999.07516087297
 33
0.0
  0
SOLID
  5
16874
330
167BA
100
AcDbEntity
  8
0
 62
     1
100
AcDbTrace
 10
6189.642369606546
 20
3000.408494206303
 30
0.0
 11
6189.642369606546
 21
2997.741827539636
 31
0.0
 12
6197.642369606546
 22
2999.07516087297
 32
0.0
 13
6197.642369606546
 23
2999.07516087297
 33
0.0
  0
MTEXT
  5
16875
330
167BA
100
AcDbEntity
  8
0
 62
     1
100
AcDbMText
 10
5814.642369606547
 20
2999.07516087297
 30
0.0
 40
15.0
 41
0.0
 46
0.0
 71
     5
 72
     1
  1
766mm
 73
     1
 44
1.0
  0
POINT
  5
16876
330
167BA
100
AcDbEntity
  8
Defpoints
 62
     0
100
AcDbPoint
 10
5431.642369606548
 20
3049.07516087297
 30
0.0
  0
POINT
  5
16877
330
167BA
100
AcDbEntity
  8
Defpoints
 62
     0
100
AcDbPoint
 10
6197.642369606546
 20
3049.075160872967
 30
0.0
  0
POINT
  5
16878
330
167BA
100
AcDbEntity
  8
Defpoints
 62
     0
100
AcDbPoint
 10
6197.642369606546
 20
2999.07516087297
 30
0.0
  0
ENDBLK
  5
167C6
330
167BA
100
AcDbEntity
  8
0
100
AcDbBlockEnd
  0
BLOCK
  5
167DF
330
167D4
100
AcDbEntity
  8
0
100
AcDbBlockBegin
  2
*D78
 70
     1
 10
0.0
 20
0.0
 30
0.0
  3
*D78
  1

  0
LINE
  5
16879
330
167D4
100
AcDbEntity
  8
0
 62
     1
370
    15
100
AcDbLine
 10
6200.642369606547
 20
3279.07516087297
 30
0.0
 11
6250.642369606547
 21
3279.07516087297
 31
0.0
  0
LINE
  5
1687A
330
167D4
100
AcDbEntity
  8
0
 62
     1
370
    15
100
AcDbLine
 10
6200.642369606547
 20
3049.07516087297
 30
0.0
 11
6250.642369606547
 21
3049.07516087297
 31
0.0
  0
LINE
  5
1687B
330
167D4
100
AcDbEntity
  8
0
 62
     1
370
    15
100
AcDbLine
 10
6247.642369606547
 20
3271.07516087297
 30
0.0
 11
6247.642369606547
 21
3200.82516087297
 31
0.0
  0
LINE
  5
1687C
330
167D4
100
AcDbEntity
  8
0
 62
     1
370
    15
100
AcDbLine
 10
6247.642369606547
 20
3057.07516087297
 30
0.0
 11
6247.642369606547
 21
3127.32516087297
 31
0.0
  0
SOLID
  5
1687D
330
167D4
100
AcDbEntity
  8
0
 62
     1
100
AcDbTrace
 10
6246.309036273213
 20
3271.07516087297
 30
0.0
 11
6248.97570293988
 21
3271.07516087297
 31
0.0
 12
6247.642369606547
 22
3279.07516087297
 32
0.0
 13
6247.642369606547
 23
3279.07516087297
 33
0.0
  0
SOLID
  5
1687E
330
167D4
100
AcDbEntity
  8
0
 62
     1
100
AcDbTrace
 10
6246.309036273213
 20
3057.07516087297
 30
0.0
 11
6248.97570293988
 21
3057.07516087297
 31
0.0
 12
6247.642369606547
 22
3049.07516087297
 32
0.0
 13
6247.642369606547
 23
3049.07516087297
 33
0.0
  0
MTEXT
  5
1687F
330
167D4
100
AcDbEntity
  8
0
 62
     1
100
AcDbMText
 10
6247.642369606546
 20
3164.075160872971
 30
0.0
 40
15.0
 41
0.0
 46
0.0
 71
     5
 72
     1
  1
230mm
 11
0.0000000000000001
 21
1.0
 31
0.0
 73
     1
 44
1.0
  0
POINT
  5
16880
330
167D4
100
AcDbEntity
  8
Defpoints
 62
     0
100
AcDbPoint
 10
6197.642369606547
 20
3279.07516087297
 30
0.0
  0
POINT
  5
16881
330
167D4
100
AcDbEntity
  8
Defpoints
 62
     0
100
AcDbPoint
 10
6197.642369606547
 20
3049.07516087297
 30
0.0
  0
POINT
  5
16882
330
167D4
100
AcDbEntity
  8
Defpoints
 62
     0
100
AcDbPoint
 10
6247.642369606547
 20
3049.07516087297
 30
0.0
  0
ENDBLK
  5
167E0
330
167D4
100
AcDbEntity
  8
0
100
AcDbBlockEnd
  0
BLOCK
  5
167F9
330
167EE
100
AcDbEntity
  8
0
100
AcDbBlockBegin
  2
*D79
 70
     1
 10
0.0
 20
0.0
 30
0.0
  3
*D79
  1

  0
LINE
  5
1688D
330
167EE
100
AcDbEntity
  8
0
 62
     1
370
    15
100
AcDbLine
 10
6200.642369606547
 20
3432.87516087297
 30
0.0
 11
6250.642369606547
 21
3432.87516087297
 31
0.0
  0
LINE
  5
1688E
330
167EE
100
AcDbEntity
  8
0
 62
     1
370
    15
100
AcDbLine
 10
6200.642369606547
 20
3584.875160872969
 30
0.0
 11
6250.642369606547
 21
3584.875160872969
 31
0.0
  0
LINE
  5
1688F
330
167EE
100
AcDbEntity
  8
0
 62
     1
370
    15
100
AcDbLine
 10
6247.642369606547
 20
3440.87516087297
 30
0.0
 11
6247.642369606547
 21
3473.37516087297
 31
0.0
  0
LINE
  5
16890
330
167EE
100
AcDbEntity
  8
0
 62
     1
370
    15
100
AcDbLine
 10
6247.642369606547
 20
3576.875160872969
 30
0.0
 11
6247.642369606547
 21
3544.37516087297
 31
0.0
  0
SOLID
  5
16891
330
167EE
100
AcDbEntity
  8
0
 62
     1
100
AcDbTrace
 10
6246.309036273213
 20
3440.87516087297
 30
0.0
 11
6248.97570293988
 21
3440.87516087297
 31
0.0
 12
6247.642369606547
 22
3432.87516087297
 32
0.0
 13
6247.642369606547
 23
3432.87516087297
 33
0.0
  0
SOLID
  5
16892
330
167EE
100
AcDbEntity
  8
0
 62
     1
100
AcDbTrace
 10
6246.309036273213
 20
3576.875160872969
 30
0.0
 11
6248.97570293988
 21
3576.875160872969
 31
0.0
 12
6247.642369606547
 22
3584.875160872969
 32
0.0
 13
6247.642369606547
 23
3584.875160872969
 33
0.0
  0
MTEXT
  5
16893
330
167EE
100
AcDbEntity
  8
0
 62
     1
100
AcDbMText
 10
6247.642369606546
 20
3508.87516087297
 30
0.0
 40
15.0
 41
0.0
 46
0.0
 71
     5
 72
     1
  1
152mm
 11
0.0000000000000001
 21
1.0
 31
0.0
 73
     1
 44
1.0
  0
POINT
  5
16894
330
167EE
100
AcDbEntity
  8
Defpoints
 62
     0
100
AcDbPoint
 10
6197.642369606547
 20
3432.87516087297
 30
0.0
  0
POINT
  5
16895
330
167EE
100
AcDbEntity
  8
Defpoints
 62
     0
100
AcDbPoint
 10
6197.642369606547
 20
3584.875160872969
 30
0.0
  0
POINT
  5
16896
330
167EE
100
AcDbEntity
  8
Defpoints
 62
     0
100
AcDbPoint
 10
6247.642369606547
 20
3584.875160872969
 30
0.0
  0
ENDBLK
  5
167FA
330
167EE
100
AcDbEntity
  8
0
100
AcDbBlockEnd
  0
BLOCK
  5
16813
330
16808
100
AcDbEntity
  8
0
100
AcDbBlockBegin
  2
*D80
 70
     1
 10
0.0
 20
0.0
 30
0.0
  3
*D80
  1

  0
LINE
  5
16883
330
16808
100
AcDbEntity
  8
0
 62
     1
370
    15
100
AcDbLine
 10
6200.642369606547
 20
3584.875160872969
 30
0.0
 11
6225.642369606547
 21
3584.875160872969
 31
0.0
  0
LINE
  5
16884
330
16808
100
AcDbEntity
  8
0
 62
     1
370
    15
100
AcDbLine
 10
6175.642369606546
 20
3917.87516087297
 30
0.0
 11
6225.642369606547
 21
3917.87516087297
 31
0.0
  0
LINE
  5
16885
330
16808
100
AcDbEntity
  8
0
 62
     1
370
    15
100
AcDbLine
 10
6222.642369606547
 20
3592.87516087297
 30
0.0
 11
6222.642369606547
 21
3713.375160872971
 31
0.0
  0
LINE
  5
16886
330
16808
100
AcDbEntity
  8
0
 62
     1
370
    15
100
AcDbLine
 10
6222.642369606547
 20
3909.875160872971
 30
0.0
 11
6222.642369606547
 21
3789.37516087297
 31
0.0
  0
SOLID
  5
16887
330
16808
100
AcDbEntity
  8
0
 62
     1
100
AcDbTrace
 10
6221.309036273215
 20
3592.87516087297
 30
0.0
 11
6223.975702939881
 21
3592.87516087297
 31
0.0
 12
6222.642369606547
 22
3584.875160872969
 32
0.0
 13
6222.642369606547
 23
3584.875160872969
 33
0.0
  0
SOLID
  5
16888
330
16808
100
AcDbEntity
  8
0
 62
     1
100
AcDbTrace
 10
6221.309036273215
 20
3909.875160872971
 30
0.0
 11
6223.975702939881
 21
3909.875160872971
 31
0.0
 12
6222.642369606547
 22
3917.87516087297
 32
0.0
 13
6222.642369606547
 23
3917.87516087297
 33
0.0
  0
MTEXT
  5
16889
330
16808
100
AcDbEntity
  8
0
 62
     1
100
AcDbMText
 10
6222.642369606546
 20
3751.375160872971
 30
0.0
 40
15.0
 41
0.0
 46
0.0
 71
     5
 72
     1
  1
333mm
 11
0.0000000000000001
 21
1.0
 31
0.0
 73
     1
 44
1.0
  0
POINT
  5
1688A
330
16808
100
AcDbEntity
  8
Defpoints
 62
     0
100
AcDbPoint
 10
6197.642369606547
 20
3584.875160872969
 30
0.0
  0
POINT
  5
1688B
330
16808
100
AcDbEntity
  8
Defpoints
 62
     0
100
AcDbPoint
 10
6172.642369606546
 20
3917.87516087297
 30
0.0
  0
POINT
  5
1688C
330
16808
100
AcDbEntity
  8
Defpoints
 62
     0
100
AcDbPoint
 10
6222.642369606547
 20
3917.87516087297
 30
0.0
  0
ENDBLK
  5
16814
330
16808
100
AcDbEntity
  8
0
100
AcDbBlockEnd
  0
BLOCK
  5
1682D
330
16822
100
AcDbEntity
  8
0
100
AcDbBlockBegin
  2
*D81
 70
     1
 10
0.0
 20
0.0
 30
0.0
  3
*D81
  1

  0
LINE
  5
16897
330
16822
100
AcDbEntity
  8
0
 62
     1
370
    15
100
AcDbLine
 10
6197.642369606547
 20
3587.875160872969
 30
0.0
 11
6197.642369606547
 21
3637.87516087297
 31
0.0
  0
LINE
  5
16898
330
16822
100
AcDbEntity
  8
0
 62
     1
370
    15
100
AcDbLine
 10
6172.642369606547
 20
3587.875160872969
 30
0.0
 11
6172.642369606547
 21
3637.87516087297
 31
0.0
  0
LINE
  5
16899
330
16822
100
AcDbEntity
  8
0
 62
     1
370
    15
100
AcDbLine
 10
6189.642369606547
 20
3634.87516087297
 30
0.0
 11
6180.642369606548
 21
3634.87516087297
 31
0.0
  0
LINE
  5
1689A
330
16822
100
AcDbEntity
  8
0
 62
     1
370
    15
100
AcDbLine
 10
6172.642369606547
 20
3634.87516087297
 30
0.0
 11
6164.642369606547
 21
3634.87516087297
 31
0.0
  0
SOLID
  5
1689B
330
16822
100
AcDbEntity
  8
0
 62
     1
100
AcDbTrace
 10
6189.642369606547
 20
3636.208494206304
 30
0.0
 11
6189.642369606547
 21
3633.541827539636
 31
0.0
 12
6197.642369606547
 22
3634.87516087297
 32
0.0
 13
6197.642369606547
 23
3634.87516087297
 33
0.0
  0
SOLID
  5
1689C
330
16822
100
AcDbEntity
  8
0
 62
     1
100
AcDbTrace
 10
6180.642369606548
 20
3636.208494206304
 30
0.0
 11
6180.642369606548
 21
3633.541827539636
 31
0.0
 12
6172.642369606547
 22
3634.87516087297
 32
0.0
 13
6172.642369606547
 23
3634.87516087297
 33
0.0
  0
MTEXT
  5
1689D
330
16822
100
AcDbEntity
  8
0
 62
     1
100
AcDbMText
 10
6134.142369606547
 20
3634.87516087297
 30
0.0
 40
15.0
 41
0.0
 46
0.0
 71
     5
 72
     1
  1
25mm
 73
     1
 44
1.0
  0
POINT
  5
1689E
330
16822
100
AcDbEntity
  8
Defpoints
 62
     0
100
AcDbPoint
 10
6197.642369606547
 20
3584.875160872969
 30
0.0
  0
POINT
  5
1689F
330
16822
100
AcDbEntity
  8
Defpoints
 62
     0
100
AcDbPoint
 10
6172.642369606547
 20
3584.875160872969
 30
0.0
  0
POINT
  5
168A0
330
16822
100
AcDbEntity
  8
Defpoints
 62
     0
100
AcDbPoint
 10
6172.642369606547
 20
3634.87516087297
 30
0.0
  0
ENDBLK
  5
1682E
330
16822
100
AcDbEntity
  8
0
100
AcDbBlockEnd
  0
BLOCK
  5
16847
330
1683C
100
AcDbEntity
  8
0
100
AcDbBlockBegin
  2
*D82
 70
     1
 10
0.0
 20
0.0
 30
0.0
  3
*D82
  1

  0
LINE
  5
168A1
330
1683C
100
AcDbEntity
  8
0
 62
     1
370
    15
100
AcDbLine
 10
5456.642369606545
 20
3587.875160872969
 30
0.0
 11
5456.642369606545
 21
3637.87516087297
 31
0.0
  0
LINE
  5
168A2
330
1683C
100
AcDbEntity
  8
0
 62
     1
370
    15
100
AcDbLine
 10
5431.642369606548
 20
3587.875160872969
 30
0.0
 11
5431.642369606548
 21
3637.87516087297
 31
0.0
  0
LINE
  5
168A3
330
1683C
100
AcDbEntity
  8
0
 62
     1
370
    15
100
AcDbLine
 10
5448.642369606545
 20
3634.87516087297
 30
0.0
 11
5439.642369606548
 21
3634.87516087297
 31
0.0
  0
LINE
  5
168A4
330
1683C
100
AcDbEntity
  8
0
 62
     1
370
    15
100
AcDbLine
 10
5431.642369606548
 20
3634.87516087297
 30
0.0
 11
5423.642369606548
 21
3634.87516087297
 31
0.0
  0
SOLID
  5
168A5
330
1683C
100
AcDbEntity
  8
0
 62
     1
100
AcDbTrace
 10
5448.642369606545
 20
3636.208494206304
 30
0.0
 11
5448.642369606545
 21
3633.541827539636
 31
0.0
 12
5456.642369606545
 22
3634.87516087297
 32
0.0
 13
5456.642369606545
 23
3634.87516087297
 33
0.0
  0
SOLID
  5
168A6
330
1683C
100
AcDbEntity
  8
0
 62
     1
100
AcDbTrace
 10
5439.642369606548
 20
3636.208494206304
 30
0.0
 11
5439.642369606548
 21
3633.541827539636
 31
0.0
 12
5431.642369606548
 22
3634.87516087297
 32
0.0
 13
5431.642369606548
 23
3634.87516087297
 33
0.0
  0
MTEXT
  5
168A7
330
1683C
100
AcDbEntity
  8
0
 62
     1
100
AcDbMText
 10
5393.142369606548
 20
3634.87516087297
 30
0.0
 40
15.0
 41
0.0
 46
0.0
 71
     5
 72
     1
  1
25mm
 73
     1
 44
1.0
  0
POINT
  5
168A8
330
1683C
100
AcDbEntity
  8
Defpoints
 62
     0
100
AcDbPoint
 10
5456.642369606545
 20
3584.875160872969
 30
0.0
  0
POINT
  5
168A9
330
1683C
100
AcDbEntity
  8
Defpoints
 62
     0
100
AcDbPoint
 10
5431.642369606548
 20
3584.875160872969
 30
0.0
  0
POINT
  5
168AA
330
1683C
100
AcDbEntity
  8
Defpoints
 62
     0
100
AcDbPoint
 10
5431.642369606548
 20
3634.87516087297
 30
0.0
  0
ENDBLK
  5
16848
330
1683C
100
AcDbEntity
  8
0
100
AcDbBlockEnd
  0
BLOCK
  5
16861
330
16856
100
AcDbEntity
  8
0
100
AcDbBlockBegin
  2
*D83
 70
     1
 10
0.0
 20
0.0
 30
0.0
  3
*D83
  1

  0
LINE
  5
168AB
330
16856
100
AcDbEntity
  8
0
 62
     1
370
    15
100
AcDbLine
 10
5456.642369606547
 20
3920.875160872969
 30
0.0
 11
5456.642369606547
 21
3970.87516087297
 31
0.0
  0
LINE
  5
168AC
330
16856
100
AcDbEntity
  8
0
 62
     1
370
    15
100
AcDbLine
 10
6172.642369606546
 20
3920.87516087297
 30
0.0
 11
6172.642369606546
 21
3970.87516087297
 31
0.0
  0
LINE
  5
168AD
330
16856
100
AcDbEntity
  8
0
 62
     1
370
    15
100
AcDbLine
 10
5464.642369606547
 20
3967.87516087297
 30
0.0
 11
5779.142369606546
 21
3967.87516087297
 31
0.0
  0
LINE
  5
168AE
330
16856
100
AcDbEntity
  8
0
 62
     1
370
    15
100
AcDbLine
 10
6164.642369606546
 20
3967.87516087297
 30
0.0
 11
5850.142369606547
 21
3967.87516087297
 31
0.0
  0
SOLID
  5
168AF
330
16856
100
AcDbEntity
  8
0
 62
     1
100
AcDbTrace
 10
5464.642369606547
 20
3969.208494206304
 30
0.0
 11
5464.642369606547
 21
3966.541827539636
 31
0.0
 12
5456.642369606547
 22
3967.87516087297
 32
0.0
 13
5456.642369606547
 23
3967.87516087297
 33
0.0
  0
SOLID
  5
168B0
330
16856
100
AcDbEntity
  8
0
 62
     1
100
AcDbTrace
 10
6164.642369606546
 20
3969.208494206304
 30
0.0
 11
6164.642369606546
 21
3966.541827539636
 31
0.0
 12
6172.642369606546
 22
3967.87516087297
 32
0.0
 13
6172.642369606546
 23
3967.87516087297
 33
0.0
  0
MTEXT
  5
168B1
330
16856
100
AcDbEntity
  8
0
 62
     1
100
AcDbMText
 10
5814.642369606547
 20
3967.87516087297
 30
0.0
 40
15.0
 41
0.0
 46
0.0
 71
     5
 72
     1
  1
716mm
 73
     1
 44
1.0
  0
POINT
  5
168B2
330
16856
100
AcDbEntity
  8
Defpoints
 62
     0
100
AcDbPoint
 10
5456.642369606547
 20
3917.87516087297
 30
0.0
  0
POINT
  5
168B3
330
16856
100
AcDbEntity
  8
Defpoints
 62
     0
100
AcDbPoint
 10
6172.642369606546
 20
3917.87516087297
 30
0.0
  0
POINT
  5
168B4
330
16856
100
AcDbEntity
  8
Defpoints
 62
     0
100
AcDbPoint
 10
6172.642369606546
 20
3967.87516087297
 30
0.0
  0
ENDBLK
  5
16862
330
16856
100
AcDbEntity
  8
0
100
AcDbBlockEnd
  0
BLOCK
  5
168CF
330
168C4
100
AcDbEntity
  8
0
100
AcDbBlockBegin
  2
*D84
 70
     1
 10
0.0
 20
0.0
 30
0.0
  3
*D84
  1

  0
LINE
  5
16B4B
330
168C4
100
AcDbEntity
  8
0
 62
     1
370
    15
100
AcDbLine
 10
6693.742369606548
 20
3046.075160872968
 30
0.0
 11
6693.742369606548
 21
2996.07516087297
 31
0.0
  0
LINE
  5
16B4C
330
168C4
100
AcDbEntity
  8
0
 62
     1
370
    15
100
AcDbLine
 10
7535.742369606548
 20
3046.07516087297
 30
0.0
 11
7535.742369606548
 21
2996.07516087297
 31
0.0
  0
LINE
  5
16B4D
330
168C4
100
AcDbEntity
  8
0
 62
     1
370
    15
100
AcDbLine
 10
6701.742369606548
 20
2999.07516087297
 30
0.0
 11
7076.742369606548
 21
2999.07516087297
 31
0.0
  0
LINE
  5
16B4E
330
168C4
100
AcDbEntity
  8
0
 62
     1
370
    15
100
AcDbLine
 10
7527.742369606548
 20
2999.07516087297
 30
0.0
 11
7152.742369606548
 21
2999.07516087297
 31
0.0
  0
SOLID
  5
16B4F
330
168C4
100
AcDbEntity
  8
0
 62
     1
100
AcDbTrace
 10
6701.742369606548
 20
3000.408494206303
 30
0.0
 11
6701.742369606548
 21
2997.741827539636
 31
0.0
 12
6693.742369606548
 22
2999.07516087297
 32
0.0
 13
6693.742369606548
 23
2999.07516087297
 33
0.0
  0
SOLID
  5
16B50
330
168C4
100
AcDbEntity
  8
0
 62
     1
100
AcDbTrace
 10
7527.742369606548
 20
3000.408494206303
 30
0.0
 11
7527.742369606548
 21
2997.741827539636
 31
0.0
 12
7535.742369606548
 22
2999.07516087297
 32
0.0
 13
7535.742369606548
 23
2999.07516087297
 33
0.0
  0
MTEXT
  5
16B51
330
168C4
100
AcDbEntity
  8
0
 62
     1
100
AcDbMText
 10
7114.742369606549
 20
2999.07516087297
 30
0.0
 40
15.0
 41
0.0
 46
0.0
 71
     5
 72
     1
  1
842mm
 73
     1
 44
1.0
  0
POINT
  5
16B52
330
168C4
100
AcDbEntity
  8
Defpoints
 62
     0
100
AcDbPoint
 10
6693.742369606548
 20
3049.075160872968
 30
0.0
  0
POINT
  5
16B53
330
168C4
100
AcDbEntity
  8
Defpoints
 62
     0
100
AcDbPoint
 10
7535.742369606548
 20
3049.07516087297
 30
0.0
  0
POINT
  5
16B54
330
168C4
100
AcDbEntity
  8
Defpoints
 62
     0
100
AcDbPoint
 10
7535.742369606548
 20
2999.07516087297
 30
0.0
  0
ENDBLK
  5
168D0
330
168C4
100
AcDbEntity
  8
0
100
AcDbBlockEnd
  0
BLOCK
  5
168E9
330
168DE
100
AcDbEntity
  8
0
100
AcDbBlockBegin
  2
*D85
 70
     1
 10
0.0
 20
0.0
 30
0.0
  3
*D85
  1

  0
LINE
  5
16B55
330
168DE
100
AcDbEntity
  8
0
 62
     1
370
    15
100
AcDbLine
 10
7538.742369606548
 20
3049.07516087297
 30
0.0
 11
7588.742369606547
 21
3049.07516087297
 31
0.0
  0
LINE
  5
16B56
330
168DE
100
AcDbEntity
  8
0
 62
     1
370
    15
100
AcDbLine
 10
7538.742369606547
 20
3279.075160872969
 30
0.0
 11
7588.742369606547
 21
3279.075160872969
 31
0.0
  0
LINE
  5
16B57
330
168DE
100
AcDbEntity
  8
0
 62
     1
370
    15
100
AcDbLine
 10
7585.742369606546
 20
3057.07516087297
 30
0.0
 11
7585.742369606546
 21
3127.325160872969
 31
0.0
  0
LINE
  5
16B58
330
168DE
100
AcDbEntity
  8
0
 62
     1
370
    15
100
AcDbLine
 10
7585.742369606546
 20
3271.075160872969
 30
0.0
 11
7585.742369606546
 21
3200.82516087297
 31
0.0
  0
SOLID
  5
16B59
330
168DE
100
AcDbEntity
  8
0
 62
     1
100
AcDbTrace
 10
7584.409036273214
 20
3057.07516087297
 30
0.0
 11
7587.07570293988
 21
3057.07516087297
 31
0.0
 12
7585.742369606546
 22
3049.07516087297
 32
0.0
 13
7585.742369606546
 23
3049.07516087297
 33
0.0
  0
SOLID
  5
16B5A
330
168DE
100
AcDbEntity
  8
0
 62
     1
100
AcDbTrace
 10
7584.409036273214
 20
3271.075160872969
 30
0.0
 11
7587.07570293988
 21
3271.075160872969
 31
0.0
 12
7585.742369606546
 22
3279.075160872969
 32
0.0
 13
7585.742369606546
 23
3279.075160872969
 33
0.0
  0
MTEXT
  5
16B5B
330
168DE
100
AcDbEntity
  8
0
 62
     1
100
AcDbMText
 10
7585.742369606546
 20
3164.075160872971
 30
0.0
 40
15.0
 41
0.0
 46
0.0
 71
     5
 72
     1
  1
230mm
 11
0.0000000000000001
 21
1.0
 31
0.0
 73
     1
 44
1.0
  0
POINT
  5
16B5C
330
168DE
100
AcDbEntity
  8
Defpoints
 62
     0
100
AcDbPoint
 10
7535.742369606548
 20
3049.07516087297
 30
0.0
  0
POINT
  5
16B5D
330
168DE
100
AcDbEntity
  8
Defpoints
 62
     0
100
AcDbPoint
 10
7535.742369606547
 20
3279.075160872969
 30
0.0
  0
POINT
  5
16B5E
330
168DE
100
AcDbEntity
  8
Defpoints
 62
     0
100
AcDbPoint
 10
7585.742369606546
 20
3279.075160872969
 30
0.0
  0
ENDBLK
  5
168EA
330
168DE
100
AcDbEntity
  8
0
100
AcDbBlockEnd
  0
BLOCK
  5
16903
330
168F8
100
AcDbEntity
  8
0
100
AcDbBlockBegin
  2
*D86
 70
     1
 10
0.0
 20
0.0
 30
0.0
  3
*D86
  1

  0
LINE
  5
16B69
330
168F8
100
AcDbEntity
  8
0
 62
     1
370
    15
100
AcDbLine
 10
7538.742369606547
 20
3432.87516087297
 30
0.0
 11
7588.742369606547
 21
3432.87516087297
 31
0.0
  0
LINE
  5
16B6A
330
168F8
100
AcDbEntity
  8
0
 62
     1
370
    15
100
AcDbLine
 10
7538.742369606547
 20
3584.875160872969
 30
0.0
 11
7588.742369606547
 21
3584.875160872969
 31
0.0
  0
LINE
  5
16B6B
330
168F8
100
AcDbEntity
  8
0
 62
     1
370
    15
100
AcDbLine
 10
7585.742369606546
 20
3440.87516087297
 30
0.0
 11
7585.742369606546
 21
3473.375160872969
 31
0.0
  0
LINE
  5
16B6C
330
168F8
100
AcDbEntity
  8
0
 62
     1
370
    15
100
AcDbLine
 10
7585.742369606546
 20
3576.875160872969
 30
0.0
 11
7585.742369606546
 21
3544.375160872969
 31
0.0
  0
SOLID
  5
16B6D
330
168F8
100
AcDbEntity
  8
0
 62
     1
100
AcDbTrace
 10
7584.409036273214
 20
3440.87516087297
 30
0.0
 11
7587.07570293988
 21
3440.87516087297
 31
0.0
 12
7585.742369606546
 22
3432.87516087297
 32
0.0
 13
7585.742369606546
 23
3432.87516087297
 33
0.0
  0
SOLID
  5
16B6E
330
168F8
100
AcDbEntity
  8
0
 62
     1
100
AcDbTrace
 10
7584.409036273214
 20
3576.875160872969
 30
0.0
 11
7587.07570293988
 21
3576.875160872969
 31
0.0
 12
7585.742369606546
 22
3584.875160872969
 32
0.0
 13
7585.742369606546
 23
3584.875160872969
 33
0.0
  0
MTEXT
  5
16B6F
330
168F8
100
AcDbEntity
  8
0
 62
     1
100
AcDbMText
 10
7585.742369606546
 20
3508.87516087297
 30
0.0
 40
15.0
 41
0.0
 46
0.0
 71
     5
 72
     1
  1
152mm
 11
0.0000000000000001
 21
1.0
 31
0.0
 73
     1
 44
1.0
  0
POINT
  5
16B70
330
168F8
100
AcDbEntity
  8
Defpoints
 62
     0
100
AcDbPoint
 10
7535.742369606547
 20
3432.87516087297
 30
0.0
  0
POINT
  5
16B71
330
168F8
100
AcDbEntity
  8
Defpoints
 62
     0
100
AcDbPoint
 10
7535.742369606547
 20
3584.875160872969
 30
0.0
  0
POINT
  5
16B72
330
168F8
100
AcDbEntity
  8
Defpoints
 62
     0
100
AcDbPoint
 10
7585.742369606546
 20
3584.875160872969
 30
0.0
  0
ENDBLK
  5
16904
330
168F8
100
AcDbEntity
  8
0
100
AcDbBlockEnd
  0
BLOCK
  5
1691D
330
16912
100
AcDbEntity
  8
0
100
AcDbBlockBegin
  2
*D87
 70
     1
 10
0.0
 20
0.0
 30
0.0
  3
*D87
  1

  0
LINE
  5
16B5F
330
16912
100
AcDbEntity
  8
0
 62
     1
370
    15
100
AcDbLine
 10
7538.742369606547
 20
3584.875160872969
 30
0.0
 11
7563.742369606547
 21
3584.875160872969
 31
0.0
  0
LINE
  5
16B60
330
16912
100
AcDbEntity
  8
0
 62
     1
370
    15
100
AcDbLine
 10
7513.742369606546
 20
3917.875160872969
 30
0.0
 11
7563.742369606547
 21
3917.875160872969
 31
0.0
  0
LINE
  5
16B61
330
16912
100
AcDbEntity
  8
0
 62
     1
370
    15
100
AcDbLine
 10
7560.742369606547
 20
3592.87516087297
 30
0.0
 11
7560.742369606547
 21
3713.375160872969
 31
0.0
  0
LINE
  5
16B62
330
16912
100
AcDbEntity
  8
0
 62
     1
370
    15
100
AcDbLine
 10
7560.742369606547
 20
3909.875160872969
 30
0.0
 11
7560.742369606547
 21
3789.37516087297
 31
0.0
  0
SOLID
  5
16B63
330
16912
100
AcDbEntity
  8
0
 62
     1
100
AcDbTrace
 10
7559.409036273215
 20
3592.87516087297
 30
0.0
 11
7562.07570293988
 21
3592.87516087297
 31
0.0
 12
7560.742369606547
 22
3584.875160872969
 32
0.0
 13
7560.742369606547
 23
3584.875160872969
 33
0.0
  0
SOLID
  5
16B64
330
16912
100
AcDbEntity
  8
0
 62
     1
100
AcDbTrace
 10
7559.409036273215
 20
3909.875160872969
 30
0.0
 11
7562.07570293988
 21
3909.875160872969
 31
0.0
 12
7560.742369606547
 22
3917.875160872969
 32
0.0
 13
7560.742369606547
 23
3917.875160872969
 33
0.0
  0
MTEXT
  5
16B65
330
16912
100
AcDbEntity
  8
0
 62
     1
100
AcDbMText
 10
7560.742369606547
 20
3751.375160872971
 30
0.0
 40
15.0
 41
0.0
 46
0.0
 71
     5
 72
     1
  1
333mm
 11
0.0000000000000001
 21
1.0
 31
0.0
 73
     1
 44
1.0
  0
POINT
  5
16B66
330
16912
100
AcDbEntity
  8
Defpoints
 62
     0
100
AcDbPoint
 10
7535.742369606547
 20
3584.875160872969
 30
0.0
  0
POINT
  5
16B67
330
16912
100
AcDbEntity
  8
Defpoints
 62
     0
100
AcDbPoint
 10
7510.742369606546
 20
3917.875160872969
 30
0.0
  0
POINT
  5
16B68
330
16912
100
AcDbEntity
  8
Defpoints
 62
     0
100
AcDbPoint
 10
7560.742369606547
 20
3917.875160872969
 30
0.0
  0
ENDBLK
  5
1691E
330
16912
100
AcDbEntity
  8
0
100
AcDbBlockEnd
  0
BLOCK
  5
16937
330
1692C
100
AcDbEntity
  8
0
100
AcDbBlockBegin
  2
*D88
 70
     1
 10
0.0
 20
0.0
 30
0.0
  3
*D88
  1

  0
LINE
  5
16B87
330
1692C
100
AcDbEntity
  8
0
 62
     1
370
    15
100
AcDbLine
 10
7510.742369606546
 20
3920.875160872969
 30
0.0
 11
7510.742369606546
 21
3970.87516087297
 31
0.0
  0
LINE
  5
16B88
330
1692C
100
AcDbEntity
  8
0
 62
     1
370
    15
100
AcDbLine
 10
6718.742369606546
 20
3920.87516087297
 30
0.0
 11
6718.742369606546
 21
3970.87516087297
 31
0.0
  0
LINE
  5
16B89
330
1692C
100
AcDbEntity
  8
0
 62
     1
370
    15
100
AcDbLine
 10
7502.742369606547
 20
3967.87516087297
 30
0.0
 11
7152.742369606547
 21
3967.87516087297
 31
0.0
  0
LINE
  5
16B8A
330
1692C
100
AcDbEntity
  8
0
 62
     1
370
    15
100
AcDbLine
 10
6726.742369606546
 20
3967.87516087297
 30
0.0
 11
7076.742369606546
 21
3967.87516087297
 31
0.0
  0
SOLID
  5
16B8B
330
1692C
100
AcDbEntity
  8
0
 62
     1
100
AcDbTrace
 10
7502.742369606547
 20
3969.208494206304
 30
0.0
 11
7502.742369606547
 21
3966.541827539636
 31
0.0
 12
7510.742369606546
 22
3967.87516087297
 32
0.0
 13
7510.742369606546
 23
3967.87516087297
 33
0.0
  0
SOLID
  5
16B8C
330
1692C
100
AcDbEntity
  8
0
 62
     1
100
AcDbTrace
 10
6726.742369606546
 20
3969.208494206304
 30
0.0
 11
6726.742369606546
 21
3966.541827539636
 31
0.0
 12
6718.742369606546
 22
3967.87516087297
 32
0.0
 13
6718.742369606546
 23
3967.87516087297
 33
0.0
  0
MTEXT
  5
16B8D
330
1692C
100
AcDbEntity
  8
0
 62
     1
100
AcDbMText
 10
7114.742369606545
 20
3967.87516087297
 30
0.0
 40
15.0
 41
0.0
 46
0.0
 71
     5
 72
     1
  1
792mm
 73
     1
 44
1.0
  0
POINT
  5
16B8E
330
1692C
100
AcDbEntity
  8
Defpoints
 62
     0
100
AcDbPoint
 10
7510.742369606546
 20
3917.875160872969
 30
0.0
  0
POINT
  5
16B8F
330
1692C
100
AcDbEntity
  8
Defpoints
 62
     0
100
AcDbPoint
 10
6718.742369606546
 20
3917.87516087297
 30
0.0
  0
POINT
  5
16B90
330
1692C
100
AcDbEntity
  8
Defpoints
 62
     0
100
AcDbPoint
 10
6718.742369606546
 20
3967.87516087297
 30
0.0
  0
ENDBLK
  5
16938
330
1692C
100
AcDbEntity
  8
0
100
AcDbBlockEnd
  0
BLOCK
  5
16951
330
16946
100
AcDbEntity
  8
0
100
AcDbBlockBegin
  2
*D89
 70
     1
 10
0.0
 20
0.0
 30
0.0
  3
*D89
  1

  0
LINE
  5
16B7D
330
16946
100
AcDbEntity
  8
0
 62
     1
370
    15
100
AcDbLine
 10
6718.742369606546
 20
3587.875160872969
 30
0.0
 11
6718.742369606546
 21
3637.875160872969
 31
0.0
  0
LINE
  5
16B7E
330
16946
100
AcDbEntity
  8
0
 62
     1
370
    15
100
AcDbLine
 10
6693.742369606548
 20
3587.875160872969
 30
0.0
 11
6693.742369606548
 21
3637.875160872969
 31
0.0
  0
LINE
  5
16B7F
330
16946
100
AcDbEntity
  8
0
 62
     1
370
    15
100
AcDbLine
 10
6710.742369606546
 20
3634.875160872969
 30
0.0
 11
6701.742369606548
 21
3634.875160872969
 31
0.0
  0
LINE
  5
16B80
330
16946
100
AcDbEntity
  8
0
 62
     1
370
    15
100
AcDbLine
 10
6693.742369606548
 20
3634.875160872969
 30
0.0
 11
6685.742369606548
 21
3634.875160872969
 31
0.0
  0
SOLID
  5
16B81
330
16946
100
AcDbEntity
  8
0
 62
     1
100
AcDbTrace
 10
6710.742369606546
 20
3636.208494206303
 30
0.0
 11
6710.742369606546
 21
3633.541827539636
 31
0.0
 12
6718.742369606546
 22
3634.875160872969
 32
0.0
 13
6718.742369606546
 23
3634.875160872969
 33
0.0
  0
SOLID
  5
16B82
330
16946
100
AcDbEntity
  8
0
 62
     1
100
AcDbTrace
 10
6701.742369606548
 20
3636.208494206303
 30
0.0
 11
6701.742369606548
 21
3633.541827539636
 31
0.0
 12
6693.742369606548
 22
3634.875160872969
 32
0.0
 13
6693.742369606548
 23
3634.875160872969
 33
0.0
  0
MTEXT
  5
16B83
330
16946
100
AcDbEntity
  8
0
 62
     1
100
AcDbMText
 10
6655.242369606547
 20
3634.875160872969
 30
0.0
 40
15.0
 41
0.0
 46
0.0
 71
     5
 72
     1
  1
25mm
 73
     1
 44
1.0
  0
POINT
  5
16B84
330
16946
100
AcDbEntity
  8
Defpoints
 62
     0
100
AcDbPoint
 10
6718.742369606546
 20
3584.875160872969
 30
0.0
  0
POINT
  5
16B85
330
16946
100
AcDbEntity
  8
Defpoints
 62
     0
100
AcDbPoint
 10
6693.742369606548
 20
3584.875160872969
 30
0.0
  0
POINT
  5
16B86
330
16946
100
AcDbEntity
  8
Defpoints
 62
     0
100
AcDbPoint
 10
6693.742369606548
 20
3634.875160872969
 30
0.0
  0
ENDBLK
  5
16952
330
16946
100
AcDbEntity
  8
0
100
AcDbBlockEnd
  0
BLOCK
  5
1696B
330
16960
100
AcDbEntity
  8
0
100
AcDbBlockBegin
  2
*D90
 70
     1
 10
0.0
 20
0.0
 30
0.0
  3
*D90
  1

  0
LINE
  5
16B73
330
16960
100
AcDbEntity
  8
0
 62
     1
370
    15
100
AcDbLine
 10
7535.742369606547
 20
3587.875160872969
 30
0.0
 11
7535.742369606547
 21
3637.875160872969
 31
0.0
  0
LINE
  5
16B74
330
16960
100
AcDbEntity
  8
0
 62
     1
370
    15
100
AcDbLine
 10
7510.742369606548
 20
3587.875160872969
 30
0.0
 11
7510.742369606548
 21
3637.875160872969
 31
0.0
  0
LINE
  5
16B75
330
16960
100
AcDbEntity
  8
0
 62
     1
370
    15
100
AcDbLine
 10
7527.742369606547
 20
3634.875160872969
 30
0.0
 11
7518.742369606548
 21
3634.875160872969
 31
0.0
  0
LINE
  5
16B76
330
16960
100
AcDbEntity
  8
0
 62
     1
370
    15
100
AcDbLine
 10
7510.742369606548
 20
3634.875160872969
 30
0.0
 11
7502.742369606548
 21
3634.875160872969
 31
0.0
  0
SOLID
  5
16B77
330
16960
100
AcDbEntity
  8
0
 62
     1
100
AcDbTrace
 10
7527.742369606547
 20
3636.208494206303
 30
0.0
 11
7527.742369606547
 21
3633.541827539636
 31
0.0
 12
7535.742369606547
 22
3634.875160872969
 32
0.0
 13
7535.742369606547
 23
3634.875160872969
 33
0.0
  0
SOLID
  5
16B78
330
16960
100
AcDbEntity
  8
0
 62
     1
100
AcDbTrace
 10
7518.742369606548
 20
3636.208494206303
 30
0.0
 11
7518.742369606548
 21
3633.541827539636
 31
0.0
 12
7510.742369606548
 22
3634.875160872969
 32
0.0
 13
7510.742369606548
 23
3634.875160872969
 33
0.0
  0
MTEXT
  5
16B79
330
16960
100
AcDbEntity
  8
0
 62
     1
100
AcDbMText
 10
7472.242369606547
 20
3634.875160872969
 30
0.0
 40
15.0
 41
0.0
 46
0.0
 71
     5
 72
     1
  1
25mm
 73
     1
 44
1.0
  0
POINT
  5
16B7A
330
16960
100
AcDbEntity
  8
Defpoints
 62
     0
100
AcDbPoint
 10
7535.742369606547
 20
3584.875160872969
 30
0.0
  0
POINT
  5
16B7B
330
16960
100
AcDbEntity
  8
Defpoints
 62
     0
100
AcDbPoint
 10
7510.742369606548
 20
3584.875160872969
 30
0.0
  0
POINT
  5
16B7C
330
16960
100
AcDbEntity
  8
Defpoints
 62
     0
100
AcDbPoint
 10
7510.742369606548
 20
3634.875160872969
 30
0.0
  0
ENDBLK
  5
1696C
330
16960
100
AcDbEntity
  8
0
100
AcDbBlockEnd
  0
BLOCK
  5
16985
330
1697A
100
AcDbEntity
  8
0
100
AcDbBlockBegin
  2
*D91
 70
     1
 10
0.0
 20
0.0
 30
0.0
  3
*D91
  1

  0
LINE
  5
16B91
330
1697A
100
AcDbEntity
  8
0
 62
     1
370
    15
100
AcDbLine
 10
8032.042369606548
 20
3046.07516087297
 30
0.0
 11
8032.042369606548
 21
2996.075160872972
 31
0.0
  0
LINE
  5
16B92
330
1697A
100
AcDbEntity
  8
0
 62
     1
370
    15
100
AcDbLine
 10
8950.042369606547
 20
3046.075160872972
 30
0.0
 11
8950.042369606547
 21
2996.075160872972
 31
0.0
  0
LINE
  5
16B93
330
1697A
100
AcDbEntity
  8
0
 62
     1
370
    15
100
AcDbLine
 10
8040.042369606549
 20
2999.075160872972
 30
0.0
 11
8455.542369606549
 21
2999.075160872972
 31
0.0
  0
LINE
  5
16B94
330
1697A
100
AcDbEntity
  8
0
 62
     1
370
    15
100
AcDbLine
 10
8942.042369606548
 20
2999.075160872972
 30
0.0
 11
8526.542369606548
 21
2999.075160872972
 31
0.0
  0
SOLID
  5
16B95
330
1697A
100
AcDbEntity
  8
0
 62
     1
100
AcDbTrace
 10
8040.042369606549
 20
3000.408494206305
 30
0.0
 11
8040.042369606549
 21
2997.741827539638
 31
0.0
 12
8032.042369606548
 22
2999.075160872972
 32
0.0
 13
8032.042369606548
 23
2999.075160872972
 33
0.0
  0
SOLID
  5
16B96
330
1697A
100
AcDbEntity
  8
0
 62
     1
100
AcDbTrace
 10
8942.042369606548
 20
3000.408494206305
 30
0.0
 11
8942.042369606548
 21
2997.741827539638
 31
0.0
 12
8950.042369606547
 22
2999.075160872972
 32
0.0
 13
8950.042369606547
 23
2999.075160872972
 33
0.0
  0
MTEXT
  5
16B97
330
1697A
100
AcDbEntity
  8
0
 62
     1
100
AcDbMText
 10
8491.042369606548
 20
2999.075160872972
 30
0.0
 40
15.0
 41
0.0
 46
0.0
 71
     5
 72
     1
  1
918mm
 73
     1
 44
1.0
  0
POINT
  5
16B98
330
1697A
100
AcDbEntity
  8
Defpoints
 62
     0
100
AcDbPoint
 10
8032.042369606548
 20
3049.07516087297
 30
0.0
  0
POINT
  5
16B99
330
1697A
100
AcDbEntity
  8
Defpoints
 62
     0
100
AcDbPoint
 10
8950.042369606547
 20
3049.075160872972
 30
0.0
  0
POINT
  5
16B9A
330
1697A
100
AcDbEntity
  8
Defpoints
 62
     0
100
AcDbPoint
 10
8950.042369606547
 20
2999.075160872972
 30
0.0
  0
ENDBLK
  5
16986
330
1697A
100
AcDbEntity
  8
0
100
AcDbBlockEnd
  0
BLOCK
  5
1699F
330
16994
100
AcDbEntity
  8
0
100
AcDbBlockBegin
  2
*D92
 70
     1
 10
0.0
 20
0.0
 30
0.0
  3
*D92
  1

  0
LINE
  5
16B9B
330
16994
100
AcDbEntity
  8
0
 62
     1
370
    15
100
AcDbLine
 10
8953.042369606547
 20
3049.075160872972
 30
0.0
 11
9003.042369606546
 21
3049.075160872972
 31
0.0
  0
LINE
  5
16B9C
330
16994
100
AcDbEntity
  8
0
 62
     1
370
    15
100
AcDbLine
 10
8953.042369606547
 20
3279.075160872969
 30
0.0
 11
9003.042369606546
 21
3279.075160872969
 31
0.0
  0
LINE
  5
16B9D
330
16994
100
AcDbEntity
  8
0
 62
     1
370
    15
100
AcDbLine
 10
9000.042369606546
 20
3057.075160872972
 30
0.0
 11
9000.042369606546
 21
3127.325160872971
 31
0.0
  0
LINE
  5
16B9E
330
16994
100
AcDbEntity
  8
0
 62
     1
370
    15
100
AcDbLine
 10
9000.042369606546
 20
3271.07516087297
 30
0.0
 11
9000.042369606546
 21
3200.825160872971
 31
0.0
  0
SOLID
  5
16B9F
330
16994
100
AcDbEntity
  8
0
 62
     1
100
AcDbTrace
 10
8998.709036273213
 20
3057.075160872972
 30
0.0
 11
9001.375702939879
 21
3057.075160872972
 31
0.0
 12
9000.042369606546
 22
3049.075160872972
 32
0.0
 13
9000.042369606546
 23
3049.075160872972
 33
0.0
  0
SOLID
  5
16BA0
330
16994
100
AcDbEntity
  8
0
 62
     1
100
AcDbTrace
 10
8998.709036273213
 20
3271.07516087297
 30
0.0
 11
9001.375702939879
 21
3271.07516087297
 31
0.0
 12
9000.042369606546
 22
3279.075160872969
 32
0.0
 13
9000.042369606546
 23
3279.075160872969
 33
0.0
  0
MTEXT
  5
16BA1
330
16994
100
AcDbEntity
  8
0
 62
     1
100
AcDbMText
 10
9000.042369606546
 20
3164.075160872972
 30
0.0
 40
15.0
 41
0.0
 46
0.0
 71
     5
 72
     1
  1
230mm
 11
0.0000000000000001
 21
1.0
 31
0.0
 73
     1
 44
1.0
  0
POINT
  5
16BA2
330
16994
100
AcDbEntity
  8
Defpoints
 62
     0
100
AcDbPoint
 10
8950.042369606547
 20
3049.075160872972
 30
0.0
  0
POINT
  5
16BA3
330
16994
100
AcDbEntity
  8
Defpoints
 62
     0
100
AcDbPoint
 10
8950.042369606547
 20
3279.075160872969
 30
0.0
  0
POINT
  5
16BA4
330
16994
100
AcDbEntity
  8
Defpoints
 62
     0
100
AcDbPoint
 10
9000.042369606546
 20
3279.075160872969
 30
0.0
  0
ENDBLK
  5
169A0
330
16994
100
AcDbEntity
  8
0
100
AcDbBlockEnd
  0
BLOCK
  5
169B9
330
169AE
100
AcDbEntity
  8
0
100
AcDbBlockBegin
  2
*D93
 70
     1
 10
0.0
 20
0.0
 30
0.0
  3
*D93
  1

  0
LINE
  5
16BAF
330
169AE
100
AcDbEntity
  8
0
 62
     1
370
    15
100
AcDbLine
 10
8953.042369606549
 20
3432.87516087297
 30
0.0
 11
9003.042369606548
 21
3432.87516087297
 31
0.0
  0
LINE
  5
16BB0
330
169AE
100
AcDbEntity
  8
0
 62
     1
370
    15
100
AcDbLine
 10
8953.042369606549
 20
3584.875160872969
 30
0.0
 11
9003.042369606548
 21
3584.875160872969
 31
0.0
  0
LINE
  5
16BB1
330
169AE
100
AcDbEntity
  8
0
 62
     1
370
    15
100
AcDbLine
 10
9000.042369606548
 20
3440.87516087297
 30
0.0
 11
9000.042369606548
 21
3473.375160872969
 31
0.0
  0
LINE
  5
16BB2
330
169AE
100
AcDbEntity
  8
0
 62
     1
370
    15
100
AcDbLine
 10
9000.042369606548
 20
3576.875160872969
 30
0.0
 11
9000.042369606548
 21
3544.375160872969
 31
0.0
  0
SOLID
  5
16BB3
330
169AE
100
AcDbEntity
  8
0
 62
     1
100
AcDbTrace
 10
8998.709036273215
 20
3440.87516087297
 30
0.0
 11
9001.375702939881
 21
3440.87516087297
 31
0.0
 12
9000.042369606548
 22
3432.87516087297
 32
0.0
 13
9000.042369606548
 23
3432.87516087297
 33
0.0
  0
SOLID
  5
16BB4
330
169AE
100
AcDbEntity
  8
0
 62
     1
100
AcDbTrace
 10
8998.709036273215
 20
3576.875160872969
 30
0.0
 11
9001.375702939881
 21
3576.875160872969
 31
0.0
 12
9000.042369606548
 22
3584.875160872969
 32
0.0
 13
9000.042369606548
 23
3584.875160872969
 33
0.0
  0
MTEXT
  5
16BB5
330
169AE
100
AcDbEntity
  8
0
 62
     1
100
AcDbMText
 10
9000.042369606548
 20
3508.87516087297
 30
0.0
 40
15.0
 41
0.0
 46
0.0
 71
     5
 72
     1
  1
152mm
 11
0.0000000000000001
 21
1.0
 31
0.0
 73
     1
 44
1.0
  0
POINT
  5
16BB6
330
169AE
100
AcDbEntity
  8
Defpoints
 62
     0
100
AcDbPoint
 10
8950.042369606549
 20
3432.87516087297
 30
0.0
  0
POINT
  5
16BB7
330
169AE
100
AcDbEntity
  8
Defpoints
 62
     0
100
AcDbPoint
 10
8950.042369606549
 20
3584.875160872969
 30
0.0
  0
POINT
  5
16BB8
330
169AE
100
AcDbEntity
  8
Defpoints
 62
     0
100
AcDbPoint
 10
9000.042369606548
 20
3584.875160872969
 30
0.0
  0
ENDBLK
  5
169BA
330
169AE
100
AcDbEntity
  8
0
100
AcDbBlockEnd
  0
BLOCK
  5
169D3
330
169C8
100
AcDbEntity
  8
0
100
AcDbBlockBegin
  2
*D94
 70
     1
 10
0.0
 20
0.0
 30
0.0
  3
*D94
  1

  0
LINE
  5
16BA5
330
169C8
100
AcDbEntity
  8
0
 62
     1
370
    15
100
AcDbLine
 10
8953.042369606547
 20
3584.875160872969
 30
0.0
 11
8978.04236960655
 21
3584.875160872969
 31
0.0
  0
LINE
  5
16BA6
330
169C8
100
AcDbEntity
  8
0
 62
     1
370
    15
100
AcDbLine
 10
8928.042369606549
 20
3917.875160872969
 30
0.0
 11
8978.04236960655
 21
3917.875160872969
 31
0.0
  0
LINE
  5
16BA7
330
169C8
100
AcDbEntity
  8
0
 62
     1
370
    15
100
AcDbLine
 10
8975.042369606549
 20
3592.875160872969
 30
0.0
 11
8975.042369606549
 21
3713.375160872969
 31
0.0
  0
LINE
  5
16BA8
330
169C8
100
AcDbEntity
  8
0
 62
     1
370
    15
100
AcDbLine
 10
8975.042369606549
 20
3909.875160872968
 30
0.0
 11
8975.042369606549
 21
3789.375160872969
 31
0.0
  0
SOLID
  5
16BA9
330
169C8
100
AcDbEntity
  8
0
 62
     1
100
AcDbTrace
 10
8973.709036273216
 20
3592.875160872969
 30
0.0
 11
8976.375702939884
 21
3592.875160872969
 31
0.0
 12
8975.042369606549
 22
3584.875160872969
 32
0.0
 13
8975.042369606549
 23
3584.875160872969
 33
0.0
  0
SOLID
  5
16BAA
330
169C8
100
AcDbEntity
  8
0
 62
     1
100
AcDbTrace
 10
8973.709036273216
 20
3909.875160872968
 30
0.0
 11
8976.375702939884
 21
3909.875160872968
 31
0.0
 12
8975.042369606549
 22
3917.875160872969
 32
0.0
 13
8975.042369606549
 23
3917.875160872969
 33
0.0
  0
MTEXT
  5
16BAB
330
169C8
100
AcDbEntity
  8
0
 62
     1
100
AcDbMText
 10
8975.042369606549
 20
3751.37516087297
 30
0.0
 40
15.0
 41
0.0
 46
0.0
 71
     5
 72
     1
  1
333mm
 11
0.0000000000000001
 21
1.0
 31
0.0
 73
     1
 44
1.0
  0
POINT
  5
16BAC
330
169C8
100
AcDbEntity
  8
Defpoints
 62
     0
100
AcDbPoint
 10
8950.042369606547
 20
3584.875160872969
 30
0.0
  0
POINT
  5
16BAD
330
169C8
100
AcDbEntity
  8
Defpoints
 62
     0
100
AcDbPoint
 10
8925.042369606549
 20
3917.875160872969
 30
0.0
  0
POINT
  5
16BAE
330
169C8
100
AcDbEntity
  8
Defpoints
 62
     0
100
AcDbPoint
 10
8975.042369606549
 20
3917.875160872969
 30
0.0
  0
ENDBLK
  5
169D4
330
169C8
100
AcDbEntity
  8
0
100
AcDbBlockEnd
  0
BLOCK
  5
169ED
330
169E2
100
AcDbEntity
  8
0
100
AcDbBlockBegin
  2
*D95
 70
     1
 10
0.0
 20
0.0
 30
0.0
  3
*D95
  1

  0
LINE
  5
16BC3
330
169E2
100
AcDbEntity
  8
0
 62
     1
370
    15
100
AcDbLine
 10
8925.042369606549
 20
3920.875160872969
 30
0.0
 11
8925.042369606549
 21
3970.875160872971
 31
0.0
  0
LINE
  5
16BC4
330
169E2
100
AcDbEntity
  8
0
 62
     1
370
    15
100
AcDbLine
 10
8057.042369606547
 20
3920.87516087297
 30
0.0
 11
8057.042369606547
 21
3970.875160872971
 31
0.0
  0
LINE
  5
16BC5
330
169E2
100
AcDbEntity
  8
0
 62
     1
370
    15
100
AcDbLine
 10
8917.04236960655
 20
3967.875160872971
 30
0.0
 11
8529.042369606548
 21
3967.875160872971
 31
0.0
  0
LINE
  5
16BC6
330
169E2
100
AcDbEntity
  8
0
 62
     1
370
    15
100
AcDbLine
 10
8065.042369606548
 20
3967.875160872971
 30
0.0
 11
8453.042369606547
 21
3967.875160872971
 31
0.0
  0
SOLID
  5
16BC7
330
169E2
100
AcDbEntity
  8
0
 62
     1
100
AcDbTrace
 10
8917.04236960655
 20
3969.208494206304
 30
0.0
 11
8917.04236960655
 21
3966.541827539638
 31
0.0
 12
8925.042369606549
 22
3967.875160872971
 32
0.0
 13
8925.042369606549
 23
3967.875160872971
 33
0.0
  0
SOLID
  5
16BC8
330
169E2
100
AcDbEntity
  8
0
 62
     1
100
AcDbTrace
 10
8065.042369606548
 20
3969.208494206304
 30
0.0
 11
8065.042369606548
 21
3966.541827539638
 31
0.0
 12
8057.042369606547
 22
3967.875160872971
 32
0.0
 13
8057.042369606547
 23
3967.875160872971
 33
0.0
  0
MTEXT
  5
16BC9
330
169E2
100
AcDbEntity
  8
0
 62
     1
100
AcDbMText
 10
8491.042369606548
 20
3967.875160872971
 30
0.0
 40
15.0
 41
0.0
 46
0.0
 71
     5
 72
     1
  1
868mm
 73
     1
 44
1.0
  0
POINT
  5
16BCA
330
169E2
100
AcDbEntity
  8
Defpoints
 62
     0
100
AcDbPoint
 10
8925.042369606549
 20
3917.875160872969
 30
0.0
  0
POINT
  5
16BCB
330
169E2
100
AcDbEntity
  8
Defpoints
 62
     0
100
AcDbPoint
 10
8057.042369606547
 20
3917.875160872971
 30
0.0
  0
POINT
  5
16BCC
330
169E2
100
AcDbEntity
  8
Defpoints
 62
     0
100
AcDbPoint
 10
8057.042369606547
 20
3967.875160872971
 30
0.0
  0
ENDBLK
  5
169EE
330
169E2
100
AcDbEntity
  8
0
100
AcDbBlockEnd
  0
BLOCK
  5
16A07
330
169FC
100
AcDbEntity
  8
0
100
AcDbBlockBegin
  2
*D96
 70
     1
 10
0.0
 20
0.0
 30
0.0
  3
*D96
  1

  0
LINE
  5
16BCD
330
169FC
100
AcDbEntity
  8
0
 62
     1
370
    15
100
AcDbLine
 10
8057.042369606547
 20
3587.875160872969
 30
0.0
 11
8057.042369606547
 21
3637.875160872969
 31
0.0
  0
LINE
  5
16BCE
330
169FC
100
AcDbEntity
  8
0
 62
     1
370
    15
100
AcDbLine
 10
8032.042369606548
 20
3587.875160872969
 30
0.0
 11
8032.042369606548
 21
3637.875160872969
 31
0.0
  0
LINE
  5
16BCF
330
169FC
100
AcDbEntity
  8
0
 62
     1
370
    15
100
AcDbLine
 10
8049.042369606548
 20
3634.875160872969
 30
0.0
 11
8040.042369606549
 21
3634.875160872969
 31
0.0
  0
LINE
  5
16BD0
330
169FC
100
AcDbEntity
  8
0
 62
     1
370
    15
100
AcDbLine
 10
8032.042369606548
 20
3634.875160872969
 30
0.0
 11
8024.042369606549
 21
3634.875160872969
 31
0.0
  0
SOLID
  5
16BD1
330
169FC
100
AcDbEntity
  8
0
 62
     1
100
AcDbTrace
 10
8049.042369606548
 20
3636.208494206303
 30
0.0
 11
8049.042369606548
 21
3633.541827539636
 31
0.0
 12
8057.042369606547
 22
3634.875160872969
 32
0.0
 13
8057.042369606547
 23
3634.875160872969
 33
0.0
  0
SOLID
  5
16BD2
330
169FC
100
AcDbEntity
  8
0
 62
     1
100
AcDbTrace
 10
8040.042369606549
 20
3636.208494206303
 30
0.0
 11
8040.042369606549
 21
3633.541827539636
 31
0.0
 12
8032.042369606548
 22
3634.875160872969
 32
0.0
 13
8032.042369606548
 23
3634.875160872969
 33
0.0
  0
MTEXT
  5
16BD3
330
169FC
100
AcDbEntity
  8
0
 62
     1
100
AcDbMText
 10
7993.54236960655
 20
3634.875160872969
 30
0.0
 40
15.0
 41
0.0
 46
0.0
 71
     5
 72
     1
  1
25mm
 73
     1
 44
1.0
  0
POINT
  5
16BD4
330
169FC
100
AcDbEntity
  8
Defpoints
 62
     0
100
AcDbPoint
 10
8057.042369606547
 20
3584.875160872969
 30
0.0
  0
POINT
  5
16BD5
330
169FC
100
AcDbEntity
  8
Defpoints
 62
     0
100
AcDbPoint
 10
8032.042369606548
 20
3584.875160872969
 30
0.0
  0
POINT
  5
16BD6
330
169FC
100
AcDbEntity
  8
Defpoints
 62
     0
100
AcDbPoint
 10
8032.042369606548
 20
3634.875160872969
 30
0.0
  0
ENDBLK
  5
16A08
330
169FC
100
AcDbEntity
  8
0
100
AcDbBlockEnd
  0
BLOCK
  5
16A21
330
16A16
100
AcDbEntity
  8
0
100
AcDbBlockBegin
  2
*D97
 70
     1
 10
0.0
 20
0.0
 30
0.0
  3
*D97
  1

  0
LINE
  5
16BB9
330
16A16
100
AcDbEntity
  8
0
 62
     1
370
    15
100
AcDbLine
 10
8950.042369606547
 20
3587.875160872969
 30
0.0
 11
8950.042369606547
 21
3637.875160872969
 31
0.0
  0
LINE
  5
16BBA
330
16A16
100
AcDbEntity
  8
0
 62
     1
370
    15
100
AcDbLine
 10
8925.042369606549
 20
3587.875160872969
 30
0.0
 11
8925.042369606549
 21
3637.875160872969
 31
0.0
  0
LINE
  5
16BBB
330
16A16
100
AcDbEntity
  8
0
 62
     1
370
    15
100
AcDbLine
 10
8942.042369606548
 20
3634.875160872969
 30
0.0
 11
8933.042369606548
 21
3634.875160872969
 31
0.0
  0
LINE
  5
16BBC
330
16A16
100
AcDbEntity
  8
0
 62
     1
370
    15
100
AcDbLine
 10
8925.042369606549
 20
3634.875160872969
 30
0.0
 11
8917.042369606548
 21
3634.875160872969
 31
0.0
  0
SOLID
  5
16BBD
330
16A16
100
AcDbEntity
  8
0
 62
     1
100
AcDbTrace
 10
8942.042369606548
 20
3636.208494206303
 30
0.0
 11
8942.042369606548
 21
3633.541827539636
 31
0.0
 12
8950.042369606547
 22
3634.875160872969
 32
0.0
 13
8950.042369606547
 23
3634.875160872969
 33
0.0
  0
SOLID
  5
16BBE
330
16A16
100
AcDbEntity
  8
0
 62
     1
100
AcDbTrace
 10
8933.042369606548
 20
3636.208494206303
 30
0.0
 11
8933.042369606548
 21
3633.541827539636
 31
0.0
 12
8925.042369606549
 22
3634.875160872969
 32
0.0
 13
8925.042369606549
 23
3634.875160872969
 33
0.0
  0
MTEXT
  5
16BBF
330
16A16
100
AcDbEntity
  8
0
 62
     1
100
AcDbMText
 10
8886.542369606548
 20
3634.875160872969
 30
0.0
 40
15.0
 41
0.0
 46
0.0
 71
     5
 72
     1
  1
25mm
 73
     1
 44
1.0
  0
POINT
  5
16BC0
330
16A16
100
AcDbEntity
  8
Defpoints
 62
     0
100
AcDbPoint
 10
8950.042369606547
 20
3584.875160872969
 30
0.0
  0
POINT
  5
16BC1
330
16A16
100
AcDbEntity
  8
Defpoints
 62
     0
100
AcDbPoint
 10
8925.042369606549
 20
3584.875160872969
 30
0.0
  0
POINT
  5
16BC2
330
16A16
100
AcDbEntity
  8
Defpoints
 62
     0
100
AcDbPoint
 10
8925.042369606549
 20
3634.875160872969
 30
0.0
  0
ENDBLK
  5
16A22
330
16A16
100
AcDbEntity
  8
0
100
AcDbBlockEnd
  0
ENDSEC
  0
SECTION
  2
ENTITIES
  0
LWPOLYLINE
  5
16095
102
{ACAD_REACTORS
330
160B5
330
160CF
102
}
330
1F
100
AcDbEntity
  8
0
100
AcDbPolyline
 90
        4
 70
     0
 43
0.0
 10
5453.642369606547
 20
4952.47516087297
 10
5453.642369606547
 20
5420.47516087297
 10
6175.642369606547
 20
5420.47516087297
 10
6175.642369606547
 20
4952.47516087297
  0
DIMENSION
  5
1609C
102
{ACAD_XDICTIONARY
360
160AA
102
}
102
{ACAD_REACTORS
330
160B5
102
}
330
1F
100
AcDbEntity
  8
0
100
AcDbDimension
  2
*D50
 10
6225.642369606547
 20
4952.47516087297
 30
0.0
 11
6225.642369606546
 21
5186.475160872972
 31
0.0
 70
    32
 71
     5
 42
468.0
 73
     0
 74
     0
 75
     0
  3
ISO-25
100
AcDbAlignedDimension
 13
6175.642369606547
 23
5420.47516087297
 33
0.0
 14
6175.642369606547
 24
4952.47516087297
 34
0.0
 50
90.0
100
AcDbRotatedDimension
1001
ACAD
1000
DSTYLE
1002
{
1070
   170
1070
     0
1002
}
  0
DIMENSION
  5
160B6
102
{ACAD_XDICTIONARY
360
160C4
102
}
102
{ACAD_REACTORS
330
160CF
102
}
330
1F
100
AcDbEntity
  8
0
100
AcDbDimension
  2
*D51
 10
5453.642369606547
 20
5470.47516087297
 30
0.0
 11
5814.642369606547
 21
5470.47516087297
 31
0.0
 70
    32
 71
     5
 42
722.0000000000009
 73
     0
 74
     0
 75
     0
  3
ISO-25
100
AcDbAlignedDimension
 13
6175.642369606547
 23
5420.47516087297
 33
0.0
 14
5453.642369606547
 24
5420.47516087297
 34
0.0
100
AcDbRotatedDimension
1001
ACAD
1000
DSTYLE
1002
{
1070
   170
1070
     0
1002
}
  0
MTEXT
  5
161E2
330
1F
100
AcDbEntity
  8
0
 62
     1
100
AcDbMText
 10
5814.642369606547
 20
5186.47516087297
 30
0.0
 40
50.0
 41
0.0
 46
0.0
 71
     5
 72
     1
  1
{\fSimSun|b0|i0|c134|p2;3022}
 73
     1
 44
1.0
  0
VIEWPORT
  5
3C9F
330
D2
100
AcDbEntity
 67
     1
  8
0
100
AcDbViewport
 10
81.38610360820285
 20
84.15502062200848
 30
0.0
 40
25.84176479494511
 41
10.64429779337598
 68
     1
 69
     1
 12
81.38610360820285
 22
84.15502062200848
 13
0.0
 23
0.0
 14
10.0
 24
10.0
 15
10.0
 25
10.0
 16
0.0
 26
0.0
 36
1.0
 17
0.0
 27
0.0
 37
0.0
 42
50.0
 43
0.0
 44
0.0
 45
10.64429779337598
 50
0.0
 51
0.0
 72
  1000
 90
   819232
  1

281
     0
 71
     1
 74
     0
110
0.0
120
0.0
130
0.0
111
1.0
121
0.0
131
0.0
112
0.0
122
1.0
132
0.0
 79
     0
146
0.0
170
     0
 61
     5
348
F6
292
     1
282
     1
141
0.0
142
0.0
 63
   250
421
  3355443
  0
VIEWPORT
  5
3CA1
330
D2
100
AcDbEntity
 67
     1
  8
0
100
AcDbViewport
 10
128.5
 20
97.5
 30
0.0
 40
205.6
 41
156.0
 68
     2
 69
     2
 12
8376.817390072101
 22
743.0893768855244
 13
0.0
 23
0.0
 14
10.0
 24
10.0
 15
10.0
 25
10.0
 16
0.0
 26
0.0
 36
1.0
 17
0.0
 27
0.0
 37
0.0
 42
50.0
 43
0.0
 44
0.0
 45
8096.877645439873
 50
0.0
 51
0.0
 72
  1000
 90
   557152
  1

281
     0
 71
     1
 74
     0
110
0.0
120
0.0
130
0.0
111
1.0
121
0.0
131
0.0
112
0.0
122
1.0
132
0.0
 79
     0
146
0.0
170
     0
 61
     5
348
F6
292
     1
282
     1
141
0.0
142
0.0
 63
   250
421
  3355443
  0
ENDSEC
  0
SECTION
  2
OBJECTS
  0
DICTIONARY
  5
C
330
0
100
AcDbDictionary
281
     1
  3
ACAD_COLOR
350
6B
  3
ACAD_GROUP
350
D
  3
ACAD_LAYOUT
350
1A
  3
ACAD_MATERIAL
350
6A
  3
ACAD_MLINESTYLE
350
17
  3
ACAD_PLOTSETTINGS
350
19
  3
ACAD_PLOTSTYLENAME
350
E
  3
ACAD_TABLESTYLE
350
7E
  3
ACAD_VISUALSTYLE
350
F0
  3
AcDbVariableDictionary
350
5E
  3
ASE_INDEX_DICTIONARY
350
101AD
  0
DICTIONARY
  5
245
330
2
100
AcDbDictionary
280
     1
281
     1
  3
ACAD_LAYERSTATES
360
246
  0
DICTIONARY
  5
126
330
1F
100
AcDbDictionary
280
     1
281
     1
  3
ACAD_SORTENTS
360
127
  0
DICTIONARY
  5
160AA
330
1609C
100
AcDbDictionary
280
     1
281
     1
  3
ACAD_DIMASSOC
360
160B5
  0
DICTIONARY
  5
160C4
330
160B6
100
AcDbDictionary
280
     1
281
     1
  3
ACAD_DIMASSOC
360
160CF
  0
DICTIONARY
  5
6B
102
{ACAD_REACTORS
330
C
102
}
330
C
100
AcDbDictionary
281
     1
  0
DICTIONARY
  5
D
102
{ACAD_REACTORS
330
C
102
}
330
C
100
AcDbDictionary
281
     1
  0
DICTIONARY
  5
1A
102
{ACAD_REACTORS
330
C
102
}
330
C
100
AcDbDictionary
281
     1
  3
Model
350
22
  3
布局1
350
D3
  3
布局2
350
D7
  0
DICTIONARY
  5
6A
102
{ACAD_REACTORS
330
C
102
}
330
C
100
AcDbDictionary
281
     1
  3
ByBlock
350
EE
  3
ByLayer
350
ED
  3
Global
350
EF
  0
DICTIONARY
  5
17
102
{ACAD_REACTORS
330
C
102
}
330
C
100
AcDbDictionary
281
     1
  3
Standard
350
18
  0
DICTIONARY
  5
19
102
{ACAD_REACTORS
330
C
102
}
330
C
100
AcDbDictionary
281
     1
  0
ACDBDICTIONARYWDFLT
  5
E
102
{ACAD_REACTORS
330
C
102
}
330
C
100
AcDbDictionary
281
     1
  3
Normal
350
F
100
AcDbDictionaryWithDefault
340
F
  0
DICTIONARY
  5
7E
102
{ACAD_REACTORS
330
C
102
}
330
C
100
AcDbDictionary
281
     1
  3
Standard
350
7F
  0
DICTIONARY
  5
F0
102
{ACAD_REACTORS
330
C
102
}
330
C
100
AcDbDictionary
281
     1
  3
2dWireframe
350
F6
  3
3D Hidden
350
F8
  3
3dWireframe
350
F7
  3
Basic
350
F5
  3
Brighten
350
FC
  3
ColorChange
350
100
  3
Conceptual
350
F9
  3
Dim
350
FB
  3
Facepattern
350
FF
  3
Flat
350
F1
  3
FlatWithEdges
350
F2
  3
Gouraud
350
F3
  3
GouraudWithEdges
350
F4
  3
Linepattern
350
FE
  3
Realistic
350
FA
  3
Thicken
350
FD
  0
DICTIONARY
  5
5E
102
{ACAD_REACTORS
330
C
102
}
330
C
100
AcDbDictionary
281
     1
  3
CTABLESTYLE
350
84
  3
DIMASSOC
350
5F
  3
HIDETEXT
350
63
  0
DICTIONARY
  5
101AD
102
{ACAD_REACTORS
330
C
102
}
330
C
100
AcDbDictionary
281
     1
  3
ASEBlockHierarchyIndexRecord
350
101AE
1001
DCO15
1040
1945163788.196
  0
DICTIONARY
  5
246
102
{ACAD_REACTORS
330
245
102
}
330
245
100
AcDbDictionary
281
     1
  0
SORTENTSTABLE
  5
127
102
{ACAD_REACTORS
330
126
102
}
330
126
100
AcDbSortentsTable
330
1F
331
160B6
  5
160B6
331
161E2
  5
161E2
331
1609C
  5
1609C
331
16095
  5
16095
  0
DIMASSOC
  5
160B5
102
{ACAD_REACTORS
330
160AA
102
}
330
160AA
100
AcDbDimAssoc
330
1609C
 90
        3
 70
     0
 71
     0
  1
AcDbOsnapPointRef
 72
     1
331
16095
 73
     2
 91
        2
 40
1.0
 10
0.0
 20
0.0
 30
2.000000000000000E+50
 75
     0
  1
AcDbOsnapPointRef
 72
     1
331
16095
 73
     2
 91
        3
 40
1.0
 10
0.0
 20
0.0
 30
2.000000000000000E+50
 75
     0
  0
DIMASSOC
  5
160CF
102
{ACAD_REACTORS
330
160C4
102
}
330
160C4
100
AcDbDimAssoc
330
160B6
 90
        2
 70
     0
 71
     0
  1
AcDbOsnapPointRef
 72
     1
331
16095
 73
     2
 91
        1
 40
1.0
 10
0.0
 20
0.0
 30
2.000000000000000E+50
 75
     0
  0
LAYOUT
  5
22
102
{ACAD_REACTORS
330
1A
102
}
330
1A
100
AcDbPlotSettings
  1

  2
none_device
  4
ISO_A4_(210.00_x_297.00_MM)
  6

 40
7.5
 41
20.0
 42
7.5
 43
20.0
 44
210.0
 45
297.0
 46
11.54999923706054
 47
-13.65000009536743
 48
0.0
 49
0.0
140
0.0
141
0.0
142
1.0
143
8.704084754739808
 70
 11952
 72
     1
 73
     0
 74
     0
  7

 75
     0
147
0.1148885871608098
 76
     0
 77
     2
 78
   300
148
0.0
149
0.0
100
AcDbLayout
  1
Model
 70
     1
 71
     0
 10
0.0
 20
0.0
 11
12.0
 21
9.0
 12
0.0
 22
0.0
 32
0.0
 14
0.0
 24
0.0
 34
0.0
 15
0.0
 25
0.0
 35
0.0
146
0.0
 13
0.0
 23
0.0
 33
0.0
 16
1.0
 26
0.0
 36
0.0
 17
0.0
 27
1.0
 37
0.0
 76
     0
330
1F
331
EB
1001
ACAD_PSEXT
1000
None
1000
None
1000
Not applicable
1000
The layout will not be plotted unless a new plotter configuration name is selected.
1070
     0
  0
LAYOUT
  5
D3
102
{ACAD_XDICTIONARY
360
3CA6
102
}
102
{ACAD_REACTORS
330
1A
102
}
330
1A
100
AcDbPlotSettings
  1

  2
none_device
  4
ISO_A4_(210.00_x_297.00_MM)
  6

 40
7.5
 41
20.0
 42
7.5
 43
20.0
 44
210.0
 45
297.0
 46
0.0
 47
0.0
 48
0.0
 49
0.0
140
0.0
141
0.0
142
1.0
143
1.0
 70
   688
 72
     1
 73
     1
 74
     5
  7

 75
    16
147
1.0
 76
     0
 77
     2
 78
   300
148
0.0
149
0.0
100
AcDbLayout
  1
布局1
 70
     1
 71
     1
 10
-20.0
 20
-7.5
 11
277.0
 21
202.5
 12
0.0
 22
0.0
 32
0.0
 14
25.69999999999999
 24
19.5
 34
0.0
 15
231.3
 25
175.5
 35
0.0
146
0.0
 13
0.0
 23
0.0
 33
0.0
 16
1.0
 26
0.0
 36
0.0
 17
0.0
 27
1.0
 37
0.0
 76
     0
330
D2
331
3C9F
1001
ACAD_PSEXT
1000
无
1000
无
1000
不可用
1000
在选择新的绘图仪配置名称之前，不能打印该布局。
1070
     0
  0
LAYOUT
  5
D7
102
{ACAD_XDICTIONARY
360
15F8C
102
}
102
{ACAD_REACTORS
330
1A
102
}
330
1A
100
AcDbPlotSettings
  1

  2
none_device
  4
ISO_A4_(210.00_x_297.00_MM)
  6

 40
7.5
 41
20.0
 42
7.5
 43
20.0
 44
210.0
 45
297.0
 46
0.0
 47
0.0
 48
0.0
 49
0.0
140
0.0
141
0.0
142
1.0
143
1.0
 70
   688
 72
     1
 73
     1
 74
     5
  7

 75
    16
147
1.0
 76
     0
 77
     2
 78
   300
148
0.0
149
0.0
100
AcDbLayout
  1
布局2
 70
     1
 71
     2
 10
-20.0
 20
-7.5
 11
277.0
 21
202.5
 12
0.0
 22
0.0
 32
0.0
 14
25.69999999999999
 24
19.5
 34
0.0
 15
231.3
 25
175.5
 35
0.0
146
0.0
 13
0.0
 23
0.0
 33
0.0
 16
1.0
 26
0.0
 36
0.0
 17
0.0
 27
1.0
 37
0.0
 76
     0
330
D6
331
15F85
1001
ACAD_PSEXT
1000
无
1000
无
1000
不可用
1000
在选择新的绘图仪配置名称之前，不能打印该布局。
1070
     0
  0
MATERIAL
  5
EE
102
{ACAD_REACTORS
330
6A
102
}
330
6A
100
AcDbMaterial
  1
ByBlock
  0
MATERIAL
  5
ED
102
{ACAD_REACTORS
330
6A
102
}
330
6A
100
AcDbMaterial
  1
ByLayer
  0
MATERIAL
  5
EF
102
{ACAD_REACTORS
330
6A
102
}
330
6A
100
AcDbMaterial
  1
Global
  0
MLINESTYLE
  5
18
102
{ACAD_REACTORS
330
17
102
}
330
17
100
AcDbMlineStyle
  2
STANDARD
 70
     0
  3

 62
   256
 51
90.0
 52
90.0
 71
     2
 49
0.5
 62
   256
  6
BYLAYER
 49
-0.5
 62
   256
  6
BYLAYER
  0
ACDBPLACEHOLDER
  5
F
102
{ACAD_REACTORS
330
E
102
}
330
E
  0
TABLESTYLE
  5
7F
102
{ACAD_REACTORS
330
7E
102
}
330
7E
100
AcDbTableStyle
  3
Standard
 70
     0
 71
     0
 40
1.5
 41
1.5
280
     0
281
     0
  7
Standard
140
4.5
170
     2
 62
     0
 63
     7
283
     0
 90
      512
 91
        0
  1

274
    -2
284
     1
 64
     0
275
    -2
285
     1
 65
     0
276
    -2
286
     1
 66
     0
277
    -2
287
     1
 67
     0
278
    -2
288
     1
 68
     0
279
    -2
289
     1
 69
     0
  7
Standard
140
6.0
170
     5
 62
     0
 63
     7
283
     0
 90
      512
 91
        0
  1

274
    -2
284
     1
 64
     0
275
    -2
285
     1
 65
     0
276
    -2
286
     1
 66
     0
277
    -2
287
     1
 67
     0
278
    -2
288
     1
 68
     0
279
    -2
289
     1
 69
     0
  7
Standard
140
4.5
170
     5
 62
     0
 63
     7
283
     0
 90
      512
 91
        0
  1

274
    -2
284
     1
 64
     0
275
    -2
285
     1
 65
     0
276
    -2
286
     1
 66
     0
277
    -2
287
     1
 67
     0
278
    -2
288
     1
 68
     0
279
    -2
289
     1
 69
     0
  0
VISUALSTYLE
  5
F6
102
{ACAD_REACTORS
330
F0
102
}
330
F0
100
AcDbVisualStyle
  2
2dWireframe
 70
     4
 71
     0
 72
     2
 73
     1
 90
        0
 40
-0.6
 41
-30.0
 62
     5
 63
     7
421
 16777215
 74
     1
 91
        4
 64
     7
 65
   257
 75
     1
175
     1
 42
1.0
 92
        0
 66
   257
 43
1.0
 76
     1
 77
     6
 78
     2
 67
     7
 79
     5
170
     0
171
     0
290
     0
174
     0
 93
        1
 44
0.0
173
     0
291
     0
 45
0.0
  0
VISUALSTYLE
  5
F8
102
{ACAD_REACTORS
330
F0
102
}
330
F0
100
AcDbVisualStyle
  2
3D Hidden
 70
     6
 71
     1
 72
     2
 73
     2
 90
        0
 40
-0.6
 41
-30.0
 62
     5
 63
     7
421
 16777215
 74
     2
 91
        2
 64
     7
 65
   257
 75
     2
175
     1
 42
40.0
 92
        0
 66
   257
 43
1.0
 76
     1
 77
     6
 78
     2
 67
     7
 79
     3
170
     0
171
     0
290
     0
174
     0
 93
        1
 44
0.0
173
     0
291
     0
 45
0.0
  0
VISUALSTYLE
  5
F7
102
{ACAD_REACTORS
330
F0
102
}
330
F0
100
AcDbVisualStyle
  2
3dWireframe
 70
     5
 71
     0
 72
     2
 73
     1
 90
        0
 40
-0.6
 41
-30.0
 62
     5
 63
     7
421
 16777215
 74
     1
 91
        4
 64
     7
 65
   257
 75
     1
175
     1
 42
1.0
 92
        0
 66
   257
 43
1.0
 76
     1
 77
     6
 78
     2
 67
     7
 79
     5
170
     0
171
     0
290
     0
174
     0
 93
        1
 44
0.0
173
     0
291
     0
 45
0.0
  0
VISUALSTYLE
  5
F5
102
{ACAD_REACTORS
330
F0
102
}
330
F0
100
AcDbVisualStyle
  2
Basic
 70
     7
 71
     1
 72
     0
 73
     1
 90
        0
 40
-0.6
 41
-30.0
 62
     5
 63
     7
421
 16777215
 74
     0
 91
        4
 64
     7
 65
   257
 75
     1
175
     1
 42
1.0
 92
        8
 66
     7
 43
1.0
 76
     1
 77
     6
 78
     2
 67
     7
 79
     5
170
     0
171
     0
290
     0
174
     0
 93
        1
 44
0.0
173
     0
291
     1
 45
0.0
  0
VISUALSTYLE
  5
FC
102
{ACAD_REACTORS
330
F0
102
}
330
F0
100
AcDbVisualStyle
  2
Brighten
 70
    12
 71
     2
 72
     2
 73
     1
 90
        0
 40
-0.6
 41
-30.0
 62
     5
 63
     7
421
 16777215
 74
     1
 91
        4
 64
     7
 65
   257
 75
     1
175
     1
 42
1.0
 92
        8
 66
     7
 43
1.0
 76
     1
 77
     6
 78
     2
 67
     7
 79
     5
170
     0
171
     0
290
     0
174
     0
 93
        1
 44
50.0
173
     0
291
     1
 45
0.0
  0
VISUALSTYLE
  5
100
102
{ACAD_REACTORS
330
F0
102
}
330
F0
100
AcDbVisualStyle
  2
ColorChange
 70
    16
 71
     2
 72
     2
 73
     3
 90
        0
 40
-0.6
 41
-30.0
 62
     5
 63
     8
421
  8421504
 74
     1
 91
        4
 64
     7
 65
   257
 75
     1
175
     1
 42
1.0
 92
        8
 66
     8
424
  8421504
 43
1.0
 76
     1
 77
     6
 78
     2
 67
     7
 79
     5
170
     0
171
     0
290
     0
174
     0
 93
        1
 44
0.0
173
     0
291
     1
 45
0.0
  0
VISUALSTYLE
  5
F9
102
{ACAD_REACTORS
330
F0
102
}
330
F0
100
AcDbVisualStyle
  2
Conceptual
 70
     9
 71
     3
 72
     2
 73
     1
 90
        0
 40
-0.6
 41
-30.0
 62
     5
 63
     7
421
 16777215
 74
     2
 91
        2
 64
     7
 65
   257
 75
     1
175
     1
 42
40.0
 92
        8
 66
     7
 43
1.0
 76
     1
 77
     6
 78
     2
 67
     7
 79
     3
170
     0
171
     0
290
     0
174
     0
 93
        1
 44
0.0
173
     0
291
     0
 45
0.0
  0
VISUALSTYLE
  5
FB
102
{ACAD_REACTORS
330
F0
102
}
330
F0
100
AcDbVisualStyle
  2
Dim
 70
    11
 71
     2
 72
     2
 73
     1
 90
        0
 40
-0.6
 41
-30.0
 62
     5
 63
     7
421
 16777215
 74
     1
 91
        4
 64
     7
 65
   257
 75
     1
175
     1
 42
1.0
 92
        8
 66
     7
 43
1.0
 76
     1
 77
     6
 78
     2
 67
     7
 79
     5
170
     0
171
     0
290
     0
174
     0
 93
        1
 44
-50.0
173
     0
291
     1
 45
0.0
  0
VISUALSTYLE
  5
FF
102
{ACAD_REACTORS
330
F0
102
}
330
F0
100
AcDbVisualStyle
  2
Facepattern
 70
    15
 71
     2
 72
     2
 73
     1
 90
        0
 40
-0.6
 41
-30.0
 62
     5
 63
     7
421
 16777215
 74
     1
 91
        4
 64
     7
 65
   257
 75
     1
175
     1
 42
1.0
 92
        8
 66
     7
 43
1.0
 76
     1
 77
     6
 78
     2
 67
     7
 79
     5
170
     0
171
     0
290
     0
174
     0
 93
        1
 44
0.0
173
     0
291
     1
 45
0.0
  0
VISUALSTYLE
  5
F1
102
{ACAD_REACTORS
330
F0
102
}
330
F0
100
AcDbVisualStyle
  2
Flat
 70
     0
 71
     2
 72
     1
 73
     1
 90
        2
 40
-0.6
 41
30.0
 62
     5
 63
     7
421
 16777215
 74
     0
 91
        4
 64
     7
 65
   257
 75
     1
175
     1
 42
1.0
 92
        8
 66
     7
 43
1.0
 76
     1
 77
     6
 78
     2
 67
     7
 79
     5
170
     0
171
     0
290
     0
174
     0
 93
        1
 44
0.0
173
     0
291
     1
 45
0.0
  0
VISUALSTYLE
  5
F2
102
{ACAD_REACTORS
330
F0
102
}
330
F0
100
AcDbVisualStyle
  2
FlatWithEdges
 70
     1
 71
     2
 72
     1
 73
     1
 90
        2
 40
-0.6
 41
30.0
 62
     5
 63
     7
421
 16777215
 74
     1
 91
        4
 64
     7
 65
   257
 75
     1
175
     1
 42
1.0
 92
        0
 66
   257
 43
1.0
 76
     1
 77
     6
 78
     2
 67
     7
 79
     5
170
     0
171
     0
290
     0
174
     0
 93
        1
 44
0.0
173
     0
291
     1
 45
0.0
  0
VISUALSTYLE
  5
F3
102
{ACAD_REACTORS
330
F0
102
}
330
F0
100
AcDbVisualStyle
  2
Gouraud
 70
     2
 71
     2
 72
     2
 73
     1
 90
        2
 40
-0.6
 41
30.0
 62
     5
 63
     7
421
 16777215
 74
     0
 91
        4
 64
     7
 65
   257
 75
     1
175
     1
 42
1.0
 92
        0
 66
     7
 43
1.0
 76
     1
 77
     6
 78
     2
 67
     7
 79
     5
170
     0
171
     0
290
     0
174
     0
 93
        1
 44
0.0
173
     0
291
     1
 45
0.0
  0
VISUALSTYLE
  5
F4
102
{ACAD_REACTORS
330
F0
102
}
330
F0
100
AcDbVisualStyle
  2
GouraudWithEdges
 70
     3
 71
     2
 72
     2
 73
     1
 90
        2
 40
-0.6
 41
30.0
 62
     5
 63
     7
421
 16777215
 74
     1
 91
        4
 64
     7
 65
   257
 75
     1
175
     1
 42
1.0
 92
        0
 66
   257
 43
1.0
 76
     1
 77
     6
 78
     2
 67
     7
 79
     5
170
     0
171
     0
290
     0
174
     0
 93
        1
 44
0.0
173
     0
291
     1
 45
0.0
  0
VISUALSTYLE
  5
FE
102
{ACAD_REACTORS
330
F0
102
}
330
F0
100
AcDbVisualStyle
  2
Linepattern
 70
    14
 71
     2
 72
     2
 73
     1
 90
        0
 40
-0.6
 41
-30.0
 62
     5
 63
     7
421
 16777215
 74
     1
 91
        4
 64
     7
 65
   257
 75
     7
175
     7
 42
1.0
 92
        8
 66
     7
 43
1.0
 76
     1
 77
     6
 78
     2
 67
     7
 79
     5
170
     0
171
     0
290
     0
174
     0
 93
        1
 44
0.0
173
     0
291
     1
 45
0.0
  0
VISUALSTYLE
  5
FA
102
{ACAD_REACTORS
330
F0
102
}
330
F0
100
AcDbVisualStyle
  2
Realistic
 70
     8
 71
     2
 72
     2
 73
     1
 90
        0
 40
-0.6
 41
-30.0
 62
     5
 63
     7
421
 16777215
 74
     1
 91
        0
 64
     7
 65
   257
 75
     1
175
     1
 42
1.0
 92
        8
 66
     8
424
  7895160
 43
1.0
 76
     1
 77
     6
 78
     2
 67
     7
 79
     5
170
     0
171
     0
290
     0
174
     0
 93
       13
 44
0.0
173
     0
291
     0
 45
0.0
  0
VISUALSTYLE
  5
FD
102
{ACAD_REACTORS
330
F0
102
}
330
F0
100
AcDbVisualStyle
  2
Thicken
 70
    13
 71
     2
 72
     2
 73
     1
 90
        0
 40
-0.6
 41
-30.0
 62
     5
 63
     7
421
 16777215
 74
     1
 91
        4
 64
     7
 65
   257
 75
     1
175
     1
 42
1.0
 92
       12
 66
     7
 43
1.0
 76
     1
 77
     6
 78
     2
 67
     7
 79
     5
170
     0
171
     0
290
     0
174
     0
 93
        1
 44
0.0
173
     0
291
     1
 45
0.0
  0
DICTIONARYVAR
  5
84
102
{ACAD_REACTORS
330
5E
102
}
330
5E
100
DictionaryVariables
280
     0
  1
STANDARD
  0
DICTIONARYVAR
  5
5F
102
{ACAD_REACTORS
330
5E
102
}
330
5E
100
DictionaryVariables
280
     0
  1
2
  0
DICTIONARYVAR
  5
63
102
{ACAD_REACTORS
330
5E
102
}
330
5E
100
DictionaryVariables
280
     0
  1
1
  0
XRECORD
  5
101AE
102
{ACAD_REACTORS
330
101AD
102
}
330
101AD
100
AcDbXrecord
280
     1
  0
DICTIONARY
  5
3CA6
330
D3
100
AcDbDictionary
280
     1
281
     1
  3
ADSK_XREC_LAYOUTTHUMBNAIL
360
3CA7
  0
DICTIONARY
  5
15F8C
330
D7
100
AcDbDictionary
280
     1
281
     1
  3
ADSK_XREC_LAYOUTTHUMBNAIL
360
15F8D
  0
XRECORD
  5
3CA7
102
{ACAD_REACTORS
330
3CA6
102
}
330
3CA6
100
AcDbXrecord
280
     1
310
28000000B40000007F00000001000800000000004C59000000000000000000000001000000000000FFFFFF0000000000FFFFFF000000000000000000000000000000000000000000000000000000000000000000330000006600000099000000CC000000FF00000000330000333300006633000099330000CC330000FF3300
310
0000660000336600006666000099660000CC660000FF66000000990000339900006699000099990000CC990000FF99000000CC000033CC000066CC000099CC0000CCCC0000FFCC000000FF000033FF000066FF000099FF0000CCFF0000FFFF000000003300330033006600330099003300CC003300FF003300003333003333
310
33006633330099333300CC333300FF33330000663300336633006666330099663300CC663300FF66330000993300339933006699330099993300CC993300FF99330000CC330033CC330066CC330099CC3300CCCC3300FFCC330000FF330033FF330066FF330099FF3300CCFF3300FFFF330000006600330066006600660099
310
006600CC006600FF00660000336600333366006633660099336600CC336600FF33660000666600336666006666660099666600CC666600FF66660000996600339966006699660099996600CC996600FF99660000CC660033CC660066CC660099CC6600CCCC6600FFCC660000FF660033FF660066FF660099FF6600CCFF6600
310
FFFF660000009900330099006600990099009900CC009900FF00990000339900333399006633990099339900CC339900FF33990000669900336699006666990099669900CC669900FF66990000999900339999006699990099999900CC999900FF99990000CC990033CC990066CC990099CC9900CCCC9900FFCC990000FF99
310
0033FF990066FF990099FF9900CCFF9900FFFF99000000CC003300CC006600CC009900CC00CC00CC00FF00CC000033CC003333CC006633CC009933CC00CC33CC00FF33CC000066CC003366CC006666CC009966CC00CC66CC00FF66CC000099CC003399CC006699CC009999CC00CC99CC00FF99CC0000CCCC0033CCCC0066CC
310
CC0099CCCC00CCCCCC00FFCCCC0000FFCC0033FFCC0066FFCC0099FFCC00CCFFCC00FFFFCC000000FF003300FF006600FF009900FF00CC00FF00FF00FF000033FF003333FF006633FF009933FF00CC33FF00FF33FF000066FF003366FF006666FF009966FF00CC66FF00FF66FF000099FF003399FF006699FF009999FF00CC
310
99FF00FF99FF0000CCFF0033CCFF0066CCFF0099CCFF00CCCCFF00FFCCFF0000FFFF0033FFFF0066FFFF0099FFFF00CCFFFF00FFFFFF00000000000D0D0D001A1A1A00282828003535350043434300505050005D5D5D006B6B6B00787878008686860093939300A1A1A100AEAEAE00BBBBBB00C9C9C900D6D6D600E4E4E400
310
F1F1F100FFFFFF0000000000000000000000000000000000000000000000000000000000000000000000000000000000E2E2E2E2E2E2E2E2E2E2E2E2E2E2E2E2E2E2E2E2E2E2E2E2E2E2E2E2E2E2E2E2E2E2E2E2E2E2E2E2E2E2E2E2E2E2E2E2E2E2E2E2E2E2E2E2E2E2E2E2E2E2E2E2E2E2E2E2E2E2E2E2E2E2E2E2E2E2E2
310
E2E2E2E2E2E2E2E2E2E2E2E2E2E2E2E2E2E2E2E2E2E2E2E2E2E2E2E2E2E2E2E2E2E2E2E2E2E2E2E2E2E2E2E2E2E2E2E2E2E2E2E2E2E2E2E2E2E2E2E2E2E2E2E2E2E2E2E2E2E2E2E2E2E2E2E2E2E2E2E2E2E2E2E2E2E2E2E2E2E2E2E2E2E2E2E2E2E2E2E2E2F5F5F5F5F5F5F5F5F5F5F5F5F5F5F5F5F5F5F5F5F5F5F5F5F5F5
310
F5F5F5F5F5F5F5F5F5F5F5F5F5F5F5F5F5F5F5F5F5F5F5F5F5F5F5F5F5F5F5F5F5F5F5F5F5F5F5F5F5F5F5F5F5F5F5F5F5F5F5F5F5F5F5F5F5F5F5F5F5F5F5F5F5F5F5F5F5F5F5F5F5F5F5F5F5F5F5F5F5F5F5F5F5F5F5F5F5F5F5F5F5F5F5F5F5F5F5F5F5F5F5F5F5F5F5F5F5F5F5F5F5F5F5F5F5F5F5F5F5F5F5F5F5F5F5
310
F5F5F5F5F5F5F5F5F5F5F5F5F5F5F5F5F5F5F5F5F5F5F5F5F5E2E2F5F5F5F5F5F5F5F5F5F5F5F5F5F5F5F5F5F5F5F5F5F5F5F5F5F5F5F5F5F5F5F5F5F5F5F5F5F5F5F5F5F5F5F5F5F5F5F5F5F5F5F5F5F5F5F5F5F5F5F5F5F5F5F5F5F5F5F5F5F5F5F5F5F5F5F5F5F5F5F5F5F5F5F5F5F5F5F5F5F5F5F5F5F5F5F5F5F5F5F5
310
F5F5F5F5F5F5F5F5F5F5F5F5F5F5F5F5F5F5F5F5F5F5F5F5F5F5F5F5F5F5F5F5F5F5F5F5F5F5F5F5F5F5F5F5F5F5F5F5F5F5F5F5F5F5F5F5F5F5F5F5F5F5F5F5F5F5F5F5F5F5F5F5F5F5F5F5F5F5E2E2F5F5F5F5F5F5F5F5F5F5F5F5F5F5F5F5F5F5F5F5F5F5F5F5F5F5F5F5F5F5F5F5F5F5F5F5F5F5F5F5F5F5F5F5F5F5F5
310
F5F5F5F5F5F5F5F5F5F5F5F5F5F5F5F5F5F5F5F5F5F5F5F5F5F5F5F5F5F5F5F5F5F5F5F5F5F5F5F5F5F5F5F5F5F5F5F5F5F5F5F5F5F5F5F5F5F5F5F5F5F5F5F5F5F5F5F5F5F5F5F5F5F5F5F5F5F5F5F5F5F5F5F5F5F5F5F5F5F5F5F5F5F5F5F5F5F5F5F5F5F5F5F5F5F5F5F5F5F5F5F5F5F5F5F5F5F5F5F5F5F5F5F5F5F5F5
310
F5F5F5F5E2E2F5F5F5F5F5F5F5F5F5F5F5F5F5F5F5F5F5F5F5F5F5F5F5F5F5F5F5F5F5F5F5F5F5F5F5F5F5F5F5F5F5F5F5F5F5F5F5F5F5F5F5F5F5F5F5F5F5F5F5F5F5F5F5F5F5F5F5F5F5F5F5F5F5F5F5F5F5F5F5F5F5F5F5F5F5F5F5F5F5F5F5F5F5F5F5F5F5F5F5F5F5F5F5F5F5F5F5F5F5F5F5F5F5F5F5F5F5F5F5F5F5
310
F5F5F5F5F5F5F5F5F5F5F5F5F5F5F5F5F5F5F5F5F5F5F5F5F5F5F5F5F5F5F5F5F5F5F5F5F5F5F5F5F5F5F5F5F5F5F5F5F5F5F5F5F5F5F5F5F5E2E2F5F5F5F5F5F5F5F5F5F5F5E2E2E2E2E2E2E2E2E2F5F5F5F5F5F5F5F5F5E2E2E2E2E2E2E2E2E2E2E2E2E2E2E2E2E2F5F5F5F5F5F5F5F5F5E2E2E2E2E2E2E2E2E2E2E2E2E2
310
E2E2E2F5F5F5F5F5F5F5F5F5F5E2E2E2E2E2E2E2E2E2E2E2E2E2E2E2E2F5F5F5F5F5F5F5F5F5F5E2E2E2E2E2E2E2E2E2E2E2E2E2E2E2E2F5F5F5F5F5F5F5F5F5E2E2E2E2E2E2E2E2E2E2E2E2E2E2E2E2E2F5F5F5F5F5F5F5F5F5E2E2E2E2E2E2E2E2E2F5F5F5F5F5F5F5F5F5F5F5E2E2F5F5F5F5F5F5F5F5F5F5F5E2F5F5F5
310
F5F5F5F5F5F5F5F5F5F5F5F5F5F5F5F5F5F5F5F5F5F5F5F5F5F5F5F5F5F5F5F5F5F5F5F5F5F5F5F5F5F5F5F5F5F5F5F5F5F5F5F5F5F5F5F5F5F5F5F5F5F5F5F5F5F5F5F5F5F5F5F5F5F5F5F5F5F5F5F5F5F5F5F5F5F5F5F5F5F5F5F5F5F5F5F5F5F5F5F5F5F5F5F5F5F5F5F5F5F5F5F5F5F5F5F5F5F5F5F5F5F5F5F5F5F5F5
310
F5F5F5F5F5F5F5F5F5F5F5F5F5F5F5F5F5F5F5F5F5F5F5F5E2F5F5F5F5F5F5F5F5F5F5F5E2E2F5F5F5F5F5F5F5F5F5F5F5E2F5F5F5F5F5F5F5F5F5F5F5F5F5F5F5F5F5F5F5F5F5F5F5F5F5F5F5F5F5F5F5F5F5F5F5F5F5F5F5F5F5F5F5F5F5F5F5F5F5F5F5F5F5F5F5F5F5F5F5F5F5F5F5F5F5F5F5F5F5F5F5F5F5F5F5F5F5
310
F5F5F5F5F5F5F5F5F5F5F5F5F5F5F5F5F5F5F5F5F5F5F5F5F5F5F5F5F5F5F5F5F5F5F5F5F5F5F5F5F5F5F5F5F5F5F5F5F5F5F5F5F5F5F5F5F5F5F5F5F5F5F5F5F5F5F5F5F5F5F5F5F5F5F5F5F5E2F5F5F5F5F5F5F5F5F5F5F5E2E2F5F5F5F5F5F5F5F5F5F5F5E2F5F5F5F5F5F5F5F5F5F5F5F5F5F5F5F5F5F5F5F5F5F5F5F5
310
F5F5F5F5F5F5F5F5F5F5F5F5F5F5F5F5F5F5F5F5F5F5F5F5F5F5F5F5F5F5F5F5F5F5F5F5F5F5F5F5F5F5F5F5F5F5F5F5F5F5F5F5F5F5F5F5F5F5F5F5F5F5F5F5F5F5F5F5F5F5F5F5F5F5F5F5F5F5F5F5F5F5F5F5F5F5F5F5F5F5F5F5F5F5F5F5F5F5F5F5F5F5F5F5F5F5F5F5F5F5F5F5F5F5F5F5F5F5F5F5F5F5F5F5F5F5F5
310
F5F5F5E2F5F5F5F5F5F5F5F5F5F5F5E2E2F5F5F5F5F5F5F5F5F5F5F5E2F5F5F5F5F5F5F5F5F5F5F5F5F5F5F5F5F5F5F5F5F5F5F5F5F5F5F5F5F5F5F5F5F5F5F5F5F5F5F5F5F5F5F5F5F5F5F5F5F5F5F5F5F5F5F5F5F5F5F5F5F5F5F5F5F5F5F5F5F5F5F5F5F5F5F5F5F5F5F5F5F5F5F5F5F5F5F5F5F5F5F5F5F5F5F5F5F5F5
310
F5F5F5F5F5F5F5F5F5F5F5F5F5F5F5F5F5F5F5F5F5F5F5F5F5F5F5F5F5F5F5F5F5F5F5F5F5F5F5F5F5F5F5F5F5F5F5F5F5F5F5F5F5F5F5F5E2F5F5F5F5F5F5F5F5F5F5F5E2E2F5F5F5F5F5F5F5F5F5F5F5E2F5F5F5F5F5F5F5F5F5F5F5F5F5F5F5F5F5F5F5F5F5F5F5F5F5F5F5F5F5F5F5F5F5F5F5F5F5F5F5F5F5F5F5F5F5
310
F5F5F5F5F5F5F5F5F5F5F5F5F5F5F5F5F5F5F5F5F5F5F5F5F5F5F5F5F5F5F5F5F5F5F5F5F5F5F5F5F5F5F5F5F5F5F5F5F5F5F5F5F5F5F5F5F5F5F5F5F5F5F5F5F5F5F5F5F5F5F5F5F5F5F5F5F5F5F5F5F5F5F5F5F5F5F5F5F5F5F5F5F5F5F5F5F5F5F5F5F5F5F5F5F5F5F5F5F5E2F5F5F5F5F5F5F5F5F5F5F5E2E2F5F5F5F5
310
F5F5F5F5F5F5F5E2F5F5F5F5F5F5F5F5F5F5F5F5F5F5F5F5F5F5F5F5F5F5F5F5F5F5F5F5F5F5F5F5F5F5F5F5F5F5F5F5F5F5F5F5F5F5F5F5F5F5F5F5F5F5F5F5F5F5F5F5F5F5F5F5F5F5F5F5F5F5F5F5F5F5F5F5F5F5F5F5F5F5F5F5F5F5F5F5F5F5F5F5F5F5F5F5F5F5F5F5F5F5F5F5F5F5F5F5F5F5F5F5F5F5F5F5F5F5F5
310
F5F5F5F5F5F5F5F5F5F5F5F5F5F5F5F5F5F5F5F5F5F5F5F5F5F5F5F5F5F5F5F5F5F5F5E2F5F5F5F5F5F5F5F5F5F5F5E2E2F5F5F5F5F5F5F5F5F5F5F5E2F5F5F5F5F5F5F5F5F5F5F5F5F5F5F5F5F5F5F5F5F5F5F5F5F5F5F5F5F5F5F5F5F5F5F5F5F5F5F5F5F5F5F5F5F5F5F5F5F5F5F5F5F5F5F5F5F5F5F5F5F5F5F5F5F5F5
310
F5F5F5F5F5F5F5F5F5F5F5F5F5F5F5F5F5F5F5F5F5F5F5F5F5F5F5F5F5F5F5F5F5F5F5F5F5F5F5F5F5F5F5F5F5F5F5F5F5F5F5F5F5F5F5F5F5F5F5F5F5F5F5F5F5F5F5F5F5F5F5F5F5F5F5F5F5F5F5F5F5F5F5F5F5F5F5F5E2F5F5F5F5F5F5F5F5F5F5F5E2E2F5F5F5F5F5F5F5F5F5F5F5F5F5F5F5F5F5F5F5F5F5F5F5F5F5
310
F5F5F5F5F5F5F5F5F5F5F5F5F5F5F5F5F5F5F5F5F5F5F5F5F5F5F5F5F5F5F5F5F5F5F5F5F5F5F5F5F5F5F5F5F5F5F5F5F5F5F5F5F5F5F5F5F5F5F5F5F5F5F5F5F5F5F5F5F5F5F5F5F5F5F5F5F5F5F5F5F5F5F5F5F5F5F5F5F5F5F5F5F5F5F5F5F5F5F5F5F5F5F5F5F5F5F5F5F5F5F5F5F5F5F5F5F5F5F5F5F5F5F5F5F5F5F5
310
F5F5F5F5F5F5F5F5F5F5F5F5F5F5F5F5F5F5F5F5F5F5F5F5F5F5E2E2F5F5F5F5F5F5F5F5F5F5F5F5F5F5F5F5F5F5F5F5F5F5F5F5F5F5F5F5F5F5F5F5F5F5F5F5F5F5F5F5F5F5F5F5F5F5F5F5F5F5F5F5F5F5F5F5F5F5F5F5F5F5F5F5F5F5F5F5F5F5F5F5F5F5F5F5F5F5F5F5F5F5F5F5F5F5F5F5F5F5F5F5F5F5F5F5F5F5F5
310
F5F5F5F5F5F5F5F5F5F5F5F5F5F5F5F5F5F5F5F5F5F5F5F5F5F5F5F5F5F5F5F5F5F5F5F5F5F5F5F5F5F5F5F5F5F5F5F5F5F5F5F5F5F5F5F5F5F5F5F5F5F5F5F5F5F5F5F5F5F5F5F5F5F5F5F5F5F5F5E2E2F5F5F5F5F5F5F5F5F5F5F5F5F5F5F5F5F5F5F5F5F5F5F5F5F5F5F5F5F5F5F5F5F5F5F5F5F5F5F5F5F5F5F5F5F5F5
310
F5F5F5F5F5F5F5F5F5F5F5F5F5F5F5F5F5F5F5F5F5F5F5F5F5F5F5F5F5F5F5F5F5F5F5F5F5F5F5F5F5F5F5F5F5F5F5F5F5F5F5F5F5F5F5F5F5F5F5F5F5F5F5F5F5F5F5F5F5F5F5F5F5F5F5F5F5F5F5F5F5F5F5F5F5F5F5F5F5F5F5F5F5F5F5F5F5F5F5F5F5F5F5F5F5F5F5F5F5F5F5F5F5F5F5F5F5F5F5F5F5F5F5F5F5F5F5
310
F5F5F5F5F5E2E2F5F5F5F5F5F5F5F5F5F5F5F5F5F5F5F5F5F5F5F5F5F5F5F5F5F5F5E2E2E2E2E2E2E2E2E2E2E2E2E2E2E2E2E2E2E2E2E2E2E2E2E2E2E2E2E2E2E2E2E2E2E2E2E2E2E2E2E2E2E2E2E2E2E2E2E2E2E2E2E2E2E2E2E2E2E2E2E2E2E2E2E2E2E2E2E2E2E2E2E2E2E2E2E2E2E2E2E2E2E2E2E2E2E2E2E2E2E2E2E2
310
E2E2E2E2E2E2E2E2E2E2E2E2E2E2E2E2E2E2E2E2E2E2E2E2E2E2E2E2E2E2E2F5F5F5F5F5F5F5F5F5F5F5F5F5F5F5F5F5F5F5F5F5F5F5F5F5F5F5E2E2F5F5F5F5F5F5F5F5F5F5F5F5F5F5F5F5F5F5F5F5F5F5F5F5F5F5F5E2F5F5F5F5F5F5F5F5F5F5F5F5F5F5F5F5F5F5F5F5F5F5F5F5F5F5F5F5F5F5F5F5F5F5F5F5F5F5F5
310
F5F5F5F5F5F5F5F5F5F5F5F5F5F5F5F5F5F5F5F5F5F5F5F5F5F5F5F5F5F5F5F5F5F5F5F5F5F5F5F5F5F5F5F5F5F5F5F5F5F5F5F5F5F5F5F5F5F5F5F5F5F5F5F5F5F5F5F5F5F5F5F5F5F5F5F5F5F5F5F5F5F5F5E2F5F5F5F5F5F5F5F5F5F5F5F5F5F5F5F5F5F5F5F5F5F5F5F5F5F5F5E2E2F5F5F5F5F5F5F5F5F5F5F5F5F5F5
310
F5F5F5F5F5F5F5F5F5F5F5F5F5E2F5F5F5F5F5F5F5F5F5F5F5F5F5F5F5F5F5F5F5F5F5F5F5F5F5F5F5F5F5F5F5F5F5F5F5F5F5F5F5F5F5F5F5F5F5F5F5F5F5F5F5F5F5F5F5F5F5F5F5F5F5F5F5F5F5F5F5F5F5F5F5F5F5F5F5F5F5F5F5F5F5F5F5F5F5F5F5F5F5F5F5F5F5F5F5F5F5F5F5F5F5F5F5F5F5F5F5F5F5F5F5F5F5
310
F5F5F5F5F5F5F5F5F5E2F5F5F5F5F5F5F5F5F5F5F5F5F5F5F5F5F5F5F5F5F5F5F5F5F5F5F5E2E2F5F5F5F5F5F5F5F5F5F5F5F5F5F5F5F5F5F5F5F5F5F5F5F5F5F5F5E2F5F5F5F5F5F5F5F5F5F5F5F5F5F5F5F5F5F5F5F5F5F5F5F5F5F5F5F5F5F5F5F5F5F5F5F5F5F5F5F5F5F5F5F5F5F5F5F5F5F5F5F5F5F5F5F5F5F5F5F5
310
F5F5F5F5F5F5F5F5F5F5F5F5F5F5F5F5F5F5F5F5F5F5F5F5F5F5F5F5F5F5F5F5F5F5F5F5F5F5F5F5F5F5F5F5F5F5F5F5F5F5F5F5F5F5F5F5F5F5F5F5F5F5E2F5F5F5F5F5F5F5F5F5F5F5F5F5F5F5F5F5F5F5F5F5F5F5F5F5F5F5E2E2F5F5F5F5F5F5F5F5F5F5F5F5F5F5F5F5F5F5F5F5F5F5F5F5F5F5F5E2F5F5F5F5F5F5F5
310
F5F5F5F5F5F5F5F5F5F5F5F5F5F5F5F5F5F5F5F5F5F5F5F5F5F5F5F5F5F5F5F5F5F5F5F5F5F5F5F5F5F5F5F5F5F5F5F5F5F5F5F5F5F5F5F5F5F5F5F5F5F5F5F5F5F5F5F5F5F5F5F5F5F5F5F5F5F5F5F5F5F5F5F5F5F5F5F5F5F5F5F5F5F5F5F5F5F5F5F5F5F5F5F5F5F5F5F5F5F5F5F5F5F5F5E2F5F5F5F5F5F5F5F5F5F5F5
310
F5F5F5F5F5F5F5F5F5F5F5F5F5F5F5F5E2E2F5F5F5F5F5F5F5F5F5F5F5E2F5F5F5F5F5F5F5F5F5F5F5F5F5F5F5E2F5F5F5F5F5F5F5F5F5F5F5F5F5F5F5F5F5F5F5F5F5F5F5F5F5F5F5F5F5F5F5F5F5F5F5F5F5F5F5F5F5F5F5F5F5F5F5F5F5F5F5F5F5F5F5F5F5F5F5F5F5F5F5F5F5F5F5F5F5F5F5F5F5F5F5F5F5F5F5F5F5
310
F5F5F5F5F5F5F5F5F5F5F5F5F5F5F5F5F5F5F5F5F5F5F5F5F5F5F5F5F5F5F5F5F5F5F5F5F5F5F5F5F5E2F5F5F5F5F5F5F5F5F5F5F5F5F5F5F5E2F5F5F5F5F5F5F5F5F5F5F5E2E2F5F5F5F5F5F5F5F5F5F5F5E2F5F5F5F5F5F5F5F5F5F5F5F5F5F5F5E2F5F5F5F5F5F5F5F5F5F5F5F5F5F5F5F5F5F5F5F5F5F5F5F5F5F5F5F5
310
F5F5F5F5F5F5F5F5F5F5F5F5F5F5F5F5F5F5F5F5F5F5F5F5F5F5F5F5F5F5F5F5F5F5F5F5F5F5F5F5F5F5F5F5F5F5F5F5F5F5F5F5F5F5F5F5F5F5F5F5F5F5F5F5F5F5F5F5F5F5F5F5F5F5F5F5F5F5F5F5F5F5F5F5F5F5F5F5F5F5F5F5F5F5E2F5F5F5F5F5F5F5F5F5F5F5F5F5F5F5E2F5F5F5F5F5F5F5F5F5F5F5E2E2F5F5F5
310
F5F5F5F5F5F5F5F5E2F5F5F5F5F5F5F5F5F5F5F5F5F5F5F5E2F5F5F5F5F5F5F5F5F5F5F5F5F5F5F5F5F5F5F5F5F5F5F5F5F5F5F5F5F5F5F5F5F5F5F5F5F5F5F5F5F5F5F5F5F5F5F5F5F5F5F5F5F5F5F5F5F5F5F5F5F5F5F5F5F5F5F5F5F5F5F5F5F5F5F5F5F5F5F5F5F5F5F5F5F5F5F5F5F5F5F5F5F5F5F5F5F5F5F5F5F5F5
310
F5F5F5F5F5F5F5F5F5F5F5F5F5F5F5F5F5F5F5F5E2F5F5F5F5F5F5F5F5F5F5F5F5F5F5F5E2F5F5F5F5F5F5F5F5F5F5F5E2E2F5F5F5F5F5F5F5F5F5F5F5E2F5F5F5F5F5F5F5F5F5F5F5F5F5F5F5E2F5F5F5F5F5F5F5F5F5F5F5F5F5F5F5F5F5F5F5F5F5F5F5F5F5F5F5F5F5F5F5F5F5F5F5F5F5F5F5F5F5F5F5F5F5F5F5F5F5
310
F5F5F5F5F5F5F5F5F5F5F5F5F5F5F5F5F5F5F5F5F5F5F5F5F5F5F5F5F5F5F5F5F5F5F5F5F5F5F5F5F5F5F5F5F5F5F5F5F5F5F5F5F5F5F5F5F5F5F5F5F5F5F5F5F5F5F5F5F5F5F5F5F5E2F5F5F5F5F5F5F5F5F5F5F5F5F5F5F5E2F5F5F5F5F5F5F5F5F5F5F5E2E2F5F5F5F5F5F5F5F5F5F5F5E2F5F5F5F5F5F5F5F5F5F5F5F5
310
F5F5F5E2F5F5F5F5F5F5F5F5F5F5F5F5F5F5F5F5F5F5F5F5F5F5F5F5F5F5F5F5F5F5F5F5F5F5F5F5F5F5F5F5F5F5F5F5F5F5F5F5F5F5F5F5F5F5F5F5F5F5F5F5F5F5F5F5F5F5F5F5F5F5F5F5F5F5F5F5F5F5F5F5F5F5F5F5F5F5F5F5F5F5F5F5F5F5F5F5F5F5F5F5F5F5F5F5F5F5F5F5F5F5F5F5F5F5F5F5F5F5F5F5F5F5E2
310
F5F5F5F5F5F5F5F5F5F5F5F5F5F5F5E2F5F5F5F5F5F5F5F5F5F5F5E2E2F5F5F5F5F5F5F5F5F5F5F5E2F5F5F5F5F5F5F5F5F5F5F5F5F5F5F5E2F5F5F5F5F5F5F5F5F5F5F5F5F5F5F5F5F5F5F5F5F5F5F5F5F5F5F5F5F5F5F5F5F5F5F5F5F5F5F5F5F5F5F5F5F5F5F5F5F5F5F5F5F5F5F5F5F5F5F5F5F5F5F5F5F5F5F5F5F5F5
310
F5F5F5F5F5F5F5F5F5F5F5F5F5F5F5F5F5F5F5F5F5F5F5F5F5F5F5F5F5F5F5F5F5F5F5F5F5F5F5F5F5F5F5F5F5F5F5F5F5F5F5F5E2F5F5F5F5F5F5F5F5F5F5F5F5F5F5F5E2F5F5F5F5F5F5F5F5F5F5F5E2E2F5F5F5F5F5F5F5F5F5F5F5E2F5F5F5F5F5F5F5F5F5F5F5F5F5F5F5E2F5F5F5F5F5F5F5F5F5F5F5F5F5F5F5F5F5
310
F5F5F5F5F5F5F5F5F5F5F5F5F5F5F5F5F5F5F5F5F5F5F5F5F5F5F5F5F5F5F5F5F5F5F5F5F5F5F5F5F5F5F5F5F5F5F5F5F5F5F5F5F5F5F5F5F5F5F5F5F5F5F5F5F5F5F5F5F5F5F5F5F5F5F5F5F5F5F5F5F5F5F5F5F5F5F5F5F5F5F5F5F5F5F5F5F5F5F5F5F5F5F5F5F5E2F5F5F5F5F5F5F5F5F5F5F5F5F5F5F5E2F5F5F5F5F5
310
F5F5F5F5F5F5E2E2F5F5F5F5F5F5F5F5F5F5F5E2F5F5F5F5F5F5F5F5F5F5F5F5F5F5F5E2F5F5F5F5F5F5F5F5F5F5F5F5F5F5F5F5F5F5F5F5F5F5F5F5F5F5F5F5F5F5F5F5F5F5F5F5F5F5F5F5F5F5F5F5F5F5F5F5F5F5F5F5F5F5F5F5F5F5F5F5F5F5F5F5F5F5F5F5F5F5F5F5F5F5F5F5F5F5F5F5F5F5F5F5F5F5F5F5F5F5F5
310
F5F5F5F5F5F5F5F5F5F5F5F5F5F5F5F5F5F5F5F5F5F5F5F5F5F5F5F5F5F5F5E2F5F5F5F5F5F5F5F5F5F5F5F5F5F5F5E2F5F5F5F5F5F5F5F5F5F5F5E2E2F5F5F5F5F5F5F5F5F5F5F5E2F5F5F5F5F5F5F5F5F5F5F5F5F5F5F5E2F5F5F5F5F5F5F5F5F5F5F5F5F5F5F5F5F5F5F5F5F5F5F5F5F5F5F5F5F5F5F5F5F5F5F5F5F5F5
310
F5F5F5F5F5F5F5F5F5F5F5F5F5F5F5F5F5F5F5F5F5F5F5F5F5F5F5F5F5F5F5F5F5F5F5F5F5F5F5F5F5F5F5F5F5F5F5F5F5F5F5F5F5F5F5F5F5F5F5F5F5F5F5F5F5F5F5F5F5F5F5F5F5F5F5F5F5F5F5F5F5F5F5F5E2F5F5F5F5F5F5F5F5F5F5F5F5F5F5F5E2F5F5F5F5F5F5F5F5F5F5F5E2E2F5F5F5F5F5F5F5F5F5F5F5E2F5
310
F5F5F5F5F5F5F5F5F5F5F5F5F5F5E2F5F5F5F5F5F5F5F5F5F5F5F5F5F5F5F5F5F5F5F5F5F5F5F5F5F5BEBEBEBEBEBEBEBEF5F5F5F5F5F5F5BEBEBEBEBEBEBEBEF5F5F5F5F5F5F5F5BEBEBEBEBEBEBEBEF5F5F5F5F5F5F5F5F5F5F5F5F5F5F5F5F5F5F5F5F5F5F5F5F5F5F5F5F5F5F5F5F5F5F5F5F5F5F5F5F5F5F5F5F5F5F5
310
F5F5F5F5F5F5F5F5F5F5E2F5F5F5F5F5F5F5F5F5F5F5F5F5F5F5E2F5F5F5F5F5F5F5F5F5F5F5E2E2F5F5F5F5F5F5F5F5F5F5F5E2F5F5F5F5F5F5F5F5F5F5F5F5F5F5F5E2F5F5F5F5F5F5F5F5F5F5F5F5F5F5F5F5F5F5F5F5F5F5F5F5F5F5BEBEBEBEBEBEBEBEBEBEF5F5F5F5F5BEBEBEBEBEBEBEBEBEBEBEF5F5F5F5F5BEBE
310
BEBEBEBEBEBEBEBEF5F5F5F5F5F5F5F5F5F5F5F5F5F5F5F5F5F5F5F5F5F5F5F5F5F5F5F5F5F5F5F5F5F5F5F5F5F5F5F5F5F5F5F5F5F5F5F5F5F5F5F5F5F5F5E2F5F5F5F5F5F5F5F5F5F5F5F5F5F5F5E2F5F5F5F5F5F5F5F5F5F5F5E2E2F5F5F5F5F5F5F5F5F5F5F5E2F5F5F5F5F5F5F5F5F5F5F5F5F5F5F5E2F5F5F5F5F5F5
310
F5F5F5F5F5F5F5F5F5F5F5F5F5F5F5F5F5F5F5F5BEBEBEBEBEBEBEBEBEBEF5F5F5F5F5BEBEBEBEBEBEBEBEBEBEBEF5F5F5F5F5BEBEBEBEBEBEBEBEBEBEF5F5F5F5F5F5F5F5F5F5F5F5F5F5F5F5F5F5F5F5F5F5F5F5F5F5F5F5F5F5F5F5F5F5F5F5F5F5F5F5F5F5F5F5F5F5F5F5F5F5F5F5F5F5F5E2F5F5F5F5F5F5F5F5F5F5
310
F5F5F5F5F5E2F5F5F5F5F5F5F5F5F5F5F5E2E2F5F5F5F5F5F5F5F5F5F5F5E2F5F5F5F5F5F5F5F5F5F5F5F5F5F5F5E2F5F5F5F5F5F5F5F5F5F5F5F5F5F5F5F5F5F5F5F5F5F5F5F5F5F5BEBEBEBEBEBEBEBEBEBEBEBEBEF5F5BEBEBEBEBEBEBEBEBEBEBEBEBEF5F5F5BEBEBEBEBEBEBEBEBEBEBEBEBEF5F5F5F5F5F5F5F5F5F5
310
F5F5F5F5F5F5F5F5F5F5F5F5F5F5F5F5F5F5F5F5F5F5F5F5F5F5F5F5F5F5F5F5F5F5F5F5F5F5F5F5F5F5E2F5F5F5F5F5F5F5F5F5F5F5F5F5F5F5E2F5F5F5F5F5F5F5F5F5F5F5E2E2F5F5F5F5F5F5F5F5F5F5F5E2F5F5F5F5F5F5F5F5F5F5F5F5F5F5F5E2F5F5F5F5F5F5F5F5F5F5F5F5F5F5F5F5F5F5F5F5F5F5F5F5F5F5BE
310
BEBEBEF5F5F5F5F5F5F5F5F5F5F5BEBEBEBEBEF5F5F5F5F5F5F5F5F5F5F5BEBEBEBEBEF5F5F5F5F5F5F5F5F5F5F5F5F5F5F5F5F5F5F5F5F5F5F5F5F5F5F5F5F5F5F5F5F5F5F5F5F5F5F5F5F5F5F5F5F5F5F5F5F5F5F5F5F5F5F5F5F5F5F5F5E2F5F5F5F5F5F5F5F5F5F5F5F5F5F5F5E2F5F5F5F5F5F5F5F5F5F5F5E2E2F5F5
310
F5F5F5F5F5F5F5F5F5E2F5F5F5F5F5F5F5F5F5F5F5F5F5F5F5E2F5F5F5F5F5F5F5F5F5F5F5F5F5F5F5F5F5F5F5F5F5F5F5F5F5F5F5F5F5F5F5F5F5F5F5F5F5F5F5F5F5F5F5F5F5F5F5F5F5F5F5F5F5F5F5F5F5F5F5F5F5F5F5F5F5F5F5F5F5F5F5F5F5F5F5F5F5F5F5F5F5F5F5F5F5F5F5F5F5F5F5F5F5F5F5F5F5F5F5F5F5
310
F5F5F5F5F5F5F5F5F5F5F5F5F5F5F5F5F5F5F5F5F5E2F5F5F5F5F5F5F5F5F5F5F5F5F5F5F5E2F5F5F5F5F5F5F5F5F5F5F5E2E2F5F5F5F5F5F5F5F5F5F5F5F5F5F5F5F5F5F5F5F5F5F5F5F5F5F5F5E2F5F5F5F5F5F5F5F5F5F5F5F5F5F5F5F5F5F5F5F5F5F5F5F5F5F5F5F5F5F5F5F5F5F5F5F5F5F5F5F5F5F5F5F5F5F5F5F5
310
F5F5F5F5F5F5F5F5F5F5F5F5F5F5F5F5F5F5F5F5F5F5F5F5F5F5F5F5F5F5F5F5F5F5F5F5F5F5F5F5F5F5F5F5F5F5F5F5F5F5F5F5F5F5F5F5F5F5F5F5F5F5F5F5F5F5F5F5F5F5F5F5F5F5E2F5F5F5F5F5F5F5F5F5F5F5F5F5F5F5F5F5F5F5F5F5F5F5F5F5F5F5E2E2F5F5F5F5F5F5F5F5F5F5F5F5F5F5F5F5F5F5F5F5F5F5F5
310
F5F5F5F5E2F5F5F5F5F5F5F5F5F5F5F5F5F5F5F5F5F5F5F5F5F5F5F5F5F5F5F5F5F5F5F5F5F5F5F5F5F5F5F5F5F5F5F5F5F5F5F5F5F5F5F5F5F5F5F5F5F5F5F5F5F5F5F5F5F5F5F5F5F5F5F5F5F5F5F5F5F5F5F5F5F5F5F5F5F5F5F5F5F5F5F5F5F5F5F5F5F5F5F5F5F5F5F5F5F5F5F5F5F5F5F5F5F5F5F5F5F5F5F5F5F5F5
310
E2F5F5F5F5F5F5F5F5F5F5F5F5F5F5F5F5F5F5F5F5F5F5F5F5F5F5F5E2E2F5F5F5F5F5F5F5F5F5F5F5F5F5F5F5F5F5F5F5F5F5F5F5F5F5F5F5E2F5F5F5F5F5F5F5F5F5F5F5F5F5F5F5F5F5F5F5F5F5F5F5F5F5F5C3C3C3C3C3C3C3C3C3E2E2F5F5F5F5C3C3C3C3C3C3C3C3C3C3E2E2F5F5F5C3C3C3C3C3C3C3C3C3C3C3E2BE
310
E2F5F5F5F5F5F5F5F5F5F5F5F5F5F5F5F5F5F5F5F5F5F5F5F5F5F5F5F5F5F5F5F5F5F5F5F5F5F5F5F5F5F5F5F5F5F5F5F5F5F5F5F5E2F5F5F5F5F5F5F5F5F5F5F5F5F5F5F5F5F5F5F5F5F5F5F5F5F5F5F5E2E2F5F5F5F5F5F5F5F5F5F5F5F5F5F5F5F5F5F5F5F5F5F5F5F5F5F5F5E2F5F5F5F5F5F5F5F5F5F5F5F5F5F5F5F5
310
F5F5F5F5F5F5F5F5F5F5C3E2F5F5F5F5F5F5F5C3BEF5F5F5F5C3F5F5F5F5F5F5F5F5E2C3BEF5F5F5C3C3F5F5F5F5F5F5F5F5F5C3F5BEF5F5F5F5F5F5F5F5F5F5F5F5F5F5F5F5F5F5F5F5F5F5F5F5F5F5F5F5F5F5F5F5F5F5F5F5F5F5F5F5F5F5F5F5F5F5F5F5F5F5F5F5E2F5F5F5F5F5F5F5F5F5F5F5F5F5F5F5F5F5F5F5F5
310
F5F5F5F5F5F5F5E2E2F5F5F5F5F5F5F5F5F5F5F5F5F5F5F5F5F5F5F5F5F5F5F5F5F5F5F5E2F5F5F5F5F5F5F5F5F5F5F5F5F5F5F5F5F5F5F5F5F5F5F5F5F5F5C3E2F5F5F5F5F5F5F5C3BEF5F5F5F5C3F5F5F5F5F5F5F5F5E2C3BEF5F5F5C3C3F5F5F5F5F5F5F5F5F5C3F5BEF5F5F5F5F5F5F5F5F5F5F5F5F5F5F5F5F5F5F5F5
310
F5F5F5F5F5F5F5F5F5F5F5F5F5F5F5F5F5F5F5F5F5F5F5F5F5F5F5F5F5F5F5F5E2F5F5F5F5F5F5F5F5F5F5F5F5F5F5F5F5F5F5F5F5F5F5F5F5F5F5F5E2E2F5F5F5F5F5F5F5F5F5F5F5F5F5F5F5F5F5F5F5F5F5F5F5F5F5F5F5E2F5F5F5F5F5F5F5F5F5F5F5F5F5F5F5F5F5F5F5F5F5F5F5F5F5F5C3C3C3C3C3C3C3C3C3E2BE
310
F5F5F5F5C3C3C3C3C3C3C3C3C3C3E2BEF5F5F5C3C3C3C3C3C3C3C3C3C3C3E2BEBEF5F5F5F5F5F5F5F5F5F5F5F5F5F5F5F5F5F5F5F5F5F5F5F5F5F5F5F5F5F5F5F5F5F5F5F5F5F5F5F5F5F5F5F5F5F5F5F5F5F5F5F5E2F5F5F5F5F5F5F5F5F5F5F5F5F5F5F5F5F5F5F5F5F5F5F5F5F5F5F5E2E2F5F5F5F5F5F5F5F5F5F5F5F5
310
F5F5F5F5F5F5F5F5F5F5F5F5F5F5F5E2F5F5F5F5F5F5F5F5F5F5F5F5F5F5F5F5F5F5F5F5F5F5F5F5F5F528C3C3C3C3C3C3C3C3C3BEF5F5F5F5C3C3C3C3C3C3C3C3C3C3C3BEF5F5F5C3C3C3C3C3C3C3C3C3C3C3C3F5BEF5F5F5F5F5F5F5F5F5F5F5F5F5F5F5F5F5F5F5F5F5F5F5F5F5F5F5F5F5F5F5F5F5F5F5F5F5F5F5F5F5
310
F5F5F5F5F5F5F5F5F5F5F5E2F5F5F5F5F5F5F5F5F5F5F5F5F5F5F5F5F5F5F5F5F5F5F5F5F5F5F5E2E2F5F5F5F5F5F5F5F5F5F5F5F5F5F5F5F5F5F5F5F5F5F5F5F5F5F5F5E2F5F5F5F5F5F5F5F5F5F5F5F5F5F5F5F5F5F5F5F5F5F5F5F5F5F528E2E2E2E2E2E2E2E2C3BEF5F5F5F5C3E2E2E2E2E2E2E2E2E2C3BEF5F5F5C3C3
310
E2E2E2E2E2E2E2E2E2C3F5BEF5F5F5F5F5F5F5F5F5F5F5F5F5F5F5F5F5F5F5F5F5F5F5F5F5F5F5F5F5F5F5F5F5F5F5F5F5F5F5F5F5F5F5F5F5F5F5F5F5F5F5F5E2F5F5F5F5F5F5F5F5F5F5F5F5F5F5F5F5F5F5F5F5F5F5F5F5F5F5F5E2E2F5F5F5F5F5F5F5F5F5F5F5E2F5F5F5F5F5F5F5F5F5F5F5F5F5F5F5E2F5F5F5F5F5
310
F5F5F5F5F5F5F5F5F5F5F5F5F5F5F5F5F5F5F5F5F52828E2F5F5F5F5F5E2C3BEF5F5F5F5C3E2F5F5F5F5F5E2E2C3C3BEF5F5F5C3C3E2F5F5F5F5F5F5E2E2C3F5BEF5F5F5F5F5F5F5F5F5F5F5F5F5F5F5F5F5F5F5F5F5F5F5F5F5F5F5F5F5F5F5F5F5F5F5F5F5F5F5F5F5F5F5F5F5F5F5F5F5F5F5F5E2F5F5F5F5F5F5F5F5F5
310
F5F5F5F5F5F5E2F5F5F5F5F5F5F5F5F5F5F5E2E2F5F5F5F5F5F5F5F5F5F5F5E2F5F5F5F5F5F5F5F5F5F5F5F5F5F5F5E2F5F5F5F5F5F5F5F5F5F5F5F5F5F5F5F5F5F5F5F5F5F5F5F5F5F52828F5E2F5F5E2E2F5C3BEF5F5F5F5C3F5E2E2F5F5E2F5F5C3C3BEF5F5F5C3C3F5E2E2F5F5E2E2F5F5C3F5BEF5F5F5F5F5F5F5F5F5
310
F5F5F5F5F5F5F5F5F5F5F5F5F5F5F5F5F5F5F5F5F5F5F5F5F5F5F5F5F5F5F5F5F5F5F5F5F5F5F5F5F5F5F5E2F5F5F5F5F5F5F5F5F5F5F5F5F5F5F5E2F5F5F5F5F5F5F5F5F5F5F5E2E2F5F5F5F5F5F5F5F5F5F5F5E2F5F5F5F5F5F5F5F5F5F5F5F5F5F5F5E2F5F5F5F5F5F5F5F5F5F5F5F5F5F5F5F5F5F5F5F5F5F5F5F5F5F5
310
2828F5F5E2E2E2F5F5C3BEF5F5F5F5C3F5F5F5E2E2E2F5F5C3C3BEF5F5F5C3C3F5F5F5E2E2E2F5F5F5C3F5BEF5F5F5F5F5F5F5F5F5F5F5F5F5F5F5F5F5F5F5F5F5F5F5F5F5F5F5F5F5F5F5F5F5F5F5F5F5F5F5F5F5F5F5F5F5F5F5F5F5F5F5F5E2F5F5F5F5F5F5F5F5F5F5F5F5F5F5F5E2F5F5F5F5F5F5F5F5F5F5F5E2E2F5
310
F5F5F5F5F5F5F5F5F5F5E2F5F5F5F5F5F5F5F5F5F5F5F5F5F5F5E2F5F5F5F5F5F5F5F5F5F5F5F5F5F5F5F5F5F5F5F5F5F5F5F5F5F52828F5E2E2E2E2E2F5C3BEF5F5F5F5C3F5F5E2E2E2E2E2F5C3C3BEF5F5F5C3C3F5F5E2E2E2E2E2F5F5C3F5BEF5F5F5F5F5F5F5F5F5F5F5F5F5F5F5F5F5F5F5F5F5F5F5F5F5F5F5F5F5F5
310
F5F5F5F5F5F5F5F5F5F5F5F5F5F5F5F5F5F5F5F5F5F5E2F5F5F5F5F5F5F5F5F5F5F5F5F5F5F5E2F5F5F5F5F5F5F5F5F5F5F5E2E2F5F5F5F5F5F5F5F5F5F5F5E2F5F5F5F5F5F5F5F5F5F5F5F5F5F5F5E2F5F5F5F5F5F5F5F5F5F5F5F5F5F5F5F5F5F5F5F5F5F5F5F5F5F5E228C3C3C3C3C3C3C3E2BEF5F5F5F5E2C3C3C3C3C3
310
C3C3C3C3E2BEF5F5F5E2C3C3C3C3C3C3C3C3C3C3E2BEBEF5F5F5F5F5F5F5F5F5F5F5F5F5F5F5F5F5F5F5F5F5F5F5F5F5F5F5F5F5F5F5F5F5F5F5F5F5F5F5F5F5F5F5F5F5F5F5F5F5F5F5F5E2F5F5F5F5F5F5F5F5F5F5F5F5F5F5F5E2F5F5F5F5F5F5F5F5F5F5F5E2E2F5F5F5F5F5F5F5F5F5F5F5E2F5F5F5F5F5F5F5F5F5F5
310
F5F5F5F5F5E2F5F5F5F5F5F5F5F5F5F5F5F5F5F5F5F5F5F5F5F5F5F5F5F5F5F5BEBEBEBEBEBEBEBEBEE2F5F5F5F5F5BEBEBEBEBEBEBEBEBEBEE2F5F5F5F5BEBEBEBEBEBEBEBEBEBEBEE2F5F5F5F5F5F5F5F5F5F5F5F5F5F5F5F5F5F5F5F5F5F5F5F5F5F5F5F5F5F5F5F5F5F5F5F5F5F5F5F5F5F5F5F5F5F5F5F5F5F5F5F5F5
310
F5E2F5F5F5F5F5F5F5F5F5F5F5F5F5F5F5E2F5F5F5F5F5F5F5F5F5F5F5E2E2F5F5F5F5F5F5F5F5F5F5F5E2F5F5F5F5F5F5F5F5F5F5F5F5F5F5F5E2F5F5F5F5F5F5F5F5F5F5F5F5F5F5F5F5F5F5F5F5F5F5F5F5F5F5F5F5F5F5F5F5F5F5F5F5F5F5F5F5F5F5F5F5F5F5F5F5F5F5F5F5F5F5F5F5F5F5F5F5F5F5F5F5F5F5F5F5
310
F5F5F5F5F5F5F5F5F5F5F5F5F5F5F5F5F5F5F5F5F5F5F5F5F5F5F5F5F5F5F5F5F5F5F5F5F5F5F5F5F5F5F5F5F5F5F5F5F5F5F5F5F5F5E2F5F5F5F5F5F5F5F5F5F5F5F5F5F5F5E2F5F5F5F5F5F5F5F5F5F5F5E2E2F5F5F5F5F5F5F5F5F5F5F5E2F5F5F5F5F5F5F5F5F5F5F5F5F5F5F5E2F5F5F5F5F5F5F5F5F5F5F5F5F5F5F5
310
F5F5F5F5F5F5F5F5F5F5F5F5F5F5F5F5F5F5F5F5F5F5F5F5F5F5F5F5F5F5F5F5F5F5F5F5F5F5F5F5F5F5F5F5F5F5F5F5F5F5F5F5F5F5F5F5F5F5F5F5F5F5F5F5F5F5F5F5F5F5F5F5F5F5F5F5F5F5F5F5F5F5F5F5F5F5F5F5F5F5F5F5F5F5F5F5F5F5F5F5F5F5F5F5F5F5F5E2F5F5F5F5F5F5F5F5F5F5F5F5F5F5F5E2F5F5F5
310
F5F5F5F5F5F5F5F5E2E2F5F5F5F5F5F5F5F5F5F5F5E2F5F5F5F5F5F5F5F5F5F5F5F5F5F5F5E2F5F5F5F5F5F5F5F5F5F5F5F5F5F5F5F5F5F5F5F5F5F5F5F5F5F5F5F5F5F5F5F5F5F5BEF5F5F5F5F5F5F5F5F5F5F5F5F5F5F5F5F5F5F5F5F5F5F5F5F5F5F5F5F5F5F5F5F5F5F5F5F5F5F5F5F5F5F5F5F5F5F5F5F5F5F5F5F5F5
310
F5F5F5F5F5F5F5F5F5F5F5F5F5F5F5F5F5F5F5F5F5F5F5F5F5F5F5F5F5F5F5F5F5E2F5F5F5F5F5F5F5F5F5F5F5F5F5F5F5E2F5F5F5F5F5F5F5F5F5F5F5E2E2F5F5F5F5F5F5F5F5F5F5F5E2F5F5F5F5F5F5F5F5F5F5F5F5F5F5F5E2F5F5F5F5F5F5F5F5F5F5F5F5F5F5F5F5F5F5F5F5F5F5F5F5F5F5F5E2E2E2E2E2E2E2E2F5
310
F5F5F5F5F5F5F5F5F5F5F5F5F5F5F5F5F5F5F5F5F5F5F5F5F5F5F5F5F5F5F5F5F5F5F5F5F5F5F5F5F5F5F5F5F5F5F5F5F5F5F5F5F5F5F5F5F5F5F5F5F5F5F5F5F5F5F5F5F5F5F5F5F5F5F5F5F5F5F5F5F5F5F5F5F5F5E2F5F5F5F5F5F5F5F5F5F5F5F5F5F5F5E2F5F5F5F5F5F5F5F5F5F5F5E2E2F5F5F5F5F5F5F5F5F5F5F5
310
E2F5F5F5F5F5F5F5F5F5F5F5F5F5F5F5E2F5F5F5F5F5F5F5F5F5F5F5F5F5F5F5F5F5F5F5F5F5F5F5F5F5F5F5BEE2E2E2E2E2E2E2F5F5F5F5F5F5F5F5F5F5F5F5F5F5F5F5F5F5F5F5F5F5F5F5F5F5F5F5F5F5F5F5F5F5F5F5F5F5F5F5F5F5F5F5F5F5F5F5F5F5F5F5F5F5F5F5F5F5F5F5F5F5F5F5F5F5F5F5F5F5F5F5F5F5F5
310
F5F5F5F5F5F5F5F5F5F5F5F5E2F5F5F5F5F5F5F5F5F5F5F5F5F5F5F5E2F5F5F5F5F5F5F5F5F5F5F5E2E2F5F5F5F5F5F5F5F5F5F5F5E2F5F5F5F5F5F5F5F5F5F5F5F5F5F5F5E2F5F5F5F5F5F5F5F5F5F5F5F5F5F5F5F5F5F5F5F5F5F5F5F5F5F5F5F5E2F5E2F5F5F5BEF5F5F5F5F5F5F5F5F5F5F5F5F5F5F5F5F5F5F5F5F5F5
310
F5F5F5F5F5F5F5F5F5F5F5F5F5F5F5F5F5F5F5F5F5F5F5F5F5F5F5F5F5F5F5F5F5F5F5F5F5F5F5F5F5F5F5F5F5F5F5F5F5F5F5F5F5F5F5F5F5F5F5F5F5F5F5F5F5E2F5F5F5F5F5F5F5F5F5F5F5F5F5F5F5E2F5F5F5F5F5F5F5F5F5F5F5E2E2F5F5F5F5F5F5F5F5F5F5F5E2F5F5F5F5F5F5F5F5F5F5F5F5F5F5F5E2F5F5F5F5
310
F5F5F5F5F5F5F5F5F5F5F5F5F5F5F5F5F5F5F5F5F5F5F5F5E2F5E2F5E2E2BEF5F5F5F5F5F5F5F5F5F5F5F5F5F5F5F5F5F5F5F5F5F5F5F5F5F5F5F5F5F5F5F5F5F5F5F5F5F5F5F5F5F5F5F5F5F5F5F5F5F5F5F5F5F5F5F5F5F5F5F5F5F5F5F5F5F5F5F5F5F5F5F5F5F5F5F5F5F5F5F5F5F5F5F5F5F5F5E2F5F5F5F5F5F5F5F5
310
F5F5F5F5F5F5F5E2F5F5F5F5F5F5F5F5F5F5F5E2E2F5F5F5F5F5F5F5F5F5F5F5E2F5F5F5F5F5F5F5F5F5F5F5F5F5F5F5E2F5F5F5F5F5F5F5F5F5F5F5F5F5F5F5F5F5F5F5F5F5F5F5F5F5F5F5F5E2E2E2BEBEBEE2F5F5F5F5F5F5F5F5F5F5F5F5F5F5F5F5F5F5F5F5F5F5F5F5F5F5F5F5F5F5F5F5F5F5F5F5F5F5F5F5F5F5F5
310
F5F5F5F5F5F5F5F5F5F5F5F5F5F5F5F5F5F5F5F5F5F5F5F5F5F5F5F5F5F5F5F5F5F5F5F5F5F5F5F5F5F5F5F5E2F5F5F5F5F5F5F5F5F5F5F5F5F5F5F5E2F5F5F5F5F5F5F5F5F5F5F5E2E2F5F5F5F5F5F5F5F5F5F5F5E2F5F5F5F5F5F5F5F5F5F5F5F5F5F5F5E2F5F5F5F5F5F5F5F5F5F5F5F5F5F5F5F5F5F5F5F5F5F5F5F5F5
310
F5F5F5BEBEBEBEBEBEE2F5F5F5F5F5F5F5F5F5F5F5F5F5F5F5F5F5F5F5F5F5F5F5F5F5F5F5F5F5F5F5F5F5F5F5F5F5F5F5F5F5F5F5F5F5F5F5F5F5F5F5F5F5F5F5F5F5F5F5F5F5F5F5F5F5F5F5F5F5F5F5F5F5F5F5F5F5F5F5F5F5F5F5F5F5F5F5E2F5F5F5F5F5F5F5F5F5F5F5F5F5F5F5E2F5F5F5F5F5F5F5F5F5F5F5E2E2
310
F5F5F5F5F5F5F5F5F5F5F5F5F5F5F5F5F5F5F5F5F5F5F5F5F5F5F5E2F5F5F5F5F5F5F5F5F5F5F5F5F5F5F5F5F5F5F5F5F5F5F5F5F5F5F5F5F5F5F5F5F5F5F5F5F5F5F5F5F5F5F5F5F5F5F5F5F5F5F5F5F5F5F5F5F5F5F5F5F5F5F5F5F5F5F5F5F5F5F5F5F5F5F5F5F5F5F5F5F5F5F5F5F5F5F5F5F5F5F5F5F5F5F5F5F5F5F5
310
F5F5F5F5F5F5F5F5F5F5F5F5F5F5F5F5F5F5F5F5F5F5F5E2F5F5F5F5F5F5F5F5F5F5F5F5F5F5F5F5F5F5F5F5F5F5F5F5F5F5F5E2E2F5F5F5F5F5F5F5F5F5F5F5F5F5F5F5F5F5F5F5F5F5F5F5F5F5F5F5E2F5F5F5F5F5F5F5F5F5F5F5F5F5F5F5F5F5F5F5F5F5F5F5F5F5F5F5F5F5F5F5F5F5F5F5F5F5F5F5F5F5F5F5F5F5F5
310
F5F5F5F5F5F5F5F5F5F5F5F5F5F5F5F5F5F5F5F5F5F5F5F5F5F5F5F5F5F5F5F5F5F5F5F5F5F5F5F5F5F5F5F5F5F5F5F5F5F5F5F5F5F5F5F5F5F5F5F5F5F5F5F5F5F5F5F5F5F5F5F5F5F5F5F5E2F5F5F5F5F5F5F5F5F5F5F5F5F5F5F5F5F5F5F5F5F5F5F5F5F5F5F5E2E2F5F5F5F5F5F5F5F5F5F5F5F5F5F5F5F5F5F5F5F5F5
310
F5F5F5F5F5F5E2F5F5F5F5F5F5F5F5F5F5F5F5F5F5F5F5F5F5F5F5F5F5F5F5F5F5F5F5F5F5F5F5F5F5F5F5F5F5F5F5F5F5F5F5F5F5F5F5F5F5F5F5F5F5F5F5F5F5F5F5F5F5F5F5F5F5F5F5F5F5F5F5F5F5F5F5F5F5F5F5F5F5F5F5F5F5F5F5F5F5F5F5F5F5F5F5F5F5F5F5F5F5F5F5F5F5F5F5F5F5F5F5F5F5F5F5F5F5F5F5
310
F5F5E2F5F5F5F5F5F5F5F5F5F5F5F5F5F5F5F5F5F5F5F5F5F5F5F5F5F5F5E2E2F5F5F5F5F5F5F5F5F5F5F5F5F5F5F5F5F5F5F5F5F5F5F5F5F5F5F5E2F5F5F5F5F5F5F5F5F5F5F5F5F5F5F5F5F5F5F5F5F5F5F5F5F5F5F5F5F5F5F5F5F5F5F5F5F5F5F5F5F5F5F5F5F5F5F5F5F5F5F5F5F5F5F5F5F5F5F5F5F5F5F5F5F5F5F5
310
F5F5F5F5F5F5F5F5F5F5F5F5F5F5F5F5F5F5F5F5F5F5F5F5F5F5F5F5F5F5F5F5F5F5F5F5F5F5F5F5F5F5F5F5F5F5F5F5F5F5F5F5F5F5F5E2F5F5F5F5F5F5F5F5F5F5F5F5F5F5F5F5F5F5F5F5F5F5F5F5F5F5F5E2E2F5F5F5F5F5F5F5F5F5F5F5F5F5F5F5F5F5F5F5F5F5F5F5F5F5F5F5E2F5F5F5F5F5F5F5F5F5F5F5F5F5F5
310
F5F5F5F5F5F5F5F5F5F5F5F5F5F5F5F5F5F5F5F5F5F5F5F5F5F5F5F5F5F5F5F5F5F5F5F5F5F5F5F5F5F5F5F5F5F5F5F5F5F5F5F5F5F5F5F5F5F5F5F5F5F5F5F5F5F5F5F5F5F5F5F5F5F5F5F5F5F5F5F5F5F5F5F5F5F5F5F5F5F5F5F5F5F5F5F5F5F5F5F5F5F5F5F5F5F5F5F5E2F5F5F5F5F5F5F5F5F5F5F5F5F5F5F5F5F5F5
310
F5F5F5F5F5F5F5F5F5E2E2F5F5F5F5F5F5F5F5F5F5F5F5F5F5F5F5F5F5F5F5F5F5F5F5F5F5F5E2F5F5F5F5F5F5F5F5F5F5F5F5F5F5F5F5F5F5F5F5F5F5F5F5F5F5F5F5F5F5F5F5F5F5F5F5F5F5F5F5F5F5F5F5F5F5F5F5F5F5F5F5F5F5F5F5F5F5F5F5F5F5F5F5F5F5F5F5F5F5F5F5F5F5F5F5F5F5F5F5F5F5F5F5F5F5F5F5
310
F5F5F5F5F5F5F5F5F5F5F5F5F5F5F5F5F5F5F5F5F5F5F5F5F5F5F5F5F5F5F5F5F5F5E2F5F5F5F5F5F5F5F5F5F5F5F5F5F5F5F5F5F5F5F5F5F5F5F5F5F5F5E2E2F5F5F5F5F5F5F5F5F5F5F5F5F5F5F5F5F5F5F5F5F5F5F5F5F5F5F5E2F5F5F5F5F5F5F5F5F5F5F5F5F5F5F5F5F5F5F5F5F5F5F5F5F5F5F5F5F5F5F5F5F5F5F5
310
F5F5F5F5F5F5F5F5F5F5F5F5F5F5F5F5F5F5F5F5F5F5F5F5F5F5F5F5F5F5F5F5F5F5F5F5F5F5F5F5F5F5F5F5F5F5F5F5F5F5F5F5F5F5F5F5F5F5F5F5F5F5F5F5F5F5F5F5F5F5F5F5F5F5F5F5F5F5F5F5F5F5F5F5F5F5F5E2F5F5F5F5F5F5F5F5F5F5F5F5F5F5F5F5F5F5F5F5F5F5F5F5F5F5F5E2E2F5F5F5F5F5F5F5F5F5F5
310
F5F5F5F5F5F5F5F5F5F5F5F5F5F5F5F5F5E2F5F5F5F5F5F5F5F5F5F5F5F5F5F5F5F5F5F5F5F5F5F5F5F5F5F5F5F5F5F5F5F5F5F5F5F5F5F5F5F5F5F5F5F5F5F5F5F5F5F5F5F5F5F5F5F5F5F5F5F5F5F5F5F5F5F5F5F5F5F5F5F5F5F5F5F5F5F5F5F5F5F5F5F5F5F5F5F5F5F5F5F5F5F5F5F5F5F5F5F5F5F5F5F5F5F5F5F5F5
310
F5F5F5F5F5F5F5F5F5F5F5F5F5E2F5F5F5F5F5F5F5F5F5F5F5F5F5F5F5F5F5F5F5F5F5F5F5F5F5F5F5E2E2F5F5F5F5F5F5F5F5F5F5F5F5F5F5F5F5F5F5F5F5F5F5F5F5F5F5F5E2F5F5F5F5F5F5F5F5F5F5F5F5F5F5F5F5F5F5F5F5F5F5F5F5F5F5F5F5F5F5F5F5F5F5F5F5F5F5F5F5F5F5F5F5F5F5F5F5F5F5F5F5F5F5F5F5
310
F5F5F5F5F5F5F5F5F5F5F5F5F5F5F5F5F5F5F5F5F5F5F5F5F5F5F5F5F5F5F5F5F5F5F5F5F5F5F5F5F5F5F5F5F5F5F5F5F5F5F5F5F5F5F5F5F5F5F5F5F5F5F5F5F5F5E2F5F5F5F5F5F5F5F5F5F5F5F5F5F5F5F5F5F5F5F5F5F5F5F5F5F5F5E2E2F5F5F5F5F5F5F5F5F5F5F5E2F5F5F5F5F5F5F5F5F5F5F5F5F5F5F5E2F5F5F5
310
F5F5F5F5F5F5F5F5F5F5F5F5F5F5F5F5F5F5F5F5F5F5F5F5F5F5F5F5F5F5F5F5F5F5F5F5F5F5F5F5F5F5F5F5F5F5F5F5F5F5F5F5F5F5F5F5F5F5F5F5F5F5F5F5F5F5F5F5F5F5F5F5F5F5F5F5F5F5F5F5F5F5F5F5F5F5F5F5F5F5F5F5F5F5F5F5F5F5F5F5F5F5F5F5F5F5F5F5F5F5F5F5F5F5F5F5F5F5F5E2F5F5F5F5F5F5F5
310
F5F5F5F5F5F5F5F5E2F5F5F5F5F5F5F5F5F5F5F5E2E2F5F5F5F5F5F5F5F5F5F5F5E2F5F5F5F5F5F5F5F5F5F5F5F5F5F5F5E2F5F5F5F5F5F5F5F5F5F5F5F5F5F5F5F5F5F5F5F5F5F5F5F5F5F5F5F5F5F5F5F5F5F5F5F5F5F5F5F5F5F5F5F5F5F5F5F5F5F5F5F5F5F5F5F5F5F5F5F5F5F5F5F5F5F5F5F5F5F5F5F5F5F5F5F5F5
310
F5F5F5F5F5F5F5F5F5F5F5F5F5F5F5F5F5F5F5F5F5F5F5F5F5F5F5F5F5F5F5F5F5F5F5F5F5F5F5F5F5F5F5F5F5E2F5F5F5F5F5F5F5F5F5F5F5F5F5F5F5E2F5F5F5F5F5F5F5F5F5F5F5E2E2F5F5F5F5F5F5F5F5F5F5F5E2F5F5F5F5F5F5F5F5F5F5F5F5F5F5F5E2F5F5F5F5F5F5F5F5F5F5F5F5F5F5F5F5F5F5F5F5F5F5F5F5
310
F5F5F5F5F5F5F5F5F5F5F5F5F5F5F5F5F5F5F5F5F5F5F5F5F5F5F5F5F5F5F5F5F5F5F5F5F5F5F5F5F5F5F5F5F5F5F5F5F5F5F5F5F5F5F5F5F5F5F5F5F5F5F5F5F5F5F5F5F5F5F5F5F5F5F5F5F5F5F5F5F5F5F5F5F5F5F5F5F5F5F5F5F5F5F5F5F5F5E2F5F5F5F5F5F5F5F5F5F5F5F5F5F5F5E2F5F5F5F5F5F5F5F5F5F5F5E2
310
E2F5F5F5F5F5F5F5F5F5F5F5E2F5F5F5F5F5F5F5F5F5F5F5F5F5F5F5E2F5F5F5F5F5F5F5F5F5F5F5F5F5F5F5F5F5F5F5F5F5F5F5F5F5F5F5F5F5F5F5F5F5F5F5F5F5F5F5F5F5F5F5F5F5F5F5F5F5F5F5F5F5F5F5F5F5F5F5F5F5F5F5F5F5F5F5F5F5F5F5F5F5F5F5F5F5F5F5F5F5F5F5F5F5F5F5F5F5F5F5F5F5F5F5F5F5F5
310
F5F5F5F5F5F5F5F5F5F5F5F5F5F5F5F5F5F5F5F5F5F5F5F5E2F5F5F5F5F5F5F5F5F5F5F5F5F5F5F5E2F5F5F5F5F5F5F5F5F5F5F5E2E2F5F5F5F5F5F5F5F5F5F5F5E2F5F5F5F5F5F5F5F5F5F5F5F5F5F5F5E2F5F5F5F5F5F5F5F5F5F5F5F5F5F5F5F5F5F5F5F5F5F5F5F5F5F5E2E2E2E2E2E2BEBEBEBEE2F5F5F5F5E2E2E2E2
310
E2E2BEBEBEBEE2F5F5F5F5F5E2E2E2E2E2E2BEBEBEBEBEE2F5F5F5F5F5F5F5F5F5F5F5F5F5F5F5F5F5F5F5F5F5F5F5F5F5F5F5F5F5F5F5F5F5F5F5F5F5F5F5F5F5F5F5F5F5F5F5F5F5F5F5F5F5E2F5F5F5F5F5F5F5F5F5F5F5F5F5F5F5E2F5F5F5F5F5F5F5F5F5F5F5E2E2F5F5F5F5F5F5F5F5F5F5F5E2F5F5F5F5F5F5F5F5
310
F5F5F5F5F5F5F5E2F5F5F5F5F5F5F5F5F5F5F5F5F5F5F5F5F5F5F5F5F5F5F5F5F5F5E2E2BEF5F5F5F5F5F5E2BEF5F5F5F5E2BEBEF5F5F5F5F5F5E2BEF5F5F5F5F5E2BEF5F5F5F5F5F5F5F5E2BEF5F5F5F5F5F5F5F5F5F5F5F5F5F5F5F5F5F5F5F5F5F5F5F5F5F5F5F5F5F5F5F5F5F5F5F5F5F5F5F5F5F5F5F5F5F5F5F5F5F5
310
F5F5F5E2F5F5F5F5F5F5F5F5F5F5F5F5F5F5F5E2F5F5F5F5F5F5F5F5F5F5F5E2E2F5F5F5F5F5F5F5F5F5F5F5E2F5F5F5F5F5F5F5F5F5F5F5F5F5F5F5E2F5F5F5F5F5F5F5F5F5F5F5F5F5F5F5F5F5F5F5F5F5F5F5F5F5F5E2E2F5F5BEBEBEF5F5E2BEF5F5F5F5E2F5F5F5BEBEBEF5F5E2BEF5F5F5F5F5E2F5F5BEBEBEBEF5F5
310
F5E2BEF5F5F5F5F5F5F5F5F5F5F5F5F5F5F5F5F5F5F5F5F5F5F5F5F5F5F5F5F5F5F5F5F5F5F5F5F5F5F5F5F5F5F5F5F5F5F5F5F5F5F5F5F5E2F5F5F5F5F5F5F5F5F5F5F5F5F5F5F5E2F5F5F5F5F5F5F5F5F5F5F5E2E2F5F5F5F5F5F5F5F5F5F5F5E2F5F5F5F5F5F5F5F5F5F5F5F5F5F5F5E2F5F5F5F5F5F5F5F5F5F5F5F5F5
310
F5F5F5F5F5F5F5F5F5F5F5F5F5E2E2E2E2E2E2E2E2E2E2BEF5F5F5F5E2E2E2E2E2E2E2E2E2E2E2F5F5F5F5F5E2E2E2E2E2E2E2E2E2E2E2BEF5F5F5F5F5F5F5F5F5F5F5F5F5F5F5F5F5F5F5F5F5F5F5F5F5F5F5F5F5F5F5F5F5F5F5F5F5F5F5F5F5F5F5F5F5F5F5F5F5F5F5F5F5E2F5F5F5F5F5F5F5F5F5F5F5F5F5F5F5E2F5
310
F5F5F5F5F5F5F5F5F5F5E2E2F5F5F5F5F5F5F5F5F5F5F5E2F5F5F5F5F5F5F5F5F5F5F5F5F5F5F5E2F5F5F5F5F5F5F5F5F5F5F5F5F5F5F5F5F5F5F5F5F5F5F5F5F5F5F5F5E2E2E2E2BEBEBEBEBEE2F5F5F5F5E2E2E2E2E2BEBEBEBEBEE2BEF5F5F5F5E2E2E2E2E2BEBEBEBEBEBEBEF5F5F5F5F5F5F5F5F5F5F5F5F5F5F5F5F5
310
F5F5F5F5F5F5F5F5F5F5F5F5F5F5F5F5F5F5F5F5F5F5F5F5F5F5F5F5F5F5F5F5F5F5F5E2F5F5F5F5F5F5F5F5F5F5F5F5F5F5F5E2F5F5F5F5F5F5F5F5F5F5F5E2E2F5F5F5F5F5F5F5F5F5F5F5E2F5F5F5F5F5F5F5F5F5F5F5F5F5F5F5E2F5F5F5F5F5F5F5F5F5F5F5F5F5F5F5F5F5F5F5F5F5F5F5F5F5F5E2E2BEE2E2E2E2E2
310
E2E2E2BEF5F5BEE2BEBEE2E2E2E2E2E2E2E2BEF5F5F5BEE2BEE2E2E2E2E2E2E2E2E2BEBEF5F5F5F5F5F5F5F5F5F5F5F5F5F5F5F5F5F5F5F5F5F5F5F5F5F5F5F5F5F5F5F5F5F5F5F5F5F5F5F5F5F5F5F5F5F5F5F5F5F5F5F5E2F5F5F5F5F5F5F5F5F5F5F5F5F5F5F5E2F5F5F5F5F5F5F5F5F5F5F5E2E2F5F5F5F5F5F5F5F5F5
310
F5F5E2F5F5F5F5F5F5F5F5F5F5F5F5F5F5F5E2F5F5F5F5F5F5F5F5F5F5F5F5F5F5F5F5F5F5F5F5F5F5F5F5F5F5E2E2E2F5F5F5F5F5E2E2BEBEF5F5E2E2E2F5F5F5F5F5E2E2E2BEBEBEF5F5E2E2E2F5F5F5F5F5F5E2E2E2BEBEF5F5F5F5F5F5F5F5F5F5F5F5F5F5F5F5F5F5F5F5F5F5F5F5F5F5F5F5F5F5F5F5F5F5F5F5F5F5
310
F5F5F5F5F5F5F5F5F5F5F5F5F5F5E2F5F5F5F5F5F5F5F5F5F5F5F5F5F5F5E2F5F5F5F5F5F5F5F5F5F5F5E2E2F5F5F5F5F5F5F5F5F5F5F5E2F5F5F5F5F5F5F5F5F5F5F5F5F5F5F5E2F5F5F5F5F5F5F5F5F5F5F5F5F5F5F5F5F5F5F5F5F5F5F5F5F5F5E2E2F5E2F5F5E2E2F5E2BEBEF5F5F5E2F5E2E2F5F5E2F5F5E2BEBEBEF5
310
F5F5E2F5E2E2F5F5E2E2F5F5E2BEBEF5F5F5F5F5F5F5F5F5F5F5F5F5F5F5F5F5F5F5F5F5F5F5F5F5F5F5F5F5F5F5F5F5F5F5F5F5F5F5F5F5F5F5F5F5F5F5F5F5F5F5F5E2F5F5F5F5F5F5F5F5F5F5F5F5F5F5F5E2F5F5F5F5F5F5F5F5F5F5F5E2E2F5F5F5F5F5F5F5F5F5F5F5E2F5F5F5F5F5F5F5F5F5F5F5F5F5F5F5E2F5F5
310
F5F5F5F5F5F5F5F5F5F5F5F5F5F5F5F5F5F5F5F5F5F5F5F5E2E2F5F5E2E2F5F5F5E2BEBEF5F5F5E2F5F5F5E2E2F5F5F5E2BEBEBEF5F5F5E2F5F5F5E2E2F5F5F5F5E2BEBEF5F5F5F5F5F5F5F5F5F5F5F5F5F5F5F5F5F5F5F5F5F5F5F5F5F5F5F5F5F5F5F5F5F5F5F5F5F5F5F5F5F5F5F5F5F5F5F5F5F5F5F5E2F5F5F5F5F5F5
310
F5F5F5F5F5F5F5F5F5E2F5F5F5F5F5F5F5F5F5F5F5E2E2F5F5F5F5F5F5F5F5F5F5F5E2F5F5F5F5F5F5F5F5F5F5F5F5F5F5F5E2F5F5F5F5F5F5F5F5F5F5F5F5F5F5F5F5F5F5F5F5F5F5F5F5F5F5E2E2F5E2E2E2E2E2F5E2BEBEF5F5F5E2F5F5E2E2E2E2E2F5E2BEBEF5F5F5F5E2F5F5E2E2E2E2E2F5F5E2BEBEF5F5F5F5F5F5
310
F5F5F5F5F5F5F5F5F5F5F5F5F5F5F5F5F5F5F5F5F5F5F5F5F5F5F5F5F5F5F5F5F5F5F5F5F5F5F5F5F5F5F5F5F5F5E2F5F5F5F5F5F5F5F5F5F5F5F5F5F5F5E2F5F5F5F5F5F5F5F5F5F5F5E2E2F5F5F5F5F5F5F5F5F5F5F5E2F5F5F5F5F5F5F5F5F5F5F5F5F5F5F5E2F5F5F5F5F5F5F5F5F5F5F5F5F5F5F5F5F5F5F5F5F5F5F5
310
F5F5F5E2E2E2E2BEBEBEE2E2E2BEBEF5F5F5E2E2E2E2BEBEBEE2E2E2BEE2BEF5F5F5E2E2E2BEBEBEBEE2E2E2E2E2E2F5F5F5F5F5F5F5F5F5F5F5F5F5F5F5F5F5F5F5F5F5F5F5F5F5F5F5F5F5F5F5F5F5F5F5F5F5F5F5F5F5F5F5F5F5F5F5F5F5F5F5F5E2F5F5F5F5F5F5F5F5F5F5F5F5F5F5F5E2F5F5F5F5F5F5F5F5F5F5F5
310
E2E2F5F5F5F5F5F5F5F5F5F5F5F5F5F5F5F5F5F5F5F5F5F5F5F5F5F5F5E2F5F5F5F5F5F5F5F5F5F5F5F5F5F5F5F5F5F5F5F5F5F5F5F5F5F5BEBEBEBEBEBEBEBEBEBEF5F5F5F5F5BEBEBEBEBEBEBEBEBEE2BEF5F5F5F5F5E2BEBEBEBEBEBEBEBEBEBEF5F5F5F5F5F5F5F5F5F5F5F5F5F5F5F5F5F5F5F5F5F5F5F5F5F5F5F5F5
310
F5F5F5F5F5F5F5F5F5F5F5F5F5F5F5F5F5F5F5F5F5F5F5F5F5E2F5F5F5F5F5F5F5F5F5F5F5F5F5F5F5F5F5F5F5F5F5F5F5F5F5F5F5E2E2F5F5F5F5F5F5F5F5F5F5F5F5F5F5F5F5F5F5F5F5F5F5F5F5F5F5F5E2F5F5F5F5F5F5F5F5F5F5F5F5F5F5F5F5F5F5F5F5F5F5F5F5F5F5BEBEBEBEBEBEBEBEBEE2F5F5F5F5F5BEBEBE
310
BEBEBEBEBEBEBEE2F5F5F5F5F5BEBEBEBEBEBEBEBEBEBEE2F5F5F5F5F5F5F5F5F5F5F5F5F5F5F5F5F5F5F5F5F5F5F5F5F5F5F5F5F5F5F5F5F5F5F5F5F5F5F5F5F5F5F5F5F5F5F5F5F5F5F5F5F5F5E2F5F5F5F5F5F5F5F5F5F5F5F5F5F5F5F5F5F5F5F5F5F5F5F5F5F5F5E2E2F5F5F5F5F5F5F5F5F5F5F5F5F5F5F5F5F5F5F5
310
F5F5F5F5F5F5F5F5E2F5F5F5F5F5F5F5F5F5F5F5F5F5F5F5F5F5F5F5F5F5F5F5F5F5F5F5F5F5F5F5F5F5F5F5F5F5F5F5F5F5F5F5F5F5F5F5F5F5F5F5F5F5F5F5F5F5F5F5F5F5F5F5F5F5F5F5F5F5F5F5F5F5F5F5F5F5F5F5F5F5F5F5F5F5F5F5F5F5F5F5F5F5F5F5F5F5F5F5F5F5F5F5F5F5F5F5F5F5F5F5F5F5F5F5F5F5F5
310
F5F5F5F5E2F5F5F5F5F5F5F5F5F5F5F5F5F5F5F5F5F5F5F5F5F5F5F5F5F5F5F5E2E2F5F5F5F5F5F5F5F5F5F5F5F5F5F5F5F5F5F5F5F5F5F5F5F5F5F5F5E2F5F5F5F5F5F5F5F5F5F5F5F5F5F5F5F5F5F5F5F5F5F5F5F5F5F5F5F5F5F5F5F5F5F5F5F5F5F5F5F5F5F5F5F5F5F5F5F5F5F5F5F5F5F5F5F5F5F5F5F5F5F5F5F5F5
310
F5F5F5F5F5F5F5F5F5F5F5F5F5F5F5F5F5F5F5F5F5F5F5F5F5F5F5F5F5F5F5F5F5F5F5F5F5F5F5F5F5F5F5F5F5F5F5F5F5F5F5F5F5F5F5F5F5E2F5F5F5F5F5F5F5F5F5F5F5F5F5F5F5F5F5F5F5F5F5F5F5F5F5F5F5E2E2F5F5F5F5F5F5F5F5F5F5F5F5F5F5F5F5F5F5F5F5F5F5F5F5F5F5F5E2F5F5F5F5F5F5F5F5F5F5F5F5
310
F5F5F5F5F5F5F5F5F5F5F5F5F5F5F5F5F5F5F5F5F5F5F5F5F5F5F5F5F5F5F5F5F5F5F5F5F5F5F5F5F5F5F5F5F5F5F5F5F5F5F5F5F5F5F5F5F5F5F5F5F5F5F5F5F5F5F5F5F5F5F5F5F5F5F5F5F5F5F5F5F5F5F5F5F5F5F5F5F5F5F5F5F5F5F5F5F5F5F5F5F5F5F5F5F5F5F5F5F5F5E2F5F5F5F5F5F5F5F5F5F5F5F5F5F5F5F5
310
F5F5F5F5F5F5F5F5F5F5F5E2E2F5F5F5F5F5F5F5F5F5F5F5F5F5F5F5F5F5F5F5F5F5F5F5F5F5F5F5E2F5F5F5F5F5F5F5F5F5F5F5F5F5F5F5F5F5F5F5F5F5F5F5F5F5F5F5F5F5F5F5F5F5F5F5F5F5F5F5F5F5F5F5F5F5F5F5F5F5F5F5F5F5F5F5F5F5F5F5F5F5F5F5F5F5F5F5F5F5F5F5F5F5F5F5F5F5F5F5F5F5F5F5F5F5F5
310
F5F5F5F5F5F5F5F5F5F5F5F5F5F5F5F5F5F5F5F5F5F5F5F5F5F5F5F5F5F5F5F5F5F5F5F5E2F5F5F5F5F5F5F5F5F5F5F5F5F5F5F5F5F5F5F5F5F5F5F5F5F5F5F5E2E2F5F5F5F5F5F5F5F5F5F5F5F5F5F5F5F5F5F5F5F5F5F5F5F5F5F5F5E2F5F5F5F5F5F5F5F5F5F5F5F5F5F5F5F5F5F5F5F5F5F5F5F5F5F5F5F5F5F5F5F5F5
310
F5F5F5F5F5F5F5F5F5F5F5F5F5F5F5F5F5F5F5F5F5F5F5F5F5F5F5F5F5F5F5F5F5F5F5F5F5F5F5F5F5F5F5F5F5F5F5F5F5F5F5F5F5F5F5F5F5F5F5F5F5F5F5F5F5F5F5F5F5F5F5F5F5F5F5F5F5F5F5F5F5F5F5F5F5F5F5F5F5E2F5F5F5F5F5F5F5F5F5F5F5F5F5F5F5F5F5F5F5F5F5F5F5F5F5F5F5E2E2F5F5F5F5F5F5F5F5
310
F5F5F5F5F5F5F5F5F5F5F5F5F5F5F5F5F5F5F5E2F5F5F5F5F5F5F5F5F5F5F5F5F5F5F5F5F5F5F5F5F5F5F5F5F5F5F5F5F5F5F5F5F5F5F5F5F5F5F5F5F5F5F5F5F5F5F5F5F5F5F5F5F5F5F5F5F5F5F5F5F5F5F5F5F5F5F5F5F5F5F5F5F5F5F5F5F5F5F5F5F5F5F5F5F5F5F5F5F5F5F5F5F5F5F5F5F5F5F5F5F5F5F5F5F5F5F5
310
F5F5F5F5F5F5F5F5F5F5F5F5F5F5F5E2F5F5F5F5F5F5F5F5F5F5F5F5F5F5F5F5F5F5F5F5F5F5F5F5F5F5F5E2E2F5F5F5F5F5F5F5F5F5F5F5E2F5F5F5F5F5F5F5F5F5F5F5F5F5F5F5E2F5F5F5F5F5F5F5F5F5F5F5F5F5F5F5F5F5F5F5F5F5F5F5F5F5F5F5F5F5F5F5F5F5F5F5F5F5F5F5F5F5F5F5F5F5F5F5F5F5F5F5F5F5F5
310
F5F5F5F5F5F5F5F5F5F5F5F5F5F5F5F5F5F5F5F5F5F5F5F5F5F5F5F5F5F5F5F5F5F5F5F5F5F5F5F5F5F5F5F5F5F5F5F5F5F5F5F5F5F5F5F5F5F5F5F5F5F5F5F5F5F5F5F5E2F5F5F5F5F5F5F5F5F5F5F5F5F5F5F5E2F5F5F5F5F5F5F5F5F5F5F5E2E2F5F5F5F5F5F5F5F5F5F5F5E2F5F5F5F5F5F5F5F5F5F5F5F5F5F5F5E2F5
310
F5F5F5F5F5F5F5F5F5F5F5F5F5F5F5F5F5F5F5F5F5F5F5F5F5F5F5F5F5F5F5F5F5F5F5F5F5F5F5F5F5F5F5F5F5F5F5F5F5F5F5F5F5F5F5F5F5F5F5F5F5F5F5F5F5F5F5F5F5F5F5F5F5F5F5F5F5F5F5F5F5F5F5F5F5F5F5F5F5F5F5F5F5F5F5F5F5F5F5F5F5F5F5F5F5F5F5F5F5F5F5F5F5F5F5F5F5F5F5F5F5E2F5F5F5F5F5
310
F5F5F5F5F5F5F5F5F5F5E2F5F5F5F5F5F5F5F5F5F5F5E2E2F5F5F5F5F5F5F5F5F5F5F5E2F5F5F5F5F5F5F5F5F5F5F5F5F5F5F5E2F5F5F5F5F5F5F5F5F5F5F5F5F5F5F5F5F5F5F5F5F5F5F5F5F5F5F5F5F5F5F5F5F5F5F5F5F5F5F5F5F5F5F5F5F5F5F5F5F5F5F5F5F5F5F5F5F5F5F5F5F5F5F5F5F5F5F5F5F5F5F5F5F5F5F5
310
F5F5F5F5F5F5F5F5F5F5F5F5F5F5F5F5F5F5F5F5F5F5F5F5F5F5F5F5F5F5F5F5F5F5F5F5F5F5F5F5F5F5F5F5F5F5F5E2F5F5F5F5F5F5F5F5F5F5F5F5F5F5F5E2F5F5F5F5F5F5F5F5F5F5F5E2E2F5F5F5F5F5F5F5F5F5F5F5E2F5F5F5F5F5F5F5F5F5F5F5F5F5F5F5E2F5F5F5F5F5F5F5F5F5F5F5F5F5F5F5F5F5F5F5F5F5F5
310
F5F5F5F5F5F5F5F5F5F5F5F5F5F5F5F5F5F5F5F5F5F5F5F5F5F5F5F5F5F5F5F5F5F5F5F5F5F5F5F5F5F5F5F5F5F5F5F5F5F5F5F5F5F5F5F5F5F5F5F5F5F5F5F5F5F5F5F5F5F5F5F5F5F5F5F5F5F5F5F5F5F5F5F5F5F5F5F5F5F5F5F5F5F5F5F5F5F5F5F5E2F5F5F5F5F5F5F5F5F5F5F5F5F5F5F5E2F5F5F5F5F5F5F5F5F5F5
310
F5E2E2F5F5F5F5F5F5F5F5F5F5F5E2F5F5F5F5F5F5F5F5F5F5F5F5F5F5F5E2F5F5F5F5F5F5F5F5F5F5F5F5F5F5F5F5F5F5F5F5F5F5F5F5F5F5F5F5F5F5F5F5F5F5F5F5F5F5F5F5F5F5F5F5F5F5F5F5F5F5F5F5F5F5F5F5F5F5F5F5F5F5F5F5F5F5F5F5F5F5F5F5F5F5F5F5F5F5F5F5F5F5F5F5F5F5F5F5F5F5F5F5F5F5F5F5
310
F5F5F5F5F5F5F5F5F5F5F5F5F5F5F5F5F5F5F5F5F5F5F5F5F5F5E2F5F5F5F5F5F5F5F5F5F5F5F5F5F5F5E2F5F5F5F5F5F5F5F5F5F5F5E2E2F5F5F5F5F5F5F5F5F5F5F5E2F5F5F5F5F5F5F5F5F5F5F5F5F5F5F5E2F5F5F5F5F5F5F5F5F5F5F5F5F5F5F5F5F5F5F5F5F5F5F5F5F5F5F5F5F5F5F5F5F5F5F5F5F5F5F5F5F5F5F5
310
F5F5F5F5F5F5F5F5F5F5F5F5F5F5F5F5F5F5F5F5F5F5F5F5F5F5F5F5F5F5F5F5F5F5F5F5F5F5F5F5F5F5F5F5F5F5F5F5F5F5F5F5F5F5F5F5F5F5F5F5F5F5F5F5F5F5F5F5F5F5F5F5F5F5F5F5F5F5F5E2F5F5F5F5F5F5F5F5F5F5F5F5F5F5F5E2F5F5F5F5F5F5F5F5F5F5F5E2E2F5F5F5F5F5F5F5F5F5F5F5E2F5F5F5F5F5F5
310
F5F5F5F5F5F5F5F5F5E2F5F5F5F5F5F5F5F5F5F5F5F5F5F5F5F5F5F5F5F5F5F5F5F5F5F5F5F5F5F5F5F5F5F5F5F5F5F5F5F5F5F5F5F5F5F5F5F5F5F5F5F5F5F5F5F5F5F5F5F5F5F5F5F5F5F5F5F5F5F5F5F5F5F5F5F5F5F5F5F5F5F5F5F5F5F5F5F5F5F5F5F5F5F5F5F5F5F5F5F5F5F5F5F5F5F5F5F5F5F5F5F5F5F5F5F5F5
310
F5F5F5F5F5E2F5F5F5F5F5F5F5F5F5F5F5F5F5F5F5E2F5F5F5F5F5F5F5F5F5F5F5E2E2F5F5F5F5F5F5F5F5F5F5F5E2F5F5F5F5F5F5F5F5F5F5F5F5F5F5F5E2F5F5F5F5F5F5F5F5F5F5F5F5F5F5F5F5F5F5F5F5F5F5F5F5F5F5F5F5F5F5F5F5F5F5F5F5F5F5F5F5F5F5F5F5F5F5F5F5F5F5F5F5F5F5F5F5F5F5F5F5F5F5F5F5
310
F5F5F5F5F5F5F5F5F5F5F5F5F5F5F5F5F5F5F5F5F5F5F5F5F5F5F5F5F5F5F5F5F5F5F5F5F5F5F5F5F5F5F5F5F5F5F5F5F5F5F5F5F5F5F5F5F5F5E2F5F5F5F5F5F5F5F5F5F5F5F5F5F5F5E2F5F5F5F5F5F5F5F5F5F5F5E2E2F5F5F5F5F5F5F5F5F5F5F5E2F5F5F5F5F5F5F5F5F5F5F5F5F5F5F5E2F5F5F5F5F5F5F5F5F5F5F5
310
F5F5F5F5F5F5F5F5F5F5F5F5F5F5F5F5F5F5F5F5F5F5F5F5F5F5F5F5F5F5F5F5F5F5F5F5F5F5F5F5F5F5F5F5F5F5F5F5F5F5F5F5F5F5F5F5F5F5F5F5F5F5F5F5F5F5F5F5F5F5F5F5F5F5F5F5F5F5F5F5F5F5F5F5F5F5F5F5F5F5F5F5F5F5F5F5F5F5F5F5F5F5F5F5F5F5F5F5F5F5F5E2F5F5F5F5F5F5F5F5F5F5F5F5F5F5F5
310
E2F5F5F5F5F5F5F5F5F5F5F5E2E2F5F5F5F5F5F5F5F5F5F5F5E2F5F5F5F5F5F5F5F5F5F5F5F5F5F5F5E2F5F5F5F5F5F5F5F5F5F5F5F5F5F5F5F5F5F5F5F5F5F5F5F5F5F5F5F5F5F5F5F5F5F5F5F5F5F5F5F5F5F5F5F5F5F5F5F5F5F5F5F5F5F5F5F5F5F5F5F5F5F5F5F5F5F5F5F5F5F5F5F5F5F5F5F5F5F5F5F5F5F5F5F5F5
310
F5F5F5F5F5F5F5F5F5F5F5F5F5F5F5F5F5F5F5F5F5F5F5F5F5F5F5F5F5F5F5F5F5F5F5F5F5E2F5F5F5F5F5F5F5F5F5F5F5F5F5F5F5E2F5F5F5F5F5F5F5F5F5F5F5E2E2F5F5F5F5F5F5F5F5F5F5F5E2F5F5F5F5F5F5F5F5F5F5F5F5F5F5F5E2F5F5F5F5F5F5F5F5F5F5F5F5F5F5F5F5F5F5F5F5F5F5F5F5F5F5F5F5F5F5F5F5
310
F5F5F5F5F5F5F5F5F5F5F5F5F5F5F5F5F5F5F5F5F5F5F5F5F5F5F5F5F5F5F5F5F5F5F5F5F5F5F5F5F5F5F5F5F5F5F5F5F5F5F5F5F5F5F5F5F5F5F5F5F5F5F5F5F5F5F5F5F5F5F5F5F5F5F5F5F5F5F5F5F5F5F5F5F5F5F5F5F5F5E2F5F5F5F5F5F5F5F5F5F5F5F5F5F5F5E2F5F5F5F5F5F5F5F5F5F5F5E2E2F5F5F5F5F5F5F5
310
F5F5F5F5E2F5F5F5F5F5F5F5F5F5F5F5F5F5F5F5E2F5F5F5F5F5F5F5F5F5F5F5F5F5F5F5F5F5F5F5F5F5F5F5F5F5F5F5F5F5F5F5F5F5F5F5F5F5F5F5F5F5F5F5F5F5F5F5F5F5F5F5F5F5F5F5F5F5F5F5F5F5F5F5F5F5F5F5F5F5F5F5F5F5F5F5F5F5F5F5F5F5F5F5F5F5F5F5F5F5F5F5F5F5F5F5F5F5F5F5F5F5F5F5F5F5F5
310
F5F5F5F5F5F5F5F5F5F5F5F5F5F5F5F5E2F5F5F5F5F5F5F5F5F5F5F5F5F5F5F5E2F5F5F5F5F5F5F5F5F5F5F5E2E2F5F5F5F5F5F5F5F5F5F5F5E2F5F5F5F5F5F5F5F5F5F5F5F5F5F5F5E2F5F5F5F5F5F5F5F5F5F5F5F5F5F5F5F5F5F5F5F5F5F5F5F5F5F5F5F5F5F5F5F5F5F5F5F5F5F5F5F5F5F5F5F5F5F5F5F5F5F5F5F5F5
310
F5F5F5F5F5F5F5F5F5F5F5F5F5F5F5F5F5F5F5F5F5F5F5F5F5F5F5F5F5F5F5F5F5F5F5F5F5F5F5F5F5F5F5F5F5F5F5F5F5F5F5F5F5F5F5F5F5F5F5F5F5F5F5F5F5F5F5F5F5E2F5F5F5F5F5F5F5F5F5F5F5F5F5F5F5E2F5F5F5F5F5F5F5F5F5F5F5E2E2F5F5F5F5F5F5F5F5F5F5F5E2F5F5F5F5F5F5F5F5F5F5F5F5F5F5F5E2
310
F5F5F5F5F5F5F5F5F5F5F5F5F5F5F5F5F5F5F5F5F5F5F5F5F5F5F5F5F5F5F5F5F5F5F5F5F5F5F5F5F5F5F5F5F5F5F5F5F5F5F5F5F5F5F5F5F5F5F5F5F5F5F5F5F5F5F5F5F5F5F5F5F5F5F5F5F5F5F5F5F5F5F5F5F5F5F5F5F5F5F5F5F5F5F5F5F5F5F5F5F5F5F5F5F5F5F5F5F5F5F5F5F5F5F5F5F5F5F5F5F5F5E2F5F5F5F5
310
F5F5F5F5F5F5F5F5F5F5F5E2F5F5F5F5F5F5F5F5F5F5F5E2E2F5F5F5F5F5F5F5F5F5F5F5E2F5F5F5F5F5F5F5F5F5F5F5F5F5F5F5E2F5F5F5F5F5F5F5F5F5F5F5F5F5F5F5F5F5F5F5F5F5F5F5F5F5F5F5F5F5F5F5F5F5F5F5F5F5F5F5F5F5F5F5F5F5F5F5F5F5F5F5F5F5F5F5F5F5F5F5F5F5F5F5F5F5F5F5F5F5F5F5F5F5F5
310
F5F5F5F5F5F5F5F5F5F5F5F5F5F5F5F5F5F5F5F5F5F5F5F5F5F5F5F5F5F5F5F5F5F5F5F5F5F5F5F5F5F5F5F5F5F5F5F5E2F5F5F5F5F5F5F5F5F5F5F5F5F5F5F5E2F5F5F5F5F5F5F5F5F5F5F5E2E2F5F5F5F5F5F5F5F5F5F5F5F5F5F5F5F5F5F5F5F5F5F5F5F5F5F5F5E2F5F5F5F5F5F5F5F5F5F5F5F5F5F5F5F5F5F5F5F5F5
310
F5F5F5F5F5F5F5F5F5F5F5F5F5F5F5F5F5F5F5F5F5F5F5F5F5F5F5F5F5F5F5F5F5F5F5F5F5F5F5F5F5F5F5F5F5F5F5F5F5F5F5F5F5F5F5F5F5F5F5F5F5F5F5F5F5F5F5F5F5F5F5F5F5F5F5F5F5F5F5F5F5F5F5F5F5F5F5F5F5F5F5F5F5F5F5F5F5F5F5F5F5E2F5F5F5F5F5F5F5F5F5F5F5F5F5F5F5F5F5F5F5F5F5F5F5F5F5
310
F5F5E2E2F5F5F5F5F5F5F5F5F5F5F5F5F5F5F5F5F5F5F5F5F5F5F5F5F5F5F5E2F5F5F5F5F5F5F5F5F5F5F5F5F5F5F5F5F5F5F5F5F5F5F5F5F5F5F5F5F5F5F5F5F5F5F5F5F5F5F5F5F5F5F5F5F5F5F5F5F5F5F5F5F5F5F5F5F5F5F5F5F5F5F5F5F5F5F5F5F5F5F5F5F5F5F5F5F5F5F5F5F5F5F5F5F5F5F5F5F5F5F5F5F5F5F5
310
F5F5F5F5F5F5F5F5F5F5F5F5F5F5F5F5F5F5F5F5F5F5F5F5F5F5F5E2F5F5F5F5F5F5F5F5F5F5F5F5F5F5F5F5F5F5F5F5F5F5F5F5F5F5F5E2E2F5F5F5F5F5F5F5F5F5F5F5F5F5F5F5F5F5F5F5F5F5F5F5F5F5F5F5E2F5F5F5F5F5F5F5F5F5F5F5F5F5F5F5F5F5F5F5F5F5F5F5F5F5F5F5F5F5F5F5F5F5F5F5F5F5F5F5F5F5F5
310
F5F5F5F5F5F5F5F5F5F5F5F5F5F5F5F5F5F5F5F5F5F5F5F5F5F5F5F5F5F5F5F5F5F5F5F5F5F5F5F5F5F5F5F5F5F5F5F5F5F5F5F5F5F5F5F5F5F5F5F5F5F5F5F5F5F5F5F5F5F5F5F5F5F5F5F5F5F5F5F5E2F5F5F5F5F5F5F5F5F5F5F5F5F5F5F5F5F5F5F5F5F5F5F5F5F5F5F5E2E2F5F5F5F5F5F5F5F5F5F5F5F5F5F5F5F5F5
310
F5F5F5F5F5F5F5F5F5F5E2F5F5F5F5F5F5F5F5F5F5F5F5F5F5F5F5F5F5F5F5F5F5F5F5F5F5F5F5F5F5F5F5F5F5F5F5F5F5F5F5F5F5F5F5F5F5F5F5F5F5F5F5F5F5F5F5F5F5F5F5F5F5F5F5F5F5F5F5F5F5F5F5F5F5F5F5F5F5F5F5F5F5F5F5F5F5F5F5F5F5F5F5F5F5F5F5F5F5F5F5F5F5F5F5F5F5F5F5F5F5F5F5F5F5F5F5
310
F5F5F5F5F5F5E2F5F5F5F5F5F5F5F5F5F5F5F5F5F5F5F5F5F5F5F5F5F5F5F5F5F5F5E2E2F5F5F5F5F5F5F5F5F5F5F5F5F5F5F5F5F5F5F5F5F5F5F5F5F5F5F5E2E2E2E2E2E2E2E2E2E2E2E2E2E2E2E2E2E2E2E2E2E2E2E2E2E2E2E2E2E2E2E2E2E2E2E2E2E2E2E2E2E2E2E2E2E2E2E2E2E2E2E2E2E2E2E2E2E2E2E2E2E2E2E2
310
E2E2E2E2E2E2E2E2E2E2E2E2E2E2E2E2E2E2E2E2E2E2E2E2E2E2E2E2E2E2E2E2E2E2E2E2E2E2E2E2E2E2E2E2E2E2E2E2E2E2E2E2E2E2E2E2E2E2E2E2F5F5F5F5F5F5F5F5F5F5F5F5F5F5F5F5F5F5F5F5F5F5F5F5F5F5F5E2E2F5F5F5F5F5F5F5F5F5F5F5F5F5F5F5F5F5F5F5F5F5F5F5F5F5F5F5F5F5F5F5F5F5F5F5F5F5F5
310
F5F5F5F5F5F5F5F5F5F5F5F5F5F5F5F5F5F5F5F5F5F5F5F5F5F5F5F5F5F5F5F5F5F5F5F5F5F5F5F5F5F5F5F5F5F5F5F5F5F5F5F5F5F5F5F5F5F5F5F5F5F5F5F5F5F5F5F5F5F5F5F5F5F5F5F5F5F5F5F5F5F5F5F5F5F5F5F5F5F5F5F5F5F5F5F5F5F5F5F5F5F5F5F5F5F5F5F5F5F5F5F5F5F5F5F5F5F5F5F5F5F5F5F5F5F5F5
310
F5F5F5F5F5F5F5F5F5F5F5F5F5E2E2F5F5F5F5F5F5F5F5F5F5F5F5F5F5F5F5F5F5F5F5F5F5F5F5F5F5F5F5F5F5F5F5F5F5F5F5F5F5F5F5F5F5F5F5F5F5F5F5F5F5F5F5F5F5F5F5F5F5F5F5F5F5F5F5F5F5F5F5F5F5F5F5F5F5F5F5F5F5F5F5F5F5F5F5F5F5F5F5F5F5F5F5F5F5F5F5F5F5F5F5F5F5F5F5F5F5F5F5F5F5F5F5
310
F5F5F5F5F5F5F5F5F5F5F5F5F5F5F5F5F5F5F5F5F5F5F5F5F5F5F5F5F5F5F5F5F5F5F5F5F5F5F5F5F5F5F5F5F5F5F5F5F5F5F5F5F5F5F5F5F5F5F5F5F5F5F5F5F5F5E2E2F5F5F5F5F5F5F5F5F5F5F5F5F5F5F5F5F5F5F5F5F5F5F5F5F5F5F5F5F5F5F5F5F5F5F5F5F5F5F5F5F5F5F5F5F5F5F5F5F5F5F5F5F5F5F5F5F5F5F5
310
F5F5F5F5F5F5F5F5F5F5F5F5F5F5F5F5F5F5F5F5F5F5F5F5F5F5F5F5F5F5F5F5F5F5F5F5F5F5F5F5F5F5F5F5F5F5F5F5F5F5F5F5F5F5F5F5F5F5F5F5F5F5F5F5F5F5F5F5F5F5F5F5F5F5F5F5F5F5F5F5F5F5F5F5F5F5F5F5F5F5F5F5F5F5F5F5F5F5F5F5F5F5F5F5F5F5F5F5F5F5F5F5F5F5F5F5F5F5F5E2E2F5F5F5F5F5F5
310
F5F5F5F5F5E2F5F5F5F5F5F5F5F5F5F5F5F5F5F5F5F5F5F5F5F5F5F5F5F5F5F5F5F5F5F5F5F5F5F5F5F5F5F5F5F5F5F5F5F5F5F5F5F5F5F5F5F5F5F5F5F5F5F5F5F5F5F5F5F5F5F5F5F5F5F5F5F5F5F5F5F5F5F5F5F5F5F5F5F5F5F5F5F5F5F5F5F5F5F5F5F5F5F5F5F5F5F5F5F5F5F5F5F5F5F5F5F5F5F5F5F5F5F5F5F5F5
310
F5F5F5F5F5F5F5F5F5F5F5F5F5F5F5F5F5F5F5F5F5F5F5F5F5F5F5F5F5F5F5F5F5E2F5F5F5F5F5F5F5F5F5F5F5E2E2F5F5F5F5F5F5F5F5F5F5F5E2F5F5F5F5F5F5F5F5F5F5F5F5F5F5F5F5F5F5F5F5F5F5F5F5F5F5F5F5F5F5F5F5F5F5F5F5F5F5F5F5F5F5F5F5F5F5F5F5F5F5F5F5F5F5F5F5F5F5F5F5F5F5F5F5F5F5F5F5
310
F5F5F5F5F5F5F5F5F5F5F5F5F5F5F5F5F5F5F5F5F5F5F5F5F5F5F5F5F5F5F5F5F5F5F5F5F5F5F5F5F5F5F5F5F5F5F5F5F5F5F5F5F5F5F5F5F5F5F5F5F5F5F5F5F5F5F5F5F5F5F5F5F5F5F5F5F5F5F5F5F5F5F5F5F5F5E2F5F5F5F5F5F5F5F5F5F5F5E2E2F5F5F5F5F5F5F5F5F5F5F5E2F5F5F5F5F5F5F5F5F5F5F5F5F5F5F5
310
F5F5F5F5F5F5F5F5F5F5F5F5F5F5F5F5F5F5F5F5F5F5F5F5F5F5F5F5F5F5F5F5F5F5F5F5F5F5F5F5F5F5F5F5F5F5F5F5F5F5F5F5F5F5F5F5F5F5F5F5F5F5F5F5F5F5F5F5F5F5F5F5F5F5F5F5F5F5F5F5F5F5F5F5F5F5F5F5F5F5F5F5F5F5F5F5F5F5F5F5F5F5F5F5F5F5F5F5F5F5F5F5F5F5F5F5F5F5F5F5F5F5F5F5F5F5F5
310
F5F5F5F5F5F5F5F5F5F5F5F5E2F5F5F5F5F5F5F5F5F5F5F5E2E2F5F5F5F5F5F5F5F5F5F5F5E2F5F5F5F5F5F5F5F5F5F5F5F5F5F5F5F5F5F5F5F5F5F5F5F5F5F5F5F5F5F5F5F5F5F5F5F5F5F5F5F5F5F5F5F5F5F5F5F5F5F5F5F5F5F5F5F5F5F5F5F5F5F5F5F5F5F5F5F5F5F5F5F5F5F5F5F5F5F5F5F5F5F5F5F5F5F5F5F5F5
310
F5F5F5F5F5F5F5F5F5F5F5F5F5F5F5F5F5F5F5F5F5F5F5F5F5F5F5F5F5F5F5F5F5F5F5F5F5F5F5F5F5F5F5F5F5F5F5F5F5F5F5F5F5F5F5F5F5F5F5F5F5F5F5F5F5E2F5F5F5F5F5F5F5F5F5F5F5E2E2F5F5F5F5F5F5F5F5F5F5F5E2F5F5F5F5F5F5F5F5F5F5F5F5F5F5F5F5F5F5F5F5F5F5F5F5F5F5F5F5F5F5F5F5F5F5F5F5
310
F5F5F5F5F5F5F5F5F5F5F5F5F5F5F5F5F5F5F5F5F5F5F5F5F5F5F5F5F5F5F5F5F5F5F5F5F5F5F5F5F5F5F5F5F5F5F5F5F5F5F5F5F5F5F5F5F5F5F5F5F5F5F5F5F5F5F5F5F5F5F5F5F5F5F5F5F5F5F5F5F5F5F5F5F5F5F5F5F5F5F5F5F5F5F5F5F5F5F5F5F5F5F5F5F5F5F5F5F5F5F5F5F5F5F5F5F5F5E2F5F5F5F5F5F5F5F5
310
F5F5F5E2E2F5F5F5F5F5F5F5F5F5F5F5E2F5F5F5F5F5F5F5F5F5F5F5F5F5F5F5F5F5F5F5F5F5F5F5F5F5F5F5F5F5F5F5F5F5F5F5F5F5F5F5F5F5F5F5F5F5F5F5F5F5F5F5F5F5F5F5F5F5F5F5F5F5F5F5F5F5F5F5F5F5F5F5F5F5F5F5F5F5F5F5F5F5F5F5F5F5F5F5F5F5F5F5F5F5F5F5F5F5F5F5F5F5F5F5F5F5F5F5F5F5F5
310
F5F5F5F5F5F5F5F5F5F5F5F5F5F5F5F5F5F5F5F5F5F5F5F5F5F5F5F5F5F5F5F5F5F5F5F5F5F5F5F5F5F5F5F5E2F5F5F5F5F5F5F5F5F5F5F5E2E2F5F5F5F5F5F5F5F5F5F5F5E2F5F5F5F5F5F5F5F5F5F5F5F5F5F5F5F5F5F5F5F5F5F5F5F5F5F5F5F5F5F5F5F5F5F5F5F5F5F5F5F5F5F5F5F5F5F5F5F5F5F5F5F5F5F5F5F5F5
310
F5F5F5F5F5F5F5F5F5F5F5F5F5F5F5F5F5F5F5F5F5F5F5F5F5F5F5F5F5F5F5F5F5F5F5F5F5F5F5F5F5F5F5F5F5F5F5F5F5F5F5F5F5F5F5F5F5F5F5F5F5F5F5F5F5F5F5F5F5F5F5F5F5F5F5F5F5F5F5F5F5F5F5F5F5F5F5F5F5F5F5F5F5F5F5F5F5E2F5F5F5F5F5F5F5F5F5F5F5E2E2F5F5F5F5F5F5F5F5F5F5F5E2E2E2E2E2
310
E2E2E2E2F5F5F5F5F5F5F5F5F5E2E2E2E2E2E2E2E2E2E2E2E2E2E2E2E2E2F5F5F5F5F5F5F5F5F5E2E2E2E2E2E2E2E2E2E2E2E2E2E2E2E2F5F5F5F5F5F5F5F5F5F5E2E2E2E2E2E2E2E2E2E2E2E2E2E2E2E2F5F5F5F5F5F5F5F5F5F5E2E2E2E2E2E2E2E2E2E2E2E2E2E2E2E2F5F5F5F5F5F5F5F5F5E2E2E2E2E2E2E2E2E2E2E2
310
E2E2E2E2E2E2F5F5F5F5F5F5F5F5F5E2E2E2E2E2E2E2E2E2F5F5F5F5F5F5F5F5F5F5F5E2E2F5F5F5F5F5F5F5F5F5F5F5F5F5F5F5F5F5F5F5F5F5F5F5F5F5F5F5F5F5F5F5F5F5F5F5F5F5F5F5F5F5F5F5F5F5F5F5F5F5F5F5F5F5F5F5F5F5F5F5F5F5F5F5F5F5F5F5F5F5F5F5F5F5F5F5F5F5F5F5F5F5F5F5F5F5F5F5F5F5F5
310
F5F5F5F5F5F5F5F5F5F5F5F5F5F5F5F5F5F5F5F5F5F5F5F5F5F5F5F5F5F5F5F5F5F5F5F5F5F5F5F5F5F5F5F5F5F5F5F5F5F5F5F5F5F5F5F5F5F5F5F5F5F5F5F5F5F5F5F5F5F5F5F5F5F5F5F5F5F5F5F5F5F5F5F5F5F5F5F5E2E2F5F5F5F5F5F5F5F5F5F5F5F5F5F5F5F5F5F5F5F5F5F5F5F5F5F5F5F5F5F5F5F5F5F5F5F5F5
310
F5F5F5F5F5F5F5F5F5F5F5F5F5F5F5F5F5F5F5F5F5F5F5F5F5F5F5F5F5F5F5F5F5F5F5F5F5F5F5F5F5F5F5F5F5F5F5F5F5F5F5F5F5F5F5F5F5F5F5F5F5F5F5F5F5F5F5F5F5F5F5F5F5F5F5F5F5F5F5F5F5F5F5F5F5F5F5F5F5F5F5F5F5F5F5F5F5F5F5F5F5F5F5F5F5F5F5F5F5F5F5F5F5F5F5F5F5F5F5F5F5F5F5F5F5F5F5
310
F5F5F5F5F5F5F5F5F5F5F5F5F5F5E2E2F5F5F5F5F5F5F5F5F5F5F5F5F5F5F5F5F5F5F5F5F5F5F5F5F5F5F5F5F5F5F5F5F5F5F5F5F5F5F5F5F5F5F5F5F5F5F5F5F5F5F5F5F5F5F5F5F5F5F5F5F5F5F5F5F5F5F5F5F5F5F5F5F5F5F5F5F5F5F5F5F5F5F5F5F5F5F5F5F5F5F5F5F5F5F5F5F5F5F5F5F5F5F5F5F5F5F5F5F5F5F5
310
F5F5F5F5F5F5F5F5F5F5F5F5F5F5F5F5F5F5F5F5F5F5F5F5F5F5F5F5F5F5F5F5F5F5F5F5F5F5F5F5F5F5F5F5F5F5F5F5F5F5F5F5F5F5F5F5F5F5F5F5F5F5F5F5F5F5F5E2E2F5F5F5F5F5F5F5F5F5F5F5F5F5F5F5F5F5F5F5F5F5F5F5F5F5F5F5F5F5F5F5F5F5F5F5F5F5F5F5F5F5F5F5F5F5F5F5F5F5F5F5F5F5F5F5F5F5F5
310
F5F5F5F5F5F5F5F5F5F5F5F5F5F5F5F5F5F5F5F5F5F5F5F5F5F5F5F5F5F5F5F5F5F5F5F5F5F5F5F5F5F5F5F5F5F5F5F5F5F5F5F5F5F5F5F5F5F5F5F5F5F5F5F5F5F5F5F5F5F5F5F5F5F5F5F5F5F5F5F5F5F5F5F5F5F5F5F5F5F5F5F5F5F5F5F5F5F5F5F5F5F5F5F5F5F5F5F5F5F5F5F5F5F5F5F5F5F5F5F5E2EFE2E2E2E2E2
310
E2E2E2E2E2E2E2E2E2E2E2E2E2E2E2E2E2E2E2E2E2E2E2E2E2E2E2E2E2E2E2E2E2E2E2E2E2E2E2E2E2E2E2E2E2E2E2E2E2E2E2E2E2E2E2E2E2E2E2E2E2E2E2E2E2E2E2E2E2E2E2E2E2E2E2E2E2E2E2E2E2E2E2E2E2E2E2E2E2E2E2E2E2E2E2E2E2E2E2E2E2E2E2E2E2E2E2E2E2E2E2E2E2E2E2E2E2E2E2E2E2E2E2E2E2E2E2
310
E2E2E2E2E2E2E2E2E2E2E2E2E2E2E2E2E2E2E2E2E2E2E2E2E2E2E2E2E2E2E2E2E2E2E2E2E2E2E2E2E2E2E2E2E2E2E2EF
  0
XRECORD
  5
15F8D
102
{ACAD_REACTORS
330
15F8C
102
}
330
15F8C
100
AcDbXrecord
280
     1
310
28000000B40000007F00000001000800000000004C59000000000000000000000001000000000000FFFFFF0000000000FFFFFF000000000000000000000000000000000000000000000000000000000000000000330000006600000099000000CC000000FF00000000330000333300006633000099330000CC330000FF3300
310
0000660000336600006666000099660000CC660000FF66000000990000339900006699000099990000CC990000FF99000000CC000033CC000066CC000099CC0000CCCC0000FFCC000000FF000033FF000066FF000099FF0000CCFF0000FFFF000000003300330033006600330099003300CC003300FF003300003333003333
310
33006633330099333300CC333300FF33330000663300336633006666330099663300CC663300FF66330000993300339933006699330099993300CC993300FF99330000CC330033CC330066CC330099CC3300CCCC3300FFCC330000FF330033FF330066FF330099FF3300CCFF3300FFFF330000006600330066006600660099
310
006600CC006600FF00660000336600333366006633660099336600CC336600FF33660000666600336666006666660099666600CC666600FF66660000996600339966006699660099996600CC996600FF99660000CC660033CC660066CC660099CC6600CCCC6600FFCC660000FF660033FF660066FF660099FF6600CCFF6600
310
FFFF660000009900330099006600990099009900CC009900FF00990000339900333399006633990099339900CC339900FF33990000669900336699006666990099669900CC669900FF66990000999900339999006699990099999900CC999900FF99990000CC990033CC990066CC990099CC9900CCCC9900FFCC990000FF99
310
0033FF990066FF990099FF9900CCFF9900FFFF99000000CC003300CC006600CC009900CC00CC00CC00FF00CC000033CC003333CC006633CC009933CC00CC33CC00FF33CC000066CC003366CC006666CC009966CC00CC66CC00FF66CC000099CC003399CC006699CC009999CC00CC99CC00FF99CC0000CCCC0033CCCC0066CC
310
CC0099CCCC00CCCCCC00FFCCCC0000FFCC0033FFCC0066FFCC0099FFCC00CCFFCC00FFFFCC000000FF003300FF006600FF009900FF00CC00FF00FF00FF000033FF003333FF006633FF009933FF00CC33FF00FF33FF000066FF003366FF006666FF009966FF00CC66FF00FF66FF000099FF003399FF006699FF009999FF00CC
310
99FF00FF99FF0000CCFF0033CCFF0066CCFF0099CCFF00CCCCFF00FFCCFF0000FFFF0033FFFF0066FFFF0099FFFF00CCFFFF00FFFFFF00000000000D0D0D001A1A1A00282828003535350043434300505050005D5D5D006B6B6B00787878008686860093939300A1A1A100AEAEAE00BBBBBB00C9C9C900D6D6D600E4E4E400
310
F1F1F100FFFFFF0000000000000000000000000000000000000000000000000000000000000000000000000000000000E2E2E2E2E2E2E2E2E2E2E2E2E2E2E2E2E2E2E2E2E2E2E2E2E2E2E2E2E2E2E2E2E2E2E2E2E2E2E2E2E2E2E2E2E2E2E2E2E2E2E2E2E2E2E2E2E2E2E2E2E2E2E2E2E2E2E2E2E2E2E2E2E2E2E2E2E2E2E2
310
E2E2E2E2E2E2E2E2E2E2E2E2E2E2E2E2E2E2E2E2E2E2E2E2E2E2E2E2E2E2E2E2E2E2E2E2E2E2E2E2E2E2E2E2E2E2E2E2E2E2E2E2E2E2E2E2E2E2E2E2E2E2E2E2E2E2E2E2E2E2E2E2E2E2E2E2E2E2E2E2E2E2E2E2E2E2E2E2E2E2E2E2E2E2E2E2E2E2E2E2E2F5F5F5F5F5F5F5F5F5F5F5F5F5F5F5F5F5F5F5F5F5F5F5F5F5F5
310
F5F5F5F5F5F5F5F5F5F5F5F5F5F5F5F5F5F5F5F5F5F5F5F5F5F5F5F5F5F5F5F5F5F5F5F5F5F5F5F5F5F5F5F5F5F5F5F5F5F5F5F5F5F5F5F5F5F5F5F5F5F5F5F5F5F5F5F5F5F5F5F5F5F5F5F5F5F5F5F5F5F5F5F5F5F5F5F5F5F5F5F5F5F5F5F5F5F5F5F5F5F5F5F5F5F5F5F5F5F5F5F5F5F5F5F5F5F5F5F5F5F5F5F5F5F5F5
310
F5F5F5F5F5F5F5F5F5F5F5F5F5F5F5F5F5F5F5F5F5F5F5F5F5E2E2F5F5F5F5F5F5F5F5F5F5F5F5F5F5F5F5F5F5F5F5F5F5F5F5F5F5F5F5F5F5F5F5F5F5F5F5F5F5F5F5F5F5F5F5F5F5F5F5F5F5F5F5F5F5F5F5F5F5F5F5F5F5F5F5F5F5F5F5F5F5F5F5F5F5F5F5F5F5F5F5F5F5F5F5F5F5F5F5F5F5F5F5F5F5F5F5F5F5F5F5
310
F5F5F5F5F5F5F5F5F5F5F5F5F5F5F5F5F5F5F5F5F5F5F5F5F5F5F5F5F5F5F5F5F5F5F5F5F5F5F5F5F5F5F5F5F5F5F5F5F5F5F5F5F5F5F5F5F5F5F5F5F5F5F5F5F5F5F5F5F5F5F5F5F5F5F5F5F5F5E2E2F5F5F5F5F5F5F5F5F5F5F5F5F5F5F5F5F5F5F5F5F5F5F5F5F5F5F5F5F5F5F5F5F5F5F5F5F5F5F5F5F5F5F5F5F5F5F5
310
F5F5F5F5F5F5F5F5F5F5F5F5F5F5F5F5F5F5F5F5F5F5F5F5F5F5F5F5F5F5F5F5F5F5F5F5F5F5F5F5F5F5F5F5F5F5F5F5F5F5F5F5F5F5F5F5F5F5F5F5F5F5F5F5F5F5F5F5F5F5F5F5F5F5F5F5F5F5F5F5F5F5F5F5F5F5F5F5F5F5F5F5F5F5F5F5F5F5F5F5F5F5F5F5F5F5F5F5F5F5F5F5F5F5F5F5F5F5F5F5F5F5F5F5F5F5F5
310
F5F5F5F5E2E2F5F5F5F5F5F5F5F5F5F5F5F5F5F5F5F5F5F5F5F5F5F5F5F5F5F5F5F5F5F5F5F5F5F5F5F5F5F5F5F5F5F5F5F5F5F5F5F5F5F5F5F5F5F5F5F5F5F5F5F5F5F5F5F5F5F5F5F5F5F5F5F5F5F5F5F5F5F5F5F5F5F5F5F5F5F5F5F5F5F5F5F5F5F5F5F5F5F5F5F5F5F5F5F5F5F5F5F5F5F5F5F5F5F5F5F5F5F5F5F5F5
310
F5F5F5F5F5F5F5F5F5F5F5F5F5F5F5F5F5F5F5F5F5F5F5F5F5F5F5F5F5F5F5F5F5F5F5F5F5F5F5F5F5F5F5F5F5F5F5F5F5F5F5F5F5F5F5F5F5E2E2F5F5F5F5F5F5F5F5F5F5F5E2E2E2E2E2E2E2E2E2F5F5F5F5F5F5F5F5F5E2E2E2E2E2E2E2E2E2E2E2E2E2E2E2E2E2F5F5F5F5F5F5F5F5F5E2E2E2E2E2E2E2E2E2E2E2E2E2
310
E2E2E2F5F5F5F5F5F5F5F5F5F5E2E2E2E2E2E2E2E2E2E2E2E2E2E2E2E2F5F5F5F5F5F5F5F5F5F5E2E2E2E2E2E2E2E2E2E2E2E2E2E2E2E2F5F5F5F5F5F5F5F5F5E2E2E2E2E2E2E2E2E2E2E2E2E2E2E2E2E2F5F5F5F5F5F5F5F5F5E2E2E2E2E2E2E2E2E2F5F5F5F5F5F5F5F5F5F5F5E2E2F5F5F5F5F5F5F5F5F5F5F5E2F5F5F5
310
F5F5F5F5F5F5F5F5F5F5F5F5F5F5F5F5F5F5F5F5F5F5F5F5F5F5F5F5F5F5F5F5F5F5F5F5F5F5F5F5F5F5F5F5F5F5F5F5F5F5F5F5F5F5F5F5F5F5F5F5F5F5F5F5F5F5F5F5F5F5F5F5F5F5F5F5F5F5F5F5F5F5F5F5F5F5F5F5F5F5F5F5F5F5F5F5F5F5F5F5F5F5F5F5F5F5F5F5F5F5F5F5F5F5F5F5F5F5F5F5F5F5F5F5F5F5F5
310
F5F5F5F5F5F5F5F5F5F5F5F5F5F5F5F5F5F5F5F5F5F5F5F5E2F5F5F5F5F5F5F5F5F5F5F5E2E2F5F5F5F5F5F5F5F5F5F5F5E2F5F5F5F5F5F5F5F5F5F5F5F5F5F5F5F5F5F5F5F5F5F5F5F5F5F5F5F5F5F5F5F5F5F5F5F5F5F5F5F5F5F5F5F5F5F5F5F5F5F5F5F5F5F5F5F5F5F5F5F5F5F5F5F5F5F5F5F5F5F5F5F5F5F5F5F5F5
310
F5F5F5F5F5F5F5F5F5F5F5F5F5F5F5F5F5F5F5F5F5F5F5F5F5F5F5F5F5F5F5F5F5F5F5F5F5F5F5F5F5F5F5F5F5F5F5F5F5F5F5F5F5F5F5F5F5F5F5F5F5F5F5F5F5F5F5F5F5F5F5F5F5F5F5F5F5E2F5F5F5F5F5F5F5F5F5F5F5E2E2F5F5F5F5F5F5F5F5F5F5F5E2F5F5F5F5F5F5F5F5F5F5F5F5F5F5F5F5F5F5F5F5F5F5F5F5
310
F5F5F5F5F5F5F5F5F5F5F5F5F5F5F5F5F5F5F5F5F5F5F5F5F5F5F5F5F5F5F5F5F5F5F5F5F5F5F5F5F5F5F5F5F5F5F5F5F5F5F5F5F5F5F5F5F5F5F5F5F5F5F5F5F5F5F5F5F5F5F5F5F5F5F5F5F5F5F5F5F5F5F5F5F5F5F5F5F5F5F5F5F5F5F5F5F5F5F5F5F5F5F5F5F5F5F5F5F5F5F5F5F5F5F5F5F5F5F5F5F5F5F5F5F5F5F5
310
F5F5F5E2F5F5F5F5F5F5F5F5F5F5F5E2E2F5F5F5F5F5F5F5F5F5F5F5E2F5F5F5F5F5F5F5F5F5F5F5F5F5F5F5F5F5F5F5F5F5F5F5F5F5F5F5F5F5F5F5F5F5F5F5F5F5F5F5F5F5F5F5F5F5F5F5F5F5F5F5F5F5F5F5F5F5F5F5F5F5F5F5F5F5F5F5F5F5F5F5F5F5F5F5F5F5F5F5F5F5F5F5F5F5F5F5F5F5F5F5F5F5F5F5F5F5F5
310
F5F5F5F5F5F5F5F5F5F5F5F5F5F5F5F5F5F5F5F5F5F5F5F5F5F5F5F5F5F5F5F5F5F5F5F5F5F5F5F5F5F5F5F5F5F5F5F5F5F5F5F5F5F5F5F5E2F5F5F5F5F5F5F5F5F5F5F5E2E2F5F5F5F5F5F5F5F5F5F5F5E2F5F5F5F5F5F5F5F5F5F5F5F5F5F5F5F5F5F5F5F5F5F5F5F5F5F5F5F5F5F5F5F5F5F5F5F5F5F5F5F5F5F5F5F5F5
310
F5F5F5F5F5F5F5F5F5F5F5F5F5F5F5F5F5F5F5F5F5F5F5F5F5F5F5F5F5F5F5F5F5F5F5F5F5F5F5F5F5F5F5F5F5F5F5F5F5F5F5F5F5F5F5F5F5F5F5F5F5F5F5F5F5F5F5F5F5F5F5F5F5F5F5F5F5F5F5F5F5F5F5F5F5F5F5F5F5F5F5F5F5F5F5F5F5F5F5F5F5F5F5F5F5F5F5F5F5E2F5F5F5F5F5F5F5F5F5F5F5E2E2F5F5F5F5
310
F5F5F5F5F5F5F5E2F5F5F5F5F5F5F5F5F5F5F5F5F5F5F5F5F5F5F5F5F5F5F5F5F5F5F5F5F5F5F5F5F5F5F5F5F5F5F5F5F5F5F5F5F5F5F5F5F5F5F5F5F5F5F5F5F5F5F5F5F5F5F5F5F5F5F5F5F5F5F5F5F5F5F5F5F5F5F5F5F5F5F5F5F5F5F5F5F5F5F5F5F5F5F5F5F5F5F5F5F5F5F5F5F5F5F5F5F5F5F5F5F5F5F5F5F5F5F5
310
F5F5F5F5F5F5F5F5F5F5F5F5F5F5F5F5F5F5F5F5F5F5F5F5F5F5F5F5F5F5F5F5F5F5F5E2F5F5F5F5F5F5F5F5F5F5F5E2E2F5F5F5F5F5F5F5F5F5F5F5E2F5F5F5F5F5F5F5F5F5F5F5F5F5F5F5F5F5F5F5F5F5F5F5F5F5F5F5F5F5F5F5F5F5F5F5F5F5F5F5F5F5F5F5F5F5F5F5F5F5F5F5F5F5F5F5F5F5F5F5F5F5F5F5F5F5F5
310
F5F5F5F5F5F5F5F5F5F5F5F5F5F5F5F5F5F5F5F5F5F5F5F5F5F5F5F5F5F5F5F5F5F5F5F5F5F5F5F5F5F5F5F5F5F5F5F5F5F5F5F5F5F5F5F5F5F5F5F5F5F5F5F5F5F5F5F5F5F5F5F5F5F5F5F5F5F5F5F5F5F5F5F5F5F5F5F5E2F5F5F5F5F5F5F5F5F5F5F5E2E2F5F5F5F5F5F5F5F5F5F5F5F5F5F5F5F5F5F5F5F5F5F5F5F5F5
310
F5F5F5F5F5F5F5F5F5F5F5F5F5F5F5F5F5F5F5F5F5F5F5F5F5F5F5F5F5F5F5F5F5F5F5F5F5F5F5F5F5F5F5F5F5F5F5F5F5F5F5F5F5F5F5F5F5F5F5F5F5F5F5F5F5F5F5F5F5F5F5F5F5F5F5F5F5F5F5F5F5F5F5F5F5F5F5F5F5F5F5F5F5F5F5F5F5F5F5F5F5F5F5F5F5F5F5F5F5F5F5F5F5F5F5F5F5F5F5F5F5F5F5F5F5F5F5
310
F5F5F5F5F5F5F5F5F5F5F5F5F5F5F5F5F5F5F5F5F5F5F5F5F5F5E2E2F5F5F5F5F5F5F5F5F5F5F5F5F5F5F5F5F5F5F5F5F5F5F5F5F5F5F5F5F5F5F5F5F5F5F5F5F5F5F5F5F5F5F5F5F5F5F5F5F5F5F5F5F5F5F5F5F5F5F5F5F5F5F5F5F5F5F5F5F5F5F5F5F5F5F5F5F5F5F5F5F5F5F5F5F5F5F5F5F5F5F5F5F5F5F5F5F5F5F5
310
F5F5F5F5F5F5F5F5F5F5F5F5F5F5F5F5F5F5F5F5F5F5F5F5F5F5F5F5F5F5F5F5F5F5F5F5F5F5F5F5F5F5F5F5F5F5F5F5F5F5F5F5F5F5F5F5F5F5F5F5F5F5F5F5F5F5F5F5F5F5F5F5F5F5F5F5F5F5F5E2E2F5F5F5F5F5F5F5F5F5F5F5F5F5F5F5F5F5F5F5F5F5F5F5F5F5F5F5F5F5F5F5F5F5F5F5F5F5F5F5F5F5F5F5F5F5F5
310
F5F5F5F5F5F5F5F5F5F5F5F5F5F5F5F5F5F5F5F5F5F5F5F5F5F5F5F5F5F5F5F5F5F5F5F5F5F5F5F5F5F5F5F5F5F5F5F5F5F5F5F5F5F5F5F5F5F5F5F5F5F5F5F5F5F5F5F5F5F5F5F5F5F5F5F5F5F5F5F5F5F5F5F5F5F5F5F5F5F5F5F5F5F5F5F5F5F5F5F5F5F5F5F5F5F5F5F5F5F5F5F5F5F5F5F5F5F5F5F5F5F5F5F5F5F5F5
310
F5F5F5F5F5E2E2F5F5F5F5F5F5F5F5F5F5F5F5F5F5F5F5F5F5F5F5F5F5F5F5F5F5F5E2E2E2E2E2E2E2E2E2E2E2E2E2E2E2E2E2E2E2E2E2E2E2E2E2E2E2E2E2E2E2E2E2E2E2E2E2E2E2E2E2E2E2E2E2E2E2E2E2E2E2E2E2E2E2E2E2E2E2E2E2E2E2E2E2E2E2E2E2E2E2E2E2E2E2E2E2E2E2E2E2E2E2E2E2E2E2E2E2E2E2E2E2
310
E2E2E2E2E2E2E2E2E2E2E2E2E2E2E2E2E2E2E2E2E2E2E2E2E2E2E2E2E2E2E2F5F5F5F5F5F5F5F5F5F5F5F5F5F5F5F5F5F5F5F5F5F5F5F5F5F5F5E2E2F5F5F5F5F5F5F5F5F5F5F5F5F5F5F5F5F5F5F5F5F5F5F5F5F5F5F5E2F5F5F5F5F5F5F5F5F5F5F5F5F5F5F5F5F5F5F5F5F5F5F5F5F5BEBEBEBEBEBEBEBEBEBEBEBEBEBE
310
F5F5F5F5F5F5F5F5F5F5F5F5BEBEBEBEBEBEBEBEBEBEBEBEBEBEF5F5F5F5F5F5F5F5F5F5F5F5F5BEBEBEBEBEBEBEBEBEBEBEBEBEBEF5F5F5F5F5F5F5F5F5F5F5F5F5F5F5F5F5F5F5F5F5F5F5F5F5F5F5F5F5F5E2F5F5F5F5F5F5F5F5F5F5F5F5F5F5F5F5F5F5F5F5F5F5F5F5F5F5F5E2E2F5F5F5F5F5F5F5F5F5F5F5F5F5F5
310
F5F5F5F5F5F5F5F5F5F5F5F5F5E2F5F5F5F5F5F5F5F5F5F5F5F5F5F5F5F5F5F5F5F5F5F5F5F5F5BEBEBEBEBEBEBEBEBEBEBEBEBEBEF5F5F5F5F5F5F5F5F5F5F5F5BEBEBEBEBEBEBEBEBEBEBEBEBEBEF5F5F5F5F5F5F5F5F5F5F5F5F5BEBEBEBEBEBEBEBEBEBEBEBEBEBEF5F5F5F5F5F5F5F5F5F5F5F5F5F5F5F5F5F5F5F5F5
310
F5F5F5F5F5F5F5F5F5E2F5F5F5F5F5F5F5F5F5F5F5F5F5F5F5F5F5F5F5F5F5F5F5F5F5F5F5E2E2F5F5F5F5F5F5F5F5F5F5F5F5F5F5F5F5F5F5F5F5F5F5F5F5F5F5F5E2F5F5F5F5F5F5F5F5F5F5F5F5F5F5F5F5F5F5F5F5F5F5F5F5F5F5BEBEBEBEBEBEBEBEBEBEBEBEBEBEBEBEBEF5F5F5F5F5F5F5F5BEBEBEBEBEBEBEBEBE
310
BEBEBEBEBEBEBEBEBEF5F5F5F5F5F5F5F5F5F5BEBEBEBEBEBEBEBEBEBEBEBEBEBEBEBEBEF5F5F5F5F5F5F5F5F5F5F5F5F5F5F5F5F5F5F5F5F5F5F5F5F5F5E2F5F5F5F5F5F5F5F5F5F5F5F5F5F5F5F5F5F5F5F5F5F5F5F5F5F5F5E2E2F5F5F5F5F5F5F5F5F5F5F5F5F5F5F5F5F5F5F5F5F5F5F5F5F5F5F5E2F5F5F5F5F5F5F5
310
F5F5F5F5F5F5F5F5F5F5F5F5F5F5F5F5F5F5F5BEBEBEBEBEBEBEBEBEBEBEBEBEBEBEBEBEF5F5F5F5F5F5F5F5BEBEBEBEBEBEBEBEBEBEBEBEBEBEBEBEBEBEF5F5F5F5F5F5F5F5F5F5BEBEBEBEBEBEBEBEBEBEBEBEBEBEBEBEBEF5F5F5F5F5F5F5F5F5F5F5F5F5F5F5F5F5F5F5F5F5F5F5F5F5F5E2F5F5F5F5F5F5F5F5F5F5F5
310
F5F5F5F5F5F5F5F5F5F5F5F5F5F5F5F5E2E2F5F5F5F5F5F5F5F5F5F5F5E2F5F5F5F5F5F5F5F5F5F5F5F5F5F5F5E2F5F5F5F5F5F5F5F5F5F5F5F5F5F5F5F5F5F5F5F5F5F5F5F5F5F5BEBEBEBEBEBEBEBEBEBEBEBEBEBEBEBEBEF5F5F5F5F5F5F5F5BEBEBEBEBEBEBEBEBEBEBEBEBEBEBEBEBEBEF5F5F5F5F5F5F5F5F5F5BEBE
310
BEBEBEBEBEBEBEBEBEBEBEBEBEBEBEF5F5F5F5F5F5F5F5F5F5F5F5F5F5F5F5F5F5F5F5F5F5F5F5F5F5E2F5F5F5F5F5F5F5F5F5F5F5F5F5F5F5E2F5F5F5F5F5F5F5F5F5F5F5E2E2F5F5F5F5F5F5F5F5F5F5F5E2F5F5F5F5F5F5F5F5F5F5F5F5F5F5F5E2F5F5F5F5F5F5F5F5F5F5F5F5F5F5F5F5F5F5F5F5F5F5F5F5F5F5F5F5
310
F5F5F5F5F5F5F5F5F5F5F5F5F5F5F5F5F5F5F5F5F5F5F5F5F5F5F5F5F5F5F5F5F5F5F5F5F5F5F5F5F5F5F5F5F5F5F5F5F5F5F5F5F5F5F5F5F5F5F5F5F5F5F5F5F5F5F5F5F5F5F5F5F5F5F5F5F5F5F5F5F5F5F5F5F5F5F5F5F5F5F5F5F5F5E2F5F5F5F5F5F5F5F5F5F5F5F5F5F5F5E2F5F5F5F5F5F5F5F5F5F5F5E2E2F5F5F5
310
F5F5F5F5F5F5F5F5E2F5F5F5F5F5F5F5F5F5F5F5F5F5F5F5E2F5F5F5F5F5F5F5F5F5F5F5F5F5F5F5F5F5F5F5F5F5F5F5F5F5F5BEBEBEBEBEBEBEBEBEBEBEBEBEBEBEBEBEBEBEBEBEF5F5F5F5BEBEBEBEBEBEBEBEBEBEBEBEBEBEBEBEBEBEBEBEBEBEF5F5F5F5F5F5BEBEBEBEBEBEBEBEBEBEBEBEBEBEBEBEBEBEBEBEBEF5F5
310
F5F5F5F5F5F5F5F5F5F5F5F5F5F5F5F5F5F5F5F5E2F5F5F5F5F5F5F5F5F5F5F5F5F5F5F5E2F5F5F5F5F5F5F5F5F5F5F5E2E2F5F5F5F5F5F5F5F5F5F5F5E2F5F5F5F5F5F5F5F5F5F5F5F5F5F5F5E2F5F5F5F5F5F5F5F5F5F5F5F5F5F5F5F5F5F5F5F5F5F5F5F5F5F5F5F5F5F5F5F5F5F5F5F5F5F5F5F5F5F5F5F5F5F5F5F5F5
310
F5F5F5F5F5F5F5F5F5F5F5F5F5F5F5F5F5F5F5F5F5F5F5F5F5F5F5F5F5F5F5F5F5F5F5F5F5F5F5F5F5F5F5F5F5F5F5F5F5F5F5F5F5F5F5F5F5F5F5F5F5F5F5F5F5F5F5F5F5F5F5F5F5E2F5F5F5F5F5F5F5F5F5F5F5F5F5F5F5E2F5F5F5F5F5F5F5F5F5F5F5E2E2F5F5F5F5F5F5F5F5F5F5F5E2F5F5F5F5F5F5F5F5F5F5F5F5
310
F5F5F5E2F5F5F5F5F5F5F5F5F5F5F5F5F5F5F5F5F5F5F5F5F5F5F5F5F5F5BEBEBEBEBEBEBEF5F5F5F5F5F5F5F5F5F5F5F5F5F5F5F5F5F5BEBEBEBEBEBEBEBEF5F5F5F5F5F5F5F5F5F5F5F5F5F5F5F5F5F5F5F5BEBEBEBEBEBEBEF5F5F5F5F5F5F5F5F5F5F5F5F5F5F5F5F5F5F5F5F5F5F5F5F5F5F5F5F5F5F5F5F5F5F5F5E2
310
F5F5F5F5F5F5F5F5F5F5F5F5F5F5F5E2F5F5F5F5F5F5F5F5F5F5F5E2E2F5F5F5F5F5F5F5F5F5F5F5E2F5F5F5F5F5F5F5F5F5F5F5F5F5F5F5E2F5F5F5F5F5F5F5F5F5F5F5F5F5F5F5F5F5F5F5F5F5F5F5F5F5F5F5F5F5F5F5F5F5F5F5F5F5F5F5F5F5F5F5F5F5F5F5F5F5F5F5F5F5F5F5F5F5F5F5F5F5F5F5F5F5F5F5F5F5F5
310
F5F5F5F5F5F5F5F5F5F5F5F5F5F5F5F5F5F5F5F5F5F5F5F5F5F5F5F5F5F5F5F5F5F5F5F5F5F5F5F5F5F5F5F5F5F5F5F5F5F5F5F5E2F5F5F5F5F5F5F5F5F5F5F5F5F5F5F5E2F5F5F5F5F5F5F5F5F5F5F5E2E2F5F5F5F5F5F5F5F5F5F5F5E2F5F5F5F5F5F5F5F5F5F5F5F5F5F5F5E2F5F5F5F5F5F5F5F5F5F5F5F5F5F5F5F5F5
310
F5F5F5F5F5F5F5F5F5F5F5F5F5F5F5F5F5F5F5F5F5F5F5F5F5F5F5F5F5F5F5F5F5F5F5F5F5F5F5F5F5F5F5F5F5F5F5F5F5F5F5F5F5F5F5F5F5F5F5F5F5F5F5F5F5F5F5F5F5F5F5F5F5F5F5F5F5F5F5F5F5F5F5F5F5F5F5F5F5F5F5F5F5F5F5F5F5F5F5F5F5F5F5F5F5E2F5F5F5F5F5F5F5F5F5F5F5F5F5F5F5E2F5F5F5F5F5
310
F5F5F5F5F5F5E2E2F5F5F5F5F5F5F5F5F5F5F5E2F5F5F5F5F5F5F5F5F5F5F5F5F5F5F5E2F5F5F5F5F5F5F5F5F5F5F5F5F5F5F5F5F5F5F5F5F5F5F5F5F5F5F5F5F5F5F5F5F5F5F5F5F5F5F5F5F5F5F5F5F5F5F5F5F5F5F5F5F5F5F5F5F5F5F5F5F5F5F5F5F5F5F5F5F5F5F5F5F5F5F5F5F5F5F5F5F5F5F5F5F5F5F5F5F5F5F5
310
F5F5F5F5F5F5F5F5F5F5F5F5F5F5F5F5F5F5F5F5F5F5F5F5F5F5F5F5F5F5F5E2F5F5F5F5F5F5F5F5F5F5F5F5F5F5F5E2F5F5F5F5F5F5F5F5F5F5F5E2E2F5F5F5F5F5F5F5F5F5F5F5E2F5F5F5F5F5F5F5F5F5F5F5F5F5F5F5E2F5F5F5F5F5F5F5F5F5F5F5F5F5F5F5F5F5F5F5F5F5F5F5F5F5F5F5F5F5F5F5F5F5F5F5F5F5F5
310
F5F5F5F5F5F5F5F5F5F5F5F5F5F5F5F5F5F5F5F5F5F5F5F5F5F5F5F5F5F5F5F5F5F5F5F5F5F5F5F5F5F5F5F5F5F5F5F5F5F5F5F5F5F5F5F5F5F5F5F5F5F5F5F5F5F5F5F5F5F5F5F5F5F5F5F5F5F5F5F5F5F5F5F5E2F5F5F5F5F5F5F5F5F5F5F5F5F5F5F5E2F5F5F5F5F5F5F5F5F5F5F5E2E2F5F5F5F5F5F5F5F5F5F5F5E2F5
310
F5F5F5F5F5F5F5F5F5F5F5F5F5F5E2F5F5F5F5F5F5F5F5F5F5F5F5F5F5F5F5F5F5F5F5F5F5F5F5F5F5C3C3C3C3C3C3C3C3C3C3C3C3C3C3C3C3E2E2F5F5F5F5F5F5F5C3C3C3C3C3C3C3C3C3C3C3C3C3C3C3C3C3E2BEE2F5F5F5F5F5F5C3C3C3C3C3C3C3C3C3C3C3C3C3C3C3C3C3C3C3E2BEE2F5F5F5F5F5F5F5F5F5F5F5F5F5
310
F5F5F5F5F5F5F5F5F5F5E2F5F5F5F5F5F5F5F5F5F5F5F5F5F5F5E2F5F5F5F5F5F5F5F5F5F5F5E2E2F5F5F5F5F5F5F5F5F5F5F5E2F5F5F5F5F5F5F5F5F5F5F5F5F5F5F5E2F5F5F5F5F5F5F5F5F5F5F5F5F5F5F5F5F5F5F5F5F5F5F5F5F5F5C3C3C3C3C3C3C3C3C3C3C3C3C3C3C3C3DCBEF5F5F5F5F5F5F5C3C3C3C3C3C3C3C3
310
C3C3C3C3C3C3C3C3C3C3BEBEF5F5F5F5F5F5C3C3C3C3C3C3C3C3C3C3C3C3C3C3C3C3C3C3C3C3F5BEF5F5F5F5F5F5F5F5F5F5F5F5F5F5F5F5F5F5F5F5F5F5F5E2F5F5F5F5F5F5F5F5F5F5F5F5F5F5F5E2F5F5F5F5F5F5F5F5F5F5F5E2E2F5F5F5F5F5F5F5F5F5F5F5E2F5F5F5F5F5F5F5F5F5F5F5F5F5F5F5E2F5F5F5F5F5F5
310
F5F5F5F5F5F5F5F5F5F5F5F5F5F5F5F5F5F5F5F5C3E2F5F5F5F5F5F5F5F5F5F5F5F5F5C3DCBEF5F5F5F5F5F5F5C3E2F5F5F5F5F5F5F5F5F5F5F5F5F5F5E2C3BEBEF5F5F5F5F5F5C3E2F5F5F5F5F5F5F5F5F5F5F5F5F5F5F5F5E2C3F5BEF5F5F5F5F5F5F5F5F5F5F5F5F5F5F5F5F5F5F5F5F5F5F5E2F5F5F5F5F5F5F5F5F5F5
310
F5F5F5F5F5E2F5F5F5F5F5F5F5F5F5F5F5E2E2F5F5F5F5F5F5F5F5F5F5F5E2F5F5F5F5F5F5F5F5F5F5F5F5F5F5F5E2F5F5F5F5F5F5F5F5F5F5F5F5F5F5F5F5F5F5F5F5F5F5F5F5F5F5C3E2F5F5F5F5F5F5F5F5F5F5F5F5F5C3DCBEF5F5F5F5F5F5F5C3E2F5F5F5F5F5F5F5F5F5F5F5F5F5F5E2C3BEBEF5F5F5F5F5F5C3E2F5
310
F5F5F5F5F5F5F5F5F5F5F5F5F5F5F5E2C3F5BEF5F5F5F5F5F5F5F5F5F5F5F5F5F5F5F5F5F5F5F5F5F5F5E2F5F5F5F5F5F5F5F5F5F5F5F5F5F5F5E2F5F5F5F5F5F5F5F5F5F5F5E2E2F5F5F5F5F5F5F5F5F5F5F5E2F5F5F5F5F5F5F5F5F5F5F5F5F5F5F5E2F5F5F5F5F5F5F5F5F5F5F5F5F5F5F5F5F5F5F5F5F5F5F5F5F5F5C3
310
E2F5F5F5F5F5F5F5F5F5F5F5F5F5C3DCBEF5F5F5F5F5F5F5C3E2F5F5F5F5F5F5F5F5F5F5F5F5F5F5E2C3BEBEF5F5F5F5F5F5C3E2F5F5F5F5F5F5F5F5F5F5F5F5F5F5F5F5E2C3F5BEF5F5F5F5F5F5F5F5F5F5F5F5F5F5F5F5F5F5F5F5F5F5F5E2F5F5F5F5F5F5F5F5F5F5F5F5F5F5F5E2F5F5F5F5F5F5F5F5F5F5F5E2E2F5F5
310
F5F5F5F5F5F5F5F5F5E2F5F5F5F5F5F5F5F5F5F5F5F5F5F5F5E2F5F5F5F5F5F5F5F5F5F5F5F5F5F5F5F5F5F5F5F5F5F5F5F5F5F5C3C3C3C3C3C3C3C3C3C3C3C3C3C3C3C3C3BEF5F5F5F5F5F5F5C3C3C3C3C3C3C3C3C3C3C3C3C3C3C3C3C3C3BEBEF5F5F5F5F5F5C3C3C3C3C3C3C3C3C3C3C3C3C3C3C3C3C3C3C3C3F5BEF5F5
310
F5F5F5F5F5F5F5F5F5F5F5F5F5F5F5F5F5F5F5F5F5E2F5F5F5F5F5F5F5F5F5F5F5F5F5F5F5E2F5F5F5F5F5F5F5F5F5F5F5E2E2F5F5F5F5F5F5F5F5F5F5F5F5F5F5F5F5F5F5F5F5F5F5F5F5F5F5F5E2F5F5F5F5F5F5F5F5F5F5F5F5F5F5F5F5F5F5F5F5F5F5F5F5F5F5C3C3C3C3C3C3C3C3C3C3C3C3C3C3C3C3E2BEF5F5F5F5
310
F5F5F5C3C3C3C3C3C3C3C3C3C3C3C3C3C3C3C3C3E2BEBEF5F5F5F5F5F5C3C3C3C3C3C3C3C3C3C3C3C3C3C3C3C3C3C3C3E2BEBEF5F5F5F5F5F5F5F5F5F5F5F5F5F5F5F5F5F5F5F5F5F5F5E2F5F5F5F5F5F5F5F5F5F5F5F5F5F5F5F5F5F5F5F5F5F5F5F5F5F5F5E2E2F5F5F5F5F5F5F5F5F5F5F5F5F5F5F5F5F5F5F5F5F5F5F5
310
F5F5F5F5E2F5F5F5F5F5F5F5F5F5F5F5F5F5F5F5F5F5F5F5F5F5F5F5F5F5F528C3C3C3C3C3C3C3C3C3C3C3C3C3C3C3E2E2F5F5F5F5F5F5F5C3C3C3C3C3C3C3C3C3C3C3C3C3C3C3C3C3E2BEE2F5F5F5F5F5F5C3C3C3C3C3C3C3C3C3C3C3C3C3C3C3C3C3C3C3E2BEE2F5F5F5F5F5F5F5F5F5F5F5F5F5F5F5F5F5F5F5F5F5F5F5
310
E2F5F5F5F5F5F5F5F5F5F5F5F5F5F5F5F5F5F5F5F5F5F5F5F5F5F5F5E2E2F5F5F5F5F5F5F5F5F5F5F5F5F5F5F5F5F5F5F5F5F5F5F5F5F5F5F5E2F5F5F5F5F5F5F5F5F5F5F5F5F5F5F5F5F5F5F5F5F5F5F5F5F5F528E2E2F5F5F5F5F5F5F5F5F5F5E2E2C3DCBEF5F5F5F5F5F5F5C3E2E2E2F5F5F5F5F5F5F5F5F5F5E2E2E2C3
310
F5BEF5F5F5F5F5F5C3E2E2E2F5F5F5F5F5F5F5F5F5F5F5F5E2E2E2C3F5BEF5F5F5F5F5F5F5F5F5F5F5F5F5F5F5F5F5F5F5F5F5F5F5E2F5F5F5F5F5F5F5F5F5F5F5F5F5F5F5F5F5F5F5F5F5F5F5F5F5F5F5E2E2F5F5F5F5F5F5F5F5F5F5F5F5F5F5F5F5F5F5F5F5F5F5F5F5F5F5F5E2F5F5F5F5F5F5F5F5F5F5F5F5F5F5F5F5
310
F5F5F5F5F5F5F5F5F5F528E2E2E2E2E2E2E2E2E2E2E2E2E2E2C3DCBEF5F5F5F5F5F5F5C3E2E2E2E2E2E2E2E2E2E2E2E2E2E2E2E2C3F5BEF5F5F5F5F5F5C3E2E2E2E2E2E2E2E2E2E2E2E2E2E2E2E2E2E2C3F5BEF5F5F5F5F5F5F5F5F5F5F5F5F5F5F5F5F5F5F5F5F5F5F5E2F5F5F5F5F5F5F5F5F5F5F5F5F5F5F5F5F5F5F5F5
310
F5F5F5F5F5F5F5E2E2F5F5F5F5F5F5F5F5F5F5F5F5F5F5F5F5F5F5F5F5F5F5F5F5F5F5F5E2F5F5F5F5F5F5F5F5F5F5F5F5F5F5F5F5F5F5F5F5F5F5F5F5F5F528E2E2F5F5F5F5F5F5F5F5F5F5F5E2C3DCBEF5F5F5F5F5F5F5C3E2E2F5F5F5F5F5F5F5F5F5F5F5E2E2E2C3F5BEF5F5F5F5F5F5C3E2E2E2F5F5F5F5F5F5F5F5F5
310
F5F5F5E2E2E2C3F5BEF5F5F5F5F5F5F5F5F5F5F5F5F5F5F5F5F5F5F5F5F5F5F5E2F5F5F5F5F5F5F5F5F5F5F5F5F5F5F5F5F5F5F5F5F5F5F5F5F5F5F5E2E2F5F5F5F5F5F5F5F5F5F5F5F5F5F5F5F5F5F5F5F5F5F5F5F5F5F5F5E2F5F5F5F5F5F5F5F5F5F5F5F5F5F5F5F5F5F5F5F5F5F5F5F5F5F52828F5E2E2F5F5F5F5F5F5
310
F5F5E2F5C3DCBEF5F5F5F5F5F5F5C3C3F5E2F5F5F5F5F5F5F5F5F5E2F5F5C3C3BEBEF5F5F5F5F5F5C3C3F5F5E2F5F5F5F5F5F5F5F5F5E2E2F5F5C3C3F5BEF5F5F5F5F5F5F5F5F5F5F5F5F5F5F5F5F5F5F5F5F5F5F5E2F5F5F5F5F5F5F5F5F5F5F5F5F5F5F5F5F5F5F5F5F5F5F5F5F5F5F5E2E2F5F5F5F5F5F5F5F5F5F5F5F5
310
F5F5F5F5F5F5F5F5F5F5F5F5F5F5F5E2F5F5F5F5F5F5F5F5F5F5F5F5F5F5F5F5F5F5F5F5F5F5F5F5F5F52828F5F5F5E2F5F5F5F5F5E2E2F5F5C3DCBEF5F5F5F5F5F5F5C3C3F5F5E2E2F5F5F5F5F5F5E2F5F5F5C3C3BEBEF5F5F5F5F5F5C3C3F5F5F5E2E2F5F5F5F5F5F5E2F5F5F5F5C3C3F5BEF5F5F5F5F5F5F5F5F5F5F5F5
310
F5F5F5F5F5F5F5F5F5F5F5E2F5F5F5F5F5F5F5F5F5F5F5F5F5F5F5F5F5F5F5F5F5F5F5F5F5F5F5E2E2F5F5F5F5F5F5F5F5F5F5F5F5F5F5F5F5F5F5F5F5F5F5F5F5F5F5F5E2F5F5F5F5F5F5F5F5F5F5F5F5F5F5F5F5F5F5F5F5F5F5F5F5F5F52828F5F5F5F5E2F5F5F5E2F5F5F5F5C3DCBEF5F5F5F5F5F5F5C3C3F5F5F5F5E2
310
F5F5F5E2E2F5F5F5F5C3C3BEBEF5F5F5F5F5F5C3C3F5F5F5F5F5E2E2F5F5E2E2F5F5F5F5F5C3C3F5BEF5F5F5F5F5F5F5F5F5F5F5F5F5F5F5F5F5F5F5F5F5F5F5E2F5F5F5F5F5F5F5F5F5F5F5F5F5F5F5F5F5F5F5F5F5F5F5F5F5F5F5E2E2F5F5F5F5F5F5F5F5F5F5F5E2F5F5F5F5F5F5F5F5F5F5F5F5F5F5F5E2F5F5F5F5F5
310
F5F5F5F5F5F5F5F5F5F5F5F5F5F5F5F5F5F5F5F5F52828F5F5F5F5F5E2E2E2F5F5F5F5F5C3DCBEF5F5F5F5F5F5F5C3C3F5F5F5F5F5E2E2E2F5F5F5F5F5F5C3C3BEBEF5F5F5F5F5F5C3C3F5F5F5F5F5F5F5E2E2F5F5F5F5F5F5F5C3C3F5BEF5F5F5F5F5F5F5F5F5F5F5F5F5F5F5F5F5F5F5F5F5F5F5E2F5F5F5F5F5F5F5F5F5
310
F5F5F5F5F5F5E2F5F5F5F5F5F5F5F5F5F5F5E2E2F5F5F5F5F5F5F5F5F5F5F5E2F5F5F5F5F5F5F5F5F5F5F5F5F5F5F5E2F5F5F5F5F5F5F5F5F5F5F5F5F5F5F5F5F5F5F5F5F5F5F5F5F5F52828F5F5F5F5F5E2E2E2F5F5F5F5F5C3DCBEF5F5F5F5F5F5F5C3C3F5F5F5F5E2E2E2E2E2F5F5F5F5F5C3C3F5BEF5F5F5F5F5F5C3C3
310
F5F5F5F5F5E2E2E2E2E2E2F5F5F5F5F5C3C3F5BEF5F5F5F5F5F5F5F5F5F5F5F5F5F5F5F5F5F5F5F5F5F5F5E2F5F5F5F5F5F5F5F5F5F5F5F5F5F5F5E2F5F5F5F5F5F5F5F5F5F5F5E2E2F5F5F5F5F5F5F5F5F5F5F5E2F5F5F5F5F5F5F5F5F5F5F5F5F5F5F5E2F5F5F5F5F5F5F5F5F5F5F5F5F5F5F5F5F5F5F5F5F5F5F5F5F5F5
310
2828F5F5F5E2E2E2E2E2E2E2F5F5F5C3DCBEF5F5F5F5F5F5F5C3C3F5E2E2E2F5E2E2E2F5E2E2E2E2F5C3C3F5BEF5F5F5F5F5F5C3C3F5E2E2E2E2F5E2E2E2E2F5E2E2E2E2F5C3C3F5BEF5F5F5F5F5F5F5F5F5F5F5F5F5F5F5F5F5F5F5F5F5F5F5E2F5F5F5F5F5F5F5F5F5F5F5F5F5F5F5E2F5F5F5F5F5F5F5F5F5F5F5E2E2F5
310
F5F5F5F5F5F5F5F5F5F5E2F5F5F5F5F5F5F5F5F5F5F5F5F5F5F5E2F5F5F5F5F5F5F5F5F5F5F5F5F5F5F5F5F5F5F5F5F5F5F5F5F5F52828C3C3C3C3C3C3C3C3C3C3C3C3C3C3DCBEF5F5F5F5F5F5F5C3C3C3C3C3C3C3C3C3C3C3C3C3C3C3C3C3C3F5BEF5F5F5F5F5F5C3C3C3C3C3C3C3C3C3C3C3C3C3C3C3C3C3C3C3C3F5BEF5
310
F5F5F5F5F5F5F5F5F5F5F5F5F5F5F5F5F5F5F5F5F5F5E2F5F5F5F5F5F5F5F5F5F5F5F5F5F5F5E2F5F5F5F5F5F5F5F5F5F5F5E2E2F5F5F5F5F5F5F5F5F5F5F5E2F5F5F5F5F5F5F5F5F5F5F5F5F5F5F5E2F5F5F5F5F5F5F5F5F5F5F5F5F5F5F5F5F5F5F5F5F5F5F5F5F5F5E2C3C3C3C3C3C3C3C3C3C3C3C3C3C3C3E2BEF5F5F5
310
F5F5F5F5E2C3C3C3C3C3C3C3C3C3C3C3C3C3C3C3C3E2BEBEF5F5F5F5F5F5E2C3C3C3C3C3C3C3C3C3C3C3C3C3C3C3C3C3C3E2BEBEF5F5F5F5F5F5F5F5F5F5F5F5F5F5F5F5F5F5F5F5F5F5F5E2F5F5F5F5F5F5F5F5F5F5F5F5F5F5F5E2F5F5F5F5F5F5F5F5F5F5F5E2E2F5F5F5F5F5F5F5F5F5F5F5E2F5F5F5F5F5F5F5F5F5F5
310
F5F5F5F5F5E2F5F5F5F5F5F5F5F5F5F5F5F5F5F5F5F5F5F5F5F5F5F5F5F5F5F5BEF5F5F5F5F5F5F5F5F5F5F5F5F5F5F5BEF5F5F5F5F5F5F5F5BEF5F5F5F5F5F5F5F5F5F5F5F5F5F5F5F5BEF5F5F5F5F5F5F5F5BEF5F5F5F5F5F5F5F5F5F5F5F5F5F5F5F5F5F5BEF5F5F5F5F5F5F5F5F5F5F5F5F5F5F5F5F5F5F5F5F5F5F5F5
310
F5E2F5F5F5F5F5F5F5F5F5F5F5F5F5F5F5E2F5F5F5F5F5F5F5F5F5F5F5E2E2F5F5F5F5F5F5F5F5F5F5F5E2F5F5F5F5F5F5F5F5F5F5F5F5F5F5F5E2F5F5F5F5F5F5F5F5F5F5F5F5F5F5F5F5F5F5F5F5F5F5F5F5F5F5BEBEBEBEBEBEBEBEBEBEBEBEBEBEBEBEE2F5F5F5F5F5F5F5F5BEBEBEBEBEBEBEBEBEBEBEBEBEBEBEBEBE
310
E2F5F5F5F5F5F5F5F5BEBEBEBEBEBEBEBEBEBEBEBEBEBEBEBEBEBEBEE2F5F5F5F5F5F5F5F5F5F5F5F5F5F5F5F5F5F5F5F5F5F5F5F5F5E2F5F5F5F5F5F5F5F5F5F5F5F5F5F5F5E2F5F5F5F5F5F5F5F5F5F5F5E2E2F5F5F5F5F5F5F5F5F5F5F5E2F5F5F5F5F5F5F5F5F5F5F5F5F5F5F5E2F5F5F5F5F5F5F5F5F5F5F5F5F5F5F5
310
F5F5F5F5F5F5F5F5F5F5F5F5F5F5F5F5F5F5F5F5F5F5F5F5F5F5F5F5F5F5F5F5F5F5F5F5F5F5F5F5F5F5F5F5F5F5F5F5F5F5F5F5F5F5F5F5F5F5F5F5F5F5F5F5F5F5F5F5F5F5F5F5F5F5F5F5F5F5F5F5F5F5F5F5F5F5F5F5F5F5F5F5F5F5F5F5F5F5F5F5F5F5F5F5F5F5F5E2F5F5F5F5F5F5F5F5F5F5F5F5F5F5F5E2F5F5F5
310
F5F5F5F5F5F5F5F5E2E2F5F5F5F5F5F5F5F5F5F5F5E2F5F5F5F5F5F5F5F5F5F5F5F5F5F5F5E2F5F5F5F5F5F5F5F5F5F5F5F5F5F5F5F5F5F5F5F5F5F5F5F5F5F5F5F5F5F5F5F5F5F5F5F5F5F5F5F5F5F5F5F5F5F5F5F5F5F5F5F5F5F5F5F5F5F5F5F5F5F5F5F5F5F5F5F5F5F5F5F5F5F5F5F5F5F5F5F5F5F5F5F5F5F5F5F5F5
310
F5F5F5F5F5F5F5F5F5F5F5F5F5F5F5F5F5F5F5F5F5F5F5F5F5F5F5F5F5F5F5F5F5E2F5F5F5F5F5F5F5F5F5F5F5F5F5F5F5E2F5F5F5F5F5F5F5F5F5F5F5E2E2F5F5F5F5F5F5F5F5F5F5F5E2F5F5F5F5F5F5F5F5F5F5F5F5F5F5F5E2F5F5F5F5F5F5F5F5F5F5F5F5F5F5F5F5F5F5F5F5F5F5F5F5F5F5F5F5F5F5F5F5F5F5F5F5
310
F5F5F5F5F5F5F5F5F5F5F5F5F5F5F5F5F5F5F5F5F5F5F5F5F5F5F5F5F5F5F5F5F5F5F5F5F5F5F5F5F5F5F5F5F5F5F5F5F5F5F5F5F5F5F5F5F5F5F5F5F5F5F5F5F5F5F5F5F5F5F5F5F5F5F5F5F5F5F5F5F5F5F5F5F5F5E2F5F5F5F5F5F5F5F5F5F5F5F5F5F5F5E2F5F5F5F5F5F5F5F5F5F5F5E2E2F5F5F5F5F5F5F5F5F5F5F5
310
E2F5F5F5F5F5F5F5F5F5F5F5F5F5F5F5E2F5F5F5F5F5F5F5F5F5F5F5F5F5F5F5F5F5F5F5F5F5F5F5F5F5F5F5F5F5F5F5F5F5F5F5F5F5F5F5F5F5F5F5F5F5F5F5F5F5F5F5F5F5F5F5F5F5F5F5F5F5F5F5F5F5F5F5F5F5F5F5F5F5F5F5F5F5F5F5F5F5F5F5F5F5F5F5F5F5F5F5F5F5F5F5F5F5F5F5F5F5F5F5F5F5F5F5F5F5F5
310
F5F5F5F5F5F5F5F5F5F5F5F5E2F5F5F5F5F5F5F5F5F5F5F5F5F5F5F5E2F5F5F5F5F5F5F5F5F5F5F5E2E2F5F5F5F5F5F5F5F5F5F5F5E2F5F5F5F5F5F5F5F5F5F5F5F5F5F5F5E2F5F5F5F5F5F5F5F5F5F5F5F5F5F5F5F5F5F5F5F5F5F5F5F5F5F5F5F5F5F5F5F5F5F5F5F5F5F5F5BEBEF5F5F5F5F5F5F5F5F5F5F5F5F5F5F5F5
310
F5F5F5F5F5F5F5F5F5F5F5F5F5F5F5F5F5F5F5F5F5F5F5F5F5F5F5F5F5F5F5F5F5F5F5F5F5F5F5F5F5F5F5F5F5F5F5F5F5F5F5F5F5F5F5F5F5F5F5F5F5F5F5F5F5E2F5F5F5F5F5F5F5F5F5F5F5F5F5F5F5E2F5F5F5F5F5F5F5F5F5F5F5E2E2F5F5F5F5F5F5F5F5F5F5F5E2F5F5F5F5F5F5F5F5F5F5F5F5F5F5F5E2F5F5F5F5
310
F5F5F5F5F5F5F5F5F5F5F5F5F5F5F5F5F5F5F5F5F5F5F5F5BEF5F5F5F5F5F5F5F5F5F5BEBEF5F5F5F5F5F5F5F5F5F5F5F5F5F5F5F5F5F5F5F5F5F5F5F5F5F5F5F5F5F5F5F5F5F5F5F5F5F5F5F5F5F5F5F5F5F5F5F5F5F5F5F5F5F5F5F5F5F5F5F5F5F5F5F5F5F5F5F5F5F5F5F5F5F5F5F5F5F5F5F5F5E2F5F5F5F5F5F5F5F5
310
F5F5F5F5F5F5F5E2F5F5F5F5F5F5F5F5F5F5F5E2E2F5F5F5F5F5F5F5F5F5F5F5E2F5F5F5F5F5F5F5F5F5F5F5F5F5F5F5E2F5F5F5F5F5F5F5F5F5F5F5F5F5F5F5F5F5F5F5F5F5F5F5F5F5F5F5F5E2E2E2E2E2E2E2E2E2E2E2E2E2F5F5F5F5F5F5F5F5F5F5F5F5F5F5F5F5F5F5F5F5F5F5F5F5F5F5F5F5F5F5F5F5F5F5F5F5F5
310
F5F5F5F5F5F5F5F5F5F5F5F5F5F5F5F5F5F5F5F5F5F5F5F5F5F5F5F5F5F5F5F5F5F5F5F5F5F5F5F5F5F5F5F5E2F5F5F5F5F5F5F5F5F5F5F5F5F5F5F5E2F5F5F5F5F5F5F5F5F5F5F5E2E2F5F5F5F5F5F5F5F5F5F5F5E2F5F5F5F5F5F5F5F5F5F5F5F5F5F5F5E2F5F5F5F5F5F5F5F5F5F5F5F5F5F5F5F5F5F5F5F5F5F5F5F5F5
310
F5F5F5BEE2E2E2E2E2E2E2E2E2E2E2BEF5F5F5F5F5F5F5F5F5F5F5F5F5F5F5F5F5F5F5F5F5F5F5F5F5F5F5F5F5F5F5F5F5F5F5F5F5F5F5F5F5F5F5F5F5F5F5F5F5F5F5F5F5F5F5F5F5F5F5F5F5F5F5F5F5F5F5F5F5F5F5F5F5F5F5F5F5F5F5F5F5E2F5F5F5F5F5F5F5F5F5F5F5F5F5F5F5E2F5F5F5F5F5F5F5F5F5F5F5E2E2
310
F5F5F5F5F5F5F5F5F5F5F5F5F5F5F5F5F5F5F5F5F5F5F5F5F5F5F5E2F5F5F5F5F5F5F5F5F5F5F5F5F5F5F5F5F5F5F5F5F5F5F5F5F5F5F5F5E2F5F5F5E2F5F5F5F5F5F5E2BEF5F5F5F5F5F5F5F5F5F5F5F5F5F5F5F5F5F5F5F5F5F5F5F5F5F5F5F5F5F5F5F5F5F5F5F5F5F5F5F5F5F5F5F5F5F5F5F5F5F5F5F5F5F5F5F5F5F5
310
F5F5F5F5F5F5F5F5F5F5F5F5F5F5F5F5F5F5F5F5F5F5F5E2F5F5F5F5F5F5F5F5F5F5F5F5F5F5F5F5F5F5F5F5F5F5F5F5F5F5F5E2E2F5F5F5F5F5F5F5F5F5F5F5F5F5F5F5F5F5F5F5F5F5F5F5F5F5F5F5E2F5F5F5F5F5F5F5F5F5F5F5F5F5F5F5F5F5F5F5F5F5F5F5F5F5F5F5F5E2F5F5F5E2F5F5F5F5F5F5BEBEF5F5F5F5F5
310
F5F5F5F5F5F5F5F5F5F5F5F5F5F5F5F5F5F5F5F5F5F5F5F5F5F5F5F5F5F5F5F5F5F5F5F5F5F5F5F5F5F5F5F5F5F5F5F5F5F5F5F5F5F5F5F5F5F5F5F5F5F5F5F5F5F5F5F5F5F5F5F5F5F5F5F5E2F5F5F5F5F5F5F5F5F5F5F5F5F5F5F5F5F5F5F5F5F5F5F5F5F5F5F5E2E2F5F5F5F5F5F5F5F5F5F5F5F5F5F5F5F5F5F5F5F5F5
310
F5F5F5F5F5F5E2F5F5F5F5F5F5F5F5F5F5F5F5F5F5F5F5F5F5F5F5F5F5F5F5F5F5F5F5E2F5F5F5E2F5F5F5F5BEF5BEBEF5F5F5F5F5F5F5F5F5F5F5F5F5F5F5F5F5F5F5F5F5F5F5F5F5F5F5F5F5F5F5F5F5F5F5F5F5F5F5F5F5F5F5F5F5F5F5F5F5F5F5F5F5F5F5F5F5F5F5F5F5F5F5F5F5F5F5F5F5F5F5F5F5F5F5F5F5F5F5
310
F5F5E2F5F5F5F5F5F5F5F5F5F5F5F5F5F5F5F5F5F5F5F5F5F5F5F5F5F5F5E2E2F5F5F5F5F5F5F5F5F5F5F5F5F5F5F5F5F5F5F5F5F5F5F5F5F5F5F5E2F5F5F5F5F5F5F5F5F5F5F5F5F5F5F5F5F5F5F5F5F5F5F5F5F5F5F5F5E2F5F5F5E2F5F5E2E2E2F5E2BEF5F5F5F5F5F5F5F5F5F5F5F5F5F5F5F5F5F5F5F5F5F5F5F5F5F5
310
F5F5F5F5F5F5F5F5F5F5F5F5F5F5F5F5F5F5F5F5F5F5F5F5F5F5F5F5F5F5F5F5F5F5F5F5F5F5F5F5F5F5F5F5F5F5F5F5F5F5F5F5F5F5F5E2F5F5F5F5F5F5F5F5F5F5F5F5F5F5F5F5F5F5F5F5F5F5F5F5F5F5F5E2E2F5F5F5F5F5F5F5F5F5F5F5F5F5F5F5F5F5F5F5F5F5F5F5F5F5F5F5E2F5F5F5F5F5F5F5F5F5F5F5F5F5F5
310
F5F5F5F5F5F5F5F5F5F5F5F5F5F5E2E2E2E2E2E2E2E2E2BEE2E2E2F5F5F5F5F5F5F5F5F5F5F5F5F5F5F5F5F5F5F5F5F5F5F5F5F5F5F5F5F5F5F5F5F5F5F5F5F5F5F5F5F5F5F5F5F5F5F5F5F5F5F5F5F5F5F5F5F5F5F5F5F5F5F5F5F5F5F5F5F5F5F5F5F5F5F5F5F5F5F5F5F5E2F5F5F5F5F5F5F5F5F5F5F5F5F5F5F5F5F5F5
310
F5F5F5F5F5F5F5F5F5E2E2F5F5F5F5F5F5F5F5F5F5F5F5F5F5F5F5F5F5F5F5F5F5F5F5F5F5F5E2F5F5F5F5F5F5F5F5F5F5F5F5F5F5F5F5F5F5F5F5F5F5F5F5F5F5F5F5BEBEBEBEBEBEBEBEBEBEBEE2F5F5F5F5F5F5F5F5F5F5F5F5F5F5F5F5F5F5F5F5F5F5F5F5F5F5F5F5F5F5F5F5F5F5F5F5F5F5F5F5F5F5F5F5F5F5F5F5
310
F5F5F5F5F5F5F5F5F5F5F5F5F5F5F5F5F5F5F5F5F5F5F5F5F5F5F5F5F5F5F5F5F5F5E2F5F5F5F5F5F5F5F5F5F5F5F5F5F5F5F5F5F5F5F5F5F5F5F5F5F5F5E2E2F5F5F5F5F5F5F5F5F5F5F5F5F5F5F5F5F5F5F5F5F5F5F5F5F5F5F5E2F5F5F5F5F5F5F5F5F5F5F5F5F5F5F5F5F5F5F5F5F5F5F5F5F5F5F5F5BEF5F5F5F5BEBE
310
F5F5F5F5BEF5F5F5F5F5F5F5F5F5F5F5F5F5F5F5F5F5F5F5F5F5F5F5F5F5F5F5F5F5F5F5F5F5F5F5F5F5F5F5F5F5F5F5F5F5F5F5F5F5F5F5F5F5F5F5F5F5F5F5F5F5F5F5F5F5F5F5F5F5F5F5F5F5F5F5F5F5F5F5F5F5F5E2F5F5F5F5F5F5F5F5F5F5F5F5F5F5F5F5F5F5F5F5F5F5F5F5F5F5F5E2E2F5F5F5F5F5F5F5F5F5F5
310
F5F5F5F5F5F5F5F5F5F5F5F5F5F5F5F5F5E2F5F5F5F5F5F5F5F5F5F5F5F5F5F5F5F5F5F5F5F5F5F5F5F5F5F5F5F5F5F5F5F5F5F5F5F5F5F5F5F5F5F5F5F5F5F5F5F5F5F5F5F5F5F5F5F5F5F5F5F5F5F5F5F5F5F5F5F5F5F5F5F5F5F5F5F5F5F5F5F5F5F5F5F5F5F5F5F5F5F5F5F5F5F5F5F5F5F5F5F5F5F5F5F5F5F5F5F5F5
310
F5F5F5F5F5F5F5F5F5F5F5F5F5E2F5F5F5F5F5F5F5F5F5F5F5F5F5F5F5F5F5F5F5F5F5F5F5F5F5F5F5E2E2F5F5F5F5F5F5F5F5F5F5F5F5F5F5F5F5F5F5F5F5F5F5F5F5F5F5F5E2F5F5F5F5F5F5F5F5F5F5F5F5F5F5F5F5F5F5F5F5F5F5F5F5F5F5F5F5F5F5F5F5F5F5F5F5F5F5F5F5F5F5F5F5F5F5F5F5F5F5F5F5F5F5F5F5
310
F5F5F5F5F5F5F5F5F5F5F5F5F5F5F5F5F5F5F5F5F5F5F5F5F5F5F5F5F5F5F5F5F5F5F5F5F5F5F5F5F5F5F5F5F5F5F5F5F5F5F5F5F5F5F5F5F5F5F5F5F5F5F5F5F5F5E2F5F5F5F5F5F5F5F5F5F5F5F5F5F5F5F5F5F5F5F5F5F5F5F5F5F5F5E2E2F5F5F5F5F5F5F5F5F5F5F5E2F5F5F5F5F5F5F5F5F5F5F5F5F5F5F5E2F5F5F5
310
F5F5F5F5F5F5F5F5F5F5F5F5F5F5F5F5F5F5F5F5F5F5F5F5F5F5F5F5F5F5F5F5F5F5F5F5F5F5F5F5F5F5F5F5F5F5F5F5F5F5F5F5F5F5F5F5F5F5F5F5F5F5F5F5F5F5F5F5F5F5F5F5F5F5F5F5F5F5F5F5F5F5F5F5F5F5F5F5F5F5F5F5F5F5F5F5F5F5F5F5F5F5F5F5F5F5F5F5F5F5F5F5F5F5F5F5F5F5F5E2F5F5F5F5F5F5F5
310
F5F5F5F5F5F5F5F5E2F5F5F5F5F5F5F5F5F5F5F5E2E2F5F5F5F5F5F5F5F5F5F5F5E2F5F5F5F5F5F5F5F5F5F5F5F5F5F5F5E2F5F5F5F5F5F5F5F5F5F5F5F5F5F5F5F5F5F5F5F5F5F5F5F5F5F5F5F5F5F5F5F5F5F5F5F5F5F5F5F5F5F5F5F5F5F5F5F5F5F5F5F5F5F5F5F5F5F5F5F5F5F5F5F5F5F5F5F5F5F5F5F5F5F5F5F5F5
310
F5F5F5F5F5F5F5F5F5F5F5F5F5F5F5F5F5F5F5F5F5F5F5F5F5F5F5F5F5F5F5F5F5F5F5F5F5F5F5F5F5F5F5F5F5E2F5F5F5F5F5F5F5F5F5F5F5F5F5F5F5E2F5F5F5F5F5F5F5F5F5F5F5E2E2F5F5F5F5F5F5F5F5F5F5F5E2F5F5F5F5F5F5F5F5F5F5F5F5F5F5F5E2F5F5F5F5F5F5F5F5F5F5F5F5F5F5F5F5F5F5F5F5F5F5F5F5
310
F5F5F5F5F5F5F5F5F5F5F5F5F5F5F5F5F5F5F5F5F5F5F5F5F5F5F5F5F5F5F5F5F5F5F5F5F5F5F5F5F5F5F5F5F5F5F5F5F5F5F5F5F5F5F5F5F5F5F5F5F5F5F5F5F5F5F5F5F5F5F5F5F5F5F5F5F5F5F5F5F5F5F5F5F5F5F5F5F5F5F5F5F5F5F5F5F5F5E2F5F5F5F5F5F5F5F5F5F5F5F5F5F5F5E2F5F5F5F5F5F5F5F5F5F5F5E2
310
E2F5F5F5F5F5F5F5F5F5F5F5E2F5F5F5F5F5F5F5F5F5F5F5F5F5F5F5E2F5F5F5F5F5F5F5F5F5F5F5F5F5F5F5F5F5F5F5F5F5F5F5F5F5F5F5F5F5F5F5F5F5F5F5F5F5F5F5F5F5F5F5F5F5F5F5F5F5F5F5F5F5F5F5F5F5F5F5F5F5F5F5F5F5F5F5F5F5F5F5F5F5F5F5F5F5F5F5F5F5F5F5F5F5F5F5F5F5F5F5F5F5F5F5F5F5F5
310
F5F5F5F5F5F5F5F5F5F5F5F5F5F5F5F5F5F5F5F5F5F5F5F5E2F5F5F5F5F5F5F5F5F5F5F5F5F5F5F5E2F5F5F5F5F5F5F5F5F5F5F5E2E2F5F5F5F5F5F5F5F5F5F5F5E2F5F5F5F5F5F5F5F5F5F5F5F5F5F5F5E2F5F5F5F5F5F5F5F5F5F5F5F5F5F5F5F5F5F5F5F5F5F5F5F5F5F5F5F5F5F5F5F5F5F5F5F5F5F5F5F5F5F5F5F5F5
310
F5F5F5F5F5F5F5F5F5F5F5F5F5F5F5F5F5F5F5F5F5F5F5F5F5F5F5F5F5F5F5F5F5F5F5F5F5F5F5F5F5F5F5F5F5F5F5F5F5F5F5F5F5F5F5F5F5F5F5F5F5F5F5F5F5F5F5F5F5F5F5F5F5F5F5F5F5E2F5F5F5F5F5F5F5F5F5F5F5F5F5F5F5E2F5F5F5F5F5F5F5F5F5F5F5E2E2F5F5F5F5F5F5F5F5F5F5F5E2F5F5F5F5F5F5F5F5
310
F5F5F5F5F5F5F5E2F5F5F5F5F5F5F5F5F5F5F5F5F5F5F5F5F5F5F5F5F5F5F5F5F5F5F5F5F5F5F5F5F5F5F5F5F5F5F5F5F5F5F5F5F5F5F5F5F5F5F5F5F5F5F5F5F5F5F5F5F5F5F5F5F5F5F5F5F5F5F5F5F5F5F5F5F5F5F5F5F5F5F5F5F5F5F5F5F5F5F5F5F5F5F5F5F5F5F5F5F5F5F5F5F5F5F5F5F5F5F5F5F5F5F5F5F5F5F5
310
F5F5F5E2F5F5F5F5F5F5F5F5F5F5F5F5F5F5F5E2F5F5F5F5F5F5F5F5F5F5F5E2E2F5F5F5F5F5F5F5F5F5F5F5E2F5F5F5F5F5F5F5F5F5F5F5F5F5F5F5E2F5F5F5F5F5F5F5F5F5F5F5F5F5F5F5F5F5F5F5F5F5F5F5F5F5F5F5F5F5F5F5F5F5F5F5F5F5F5F5F5F5F5F5F5F5F5F5F5F5F5F5F5F5F5F5F5F5F5F5F5F5F5F5F5F5F5
310
F5F5F5F5F5F5F5F5F5F5F5F5F5F5F5F5F5F5F5F5F5F5F5F5F5F5F5F5F5F5F5F5F5F5F5F5F5F5F5F5F5F5F5F5F5F5F5F5F5F5F5F5F5F5F5F5E2F5F5F5F5F5F5F5F5F5F5F5F5F5F5F5E2F5F5F5F5F5F5F5F5F5F5F5E2E2F5F5F5F5F5F5F5F5F5F5F5E2F5F5F5F5F5F5F5F5F5F5F5F5F5F5F5E2F5F5F5F5F5F5F5F5F5F5F5F5F5
310
F5F5F5F5F5F5F5F5F5F5F5F5F5F5F5F5F5F5F5F5F5F5F5F5F5F5F5F5F5F5F5F5F5F5F5F5F5F5F5F5F5F5F5F5F5F5F5F5F5F5F5F5F5F5F5F5F5F5F5F5F5F5F5F5F5F5F5F5F5F5F5F5F5F5F5F5F5F5F5F5F5F5F5F5F5F5F5F5F5F5F5F5F5F5F5F5F5F5F5F5F5F5F5F5F5F5F5F5F5E2F5F5F5F5F5F5F5F5F5F5F5F5F5F5F5E2F5
310
F5F5F5F5F5F5F5F5F5F5E2E2F5F5F5F5F5F5F5F5F5F5F5E2F5F5F5F5F5F5F5F5F5F5F5F5F5F5F5E2F5F5F5F5F5F5F5F5F5F5F5F5F5F5F5F5F5F5F5F5F5F5F5F5F5F5F5F5F5F5F5F5F5F5F5F5F5F5F5F5F5F5F5F5F5F5F5F5F5F5F5F5F5F5F5F5F5F5F5F5F5F5F5F5F5F5F5F5F5F5F5F5F5F5F5F5F5F5F5F5F5F5F5F5F5F5F5
310
F5F5F5F5F5F5F5F5F5F5F5F5F5F5F5F5F5F5F5F5F5F5F5F5F5F5F5F5F5F5F5F5F5F5F5E2F5F5F5F5F5F5F5F5F5F5F5F5F5F5F5E2F5F5F5F5F5F5F5F5F5F5F5E2E2F5F5F5F5F5F5F5F5F5F5F5E2F5F5F5F5F5F5F5F5F5F5F5F5F5F5F5E2F5F5F5F5F5F5F5F5F5F5F5F5F5F5F5F5F5F5F5F5F5F5F5F5F5F5F5F5F5F5F5F5F5F5
310
F5F5F5F5F5F5F5F5F5F5F5F5F5F5F5F5F5F5F5F5F5F5F5F5F5F5F5F5F5F5F5F5F5F5F5F5F5F5F5F5F5F5F5F5F5F5F5F5F5F5F5F5F5F5F5F5F5F5F5F5F5F5F5F5F5F5F5F5F5F5F5F5F5F5F5F5F5F5F5F5F5F5F5F5F5F5F5F5E2F5F5F5F5F5F5F5F5F5F5F5F5F5F5F5E2F5F5F5F5F5F5F5F5F5F5F5E2E2F5F5F5F5F5F5F5F5F5
310
F5F5E2F5F5F5F5F5F5F5F5F5F5F5F5F5F5F5E2F5F5F5F5F5F5F5F5F5F5F5F5F5F5F5F5F5F5F5F5F5F5F5F5F5F5F5F5F5F5F5F5F5F5F5F5F5F5F5F5F5F5F5F5F5F5F5F5F5F5F5F5F5F5F5F5F5F5F5F5F5F5F5F5F5F5F5F5F5F5F5F5F5F5F5F5F5F5F5F5F5F5F5F5F5F5F5F5F5F5F5F5F5F5F5F5F5F5F5F5F5F5F5F5F5F5F5F5
310
F5F5F5F5F5F5F5F5F5F5F5F5F5F5E2F5F5F5F5F5F5F5F5F5F5F5F5F5F5F5E2F5F5F5F5F5F5F5F5F5F5F5E2E2F5F5F5F5F5F5F5F5F5F5F5E2F5F5F5F5F5F5F5F5F5F5F5F5F5F5F5E2F5F5F5F5F5F5F5F5F5F5F5F5F5F5F5F5F5F5F5F5F5F5F5F5F5F5F5F5F5F5F5F5F5F5F5F5F5F5F5F5F5F5F5F5F5F5F5F5F5F5F5F5F5F5F5
310
F5F5F5F5F5F5F5F5F5F5F5F5F5F5F5F5F5F5F5F5F5F5F5F5F5F5F5F5F5F5F5F5F5F5F5F5F5F5F5F5F5F5F5F5F5F5F5F5F5F5F5F5F5F5F5F5F5F5F5F5F5F5F5F5F5F5F5E2F5F5F5F5F5F5F5F5F5F5F5F5F5F5F5E2F5F5F5F5F5F5F5F5F5F5F5E2E2F5F5F5F5F5F5F5F5F5F5F5E2F5F5F5F5F5F5F5F5F5F5F5F5F5F5F5E2F5F5
310
F5F5F5F5F5F5F5F5F5F5F5F5F5F5F5F5F5F5F5F5F5F5F5F5F5F5F5F5F5F5F5F5F5F5F5F5F5F5F5F5F5F5F5F5F5F5F5F5F5F5F5F5F5F5F5F5F5F5F5F5F5F5F5F5F5F5F5F5F5F5F5F5F5F5F5F5F5F5F5F5F5F5F5F5F5F5F5F5F5F5F5F5F5F5F5F5F5F5F5F5F5F5F5F5F5F5F5F5F5F5F5F5F5F5F5F5F5F5F5F5E2F5F5F5F5F5F5
310
F5F5F5F5F5F5F5F5F5E2F5F5F5F5F5F5F5F5F5F5F5E2E2F5F5F5F5F5F5F5F5F5F5F5E2F5F5F5F5F5F5F5F5F5F5F5F5F5F5F5E2F5F5F5F5F5F5F5F5F5F5F5F5F5F5F5F5F5F5F5F5F5F5F5F5F5F5F5F5F5F5F5F5F5F5F5F5F5F5F5F5F5F5F5F5F5F5F5F5F5F5F5F5F5F5F5F5F5F5F5F5F5F5F5F5F5F5F5F5F5F5F5F5F5F5F5F5
310
F5F5F5F5F5F5F5F5F5F5F5F5F5F5F5F5F5F5F5F5F5F5F5F5F5F5F5F5F5F5F5F5F5F5F5F5F5F5F5F5F5F5F5F5F5F5E2F5F5F5F5F5F5F5F5F5F5F5F5F5F5F5E2F5F5F5F5F5F5F5F5F5F5F5E2E2F5F5F5F5F5F5F5F5F5F5F5E2F5F5F5F5F5F5F5F5F5F5F5F5F5F5F5E2F5F5F5F5F5F5F5F5F5F5F5F5F5F5F5F5F5F5F5F5F5F5F5
310
F5F5F5F5F5F5F5F5F5F5F5F5F5F5F5F5F5F5F5F5F5F5F5F5F5F5F5F5F5F5F5F5F5F5F5F5F5F5F5F5F5F5F5F5F5F5F5F5F5F5F5F5F5F5F5F5F5F5F5F5F5F5F5F5F5F5F5F5F5F5F5F5F5F5F5F5F5F5F5F5F5F5F5F5F5F5F5F5F5F5F5F5F5F5F5F5F5F5F5E2F5F5F5F5F5F5F5F5F5F5F5F5F5F5F5E2F5F5F5F5F5F5F5F5F5F5F5
310
E2E2F5F5F5F5F5F5F5F5F5F5F5F5F5F5F5F5F5F5F5F5F5F5F5F5F5F5F5E2F5F5F5F5F5F5F5F5F5F5F5F5F5F5F5F5F5F5F5F5F5F5F5F5F5F5F5F5F5F5F5F5F5F5F5F5F5F5F5F5F5F5F5F5F5F5F5F5F5F5F5F5F5F5F5F5F5F5F5F5F5F5F5F5F5F5F5F5F5F5F5F5F5F5F5F5F5F5F5F5F5F5F5F5F5F5F5F5F5F5F5F5F5F5F5F5F5
310
F5F5F5F5F5F5F5F5F5F5F5F5F5F5F5F5F5F5F5F5F5F5F5F5F5E2F5F5F5F5F5F5F5F5F5F5F5F5F5F5F5F5F5F5F5F5F5F5F5F5F5F5F5E2E2F5F5F5F5F5F5F5F5F5F5F5F5F5F5F5F5F5F5F5F5F5F5F5F5F5F5F5E2F5F5F5F5F5F5F5F5F5F5F5F5F5F5F5F5F5F5F5F5F5F5F5F5F5F5F5F5F5F5F5F5F5F5F5F5F5F5F5F5F5F5F5F5
310
F5F5F5F5F5F5F5F5F5F5F5F5F5F5F5F5F5F5F5F5F5F5F5F5F5F5F5F5F5F5F5F5F5F5F5F5F5F5F5F5F5F5F5F5F5F5F5F5F5F5F5F5F5F5F5F5F5F5F5F5F5F5F5F5F5F5F5F5F5F5F5F5F5F5F5F5F5F5E2F5F5F5F5F5F5F5F5F5F5F5F5F5F5F5F5F5F5F5F5F5F5F5F5F5F5F5E2E2F5F5F5F5F5F5F5F5F5F5F5F5F5F5F5F5F5F5F5
310
F5F5F5F5F5F5F5F5E2F5F5F5F5F5F5F5F5F5F5F5F5F5F5F5F5F5F5F5F5F5F5F5F5F5F5F5F5F5F5F5F5F5F5F5F5F5F5F5F5F5F5F5F5F5F5F5F5F5F5F5F5F5F5F5F5F5F5F5F5F5F5F5F5F5F5F5F5F5F5F5F5F5F5F5F5F5F5F5F5F5F5F5F5F5F5F5F5F5F5F5F5F5F5F5F5F5F5F5F5F5F5F5F5F5F5F5F5F5F5F5F5F5F5F5F5F5F5
310
F5F5F5F5E2F5F5F5F5F5F5F5F5F5F5F5F5F5F5F5F5F5F5F5F5F5F5F5F5F5F5F5E2E2F5F5F5F5F5F5F5F5F5F5F5F5F5F5F5F5F5F5F5F5F5F5F5F5F5F5F5E2F5F5F5F5F5F5F5F5F5F5F5F5F5F5F5F5F5F5F5F5F5F5F5F5F5F5F5F5F5F5F5F5F5F5F5F5F5F5F5F5F5F5F5F5F5F5F5F5F5F5F5F5F5F5F5F5F5F5F5F5F5F5F5F5F5
310
F5F5F5F5F5F5F5F5F5F5F5F5F5F5F5F5F5F5F5F5F5F5F5F5F5F5F5F5F5F5F5F5F5F5F5F5F5F5F5F5F5F5F5F5F5F5F5F5F5F5F5F5F5F5F5F5F5E2F5F5F5F5F5F5F5F5F5F5F5F5F5F5F5F5F5F5F5F5F5F5F5F5F5F5F5E2E2F5F5F5F5F5F5F5F5F5F5F5F5F5F5F5F5F5F5F5F5F5F5F5F5F5F5F5E2F5F5F5F5F5F5F5F5F5F5F5F5
310
F5F5F5F5F5F5F5F5F5F5F5F5F5F5F5F5F5F5F5F5F5F5F5F5F5F5F5F5F5F5F5F5F5F5F5F5F5F5F5F5F5F5F5F5F5F5F5F5F5F5F5F5F5F5F5F5F5F5F5F5F5F5F5F5F5F5F5F5F5F5F5F5F5F5F5F5F5F5F5F5F5F5F5F5F5F5F5F5F5F5F5F5F5F5F5F5F5F5F5F5F5F5F5F5F5F5F5F5F5F5E2F5F5F5F5F5F5F5F5F5F5F5F5F5F5F5F5
310
F5F5F5F5F5F5F5F5F5F5F5E2E2F5F5F5F5F5F5F5F5F5F5F5F5F5F5F5F5F5F5F5F5F5F5F5F5F5F5F5E2F5F5F5F5F5F5F5F5F5F5F5F5F5F5F5F5F5F5F5F5F5F5F5F5F5F5F5F5F5F5F5F5F5F5F5F5F5F5F5F5F5F5F5F5F5F5F5F5F5F5F5F5F5F5F5F5F5F5F5F5F5F5F5F5F5F5F5F5F5F5F5F5F5F5F5F5F5F5F5F5F5F5F5F5F5F5
310
F5F5F5F5F5F5F5F5F5F5F5F5F5F5F5F5F5F5F5F5F5F5F5F5F5F5F5F5F5F5F5F5F5F5F5F5E2F5F5F5F5F5F5F5F5F5F5F5F5F5F5F5F5F5F5F5F5F5F5F5F5F5F5F5E2E2F5F5F5F5F5F5F5F5F5F5F5F5F5F5F5F5F5F5F5F5F5F5F5F5F5F5F5E2F5F5F5F5F5F5F5F5F5F5F5F5F5F5F5F5F5F5F5F5F5F5F5F5F5F5E2E2E2E2E2E2E2
310
E2E2E2BEBEBEBEBEBEE2F5F5F5F5F5F5F5F5E2E2E2E2E2E2E2E2E2E2BEBEBEBEBEBEBEBEE2F5F5F5F5F5F5F5E2E2E2E2E2E2E2E2E2E2E2BEBEBEBEBEBEBEBEBEE2F5F5F5F5F5F5F5F5F5F5F5F5F5F5F5F5F5F5F5F5F5F5F5F5E2F5F5F5F5F5F5F5F5F5F5F5F5F5F5F5F5F5F5F5F5F5F5F5F5F5F5F5E2E2F5F5F5F5F5F5F5F5
310
F5F5F5F5F5F5F5F5F5F5F5F5F5F5F5F5F5F5F5E2F5F5F5F5F5F5F5F5F5F5F5F5F5F5F5F5F5F5F5F5F5F5F5F5F5F5E2E2BEBEF5F5F5F5F5F5F5F5F5F5F5E2BEF5F5F5F5F5F5F5F5E2E2BEBEF5F5F5F5F5F5F5F5F5F5F5F5E2BEBEF5F5F5F5F5F5F5E2E2BEBEBEF5F5F5F5F5F5F5F5F5F5F5F5F5E2BEBEF5F5F5F5F5F5F5F5F5
310
F5F5F5F5F5F5F5F5F5F5F5F5F5F5F5E2F5F5F5F5F5F5F5F5F5F5F5F5F5F5F5F5F5F5F5F5F5F5F5F5F5F5F5E2E2F5F5F5F5F5F5F5F5F5F5F5E2F5F5F5F5F5F5F5F5F5F5F5F5F5F5F5E2F5F5F5F5F5F5F5F5F5F5F5F5F5F5F5F5F5F5F5F5F5F5F5F5F5F5E2E2F5F5F5F5F5F5F5F5F5F5F5F5F5E2BEF5F5F5F5F5F5F5F5E2E2F5
310
F5F5F5F5F5F5F5F5F5F5F5F5F5E2BEBEF5F5F5F5F5F5F5E2E2F5F5F5F5F5F5F5F5F5F5F5F5F5F5F5F5E2BEBEF5F5F5F5F5F5F5F5F5F5F5F5F5F5F5F5F5F5F5F5F5F5F5F5E2F5F5F5F5F5F5F5F5F5F5F5F5F5F5F5E2F5F5F5F5F5F5F5F5F5F5F5E2E2F5F5F5F5F5F5F5F5F5F5F5E2F5F5F5F5F5F5F5F5F5F5F5F5F5F5F5E2F5
310
F5F5F5F5F5F5F5F5F5F5F5F5F5F5F5F5F5F5F5F5F5F5F5F5F5E2E2F5F5F5BEBEBEF5F5F5F5F5F5F5E2BEF5F5F5F5F5F5F5F5E2E2F5F5F5F5BEBEBEF5F5F5F5F5F5F5E2BEBEF5F5F5F5F5F5F5E2E2F5F5F5F5F5BEBEBEF5F5F5F5F5F5F5F5E2BEBEF5F5F5F5F5F5F5F5F5F5F5F5F5F5F5F5F5F5F5F5F5F5F5F5E2F5F5F5F5F5
310
F5F5F5F5F5F5F5F5F5F5E2F5F5F5F5F5F5F5F5F5F5F5E2E2F5F5F5F5F5F5F5F5F5F5F5E2F5F5F5F5F5F5F5F5F5F5F5F5F5F5F5E2F5F5F5F5F5F5F5F5F5F5F5F5F5F5F5F5F5F5F5F5F5F5F5F5F5F5E2E2F5F5F5F5F5E2BEBEF5F5F5F5F5E2BEF5F5F5F5F5F5F5F5E2E2F5F5F5F5F5F5BEE2BEF5F5F5F5F5E2BEBEF5F5F5F5F5
310
F5F5E2E2F5F5F5F5F5F5F5BEBEBEF5F5F5F5F5F5E2BEBEF5F5F5F5F5F5F5F5F5F5F5F5F5F5F5F5F5F5F5F5F5F5F5F5E2F5F5F5F5F5F5F5F5F5F5F5F5F5F5F5E2F5F5F5F5F5F5F5F5F5F5F5E2E2F5F5F5F5F5F5F5F5F5F5F5E2F5F5F5F5F5F5F5F5F5F5F5F5F5F5F5E2F5F5F5F5F5F5F5F5F5F5F5F5F5F5F5F5F5F5F5F5F5F5
310
F5F5F5F5E2E2E2E2E2E2E2E2E2E2E2E2E2E2E2E2BEF5F5F5F5F5F5F5F5E2E2E2E2E2E2E2E2E2E2E2E2E2E2E2E2E2E2BEF5F5F5F5F5F5F5E2E2E2E2E2E2E2E2E2E2E2E2E2E2E2E2E2E2E2E2BEF5F5F5F5F5F5F5F5F5F5F5F5F5F5F5F5F5F5F5F5F5F5F5F5E2F5F5F5F5F5F5F5F5F5F5F5F5F5F5F5E2F5F5F5F5F5F5F5F5F5F5
310
F5E2E2F5F5F5F5F5F5F5F5F5F5F5E2F5F5F5F5F5F5F5F5F5F5F5F5F5F5F5E2F5F5F5F5F5F5F5F5F5F5F5F5F5F5F5F5F5F5F5F5F5F5F5F5F5F5F5F5F5F5F5F5F5F5F5BEF5F5F5F5F5F5F5F5F5F5F5F5F5F5F5F5F5F5F5F5F5F5F5F5F5BEF5F5F5F5F5F5F5F5F5F5F5F5F5F5F5F5F5F5F5F5F5F5F5F5F5F5BEF5F5F5F5F5F5F5
310
F5F5F5F5F5F5F5F5F5F5F5F5F5F5F5F5F5F5F5F5F5F5F5F5F5F5E2F5F5F5F5F5F5F5F5F5F5F5F5F5F5F5E2F5F5F5F5F5F5F5F5F5F5F5E2E2F5F5F5F5F5F5F5F5F5F5F5E2F5F5F5F5F5F5F5F5F5F5F5F5F5F5F5E2F5F5F5F5F5F5F5F5F5F5F5F5F5F5F5F5F5F5F5F5F5F5F5F5F5F5F5F5E2E2E2E2E2E2E2BEBEBEBEBEBEBEBE
310
BEE2F5F5F5F5F5F5F5F5E2E2E2E2E2E2E2BEBEBEBEBEBEBEBEBEBEBEE2F5F5F5F5F5F5F5E2E2E2E2E2E2E2E2E2BEBEBEBEBEBEBEBEBEBEBEBEF5F5F5F5F5F5F5F5F5F5F5F5F5F5F5F5F5F5F5F5F5F5E2F5F5F5F5F5F5F5F5F5F5F5F5F5F5F5E2F5F5F5F5F5F5F5F5F5F5F5E2E2F5F5F5F5F5F5F5F5F5F5F5E2F5F5F5F5F5F5
310
F5F5F5F5F5F5F5F5F5E2F5F5F5F5F5F5F5F5F5F5F5F5F5F5F5F5F5F5F5F5F5F5F5F5F5BEE2E2BEBEE2E2E2E2E2E2E2E2E2E2E2E2E2BEBEF5F5F5F5F5BEE2E2BEBEE2E2E2E2E2E2E2E2E2E2E2E2E2BEE2BEBEF5F5F5F5BEE2E2BEBEBEE2E2E2E2E2E2E2E2E2E2E2E2E2E2BEBEBEF5F5F5F5F5F5F5F5F5F5F5F5F5F5F5F5F5F5
310
F5F5F5F5F5E2F5F5F5F5F5F5F5F5F5F5F5F5F5F5F5E2F5F5F5F5F5F5F5F5F5F5F5E2E2F5F5F5F5F5F5F5F5F5F5F5E2F5F5F5F5F5F5F5F5F5F5F5F5F5F5F5E2F5F5F5F5F5F5F5F5F5F5F5F5F5F5F5F5F5F5F5F5F5F5F5F5F5BEE2E2E2BEF5F5F5F5F5F5F5F5F5F5E2E2BEBEBEF5F5F5F5F5BEE2E2E2BEF5F5F5F5F5F5F5F5F5
310
F5F5E2E2E2BEBEBEF5F5F5F5BEBEE2E2BEBEF5F5F5F5F5F5F5F5F5F5F5E2E2E2E2BEBEF5F5F5F5F5F5F5F5F5F5F5F5F5F5F5F5F5F5F5F5F5F5F5E2F5F5F5F5F5F5F5F5F5F5F5F5F5F5F5E2F5F5F5F5F5F5F5F5F5F5F5E2E2F5F5F5F5F5F5F5F5F5F5F5E2F5F5F5F5F5F5F5F5F5F5F5F5F5F5F5E2F5F5F5F5F5F5F5F5F5F5F5
310
F5F5F5F5F5F5F5F5F5F5F5F5F5F5E2E2E2F5E2F5F5F5F5F5F5F5F5F5E2F5E2BEBEBEF5F5F5F5F5E2E2E2F5E2F5F5F5F5F5F5F5F5F5F5E2F5E2E2BEBEBEF5F5F5F5E2E2E2F5E2E2F5F5F5F5F5F5F5F5F5F5E2F5F5E2E2BEBEBEF5F5F5F5F5F5F5F5F5F5F5F5F5F5F5F5F5F5F5F5F5F5E2F5F5F5F5F5F5F5F5F5F5F5F5F5F5F5
310
E2F5F5F5F5F5F5F5F5F5F5F5E2E2F5F5F5F5F5F5F5F5F5F5F5E2F5F5F5F5F5F5F5F5F5F5F5F5F5F5F5E2F5F5F5F5F5F5F5F5F5F5F5F5F5F5F5F5F5F5F5F5F5F5F5F5F5F5E2E2F5F5E2F5F5F5F5F5F5F5E2F5F5E2BEBEBEF5F5F5F5F5F5E2E2F5F5E2F5F5F5F5F5F5F5E2E2F5F5E2BEBEBEBEF5F5F5F5F5E2E2F5F5F5E2F5F5
310
F5F5F5F5F5F5E2F5F5F5E2BEBEBEBEF5F5F5F5F5F5F5F5F5F5F5F5F5F5F5F5F5F5F5F5F5F5E2F5F5F5F5F5F5F5F5F5F5F5F5F5F5F5E2F5F5F5F5F5F5F5F5F5F5F5E2E2F5F5F5F5F5F5F5F5F5F5F5E2F5F5F5F5F5F5F5F5F5F5F5F5F5F5F5E2F5F5F5F5F5F5F5F5F5F5F5F5F5F5F5F5F5F5F5F5F5F5F5F5F5F5E2E2F5F5F5E2
310
F5F5F5F5F5E2F5F5F5E2BEBEBEF5F5F5F5F5F5E2E2F5F5F5E2F5F5F5F5F5E2F5F5F5F5E2BEBEBEBEF5F5F5F5F5E2E2F5F5F5F5E2F5F5F5F5F5E2E2F5F5F5F5E2BEBEBEBEF5F5F5F5F5F5F5F5F5F5F5F5F5F5F5F5F5F5F5F5F5F5E2F5F5F5F5F5F5F5F5F5F5F5F5F5F5F5E2F5F5F5F5F5F5F5F5F5F5F5E2E2F5F5F5F5F5F5F5
310
F5F5F5F5E2F5F5F5F5F5F5F5F5F5F5F5F5F5F5F5E2F5F5F5F5F5F5F5F5F5F5F5F5F5F5F5F5F5F5F5F5F5F5F5F5F5F5E2E2F5F5F5F5E2E2E2F5E2F5F5F5F5E2BEBEBEF5F5F5F5F5F5E2E2F5F5F5F5E2F5E2E2E2F5F5F5F5F5E2BEBEBEBEF5F5F5F5F5E2E2F5F5F5F5F5E2E2E2E2E2F5F5F5F5F5F5E2BEBEBEBEF5F5F5F5F5F5
310
F5F5F5F5F5F5F5F5F5F5F5F5F5F5F5F5E2F5F5F5F5F5F5F5F5F5F5F5F5F5F5F5E2F5F5F5F5F5F5F5F5F5F5F5E2E2F5F5F5F5F5F5F5F5F5F5F5E2F5F5F5F5F5F5F5F5F5F5F5F5F5F5F5E2F5F5F5F5F5F5F5F5F5F5F5F5F5F5F5F5F5F5F5F5F5F5F5F5F5F5E2E2F5F5F5F5F5E2E2E2F5F5F5F5F5E2BEBEBEF5F5F5F5F5F5E2E2
310
F5F5F5F5F5E2E2E2F5F5F5F5F5F5E2BEBEBEBEF5F5F5F5F5E2E2F5F5F5F5F5F5E2E2E2E2F5F5F5F5F5F5E2BEBEBEBEF5F5F5F5F5F5F5F5F5F5F5F5F5F5F5F5F5F5F5F5F5F5E2F5F5F5F5F5F5F5F5F5F5F5F5F5F5F5E2F5F5F5F5F5F5F5F5F5F5F5E2E2F5F5F5F5F5F5F5F5F5F5F5E2F5F5F5F5F5F5F5F5F5F5F5F5F5F5F5E2
310
F5F5F5F5F5F5F5F5F5F5F5F5F5F5F5F5F5F5F5F5F5F5F5F5F5F5E2E2F5F5F5F5E2E2E2BEE2F5F5F5F5E2BEBEBEF5F5F5F5F5F5E2E2F5F5F5F5E2E2E2BEBEE2F5F5F5F5E2E2BEBEBEF5F5F5F5F5E2E2F5F5F5F5F5E2E2E2E2BEE2F5F5F5F5F5E2E2BEBEF5F5F5F5F5F5F5F5F5F5F5F5F5F5F5F5F5F5F5F5F5F5F5E2F5F5F5F5
310
F5F5F5F5F5F5F5F5F5F5F5E2F5F5F5F5F5F5F5F5F5F5F5E2E2F5F5F5F5F5F5F5F5F5F5F5E2F5F5F5F5F5F5F5F5F5F5F5F5F5F5F5E2F5F5F5F5F5F5F5F5F5F5F5F5F5F5F5F5F5F5F5F5F5F5F5F5F5F5E2E2F5E2E2BEBEBEE2F5BEE2E2E2F5E2BEBEBEF5F5F5F5F5F5E2E2F5E2E2E2BEBEBEE2BEBEE2E2E2F5E2E2BEBEBEF5F5
310
F5F5F5E2E2F5E2E2E2E2BEBEBEE2F5BEE2E2E2E2F5E2E2BEBEF5F5F5F5F5F5F5F5F5F5F5F5F5F5F5F5F5F5F5F5F5F5F5E2F5F5F5F5F5F5F5F5F5F5F5F5F5F5F5E2F5F5F5F5F5F5F5F5F5F5F5E2E2F5F5F5F5F5F5F5F5F5F5F5F5F5F5F5F5F5F5F5F5F5F5F5F5F5F5F5E2F5F5F5F5F5F5F5F5F5F5F5F5F5F5F5F5F5F5F5F5F5
310
F5F5F5F5F5E2E2E2E2E2E2E2E2BEBEBEE2E2E2E2E2BEE2BEF5F5F5F5F5F5E2E2E2E2E2E2E2E2BEBEBEBEE2E2E2E2E2BEBEE2BEF5F5F5F5F5E2E2E2E2E2E2E2E2E2BEBEBEBEE2E2E2E2E2E2BEE2BEBEF5F5F5F5F5F5F5F5F5F5F5F5F5F5F5F5F5F5F5F5F5F5E2F5F5F5F5F5F5F5F5F5F5F5F5F5F5F5F5F5F5F5F5F5F5F5F5F5
310
F5F5E2E2F5F5F5F5F5F5F5F5F5F5F5F5F5F5F5F5F5F5F5F5F5F5F5F5F5F5F5E2F5F5F5F5F5F5F5F5F5F5F5F5F5F5F5F5F5F5F5F5F5F5F5F5F5F5BEBEBEBEBEBEBEBEBEBEBEBEBEBEBEBEF5F5F5F5F5F5F5F5F5BEBEBEBEBEBEBEBEBEBEBEBEBEBEBEBEE2BEF5F5F5F5F5F5F5F5BEE2BEBEBEBEBEBEBEBEBEBEBEBEBEBEBEBE
310
BEBEF5F5F5F5F5F5F5F5F5F5F5F5F5F5F5F5F5F5F5F5F5F5F5F5F5E2F5F5F5F5F5F5F5F5F5F5F5F5F5F5F5F5F5F5F5F5F5F5F5F5F5F5F5E2E2F5F5F5F5F5F5F5F5F5F5F5F5F5F5F5F5F5F5F5F5F5F5F5F5F5F5F5E2F5F5F5F5F5F5F5F5F5F5F5F5F5F5F5F5F5F5F5F5F5F5F5F5F5F5BEBEBEBEBEBEBEBEBEBEBEBEBEBEBEE2
310
F5F5F5F5F5F5F5F5F5BEBEBEBEBEBEBEBEBEBEBEBEBEBEBEBEBEE2F5F5F5F5F5F5F5F5BEBEBEBEBEBEBEBEBEBEBEBEBEBEBEBEBEBEBEE2F5F5F5F5F5F5F5F5F5F5F5F5F5F5F5F5F5F5F5F5F5F5F5F5F5E2F5F5F5F5F5F5F5F5F5F5F5F5F5F5F5F5F5F5F5F5F5F5F5F5F5F5F5E2E2F5F5F5F5F5F5F5F5F5F5F5F5F5F5F5F5F5
310
F5F5F5F5F5F5F5F5F5F5E2F5F5F5F5F5F5F5F5F5F5F5F5F5F5F5F5F5F5F5F5F5F5F5F5F5F5F5F5F5F5F5F5BEBEBEBEF5F5F5F5F5F5F5F5F5F5F5F5F5F5F5F5F5F5F5F5F5BEBEBEBEBEF5F5F5F5F5F5F5F5F5F5F5F5F5F5F5F5F5F5F5F5F5F5F5BEBEBEBEF5F5F5F5F5F5F5F5F5F5F5F5F5F5F5F5F5F5F5F5F5F5F5F5F5F5F5
310
F5F5F5F5F5F5E2F5F5F5F5F5F5F5F5F5F5F5F5F5F5F5F5F5F5F5F5F5F5F5F5F5F5F5E2E2F5F5F5F5F5F5F5F5F5F5F5F5F5F5F5F5F5F5F5F5F5F5F5F5F5F5F5E2E2E2E2E2E2E2E2E2E2E2E2E2E2E2E2E2E2E2E2E2E2E2E2E2E2E2E2E2E2E2E2E2E2E2E2E2E2E2E2E2E2E2E2E2E2E2E2E2E2E2E2E2E2E2E2E2E2E2E2E2E2E2E2
310
E2E2E2E2E2E2E2E2E2E2E2E2E2E2E2E2E2E2E2E2E2E2E2E2E2E2E2E2E2E2E2E2E2E2E2E2E2E2E2E2E2E2E2E2E2E2E2E2E2E2E2E2E2E2E2E2E2E2E2E2F5F5F5F5F5F5F5F5F5F5F5F5F5F5F5F5F5F5F5F5F5F5F5F5F5F5F5E2E2F5F5F5F5F5F5F5F5F5F5F5F5F5F5F5F5F5F5F5F5F5F5F5F5F5F5F5F5F5F5F5F5F5F5F5F5F5F5
310
F5F5F5F5F5F5F5F5F5F5F5F5F5F5F5F5F5F5F5F5F5F5F5F5F5F5F5F5F5F5F5F5F5F5F5F5F5F5F5F5F5F5F5F5F5F5F5F5F5F5F5F5F5F5F5F5F5F5F5F5F5F5F5F5F5F5F5F5F5F5F5F5F5F5F5F5F5F5F5F5F5F5F5F5F5F5F5F5F5F5F5F5F5F5F5F5F5F5F5F5F5F5F5F5F5F5F5F5F5F5F5F5F5F5F5F5F5F5F5F5F5F5F5F5F5F5F5
310
F5F5F5F5F5F5F5F5F5F5F5F5F5E2E2F5F5F5F5F5F5F5F5F5F5F5F5F5F5F5F5F5F5F5F5F5F5F5F5F5F5F5F5F5F5F5F5F5F5F5F5F5F5F5F5F5F5F5F5F5F5F5F5F5F5F5F5F5F5F5F5F5F5F5F5F5F5F5F5F5F5F5F5F5F5F5F5F5F5F5F5F5F5F5F5F5F5F5F5F5F5F5F5F5F5F5F5F5F5F5F5F5F5F5F5F5F5F5F5F5F5F5F5F5F5F5F5
310
F5F5F5F5F5F5F5F5F5F5F5F5F5F5F5F5F5F5F5F5F5F5F5F5F5F5F5F5F5F5F5F5F5F5F5F5F5F5F5F5F5F5F5F5F5F5F5F5F5F5F5F5F5F5F5F5F5F5F5F5F5F5F5F5F5F5E2E2F5F5F5F5F5F5F5F5F5F5F5F5F5F5F5F5F5F5F5F5F5F5F5F5F5F5F5F5F5F5F5F5F5F5F5F5F5F5F5F5F5F5F5F5F5F5F5F5F5F5F5F5F5F5F5F5F5F5F5
310
F5F5F5F5F5F5F5F5F5F5F5F5F5F5F5F5F5F5F5F5F5F5F5F5F5F5F5F5F5F5F5F5F5F5F5F5F5F5F5F5F5F5F5F5F5F5F5F5F5F5F5F5F5F5F5F5F5F5F5F5F5F5F5F5F5F5F5F5F5F5F5F5F5F5F5F5F5F5F5F5F5F5F5F5F5F5F5F5F5F5F5F5F5F5F5F5F5F5F5F5F5F5F5F5F5F5F5F5F5F5F5F5F5F5F5F5F5F5F5E2E2F5F5F5F5F5F5
310
F5F5F5F5F5E2F5F5F5F5F5F5F5F5F5F5F5F5F5F5F5F5F5F5F5F5F5F5F5F5F5F5F5F5F5F5F5F5F5F5F5F5F5F5F5F5F5F5F5F5F5F5F5F5F5F5F5F5F5F5F5F5F5F5F5F5F5F5F5F5F5F5F5F5F5F5F5F5F5F5F5F5F5F5F5F5F5F5F5F5F5F5F5F5F5F5F5F5F5F5F5F5F5F5F5F5F5F5F5F5F5F5F5F5F5F5F5F5F5F5F5F5F5F5F5F5F5
310
F5F5F5F5F5F5F5F5F5F5F5F5F5F5F5F5F5F5F5F5F5F5F5F5F5F5F5F5F5F5F5F5F5E2F5F5F5F5F5F5F5F5F5F5F5E2E2F5F5F5F5F5F5F5F5F5F5F5E2F5F5F5F5F5F5F5F5F5F5F5F5F5F5F5F5F5F5F5F5F5F5F5F5F5F5F5F5F5F5F5F5F5F5F5F5F5F5F5F5F5F5F5F5F5F5F5F5F5F5F5F5F5F5F5F5F5F5F5F5F5F5F5F5F5F5F5F5
310
F5F5F5F5F5F5F5F5F5F5F5F5F5F5F5F5F5F5F5F5F5F5F5F5F5F5F5F5F5F5F5F5F5F5F5F5F5F5F5F5F5F5F5F5F5F5F5F5F5F5F5F5F5F5F5F5F5F5F5F5F5F5F5F5F5F5F5F5F5F5F5F5F5F5F5F5F5F5F5F5F5F5F5F5F5F5E2F5F5F5F5F5F5F5F5F5F5F5E2E2F5F5F5F5F5F5F5F5F5F5F5E2F5F5F5F5F5F5F5F5F5F5F5F5F5F5F5
310
F5F5F5F5F5F5F5F5F5F5F5F5F5F5F5F5F5F5F5F5F5F5F5F5F5F5F5F5F5F5F5F5F5F5F5F5F5F5F5F5F5F5F5F5F5F5F5F5F5F5F5F5F5F5F5F5F5F5F5F5F5F5F5F5F5F5F5F5F5F5F5F5F5F5F5F5F5F5F5F5F5F5F5F5F5F5F5F5F5F5F5F5F5F5F5F5F5F5F5F5F5F5F5F5F5F5F5F5F5F5F5F5F5F5F5F5F5F5F5F5F5F5F5F5F5F5F5
310
F5F5F5F5F5F5F5F5F5F5F5F5E2F5F5F5F5F5F5F5F5F5F5F5E2E2F5F5F5F5F5F5F5F5F5F5F5E2F5F5F5F5F5F5F5F5F5F5F5F5F5F5F5F5F5F5F5F5F5F5F5F5F5F5F5F5F5F5F5F5F5F5F5F5F5F5F5F5F5F5F5F5F5F5F5F5F5F5F5F5F5F5F5F5F5F5F5F5F5F5F5F5F5F5F5F5F5F5F5F5F5F5F5F5F5F5F5F5F5F5F5F5F5F5F5F5F5
310
F5F5F5F5F5F5F5F5F5F5F5F5F5F5F5F5F5F5F5F5F5F5F5F5F5F5F5F5F5F5F5F5F5F5F5F5F5F5F5F5F5F5F5F5F5F5F5F5F5F5F5F5F5F5F5F5F5F5F5F5F5F5F5F5F5E2F5F5F5F5F5F5F5F5F5F5F5E2E2F5F5F5F5F5F5F5F5F5F5F5E2F5F5F5F5F5F5F5F5F5F5F5F5F5F5F5F5F5F5F5F5F5F5F5F5F5F5F5F5F5F5F5F5F5F5F5F5
310
F5F5F5F5F5F5F5F5F5F5F5F5F5F5F5F5F5F5F5F5F5F5F5F5F5F5F5F5F5F5F5F5F5F5F5F5F5F5F5F5F5F5F5F5F5F5F5F5F5F5F5F5F5F5F5F5F5F5F5F5F5F5F5F5F5F5F5F5F5F5F5F5F5F5F5F5F5F5F5F5F5F5F5F5F5F5F5F5F5F5F5F5F5F5F5F5F5F5F5F5F5F5F5F5F5F5F5F5F5F5F5F5F5F5F5F5F5F5E2F5F5F5F5F5F5F5F5
310
F5F5F5E2E2F5F5F5F5F5F5F5F5F5F5F5E2F5F5F5F5F5F5F5F5F5F5F5F5F5F5F5F5F5F5F5F5F5F5F5F5F5F5F5F5F5F5F5F5F5F5F5F5F5F5F5F5F5F5F5F5F5F5F5F5F5F5F5F5F5F5F5F5F5F5F5F5F5F5F5F5F5F5F5F5F5F5F5F5F5F5F5F5F5F5F5F5F5F5F5F5F5F5F5F5F5F5F5F5F5F5F5F5F5F5F5F5F5F5F5F5F5F5F5F5F5F5
310
F5F5F5F5F5F5F5F5F5F5F5F5F5F5F5F5F5F5F5F5F5F5F5F5F5F5F5F5F5F5F5F5F5F5F5F5F5F5F5F5F5F5F5F5E2F5F5F5F5F5F5F5F5F5F5F5E2E2F5F5F5F5F5F5F5F5F5F5F5E2F5F5F5F5F5F5F5F5F5F5F5F5F5F5F5F5F5F5F5F5F5F5F5F5F5F5F5F5F5F5F5F5F5F5F5F5F5F5F5F5F5F5F5F5F5F5F5F5F5F5F5F5F5F5F5F5F5
310
F5F5F5F5F5F5F5F5F5F5F5F5F5F5F5F5F5F5F5F5F5F5F5F5F5F5F5F5F5F5F5F5F5F5F5F5F5F5F5F5F5F5F5F5F5F5F5F5F5F5F5F5F5F5F5F5F5F5F5F5F5F5F5F5F5F5F5F5F5F5F5F5F5F5F5F5F5F5F5F5F5F5F5F5F5F5F5F5F5F5F5F5F5F5F5F5F5E2F5F5F5F5F5F5F5F5F5F5F5E2E2F5F5F5F5F5F5F5F5F5F5F5E2E2E2E2E2
310
E2E2E2E2F5F5F5F5F5F5F5F5F5E2E2E2E2E2E2E2E2E2E2E2E2E2E2E2E2E2F5F5F5F5F5F5F5F5F5E2E2E2E2E2E2E2E2E2E2E2E2E2E2E2E2F5F5F5F5F5F5F5F5F5F5E2E2E2E2E2E2E2E2E2E2E2E2E2E2E2E2F5F5F5F5F5F5F5F5F5F5E2E2E2E2E2E2E2E2E2E2E2E2E2E2E2E2F5F5F5F5F5F5F5F5F5E2E2E2E2E2E2E2E2E2E2E2
310
E2E2E2E2E2E2F5F5F5F5F5F5F5F5F5E2E2E2E2E2E2E2E2E2F5F5F5F5F5F5F5F5F5F5F5E2E2F5F5F5F5F5F5F5F5F5F5F5F5F5F5F5F5F5F5F5F5F5F5F5F5F5F5F5F5F5F5F5F5F5F5F5F5F5F5F5F5F5F5F5F5F5F5F5F5F5F5F5F5F5F5F5F5F5F5F5F5F5F5F5F5F5F5F5F5F5F5F5F5F5F5F5F5F5F5F5F5F5F5F5F5F5F5F5F5F5F5
310
F5F5F5F5F5F5F5F5F5F5F5F5F5F5F5F5F5F5F5F5F5F5F5F5F5F5F5F5F5F5F5F5F5F5F5F5F5F5F5F5F5F5F5F5F5F5F5F5F5F5F5F5F5F5F5F5F5F5F5F5F5F5F5F5F5F5F5F5F5F5F5F5F5F5F5F5F5F5F5F5F5F5F5F5F5F5F5F5E2E2F5F5F5F5F5F5F5F5F5F5F5F5F5F5F5F5F5F5F5F5F5F5F5F5F5F5F5F5F5F5F5F5F5F5F5F5F5
310
F5F5F5F5F5F5F5F5F5F5F5F5F5F5F5F5F5F5F5F5F5F5F5F5F5F5F5F5F5F5F5F5F5F5F5F5F5F5F5F5F5F5F5F5F5F5F5F5F5F5F5F5F5F5F5F5F5F5F5F5F5F5F5F5F5F5F5F5F5F5F5F5F5F5F5F5F5F5F5F5F5F5F5F5F5F5F5F5F5F5F5F5F5F5F5F5F5F5F5F5F5F5F5F5F5F5F5F5F5F5F5F5F5F5F5F5F5F5F5F5F5F5F5F5F5F5F5
310
F5F5F5F5F5F5F5F5F5F5F5F5F5F5E2E2F5F5F5F5F5F5F5F5F5F5F5F5F5F5F5F5F5F5F5F5F5F5F5F5F5F5F5F5F5F5F5F5F5F5F5F5F5F5F5F5F5F5F5F5F5F5F5F5F5F5F5F5F5F5F5F5F5F5F5F5F5F5F5F5F5F5F5F5F5F5F5F5F5F5F5F5F5F5F5F5F5F5F5F5F5F5F5F5F5F5F5F5F5F5F5F5F5F5F5F5F5F5F5F5F5F5F5F5F5F5F5
310
F5F5F5F5F5F5F5F5F5F5F5F5F5F5F5F5F5F5F5F5F5F5F5F5F5F5F5F5F5F5F5F5F5F5F5F5F5F5F5F5F5F5F5F5F5F5F5F5F5F5F5F5F5F5F5F5F5F5F5F5F5F5F5F5F5F5F5E2E2F5F5F5F5F5F5F5F5F5F5F5F5F5F5F5F5F5F5F5F5F5F5F5F5F5F5F5F5F5F5F5F5F5F5F5F5F5F5F5F5F5F5F5F5F5F5F5F5F5F5F5F5F5F5F5F5F5F5
310
F5F5F5F5F5F5F5F5F5F5F5F5F5F5F5F5F5F5F5F5F5F5F5F5F5F5F5F5F5F5F5F5F5F5F5F5F5F5F5F5F5F5F5F5F5F5F5F5F5F5F5F5F5F5F5F5F5F5F5F5F5F5F5F5F5F5F5F5F5F5F5F5F5F5F5F5F5F5F5F5F5F5F5F5F5F5F5F5F5F5F5F5F5F5F5F5F5F5F5F5F5F5F5F5F5F5F5F5F5F5F5F5F5F5F5F5F5F5F5F5E2EFE2E2E2E2E2
310
E2E2E2E2E2E2E2E2E2E2E2E2E2E2E2E2E2E2E2E2E2E2E2E2E2E2E2E2E2E2E2E2E2E2E2E2E2E2E2E2E2E2E2E2E2E2E2E2E2E2E2E2E2E2E2E2E2E2E2E2E2E2E2E2E2E2E2E2E2E2E2E2E2E2E2E2E2E2E2E2E2E2E2E2E2E2E2E2E2E2E2E2E2E2E2E2E2E2E2E2E2E2E2E2E2E2E2E2E2E2E2E2E2E2E2E2E2E2E2E2E2E2E2E2E2E2E2
310
E2E2E2E2E2E2E2E2E2E2E2E2E2E2E2E2E2E2E2E2E2E2E2E2E2E2E2E2E2E2E2E2E2E2E2E2E2E2E2E2E2E2E2E2E2E2E2EF
  0
ENDSEC
  0
EOF
