  0
SECTION
  2
HEADER
  9
$ACADVER
  1
AC1021
  9
$ACADMAINTVER
 70
     1
  9
$DWGCODEPAGE
  3
ANSI_1252
  9
$LASTSAVEDBY
  1
user
  9
$INSBASE
 10
0.0
 20
0.0
 30
0.0
  9
$EXTMIN
 10
1076.739715595871
 20
1274.558631129885
 30
0.0
  9
$EXTMAX
 10
1232.373538827615
 20
1303.522649368456
 30
0.0
  9
$LIMMIN
 10
0.0
 20
0.0
  9
$LIMMAX
 10
420.0
 20
297.0
  9
$ORTHOMODE
 70
     1
  9
$REGENMODE
 70
     1
  9
$FILLMODE
 70
     1
  9
$QTEXTMODE
 70
     0
  9
$MIRRTEXT
 70
     0
  9
$LTSCALE
 40
1.0
  9
$ATTMODE
 70
     1
  9
$TEXTSIZE
 40
0.3937
  9
$TRACEWID
 40
1.0
  9
$TEXTSTYLE
  7
스타일2
  9
$CLAYER
  8
0
  9
$CELTYPE
  6
ByLayer
  9
$CECOLOR
 62
   256
  9
$CELTSCALE
 40
1.0
  9
$DISPSILH
 70
     0
  9
$DIMSCALE
 40
1.0
  9
$DIMASZ
 40
0.2
  9
$DIMEXO
 40
0.1
  9
$DIMDLI
 40
0.039
  9
$DIMRND
 40
0.0
  9
$DIMDLE
 40
0.0
  9
$DIMEXE
 40
0.2
  9
$DIMTP
 40
0.0
  9
$DIMTM
 40
0.0
  9
$DIMTXT
 40
2.5
  9
$DIMCEN
 40
0.039
  9
$DIMTSZ
 40
0.0
  9
$DIMTOL
 70
     0
  9
$DIMLIM
 70
     0
  9
$DIMTIH
 70
     0
  9
$DIMTOH
 70
     0
  9
$DIMSE1
 70
     0
  9
$DIMSE2
 70
     0
  9
$DIMTAD
 70
     1
  9
$DIMZIN
 70
     8
  9
$DIMBLK
  1

  9
$DIMASO
 70
     1
  9
$DIMSHO
 70
     1
  9
$DIMPOST
  1

  9
$DIMAPOST
  1

  9
$DIMALT
 70
     0
  9
$DIMALTD
 70
     2
  9
$DIMALTF
 40
0.0394
  9
$DIMLFAC
 40
1.0
  9
$DIMTOFL
 70
     1
  9
$DIMTVP
 40
1.0
  9
$DIMTIX
 70
     0
  9
$DIMSOXD
 70
     0
  9
$DIMSAH
 70
     0
  9
$DIMBLK1
  1

  9
$DIMBLK2
  1

  9
$DIMSTYLE
  2
DIN
  9
$DIMCLRD
 70
     0
  9
$DIMCLRE
 70
     0
  9
$DIMCLRT
 70
     0
  9
$DIMTFAC
 40
1.0
  9
$DIMGAP
 40
0.05
  9
$DIMJUST
 70
     0
  9
$DIMSD1
 70
     0
  9
$DIMSD2
 70
     0
  9
$DIMTOLJ
 70
     1
  9
$DIMTZIN
 70
     0
  9
$DIMALTZ
 70
     0
  9
$DIMALTTZ
 70
     0
  9
$DIMUPT
 70
     0
  9
$DIMDEC
 70
     4
  9
$DIMTDEC
 70
     4
  9
$DIMALTU
 70
     8
  9
$DIMALTTD
 70
     2
  9
$DIMTXSTY
  7
스타일2
  9
$DIMAUNIT
 70
     0
  9
$DIMADEC
 70
     0
  9
$DIMALTRND
 40
0.0
  9
$DIMAZIN
 70
     0
  9
$DIMDSEP
 70
    46
  9
$DIMATFIT
 70
     3
  9
$DIMFRAC
 70
     0
  9
$DIMLDRBLK
  1

  9
$DIMLUNIT
 70
     6
  9
$DIMLWD
 70
    -2
  9
$DIMLWE
 70
    -2
  9
$DIMTMOVE
 70
     0
  9
$DIMFXL
 40
1.0
  9
$DIMFXLON
 70
     0
  9
$DIMJOGANG
 40
0.7853981633974483
  9
$DIMTFILL
 70
     0
  9
$DIMTFILLCLR
 70
     0
  9
$DIMARCSYM
 70
     0
  9
$DIMLTYPE
  6

  9
$DIMLTEX1
  6

  9
$DIMLTEX2
  6

  9
$LUNITS
 70
     3
  9
$LUPREC
 70
     4
  9
$SKETCHINC
 40
1.0
  9
$FILLETRAD
 40
3.0
  9
$AUNITS
 70
     0
  9
$AUPREC
 70
     0
  9
$MENU
  1
.
  9
$ELEVATION
 40
0.0
  9
$PELEVATION
 40
0.0
  9
$THICKNESS
 40
0.0
  9
$LIMCHECK
 70
     0
  9
$CHAMFERA
 40
0.0
  9
$CHAMFERB
 40
0.0
  9
$CHAMFERC
 40
0.0
  9
$CHAMFERD
 40
0.0
  9
$SKPOLY
 70
     0
  9
$TDCREATE
 40
2454393.179354919
  9
$TDUCREATE
 40
2454393.346021586
  9
$TDUPDATE
 40
2458416.585387281
  9
$TDUUPDATE
 40
2458416.752053947
  9
$TDINDWG
 40
1.0110557755
  9
$TDUSRTIMER
 40
1.0110550463
  9
$USRTIMER
 70
     1
  9
$ANGBASE
 50
0.0
  9
$ANGDIR
 70
     0
  9
$PDMODE
 70
     0
  9
$PDSIZE
 40
0.0
  9
$PLINEWID
 40
0.0
  9
$SPLFRAME
 70
     0
  9
$SPLINETYPE
 70
     6
  9
$SPLINESEGS
 70
     8
  9
$HANDSEED
  5
32E4
  9
$SURFTAB1
 70
     6
  9
$SURFTAB2
 70
     6
  9
$SURFTYPE
 70
     6
  9
$SURFU
 70
     6
  9
$SURFV
 70
     6
  9
$UCSBASE
  2

  9
$UCSNAME
  2

  9
$UCSORG
 10
0.0
 20
0.0
 30
0.0
  9
$UCSXDIR
 10
1.0
 20
0.0
 30
0.0
  9
$UCSYDIR
 10
0.0
 20
1.0
 30
0.0
  9
$UCSORTHOREF
  2

  9
$UCSORTHOVIEW
 70
     0
  9
$UCSORGTOP
 10
0.0
 20
0.0
 30
0.0
  9
$UCSORGBOTTOM
 10
0.0
 20
0.0
 30
0.0
  9
$UCSORGLEFT
 10
0.0
 20
0.0
 30
0.0
  9
$UCSORGRIGHT
 10
0.0
 20
0.0
 30
0.0
  9
$UCSORGFRONT
 10
0.0
 20
0.0
 30
0.0
  9
$UCSORGBACK
 10
0.0
 20
0.0
 30
0.0
  9
$PUCSBASE
  2

  9
$PUCSNAME
  2

  9
$PUCSORG
 10
0.0
 20
0.0
 30
0.0
  9
$PUCSXDIR
 10
1.0
 20
0.0
 30
0.0
  9
$PUCSYDIR
 10
0.0
 20
1.0
 30
0.0
  9
$PUCSORTHOREF
  2

  9
$PUCSORTHOVIEW
 70
     0
  9
$PUCSORGTOP
 10
0.0
 20
0.0
 30
0.0
  9
$PUCSORGBOTTOM
 10
0.0
 20
0.0
 30
0.0
  9
$PUCSORGLEFT
 10
0.0
 20
0.0
 30
0.0
  9
$PUCSORGRIGHT
 10
0.0
 20
0.0
 30
0.0
  9
$PUCSORGFRONT
 10
0.0
 20
0.0
 30
0.0
  9
$PUCSORGBACK
 10
0.0
 20
0.0
 30
0.0
  9
$USERI1
 70
     0
  9
$USERI2
 70
     0
  9
$USERI3
 70
     0
  9
$USERI4
 70
     0
  9
$USERI5
 70
     0
  9
$USERR1
 40
0.0
  9
$USERR2
 40
0.0
  9
$USERR3
 40
0.0
  9
$USERR4
 40
0.0
  9
$USERR5
 40
0.0
  9
$WORLDVIEW
 70
     1
  9
$SHADEDGE
 70
     3
  9
$SHADEDIF
 70
    70
  9
$TILEMODE
 70
     1
  9
$MAXACTVP
 70
    64
  9
$PINSBASE
 10
0.0
 20
0.0
 30
0.0
  9
$PLIMCHECK
 70
     0
  9
$PEXTMIN
 10
1.000000000000000E+20
 20
1.000000000000000E+20
 30
1.000000000000000E+20
  9
$PEXTMAX
 10
-1.000000000000000E+20
 20
-1.000000000000000E+20
 30
-1.000000000000000E+20
  9
$PLIMMIN
 10
0.0071835950613108
 20
0.0009369707933118
  9
$PLIMMAX
 10
841.0071835950612
 20
594.0009369707931
  9
$UNITMODE
 70
     0
  9
$VISRETAIN
 70
     1
  9
$PLINEGEN
 70
     0
  9
$PSLTSCALE
 70
     1
  9
$TREEDEPTH
 70
  3020
  9
$CMLSTYLE
  2
Standard
  9
$CMLJUST
 70
     0
  9
$CMLSCALE
 40
20.0
  9
$PROXYGRAPHICS
 70
     1
  9
$MEASUREMENT
 70
     1
  9
$CELWEIGHT
370
    -1
  9
$ENDCAPS
280
     0
  9
$JOINSTYLE
280
     0
  9
$LWDISPLAY
290
     0
  9
$INSUNITS
 70
     1
  9
$HYPERLINKBASE
  1

  9
$STYLESHEET
  1

  9
$XEDIT
290
     1
  9
$CEPSNTYPE
380
     0
  9
$PSTYLEMODE
290
     1
  9
$FINGERPRINTGUID
  2
{AC2FA5CB-6F18-4BC2-9C5F-F25C10372E5B}
  9
$VERSIONGUID
  2
{3849DBAF-5D18-404E-990C-4E7B7ABCAB75}
  9
$EXTNAMES
290
     1
  9
$PSVPSCALE
 40
0.0
  9
$OLESTARTUP
290
     0
  9
$SORTENTS
280
   127
  9
$INDEXCTL
280
     0
  9
$HIDETEXT
280
     0
  9
$XCLIPFRAME
290
     0
  9
$HALOGAP
280
     0
  9
$OBSCOLOR
 70
   257
  9
$OBSLTYPE
280
     0
  9
$INTERSECTIONDISPLAY
280
     0
  9
$INTERSECTIONCOLOR
 70
   257
  9
$DIMASSOC
280
     1
  9
$PROJECTNAME
  1

  9
$CAMERADISPLAY
290
     0
  9
$LENSLENGTH
 40
50.0
  9
$CAMERAHEIGHT
 40
0.0
  9
$STEPSPERSEC
 40
2.0
  9
$STEPSIZE
 40
6.0
  9
$3DDWFPREC
 40
2.0
  9
$PSOLWIDTH
 40
0.25
  9
$PSOLHEIGHT
 40
4.0
  9
$LOFTANG1
 40
1.570796326794896
  9
$LOFTANG2
 40
1.570796326794896
  9
$LOFTMAG1
 40
0.0
  9
$LOFTMAG2
 40
0.0
  9
$LOFTPARAM
 70
     7
  9
$LOFTNORMALS
280
     1
  9
$LATITUDE
 40
37.795
  9
$LONGITUDE
 40
-122.394
  9
$NORTHDIRECTION
 40
0.0
  9
$TIMEZONE
 70
 -8000
  9
$LIGHTGLYPHDISPLAY
280
     1
  9
$TILEMODELIGHTSYNCH
280
     1
  9
$CMATERIAL
347
2C2F
  9
$SOLIDHIST
280
     1
  9
$SHOWHIST
280
     1
  9
$DWFFRAME
280
     2
  9
$DGNFRAME
280
     0
  9
$REALWORLDSCALE
290
     1
  9
$INTERFERECOLOR
 62
     1
  9
$INTERFEREOBJVS
345
2C3C
  9
$INTERFEREVPVS
346
2C39
  9
$CSHADOW
280
     0
  9
$SHADOWPLANELOCATION
 40
0.0
  0
ENDSEC
  0
SECTION
  2
CLASSES
  0
CLASS
  1
ACDBDICTIONARYWDFLT
  2
AcDbDictionaryWithDefault
  3
ObjectDBX Classes
 90
        0
 91
        1
280
     0
281
     0
  0
CLASS
  1
PLOTSETTINGS
  2
AcDbPlotSettings
  3
ObjectDBX Classes
 90
        0
 91
        0
280
     0
281
     0
  0
CLASS
  1
DICTIONARYVAR
  2
AcDbDictionaryVar
  3
ObjectDBX Classes
 90
        0
 91
        3
280
     0
281
     0
  0
CLASS
  1
TABLESTYLE
  2
AcDbTableStyle
  3
ObjectDBX Classes
 90
     4095
 91
        1
280
     0
281
     0
  0
CLASS
  1
DIMASSOC
  2
AcDbDimAssoc
  3
"AcDbDimAssoc|Product Desc:     AcDim ARX App For Dimension|Company:          Autodesk, Inc.|WEB Address:      www.autodesk.com"
 90
        0
 91
        0
280
     0
281
     0
  0
CLASS
  1
SORTENTSTABLE
  2
AcDbSortentsTable
  3
ObjectDBX Classes
 90
        0
 91
        3
280
     0
281
     0
  0
CLASS
  1
MATERIAL
  2
AcDbMaterial
  3
ObjectDBX Classes
 90
     1024
 91
        3
280
     0
281
     0
  0
CLASS
  1
VISUALSTYLE
  2
AcDbVisualStyle
  3
ObjectDBX Classes
 90
     4095
 91
       16
280
     0
281
     0
  0
CLASS
  1
RASTERVARIABLES
  2
AcDbRasterVariables
  3
ISM
 90
        0
 91
        2
280
     0
281
     0
  0
CLASS
  1
IMAGE
  2
AcDbRasterImage
  3
ISM
 90
     2175
 91
        5
280
     0
281
     1
  0
CLASS
  1
IMAGEDEF
  2
AcDbRasterImageDef
  3
ISM
 90
        0
 91
        5
280
     0
281
     0
  0
CLASS
  1
IMAGEDEF_REACTOR
  2
AcDbRasterImageDefReactor
  3
ISM
 90
        1
 91
        5
280
     0
281
     0
  0
ENDSEC
  0
SECTION
  2
TABLES
  0
TABLE
  2
VPORT
  5
19
330
0
100
AcDbSymbolTable
 70
     1
  0
VPORT
  5
2C29
330
19
100
AcDbSymbolTableRecord
100
AcDbViewportTableRecord
  2
*Active
 70
     0
 10
0.0
 20
0.0
 11
1.0
 21
1.0
 12
1219.780809793561
 22
1290.72523437906
 13
0.0
 23
0.0
 14
10.0
 24
10.0
 15
10.0
 25
10.0
 16
0.0
 26
0.0
 36
1.0
 17
0.0
 27
0.0
 37
0.0
 40
8.725334181483049
 41
3.06426735218509
 42
50.0
 43
0.0
 44
0.0
 50
0.0
 51
0.0
 71
     0
 72
  1000
 73
     1
 74
     3
 75
     0
 76
     0
 77
     0
 78
     0
281
     0
 65
     1
110
0.0
120
0.0
130
0.0
111
1.0
121
0.0
131
0.0
112
0.0
122
1.0
132
0.0
 79
     0
146
0.0
348
2C38
 60
     3
 61
     5
292
     1
282
     1
141
0.0
142
0.0
 63
   250
421
  3355443
  0
ENDTAB
  0
TABLE
  2
LTYPE
  5
14
330
0
100
AcDbSymbolTable
 70
     3
  0
LTYPE
  5
15
330
14
100
AcDbSymbolTableRecord
100
AcDbLinetypeTableRecord
  2
ByBlock
 70
     0
  3

 72
    65
 73
     0
 40
0.0
  0
LTYPE
  5
16
330
14
100
AcDbSymbolTableRecord
100
AcDbLinetypeTableRecord
  2
ByLayer
 70
     0
  3

 72
    65
 73
     0
 40
0.0
  0
LTYPE
  5
8
330
14
100
AcDbSymbolTableRecord
100
AcDbLinetypeTableRecord
  2
Continuous
 70
     0
  3
Solid line
 72
    65
 73
     0
 40
0.0
  0
LTYPE
  5
1811
330
14
100
AcDbSymbolTableRecord
100
AcDbLinetypeTableRecord
  2
ACAD_ISO04W100
 70
     0
  3
ISO long-dash dot ____ . ____ . ____ . ____ . _
 72
    65
 73
     4
 40
30.0
 49
24.0
 74
     0
 49
-3.0
 74
     0
 49
0.0
 74
     0
 49
-3.0
 74
     0
  0
ENDTAB
  0
TABLE
  2
LAYER
  5
10
102
{ACAD_XDICTIONARY
360
1CC0
102
}
330
0
100
AcDbSymbolTable
 70
    22
  0
LAYER
  5
4
330
10
100
AcDbSymbolTableRecord
100
AcDbLayerTableRecord
  2
0
 70
     0
 62
     7
  6
Continuous
370
    -3
390
5
347
2C31
  0
LAYER
  5
8E
330
10
100
AcDbSymbolTableRecord
100
AcDbLayerTableRecord
  2
07
 70
     0
 62
     7
  6
Continuous
370
    -3
390
5
347
2C31
  0
LAYER
  5
8F
330
10
100
AcDbSymbolTableRecord
100
AcDbLayerTableRecord
  2
035
 70
     0
 62
     5
  6
Continuous
370
    -3
390
5
347
2C31
  0
LAYER
  5
90
330
10
100
AcDbSymbolTableRecord
100
AcDbLayerTableRecord
  2
05
 70
     0
 62
     6
  6
Continuous
370
    -3
390
5
347
2C31
  0
LAYER
  5
91
330
10
100
AcDbSymbolTableRecord
100
AcDbLayerTableRecord
  2
025
 70
     0
 62
     1
  6
Continuous
370
    -3
390
5
347
2C31
  0
LAYER
  5
5CE
330
10
100
AcDbSymbolTableRecord
100
AcDbLayerTableRecord
  2
Defpoints
 70
     0
 62
     7
  6
Continuous
290
     0
370
    -3
390
5
347
2C31
  0
LAYER
  5
62B
330
10
100
AcDbSymbolTableRecord
100
AcDbLayerTableRecord
  2
粗实线
 70
     0
 62
     7
  6
Continuous
370
    30
390
5
347
2C31
  0
LAYER
  5
62C
330
10
100
AcDbSymbolTableRecord
100
AcDbLayerTableRecord
  2
标注线
 70
     0
 62
     7
  6
Continuous
370
    13
390
5
347
2C31
  0
LAYER
  5
1812
330
10
100
AcDbSymbolTableRecord
100
AcDbLayerTableRecord
  2
中心线
 70
     0
 62
     7
  6
ACAD_ISO04W100
370
    18
390
5
347
2C31
  0
LAYER
  5
26BA
330
10
100
AcDbSymbolTableRecord
100
AcDbLayerTableRecord
  2
LC-001-002-----0
 70
     0
 62
     1
  6
ByBlock
370
    -3
390
5
347
2C31
  0
LAYER
  5
26BB
330
10
100
AcDbSymbolTableRecord
100
AcDbLayerTableRecord
  2
LC-002-002-RND-0
 70
     0
 62
     1
  6
ByBlock
370
    -3
390
5
347
2C31
  0
LAYER
  5
26BC
330
10
100
AcDbSymbolTableRecord
100
AcDbLayerTableRecord
  2
LC-003-001-RND-0
 70
     0
 62
     1
  6
ByBlock
370
    -3
390
5
347
2C31
  0
LAYER
  5
26BD
330
10
100
AcDbSymbolTableRecord
100
AcDbLayerTableRecord
  2
LC-004-001-----0
 70
     0
 62
     1
  6
ByBlock
370
    -3
390
5
347
2C31
  0
LAYER
  5
26BE
330
10
100
AcDbSymbolTableRecord
100
AcDbLayerTableRecord
  2
LC-005-005-----0
 70
     0
 62
     2
  6
ByBlock
370
    -3
390
5
347
2C31
  0
LAYER
  5
2762
330
10
100
AcDbSymbolTableRecord
100
AcDbLayerTableRecord
  2
LC-002-001-RND-0
 70
     0
 62
     1
  6
ByBlock
370
    -3
390
5
347
2C31
  0
LAYER
  5
2763
330
10
100
AcDbSymbolTableRecord
100
AcDbLayerTableRecord
  2
LC-003-001-----0
 70
     0
 62
     1
  6
ByBlock
370
    -3
390
5
347
2C31
  0
LAYER
  5
2764
330
10
100
AcDbSymbolTableRecord
100
AcDbLayerTableRecord
  2
LC-004-005-----0
 70
     0
 62
     2
  6
ByBlock
370
    -3
390
5
347
2C31
  0
LAYER
  5
29AA
330
10
100
AcDbSymbolTableRecord
100
AcDbLayerTableRecord
  2
LC-002-020-----0
 70
     0
 62
     1
  6
ByBlock
370
    -3
390
5
347
2C31
  0
LAYER
  5
29AB
330
10
100
AcDbSymbolTableRecord
100
AcDbLayerTableRecord
  2
LC-003-005-----0
 70
     0
 62
     2
  6
ByBlock
370
    -3
390
5
347
2C31
  0
LAYER
  5
2A31
330
10
100
AcDbSymbolTableRecord
100
AcDbLayerTableRecord
  2
LC-004-003-MTG-0
 70
     0
 62
     2
  6
ByBlock
370
    -3
390
5
347
2C31
  0
LAYER
  5
2A32
330
10
100
AcDbSymbolTableRecord
100
AcDbLayerTableRecord
  2
LC-005-003-----0
 70
     0
 62
     2
  6
ByBlock
370
    -3
390
5
347
2C31
  0
LAYER
  5
2AD2
330
10
100
AcDbSymbolTableRecord
100
AcDbLayerTableRecord
  2
LC-004-003-----0
 70
     0
 62
     2
  6
ByBlock
370
    -3
390
5
347
2C31
  0
ENDTAB
  0
TABLE
  2
STYLE
  5
11
330
0
100
AcDbSymbolTable
 70
     9
  0
STYLE
  5
12
330
11
100
AcDbSymbolTableRecord
100
AcDbTextStyleTableRecord
  2
Standard
 70
     0
 40
0.0
 41
1.0
 50
0.0
 71
     0
 42
2.5
  3
txt
  4

  0
STYLE
  5
31
330
11
100
AcDbSymbolTableRecord
100
AcDbTextStyleTableRecord
  2
ISO Proportional
 70
     0
 40
0.0
 41
1.0
 50
0.0
 71
     0
 42
2.5
  3
isocp.shx
  4

  0
STYLE
  5
B96
330
11
100
AcDbSymbolTableRecord
100
AcDbTextStyleTableRecord
  2
스타일1
 70
     0
 40
0.1968
 41
1.0
 50
0.0
 71
     0
 42
2.5
  3
txt.shx
  4

  0
STYLE
  5
B97
330
11
100
AcDbSymbolTableRecord
100
AcDbTextStyleTableRecord
  2
스타일2
 70
     0
 40
0.3937
 41
1.0
 50
0.0
 71
     0
 42
0.3937
  3
txt.shx
  4

  0
STYLE
  5
2A33
330
11
100
AcDbSymbolTableRecord
100
AcDbTextStyleTableRecord
  2
LCTX0-400-0-0pDIN-Schrift
 70
     0
 40
0.0
 41
0.7
 50
0.0
 71
     0
 42
3.5
  3
TXT
  4

  0
STYLE
  5
300F
330
11
100
AcDbSymbolTableRecord
100
AcDbTextStyleTableRecord
  2
Default
 70
     0
 40
0.0
 41
1.0
 50
0.0
 71
     0
 42
0.2
  3
txt_____.ttf
  4

1001
ACAD
1000
txt
1071
        0
  0
STYLE
  5
3010
330
11
100
AcDbSymbolTableRecord
100
AcDbTextStyleTableRecord
  2
Testo nota (ISO)
 70
     0
 40
0.0
 41
1.0
 50
0.0
 71
     0
 42
0.2
  3
tahoma.ttf
  4

1001
ACAD
1000
Tahoma
1071
        0
  0
STYLE
  5
3011
330
11
100
AcDbSymbolTableRecord
100
AcDbTextStyleTableRecord
  2
TSTYLE10
 70
     0
 40
0.0
 41
1.0
 50
0.0
 71
     0
 42
0.2
  3
arial.ttf
  4

1001
ACAD
1000
Arial
1071
        0
  0
STYLE
  5
30F2
330
11
100
AcDbSymbolTableRecord
100
AcDbTextStyleTableRecord
  2
ANSI
 70
     0
 40
0.0
 41
1.0
 50
0.0
 71
     0
 42
0.2
  3
txt_____.ttf
  4

1001
ACAD
1000
txt
1071
        0
  0
ENDTAB
  0
TABLE
  2
VIEW
  5
17
330
0
100
AcDbSymbolTable
 70
     0
  0
ENDTAB
  0
TABLE
  2
UCS
  5
18
330
0
100
AcDbSymbolTable
 70
     0
  0
ENDTAB
  0
TABLE
  2
APPID
  5
1B
330
0
100
AcDbSymbolTable
 70
    12
  0
APPID
  5
1C
330
1B
100
AcDbSymbolTableRecord
100
AcDbRegAppTableRecord
  2
ACAD
 70
     0
  0
APPID
  5
346
330
1B
100
AcDbSymbolTableRecord
100
AcDbRegAppTableRecord
  2
GENIUS_GENTRA_14
 70
     0
  0
APPID
  5
347
330
1B
100
AcDbSymbolTableRecord
100
AcDbRegAppTableRecord
  2
GENIUS_GENODEF_13
 70
     0
  0
APPID
  5
348
330
1B
100
AcDbSymbolTableRecord
100
AcDbRegAppTableRecord
  2
GENIUS_GENOBJ-N-TIT_13
 70
     0
  0
APPID
  5
349
330
1B
100
AcDbSymbolTableRecord
100
AcDbRegAppTableRecord
  2
GENIUS_GENTITLE_13
 70
     0
  0
APPID
  5
34A
330
1B
100
AcDbSymbolTableRecord
100
AcDbRegAppTableRecord
  2
GENIUS_GENOENT_13
 70
     0
  0
APPID
  5
34B
330
1B
100
AcDbSymbolTableRecord
100
AcDbRegAppTableRecord
  2
GENIUS_GENOREF_13
 70
     0
  0
APPID
  5
34C
330
1B
100
AcDbSymbolTableRecord
100
AcDbRegAppTableRecord
  2
GENIUS_GENOLIS_13
 70
     0
  0
APPID
  5
34D
330
1B
100
AcDbSymbolTableRecord
100
AcDbRegAppTableRecord
  2
GENIUS_GENOBJ-N-SDF_13
 70
     0
  0
APPID
  5
34E
330
1B
100
AcDbSymbolTableRecord
100
AcDbRegAppTableRecord
  2
GENIUS_GENSCREG_13
 70
     0
  0
APPID
  5
886
330
1B
100
AcDbSymbolTableRecord
100
AcDbRegAppTableRecord
  2
ACAD_DSTYLE_DIMTEXT_FILL
 70
     0
  0
APPID
  5
B8B
330
1B
100
AcDbSymbolTableRecord
100
AcDbRegAppTableRecord
  2
ACAD_PSEXT
 70
     0
  0
ENDTAB
  0
TABLE
  2
DIMSTYLE
  5
1D
330
0
100
AcDbSymbolTable
 70
    12
100
AcDbDimStyleTable
 71
     1
340
1E
  0
DIMSTYLE
105
1E
330
1D
100
AcDbSymbolTableRecord
100
AcDbDimStyleTableRecord
  2
DIN
 70
     0
 41
2.5
 42
0.625
 43
3.75
 44
1.25
 74
     0
 77
     1
 78
     8
140
2.5
141
2.5
143
0.0394
145
1.0
147
0.625
172
     1
273
     8
277
     6
340
12
  0
DIMSTYLE
105
62D
330
1D
100
AcDbSymbolTableRecord
100
AcDbDimStyleTableRecord
  2
ISO-25
 70
     0
 41
10.0
 42
0.625
 43
3.75
 44
10.0
 73
     0
 74
     0
 77
     1
 78
     8
140
20.0
141
2.5
143
0.03937007874016
147
10.0
171
     3
172
     1
271
     2
272
     2
274
     3
278
    44
279
     1
283
     0
284
     8
340
12
  0
DIMSTYLE
105
62E
330
1D
100
AcDbSymbolTableRecord
100
AcDbDimStyleTableRecord
  2
副本ISO-25
 70
     0
 41
15.0
 42
0.625
 43
3.75
 44
2.0
 73
     0
 74
     0
 77
     1
 78
     8
140
22.0
141
2.5
143
0.03937007874016
147
10.0
171
     3
179
     1
271
     1
272
     1
274
     3
278
    44
279
     1
283
     0
284
     8
340
12
  0
DIMSTYLE
105
62F
330
1D
100
AcDbSymbolTableRecord
100
AcDbDimStyleTableRecord
  2
副本 (2)ISO-25
 70
     0
 41
10.0
 42
0.625
 43
3.75
 44
10.0
 73
     0
 74
     0
 77
     1
 78
     8
140
10.0
141
2.5
143
0.03937007874016
147
10.0
171
     3
172
     1
271
     2
272
     2
274
     3
278
    44
283
     0
284
     8
340
12
  0
DIMSTYLE
105
1FA0
330
1D
100
AcDbSymbolTableRecord
100
AcDbDimStyleTableRecord
  2
Standard
 70
     0
 41
25.0
 42
5.0
 43
2.0
 44
5.0
 73
     0
 74
     0
 77
     1
 78
    12
 79
     3
140
30.0
141
4.0
147
4.0
179
     2
340
12
  0
DIMSTYLE
105
2AD3
330
1D
100
AcDbSymbolTableRecord
100
AcDbDimStyleTableRecord
  2
LC-DIM-L-0025-02-02
 70
     0
 41
2.5
 42
0.0
 43
7.5
 44
1.8
 73
     0
 74
     0
 77
     1
 78
     8
 79
     2
140
2.5
141
0.0
146
0.71
147
1.5
172
     1
176
     2
177
     2
178
     2
179
     2
271
     2
278
    44
289
     1
340
2A33
  0
DIMSTYLE
105
2AD4
330
1D
100
AcDbSymbolTableRecord
100
AcDbDimStyleTableRecord
  2
LC-DIM-R-0025-02-02
 70
     0
 41
2.5
 42
0.0
 43
7.5
 44
1.8
 73
     0
 74
     0
 77
     1
 78
     8
 79
     2
140
2.5
141
0.0
146
0.71
147
1.5
176
     2
177
     2
178
     2
179
     2
271
     2
278
    44
289
     1
340
2A33
  0
DIMSTYLE
105
3012
102
{ACAD_REACTORS
330
3021
330
3022
330
3254
330
3255
330
3256
102
}
330
1D
100
AcDbSymbolTableRecord
100
AcDbDimStyleTableRecord
  2
Default
 70
     0
  3
<>
 41
4.375
 42
1.05
 44
2.1
 49
10.01
 73
     0
 74
     0
 77
     1
 78
     8
140
3.5
146
0.4
147
1.75
172
     1
178
     2
271
     2
272
     3
284
     8
340
300F
341
2FE6
342
2FE6
  0
DIMSTYLE
105
3013
330
1D
100
AcDbSymbolTableRecord
100
AcDbDimStyleTableRecord
  2
Default (ISO)
 70
     0
  3
<>
 41
5.0
 42
0.035
 44
6.349999999999999
 49
10.01
 73
     0
 74
     0
 77
     1
140
3.5
146
1.001486
147
1.524
172
     1
178
     2
271
     2
272
     2
278
    44
340
3010
  0
DIMSTYLE
105
3014
330
1D
100
AcDbSymbolTableRecord
100
AcDbDimStyleTableRecord
  2
DSTYLE1
 70
     0
  3
<>
 41
35.0
 42
9.2414
 44
1.166665
 49
10.01
 73
     0
 74
     0
 78
     8
140
3.5
146
0.6
147
1.225
172
     1
176
     7
177
     7
178
     1
340
300F
  0
DIMSTYLE
105
3015
102
{ACAD_REACTORS
330
3020
102
}
330
1D
100
AcDbSymbolTableRecord
100
AcDbDimStyleTableRecord
  2
DSTYLE8
 70
     0
  3
<>
 41
35.0
 42
58.242514
 44
16.666667
 49
143.0
 73
     0
 74
     0
 77
     1
140
50.0
146
0.6
147
17.5
172
     1
178
     2
271
     0
340
3011
  0
ENDTAB
  0
TABLE
  2
BLOCK_RECORD
  5
1
330
0
100
AcDbSymbolTable
 70
    40
  0
BLOCK_RECORD
  5
2
102
{ACAD_XDICTIONARY
360
95E
102
}
330
1
100
AcDbSymbolTableRecord
100
AcDbBlockTableRecord
  2
*Model_Space
340
A
 70
     0
280
     1
281
     0
  0
BLOCK_RECORD
  5
C
330
1
100
AcDbSymbolTableRecord
100
AcDbBlockTableRecord
  2
*Paper_Space
340
F
 70
     0
280
     1
281
     0
  0
BLOCK_RECORD
  5
2A1A
330
1
100
AcDbSymbolTableRecord
100
AcDbBlockTableRecord
  2
LCDIM1
340
0
 70
     0
280
     1
281
     0
  0
BLOCK_RECORD
  5
2A6E
330
1
100
AcDbSymbolTableRecord
100
AcDbBlockTableRecord
  2
*X1
340
0
 70
     0
280
     1
281
     0
  0
BLOCK_RECORD
  5
2A80
330
1
100
AcDbSymbolTableRecord
100
AcDbBlockTableRecord
  2
*X2
340
0
 70
     0
280
     1
281
     0
  0
BLOCK_RECORD
  5
2BBC
330
1
100
AcDbSymbolTableRecord
100
AcDbBlockTableRecord
  2
*D3
340
0
 70
     0
280
     1
281
     0
  0
BLOCK_RECORD
  5
2BC9
330
1
100
AcDbSymbolTableRecord
100
AcDbBlockTableRecord
  2
*D4
340
0
 70
     0
280
     1
281
     0
  0
BLOCK_RECORD
  5
2BD6
330
1
100
AcDbSymbolTableRecord
100
AcDbBlockTableRecord
  2
*D5
340
0
 70
     0
280
     1
281
     0
  0
BLOCK_RECORD
  5
2BE0
330
1
100
AcDbSymbolTableRecord
100
AcDbBlockTableRecord
  2
*D6
340
0
 70
     0
280
     1
281
     0
  0
BLOCK_RECORD
  5
2FE6
330
1
100
AcDbSymbolTableRecord
100
AcDbBlockTableRecord
  2
_CLOSED
340
0
102
{BLKREFS
331
2FFC
331
2FFD
331
3008
331
3009
331
30A3
331
30A4
331
30AC
331
30AD
331
30D8
331
30E2
331
30EC
331
30B7
331
30B8
331
30C3
331
30C4
331
30CE
331
3158
331
3159
331
3161
331
3162
331
3170
331
3177
331
317E
331
3193
331
321A
331
321B
331
3226
331
3227
331
3231
331
3297
331
3298
331
32A3
331
32A4
331
32AE
331
32CD
331
32D5
331
32D6
331
32DE
331
32DF
102
}
 70
     0
280
     1
281
     0
  0
BLOCK_RECORD
  5
2FED
330
1
100
AcDbSymbolTableRecord
100
AcDbBlockTableRecord
  2
*D8
340
0
 70
     0
280
     1
281
     0
  0
BLOCK_RECORD
  5
2FF7
330
1
100
AcDbSymbolTableRecord
100
AcDbBlockTableRecord
  2
*D9
340
0
 70
     0
280
     1
281
     0
  0
BLOCK_RECORD
  5
3003
330
1
100
AcDbSymbolTableRecord
100
AcDbBlockTableRecord
  2
*D10
340
0
 70
     0
280
     1
281
     0
  0
BLOCK_RECORD
  5
3037
330
1
100
AcDbSymbolTableRecord
100
AcDbBlockTableRecord
  2
*D12
340
0
 70
     0
280
     1
281
     0
  0
BLOCK_RECORD
  5
3041
330
1
100
AcDbSymbolTableRecord
100
AcDbBlockTableRecord
  2
*D13
340
0
 70
     0
280
     1
281
     0
  0
BLOCK_RECORD
  5
304D
330
1
100
AcDbSymbolTableRecord
100
AcDbBlockTableRecord
  2
*D14
340
0
 70
     0
280
     1
281
     0
  0
BLOCK_RECORD
  5
30B2
330
1
100
AcDbSymbolTableRecord
100
AcDbBlockTableRecord
  2
*D16
340
0
 70
     0
280
     1
281
     0
  0
BLOCK_RECORD
  5
30BE
330
1
100
AcDbSymbolTableRecord
100
AcDbBlockTableRecord
  2
*D17
340
0
 70
     0
280
     1
281
     0
  0
BLOCK_RECORD
  5
30CA
330
1
100
AcDbSymbolTableRecord
100
AcDbBlockTableRecord
  2
*D18
340
0
 70
     0
280
     1
281
     0
  0
BLOCK_RECORD
  5
30D4
330
1
100
AcDbSymbolTableRecord
100
AcDbBlockTableRecord
  2
*D19
340
0
 70
     0
280
     1
281
     0
  0
BLOCK_RECORD
  5
30DE
330
1
100
AcDbSymbolTableRecord
100
AcDbBlockTableRecord
  2
*D20
340
0
 70
     0
280
     1
281
     0
  0
BLOCK_RECORD
  5
30E8
330
1
100
AcDbSymbolTableRecord
100
AcDbBlockTableRecord
  2
*D21
340
0
 70
     0
280
     1
281
     0
  0
BLOCK_RECORD
  5
3115
330
1
100
AcDbSymbolTableRecord
100
AcDbBlockTableRecord
  2
*D23
340
0
 70
     0
280
     1
281
     0
  0
BLOCK_RECORD
  5
3121
330
1
100
AcDbSymbolTableRecord
100
AcDbBlockTableRecord
  2
*D24
340
0
 70
     0
280
     1
281
     0
  0
BLOCK_RECORD
  5
312D
330
1
100
AcDbSymbolTableRecord
100
AcDbBlockTableRecord
  2
*D25
340
0
 70
     0
280
     1
281
     0
  0
BLOCK_RECORD
  5
3137
330
1
100
AcDbSymbolTableRecord
100
AcDbBlockTableRecord
  2
*D26
340
0
 70
     0
280
     1
281
     0
  0
BLOCK_RECORD
  5
3141
330
1
100
AcDbSymbolTableRecord
100
AcDbBlockTableRecord
  2
*D27
340
0
 70
     0
280
     1
281
     0
  0
BLOCK_RECORD
  5
314B
330
1
100
AcDbSymbolTableRecord
100
AcDbBlockTableRecord
  2
*D28
340
0
 70
     0
280
     1
281
     0
  0
BLOCK_RECORD
  5
3215
330
1
100
AcDbSymbolTableRecord
100
AcDbBlockTableRecord
  2
*D29
340
0
 70
     0
280
     1
281
     0
  0
BLOCK_RECORD
  5
3221
330
1
100
AcDbSymbolTableRecord
100
AcDbBlockTableRecord
  2
*D30
340
0
 70
     0
280
     1
281
     0
  0
BLOCK_RECORD
  5
322D
330
1
100
AcDbSymbolTableRecord
100
AcDbBlockTableRecord
  2
*D31
340
0
 70
     0
280
     1
281
     0
  0
BLOCK_RECORD
  5
3257
330
1
100
AcDbSymbolTableRecord
100
AcDbBlockTableRecord
  2
*D33
340
0
 70
     0
280
     1
281
     0
  0
BLOCK_RECORD
  5
3263
330
1
100
AcDbSymbolTableRecord
100
AcDbBlockTableRecord
  2
*D34
340
0
 70
     0
280
     1
281
     0
  0
BLOCK_RECORD
  5
326F
330
1
100
AcDbSymbolTableRecord
100
AcDbBlockTableRecord
  2
*D35
340
0
 70
     0
280
     1
281
     0
  0
BLOCK_RECORD
  5
3292
330
1
100
AcDbSymbolTableRecord
100
AcDbBlockTableRecord
  2
*D36
340
0
 70
     0
280
     1
281
     0
  0
BLOCK_RECORD
  5
329E
330
1
100
AcDbSymbolTableRecord
100
AcDbBlockTableRecord
  2
*D37
340
0
 70
     0
280
     1
281
     0
  0
BLOCK_RECORD
  5
32AA
330
1
100
AcDbSymbolTableRecord
100
AcDbBlockTableRecord
  2
*D38
340
0
 70
     0
280
     1
281
     0
  0
BLOCK_RECORD
  5
32B4
330
1
100
AcDbSymbolTableRecord
100
AcDbBlockTableRecord
  2
A$C5F901649
340
0
 70
     4
280
     1
281
     0
  0
ENDTAB
  0
ENDSEC
  0
SECTION
  2
BLOCKS
  0
BLOCK
  5
3
330
2
100
AcDbEntity
  8
0
100
AcDbBlockBegin
  2
*Model_Space
 70
     2
 10
0.0
 20
0.0
 30
0.0
  3
*Model_Space
  1

  0
ENDBLK
  5
9
330
2
100
AcDbEntity
  8
0
100
AcDbBlockEnd
  0
BLOCK
  5
D
330
C
100
AcDbEntity
 67
     1
  8
0
100
AcDbBlockBegin
  2
*Paper_Space
 70
     0
 10
0.0
 20
0.0
 30
0.0
  3
*Paper_Space
  1

  0
ENDBLK
  5
E
330
C
100
AcDbEntity
 67
     1
  8
0
100
AcDbBlockEnd
  0
BLOCK
  5
2A1B
330
2A1A
100
AcDbEntity
  8
0
100
AcDbBlockBegin
  2
LCDIM1
 70
     0
 10
0.0
 20
0.0
 30
0.0
  3
LCDIM1
  1

  4
LCDIM1
  0
LINE
  5
2A1C
330
2A1A
100
AcDbEntity
  8
LC-004-003-MTG-0
 62
     7
370
    25
100
AcDbLine
 10
530.6772829999998
 20
541.813267
 30
0.0
 11
572.0219369999997
 21
549.203774
 31
0.0
  0
LINE
  5
2A1D
330
2A1A
100
AcDbEntity
  8
LC-005-003-----0
 62
     7
370
    25
100
AcDbLine
 10
533.0598
 20
542.5706389999998
 30
0.0
 11
530.6772829999998
 21
541.813267
 31
0.0
  0
LINE
  5
2A1E
330
2A1A
100
AcDbEntity
  8
LC-005-003-----0
 62
     7
370
    25
100
AcDbLine
 10
530.6772829999998
 20
541.813267
 30
0.0
 11
533.17464
 21
541.9281909999998
 31
0.0
  0
LINE
  5
2A1F
330
2A1A
100
AcDbEntity
  8
LC-005-003-----0
 62
     7
370
    25
100
AcDbLine
 10
533.17464
 20
541.9281909999998
 30
0.0
 11
533.0598
 21
542.5706389999998
 31
0.0
  0
LINE
  5
2A20
330
2A1A
100
AcDbEntity
  8
LC-005-003-----0
 62
     7
370
    25
100
AcDbLine
 10
533.080204
 20
542.488099
 30
0.0
 11
531.3171409999998
 21
541.9276439999999
 31
0.0
  0
LINE
  5
2A21
330
2A1A
100
AcDbEntity
  8
LC-005-003-----0
 62
     7
370
    25
100
AcDbLine
 10
531.3171409999998
 20
541.9276439999999
 30
0.0
 11
533.1651849999998
 21
542.012688
 31
0.0
  0
LINE
  5
2A22
330
2A1A
100
AcDbEntity
  8
LC-005-003-----0
 62
     7
370
    25
100
AcDbLine
 10
533.100607
 20
542.405559
 30
0.0
 11
531.9569979999998
 21
542.0420209999998
 31
0.0
  0
LINE
  5
2A23
330
2A1A
100
AcDbEntity
  8
LC-005-003-----0
 62
     7
370
    25
100
AcDbLine
 10
531.9569979999998
 20
542.0420209999998
 30
0.0
 11
533.1557299999998
 21
542.0971839999999
 31
0.0
  0
LINE
  5
2A24
330
2A1A
100
AcDbEntity
  8
LC-005-003-----0
 62
     7
370
    25
100
AcDbLine
 10
533.1210099999998
 20
542.32302
 30
0.0
 11
532.5968559999998
 21
542.1563980000001
 31
0.0
  0
LINE
  5
2A25
330
2A1A
100
AcDbEntity
  8
LC-005-003-----0
 62
     7
370
    25
100
AcDbLine
 10
532.5968559999998
 20
542.1563980000001
 30
0.0
 11
533.1462749999998
 21
542.1816809999998
 31
0.0
  0
LINE
  5
2A26
330
2A1A
100
AcDbEntity
  8
LC-005-003-----0
 62
     7
370
    25
100
AcDbLine
 10
569.6394199999997
 20
548.4464019999998
 30
0.0
 11
572.0219369999997
 21
549.203774
 31
0.0
  0
LINE
  5
2A27
330
2A1A
100
AcDbEntity
  8
LC-005-003-----0
 62
     7
370
    25
100
AcDbLine
 10
572.0219369999997
 20
549.203774
 30
0.0
 11
569.52458
 21
549.0888499999998
 31
0.0
  0
LINE
  5
2A28
330
2A1A
100
AcDbEntity
  8
LC-005-003-----0
 62
     7
370
    25
100
AcDbLine
 10
569.52458
 20
549.0888499999998
 30
0.0
 11
569.6394199999997
 21
548.4464019999998
 31
0.0
  0
LINE
  5
2A29
330
2A1A
100
AcDbEntity
  8
LC-005-003-----0
 62
     7
370
    25
100
AcDbLine
 10
569.6190159999997
 20
548.5289419999998
 30
0.0
 11
571.3820789999997
 21
549.089397
 31
0.0
  0
LINE
  5
2A2A
330
2A1A
100
AcDbEntity
  8
LC-005-003-----0
 62
     7
370
    25
100
AcDbLine
 10
571.3820789999997
 20
549.089397
 30
0.0
 11
569.534035
 21
549.004353
 31
0.0
  0
LINE
  5
2A2B
330
2A1A
100
AcDbEntity
  8
LC-005-003-----0
 62
     7
370
    25
100
AcDbLine
 10
569.598613
 20
548.611482
 30
0.0
 11
570.7422209999997
 21
548.9750199999998
 31
0.0
  0
LINE
  5
2A2C
330
2A1A
100
AcDbEntity
  8
LC-005-003-----0
 62
     7
370
    25
100
AcDbLine
 10
570.7422209999997
 20
548.9750199999998
 30
0.0
 11
569.54349
 21
548.919856
 31
0.0
  0
LINE
  5
2A2D
330
2A1A
100
AcDbEntity
  8
LC-005-003-----0
 62
     7
370
    25
100
AcDbLine
 10
569.57821
 20
548.694021
 30
0.0
 11
570.1023639999997
 21
548.8606429999999
 31
0.0
  0
LINE
  5
2A2E
330
2A1A
100
AcDbEntity
  8
LC-005-003-----0
 62
     7
370
    25
100
AcDbLine
 10
570.1023639999997
 20
548.8606429999999
 30
0.0
 11
569.552945
 21
548.8353599999998
 31
0.0
  0
TEXT
  5
2A2F
330
2A1A
100
AcDbEntity
  8
LC-005-003-----0
 62
     7
370
    25
100
AcDbText
 10
540.1123619545855
 20
545.0235976179942
 30
0.0
 40
2.5
  1
%%c420 (16.54")
 50
10.134788
 41
0.7
  7
LCTX0-400-0-0pDIN-Schrift
 72
     1
 11
549.1565049999998
 21
546.6402709999998
 31
0.0
100
AcDbText
  0
ENDBLK
  5
2A30
330
2A1A
100
AcDbEntity
  8
0
100
AcDbBlockEnd
  0
BLOCK
  5
2A6F
330
2A6E
100
AcDbEntity
  8
0
100
AcDbBlockBegin
  2
*X1
 70
     1
 10
0.0
 20
0.0
 30
0.0
  3
*X1
  1

  4
*X1
  0
LINE
  5
2A70
330
2A6E
100
AcDbEntity
  8
LC-003-005-----0
 62
     7
370
    25
100
AcDbLine
 10
640.583076
 20
415.72312
 30
0.0
 11
641.544961
 21
416.6850039999998
 31
0.0
  0
LINE
  5
2A71
330
2A6E
100
AcDbEntity
  8
LC-003-005-----0
 62
     7
370
    25
100
AcDbLine
 10
636.3404349999997
 20
415.72312
 30
0.0
 11
642.043253
 21
421.425937
 31
0.0
  0
LINE
  5
2A72
330
2A6E
100
AcDbEntity
  8
LC-003-005-----0
 62
     7
370
    25
100
AcDbLine
 10
633.5527139999998
 20
417.178039
 30
0.0
 11
642.541545
 21
426.16687
 31
0.0
  0
LINE
  5
2A73
330
2A6E
100
AcDbEntity
  8
LC-003-005-----0
 62
     7
370
    25
100
AcDbLine
 10
634.0510059999997
 20
421.918972
 30
0.0
 11
643.172466
 21
431.0404319999998
 31
0.0
  0
LINE
  5
2A74
330
2A6E
100
AcDbEntity
  8
LC-003-005-----0
 62
     7
370
    25
100
AcDbLine
 10
634.549299
 20
426.6599049999999
 30
0.0
 11
644.0009439999998
 21
436.11155
 31
0.0
  0
LINE
  5
2A75
330
2A6E
100
AcDbEntity
  8
LC-003-005-----0
 62
     7
370
    25
100
AcDbLine
 10
635.16844
 20
431.5216869999998
 30
0.0
 11
645.139533
 21
441.49278
 31
0.0
  0
LINE
  5
2A76
330
2A6E
100
AcDbEntity
  8
LC-003-005-----0
 62
     7
370
    25
100
AcDbLine
 10
673.701986
 20
470.0552329999998
 30
0.0
 11
676.4020429999998
 21
472.75529
 31
0.0
  0
LINE
  5
2A77
330
2A6E
100
AcDbEntity
  8
LC-003-005-----0
 62
     7
370
    25
100
AcDbLine
 10
635.952891
 20
436.548778
 30
0.0
 11
646.7138339999998
 21
447.3097219999998
 31
0.0
  0
LINE
  5
2A78
330
2A6E
100
AcDbEntity
  8
LC-003-005-----0
 62
     7
370
    25
100
AcDbLine
 10
669.459346
 20
470.0552329999998
 30
0.0
 11
675.243408
 21
475.839296
 31
0.0
  0
LINE
  5
2A79
330
2A6E
100
AcDbEntity
  8
LC-003-005-----0
 62
     7
370
    25
100
AcDbLine
 10
637.013348
 20
441.851876
 30
0.0
 11
649.228196
 21
454.066725
 31
0.0
  0
LINE
  5
2A7A
330
2A6E
100
AcDbEntity
  8
LC-003-005-----0
 62
     7
370
    25
100
AcDbLine
 10
663.2167049999998
 20
468.055233
 30
0.0
 11
664.590849
 21
469.429378
 31
0.0
  0
LINE
  5
2A7B
330
2A6E
100
AcDbEntity
  8
LC-003-005-----0
 62
     7
370
    25
100
AcDbLine
 10
665.2167049999998
 20
470.0552329999998
 30
0.0
 11
672.2167049999998
 21
477.055233
 31
0.0
  0
LINE
  5
2A7C
330
2A6E
100
AcDbEntity
  8
LC-003-005-----0
 62
     7
370
    25
100
AcDbLine
 10
638.463747
 20
447.544916
 30
0.0
 11
667.974064
 21
477.055233
 31
0.0
  0
LINE
  5
2A7D
330
2A6E
100
AcDbEntity
  8
LC-003-005-----0
 62
     7
370
    25
100
AcDbLine
 10
640.4956269999999
 20
453.819437
 30
0.0
 11
663.6934519999997
 21
477.017262
 31
0.0
  0
LINE
  5
2A7E
330
2A6E
100
AcDbEntity
  8
LC-003-005-----0
 62
     7
370
    25
100
AcDbLine
 10
644.0021879999997
 20
461.5686389999998
 30
0.0
 11
658.307983
 21
475.8744329999998
 31
0.0
  0
ENDBLK
  5
2A7F
330
2A6E
100
AcDbEntity
  8
0
100
AcDbBlockEnd
  0
BLOCK
  5
2A81
330
2A80
100
AcDbEntity
  8
0
100
AcDbBlockBegin
  2
*X2
 70
     1
 10
0.0
 20
0.0
 30
0.0
  3
*X2
  1

  4
*X2
  0
LINE
  5
2A82
330
2A80
100
AcDbEntity
  8
LC-003-005-----0
 62
     7
370
    25
100
AcDbLine
 10
668.590849
 20
479.7505629999998
 30
0.0
 11
671.2861789999997
 21
477.055233
 31
0.0
  0
LINE
  5
2A83
330
2A80
100
AcDbEntity
  8
LC-003-005-----0
 62
     7
370
    25
100
AcDbLine
 10
668.590849
 20
482.57899
 30
0.0
 11
674.114606
 21
477.055233
 31
0.0
  0
LINE
  5
2A84
330
2A80
100
AcDbEntity
  8
LC-003-005-----0
 62
     7
370
    25
100
AcDbLine
 10
668.590849
 20
485.4074179999998
 30
0.0
 11
676.943034
 21
477.055233
 31
0.0
  0
LINE
  5
2A85
330
2A80
100
AcDbEntity
  8
LC-003-005-----0
 62
     7
370
    25
100
AcDbLine
 10
668.590849
 20
488.235845
 30
0.0
 11
679.771461
 21
477.055233
 31
0.0
  0
LINE
  5
2A86
330
2A80
100
AcDbEntity
  8
LC-003-005-----0
 62
     7
370
    25
100
AcDbLine
 10
668.590849
 20
491.0642719999998
 30
0.0
 11
682.599888
 21
477.055233
 31
0.0
  0
LINE
  5
2A87
330
2A80
100
AcDbEntity
  8
LC-003-005-----0
 62
     7
370
    25
100
AcDbLine
 10
668.590849
 20
493.892699
 30
0.0
 11
685.428315
 21
477.055233
 31
0.0
  0
LINE
  5
2A88
330
2A80
100
AcDbEntity
  8
LC-003-005-----0
 62
     7
370
    25
100
AcDbLine
 10
668.590849
 20
496.721126
 30
0.0
 11
688.256742
 21
477.055233
 31
0.0
  0
LINE
  5
2A89
330
2A80
100
AcDbEntity
  8
LC-003-005-----0
 62
     7
370
    25
100
AcDbLine
 10
668.590849
 20
499.549553
 30
0.0
 11
691.0851690000002
 21
477.055233
 31
0.0
  0
LINE
  5
2A8A
330
2A80
100
AcDbEntity
  8
LC-003-005-----0
 62
     7
370
    25
100
AcDbLine
 10
668.590849
 20
502.3779799999998
 30
0.0
 11
693.9135959999996
 21
477.055233
 31
0.0
  0
LINE
  5
2A8B
330
2A80
100
AcDbEntity
  8
LC-003-005-----0
 62
     7
370
    25
100
AcDbLine
 10
668.590849
 20
505.206407
 30
0.0
 11
696.742023
 21
477.055233
 31
0.0
  0
LINE
  5
2A8C
330
2A80
100
AcDbEntity
  8
LC-003-005-----0
 62
     7
370
    25
100
AcDbLine
 10
668.590849
 20
508.034835
 30
0.0
 11
699.5704509999996
 21
477.055233
 31
0.0
  0
LINE
  5
2A8D
330
2A80
100
AcDbEntity
  8
LC-003-005-----0
 62
     7
370
    25
100
AcDbLine
 10
668.590849
 20
510.863262
 30
0.0
 11
702.398878
 21
477.055233
 31
0.0
  0
LINE
  5
2A8E
330
2A80
100
AcDbEntity
  8
LC-003-005-----0
 62
     7
370
    25
100
AcDbLine
 10
668.590849
 20
513.691689
 30
0.0
 11
705.227305
 21
477.055233
 31
0.0
  0
LINE
  5
2A8F
330
2A80
100
AcDbEntity
  8
LC-003-005-----0
 62
     7
370
    25
100
AcDbLine
 10
670.055732
 20
515.055233
 30
0.0
 11
708.055732
 21
477.055233
 31
0.0
  0
LINE
  5
2A90
330
2A80
100
AcDbEntity
  8
LC-003-005-----0
 62
     7
370
    25
100
AcDbLine
 10
672.884159
 20
515.055233
 30
0.0
 11
710.8841589999997
 21
477.055233
 31
0.0
  0
LINE
  5
2A91
330
2A80
100
AcDbEntity
  8
LC-003-005-----0
 62
     7
370
    25
100
AcDbLine
 10
675.712586
 20
515.055233
 30
0.0
 11
713.517749
 21
477.25007
 31
0.0
  0
LINE
  5
2A92
330
2A80
100
AcDbEntity
  8
LC-003-005-----0
 62
     7
370
    25
100
AcDbLine
 10
678.541013
 20
515.055233
 30
0.0
 11
713.517749
 21
480.078498
 31
0.0
  0
LINE
  5
2A93
330
2A80
100
AcDbEntity
  8
LC-003-005-----0
 62
     7
370
    25
100
AcDbLine
 10
681.3694400000001
 20
515.055233
 30
0.0
 11
713.517749
 21
482.9069249999998
 31
0.0
  0
LINE
  5
2A94
330
2A80
100
AcDbEntity
  8
LC-003-005-----0
 62
     7
370
    25
100
AcDbLine
 10
684.1978679999997
 20
515.055233
 30
0.0
 11
713.517749
 21
485.735352
 31
0.0
  0
LINE
  5
2A95
330
2A80
100
AcDbEntity
  8
LC-003-005-----0
 62
     7
370
    25
100
AcDbLine
 10
687.0262949999998
 20
515.055233
 30
0.0
 11
713.517749
 21
488.563779
 31
0.0
  0
LINE
  5
2A96
330
2A80
100
AcDbEntity
  8
LC-003-005-----0
 62
     7
370
    25
100
AcDbLine
 10
689.8547219999997
 20
515.055233
 30
0.0
 11
713.517749
 21
491.3922059999999
 31
0.0
  0
LINE
  5
2A97
330
2A80
100
AcDbEntity
  8
LC-003-005-----0
 62
     7
370
    25
100
AcDbLine
 10
692.683149
 20
515.055233
 30
0.0
 11
713.517749
 21
494.220633
 31
0.0
  0
LINE
  5
2A98
330
2A80
100
AcDbEntity
  8
LC-003-005-----0
 62
     7
370
    25
100
AcDbLine
 10
695.5115759999999
 20
515.055233
 30
0.0
 11
713.517749
 21
497.0490599999997
 31
0.0
  0
LINE
  5
2A99
330
2A80
100
AcDbEntity
  8
LC-003-005-----0
 62
     7
370
    25
100
AcDbLine
 10
698.340003
 20
515.055233
 30
0.0
 11
713.517749
 21
499.877487
 31
0.0
  0
LINE
  5
2A9A
330
2A80
100
AcDbEntity
  8
LC-003-005-----0
 62
     7
370
    25
100
AcDbLine
 10
701.1684299999997
 20
515.055233
 30
0.0
 11
713.517749
 21
502.705915
 31
0.0
  0
LINE
  5
2A9B
330
2A80
100
AcDbEntity
  8
LC-003-005-----0
 62
     7
370
    25
100
AcDbLine
 10
703.996857
 20
515.055233
 30
0.0
 11
713.517749
 21
505.5343419999998
 31
0.0
  0
LINE
  5
2A9C
330
2A80
100
AcDbEntity
  8
LC-003-005-----0
 62
     7
370
    25
100
AcDbLine
 10
706.825285
 20
515.055233
 30
0.0
 11
713.517749
 21
508.362769
 31
0.0
  0
LINE
  5
2A9D
330
2A80
100
AcDbEntity
  8
LC-003-005-----0
 62
     7
370
    25
100
AcDbLine
 10
709.653712
 20
515.055233
 30
0.0
 11
713.517749
 21
511.1911959999998
 31
0.0
  0
LINE
  5
2A9E
330
2A80
100
AcDbEntity
  8
LC-003-005-----0
 62
     7
370
    25
100
AcDbLine
 10
712.482139
 20
515.055233
 30
0.0
 11
713.517749
 21
514.0196229999998
 31
0.0
  0
ENDBLK
  5
2A9F
330
2A80
100
AcDbEntity
  8
0
100
AcDbBlockEnd
  0
BLOCK
  5
2BC6
330
2BBC
100
AcDbEntity
  8
0
100
AcDbBlockBegin
  2
*D3
 70
     1
 10
0.0
 20
0.0
 30
0.0
  3
*D3
  1

  0
LINE
  5
2BBD
330
2BBC
100
AcDbEntity
  8
0
 62
     0
370
    -2
100
AcDbLine
 10
1099.123135595871
 20
1279.876717120227
 30
0.0
 11
1101.035606784821
 21
1279.876717120227
 31
0.0
  0
LINE
  5
2BBE
330
2BBC
100
AcDbEntity
  8
0
 62
     0
370
    -2
100
AcDbLine
 10
1099.123135595871
 20
1297.435737120227
 30
0.0
 11
1101.035606784821
 21
1297.435737120227
 31
0.0
  0
LINE
  5
2BBF
330
2BBC
100
AcDbEntity
  8
0
 62
     0
370
    -2
100
AcDbLine
 10
1100.835606784821
 20
1280.076717120227
 30
0.0
 11
1100.835606784821
 21
1297.235737120227
 31
0.0
  0
SOLID
  5
2BC0
330
2BBC
100
AcDbEntity
  8
0
 62
     0
100
AcDbTrace
 10
1100.802273451488
 20
1280.076717120227
 30
0.0
 11
1100.868940118155
 21
1280.076717120227
 31
0.0
 12
1100.835606784821
 22
1279.876717120227
 32
0.0
 13
1100.835606784821
 23
1279.876717120227
 33
0.0
  0
SOLID
  5
2BC1
330
2BBC
100
AcDbEntity
  8
0
 62
     0
100
AcDbTrace
 10
1100.802273451488
 20
1297.235737120227
 30
0.0
 11
1100.868940118155
 21
1297.235737120227
 31
0.0
 12
1100.835606784821
 22
1297.435737120227
 32
0.0
 13
1100.835606784821
 23
1297.435737120227
 33
0.0
  0
MTEXT
  5
2BC2
330
2BBC
100
AcDbEntity
  8
0
 62
     0
100
AcDbMText
 10
1100.588756784821
 20
1288.656227120227
 30
0.0
 40
0.3937
 41
0.0
 46
0.0
 71
     5
 72
     1
  1
\A1;17.559
  7
스타일2
 11
0.0000000000000001
 21
1.0
 31
0.0
 73
     1
 44
1.0
1001
ACAD
1000
MTEXTBEGIN
1070
    73
1070
     1
1070
    44
1040
1.0
1070
    74
1070
     0
1000
MTEXTEND
  0
POINT
  5
2BC3
330
2BBC
100
AcDbEntity
  8
Defpoints
 62
     0
100
AcDbPoint
 10
1099.023135595871
 20
1279.876717120227
 30
0.0
  0
POINT
  5
2BC4
330
2BBC
100
AcDbEntity
  8
Defpoints
 62
     0
100
AcDbPoint
 10
1099.023135595871
 20
1297.435737120227
 30
0.0
  0
POINT
  5
2BC5
330
2BBC
100
AcDbEntity
  8
Defpoints
 62
     0
100
AcDbPoint
 10
1100.835606784821
 20
1297.435737120227
 30
0.0
  0
ENDBLK
  5
2BC7
330
2BBC
100
AcDbEntity
  8
0
100
AcDbBlockEnd
  0
BLOCK
  5
2BD3
330
2BC9
100
AcDbEntity
  8
0
100
AcDbBlockBegin
  2
*D4
 70
     1
 10
0.0
 20
0.0
 30
0.0
  3
*D4
  1

  0
LINE
  5
2BCA
330
2BC9
100
AcDbEntity
  8
0
 62
     0
370
    -2
100
AcDbLine
 10
1076.739715595871
 20
1280.485377120227
 30
0.0
 11
1076.739715595871
 21
1278.577971918801
 31
0.0
  0
LINE
  5
2BCB
330
2BC9
100
AcDbEntity
  8
0
 62
     0
370
    -2
100
AcDbLine
 10
1099.731795595871
 20
1280.485377120227
 30
0.0
 11
1099.731795595871
 21
1278.577971918801
 31
0.0
  0
LINE
  5
2BCC
330
2BC9
100
AcDbEntity
  8
0
 62
     0
370
    -2
100
AcDbLine
 10
1076.939715595871
 20
1278.777971918801
 30
0.0
 11
1099.531795595871
 21
1278.777971918801
 31
0.0
  0
SOLID
  5
2BCD
330
2BC9
100
AcDbEntity
  8
0
 62
     0
100
AcDbTrace
 10
1076.939715595871
 20
1278.811305252134
 30
0.0
 11
1076.939715595871
 21
1278.744638585468
 31
0.0
 12
1076.739715595871
 22
1278.777971918801
 32
0.0
 13
1076.739715595871
 23
1278.777971918801
 33
0.0
  0
SOLID
  5
2BCE
330
2BC9
100
AcDbEntity
  8
0
 62
     0
100
AcDbTrace
 10
1099.531795595871
 20
1278.811305252134
 30
0.0
 11
1099.531795595871
 21
1278.744638585468
 31
0.0
 12
1099.731795595871
 22
1278.777971918801
 32
0.0
 13
1099.731795595871
 23
1278.777971918801
 33
0.0
  0
MTEXT
  5
2BCF
330
2BC9
100
AcDbEntity
  8
0
 62
     0
100
AcDbMText
 10
1088.235755595871
 20
1279.024821918801
 30
0.0
 40
0.3937
 41
0.0
 46
0.0
 71
     5
 72
     1
  1
\A1;22.9921
  7
스타일2
 73
     1
 44
1.0
1001
ACAD
1000
MTEXTBEGIN
1070
    73
1070
     1
1070
    44
1040
1.0
1070
    74
1070
     0
1000
MTEXTEND
  0
POINT
  5
2BD0
330
2BC9
100
AcDbEntity
  8
Defpoints
 62
     0
100
AcDbPoint
 10
1076.739715595871
 20
1280.585377120227
 30
0.0
  0
POINT
  5
2BD1
330
2BC9
100
AcDbEntity
  8
Defpoints
 62
     0
100
AcDbPoint
 10
1099.731795595871
 20
1280.585377120227
 30
0.0
  0
POINT
  5
2BD2
330
2BC9
100
AcDbEntity
  8
Defpoints
 62
     0
100
AcDbPoint
 10
1099.731795595871
 20
1278.777971918801
 30
0.0
  0
ENDBLK
  5
2BD4
330
2BC9
100
AcDbEntity
  8
0
100
AcDbBlockEnd
  0
BLOCK
  5
2BDC
330
2BD6
100
AcDbEntity
  8
0
100
AcDbBlockBegin
  2
*D5
 70
     1
 10
0.0
 20
0.0
 30
0.0
  3
*D5
  1

  0
LINE
  5
2BD7
330
2BD6
100
AcDbEntity
  8
0
 62
     0
370
    -2
100
AcDbLine
 10
1079.475318822117
 20
1294.680905498877
 30
0.0
 11
1077.090400615378
 21
1297.088447994733
 31
0.0
  0
MTEXT
  5
2BD8
330
2BD6
100
AcDbEntity
  8
0
 62
     0
100
AcDbMText
 10
1078.830468680285
 20
1295.682631318328
 30
0.0
 40
0.3937
 41
0.0
 46
0.0
 71
     5
 72
     1
  1
\A1;R0.7087
  7
스타일2
 11
0.7037608235240613
 21
-0.7104369805075855
 31
0.0
 73
     1
 44
1.0
1001
ACAD
1000
MTEXTBEGIN
1070
    73
1070
     1
1070
    44
1040
1.0
1070
    74
1070
     0
1000
MTEXTEND
  0
SOLID
  5
2BD9
330
2BD6
100
AcDbEntity
  8
0
 62
     0
100
AcDbTrace
 10
1077.114081848062
 20
1297.11190668885
 30
0.0
 11
1077.066719382695
 21
1297.064989300615
 31
0.0
 12
1076.949648450673
 22
1297.230535390834
 32
0.0
 13
1076.949648450673
 23
1297.230535390834
 33
0.0
  0
POINT
  5
2BDA
330
2BD6
100
AcDbEntity
  8
Defpoints
 62
     0
100
AcDbPoint
 10
1076.949648450673
 20
1297.230535390834
 30
0.0
  0
POINT
  5
2BDB
330
2BD6
100
AcDbEntity
  8
Defpoints
 62
     0
100
AcDbPoint
 10
1077.448375595872
 20
1296.727077120228
 30
0.0
  0
ENDBLK
  5
2BDD
330
2BD6
100
AcDbEntity
  8
0
100
AcDbBlockEnd
  0
BLOCK
  5
2BEC
330
2BE0
100
AcDbEntity
  8
0
100
AcDbBlockBegin
  2
*D6
 70
     1
 10
0.0
 20
0.0
 30
0.0
  3
*D6
  1

  0
LINE
  5
2BE1
330
2BE0
100
AcDbEntity
  8
0
 62
     0
370
    -2
100
AcDbLine
 10
1091.276097901001
 20
1290.210778069387
 30
0.0
 11
1091.276097901001
 21
1292.096031260411
 31
0.0
  0
LINE
  5
2BE2
330
2BE0
100
AcDbEntity
  8
0
 62
     0
370
    -2
100
AcDbLine
 10
1091.433577901002
 20
1291.706838069387
 30
0.0
 11
1091.433577901002
 21
1292.096031260411
 31
0.0
  0
LINE
  5
2BE3
330
2BE0
100
AcDbEntity
  8
0
 62
     0
370
    -2
100
AcDbLine
 10
1091.076097901001
 20
1291.896031260411
 30
0.0
 11
1090.876097901001
 21
1291.896031260411
 31
0.0
  0
LINE
  5
2BE4
330
2BE0
100
AcDbEntity
  8
0
 62
     0
370
    -2
100
AcDbLine
 10
1091.633577901002
 20
1291.896031260411
 30
0.0
 11
1093.705227901001
 21
1291.896031260411
 31
0.0
  0
LINE
  5
2BE5
330
2BE0
100
AcDbEntity
  8
0
 62
     0
370
    -2
100
AcDbLine
 10
1091.276097901001
 20
1291.896031260411
 30
0.0
 11
1091.433577901002
 21
1291.896031260411
 31
0.0
  0
SOLID
  5
2BE6
330
2BE0
100
AcDbEntity
  8
0
 62
     0
100
AcDbTrace
 10
1091.076097901001
 20
1291.929364593745
 30
0.0
 11
1091.076097901001
 21
1291.862697927078
 31
0.0
 12
1091.276097901001
 22
1291.896031260411
 32
0.0
 13
1091.276097901001
 23
1291.896031260411
 33
0.0
  0
SOLID
  5
2BE7
330
2BE0
100
AcDbEntity
  8
0
 62
     0
100
AcDbTrace
 10
1091.633577901002
 20
1291.929364593745
 30
0.0
 11
1091.633577901002
 21
1291.862697927078
 31
0.0
 12
1091.433577901002
 22
1291.896031260411
 32
0.0
 13
1091.433577901002
 23
1291.896031260411
 33
0.0
  0
MTEXT
  5
2BE8
330
2BE0
100
AcDbEntity
  8
0
 62
     0
100
AcDbMText
 10
1092.769402901001
 20
1292.142881260411
 30
0.0
 40
0.3937
 41
0.0
 46
0.0
 71
     5
 72
     1
  1
\A1;0.1575
  7
스타일2
 73
     1
 44
1.0
1001
ACAD
1000
MTEXTBEGIN
1070
    73
1070
     1
1070
    44
1040
1.0
1070
    74
1070
     0
1000
MTEXTEND
  0
POINT
  5
2BE9
330
2BE0
100
AcDbEntity
  8
Defpoints
 62
     0
100
AcDbPoint
 10
1091.276097901001
 20
1290.110778069387
 30
0.0
  0
POINT
  5
2BEA
330
2BE0
100
AcDbEntity
  8
Defpoints
 62
     0
100
AcDbPoint
 10
1091.433577901002
 20
1291.606838069387
 30
0.0
  0
POINT
  5
2BEB
330
2BE0
100
AcDbEntity
  8
Defpoints
 62
     0
100
AcDbPoint
 10
1091.433577901002
 20
1291.896031260411
 30
0.0
  0
ENDBLK
  5
2BED
330
2BE0
100
AcDbEntity
  8
0
100
AcDbBlockEnd
  0
BLOCK
  5
2FE7
330
2FE6
100
AcDbEntity
  8
0
100
AcDbBlockBegin
  2
_CLOSED
 70
     0
 10
0.0
 20
0.0
 30
0.0
  3
_CLOSED
  1

  0
LINE
  5
2FE8
330
2FE6
100
AcDbEntity
  8
0
  6
ByBlock
 62
     0
370
    -2
100
AcDbLine
 10
-1.0
 20
0.166667
 30
0.0
 11
0.0
 21
0.0
 31
0.0
  0
LINE
  5
2FE9
330
2FE6
100
AcDbEntity
  8
0
  6
ByBlock
 62
     0
370
    -2
100
AcDbLine
 10
0.0
 20
0.0
 30
0.0
 11
-1.0
 21
-0.166667
 31
0.0
  0
LINE
  5
2FEA
330
2FE6
100
AcDbEntity
  8
0
  6
ByBlock
 62
     0
370
    -2
100
AcDbLine
 10
-1.0
 20
0.166667
 30
0.0
 11
-1.0
 21
-0.166667
 31
0.0
  0
LINE
  5
2FEB
330
2FE6
100
AcDbEntity
  8
0
  6
ByBlock
 62
     0
370
    -2
100
AcDbLine
 10
0.0
 20
0.0
 30
0.0
 11
-1.0
 21
0.0
 31
0.0
  0
ENDBLK
  5
2FEC
330
2FE6
100
AcDbEntity
  8
0
100
AcDbBlockEnd
  0
BLOCK
  5
2FEE
330
2FED
100
AcDbEntity
  8
0
100
AcDbBlockBegin
  2
*D8
 70
     1
 10
0.0
 20
0.0
 30
0.0
  3
*D8
  1

  0
LINE
  5
2FEF
330
2FED
100
AcDbEntity
  8
0
  6
Continuous
 62
     7
370
    -2
100
AcDbLine
 10
-2188.72321649187
 20
-400.2656459006223
 30
0.0
 11
-2192.498691553247
 21
-395.8823238042865
 31
0.0
  0
MTEXT
  5
2FF0
330
2FED
100
AcDbEntity
  8
0
  6
Continuous
 62
     2
370
     0
100
AcDbMText
 10
-2189.135192725277
 20
-397.4627737405704
 30
0.0
 40
1.0
 41
0.0
 46
0.0
 71
     5
 72
     1
  1
\A1;R1/5
  7
TSTYLE10
 11
0.652617196082852
 21
-0.7576877954520295
 31
0.0
 73
     1
 44
1.0
  0
SOLID
  5
2FF1
330
2FED
100
AcDbEntity
  8
0
  6
Continuous
 62
     7
100
AcDbTrace
 10
-2192.372410254005
 20
-395.7735542716059
 30
0.0
 11
-2192.624972852489
 21
-395.991093336967
 31
0.0
 12
-2193.15130874933
 22
-395.1246360088344
 32
0.0
 13
-2193.15130874933
 23
-395.1246360088344
 33
0.0
  0
LINE
  5
2FF2
330
2FED
100
AcDbEntity
  8
0
  6
Continuous
 62
     0
370
    -2
100
AcDbLine
 10
-2193.369776771458
 20
-394.9754847865603
 30
0.0
 11
-2193.189776771458
 21
-394.9754847865604
 31
0.0
  0
LINE
  5
2FF3
330
2FED
100
AcDbEntity
  8
0
  6
Continuous
 62
     0
370
    -2
100
AcDbLine
 10
-2193.279776771458
 20
-395.0654847865603
 30
0.0
 11
-2193.279776771458
 21
-394.8854847865605
 31
0.0
  0
POINT
  5
2FF4
330
2FED
100
AcDbEntity
  8
Defpoints
  6
Continuous
 62
     0
100
AcDbPoint
 10
-2193.15130874933
 20
-395.1246360088344
 30
0.0
  0
POINT
  5
2FF5
330
2FED
100
AcDbEntity
  8
Defpoints
  6
Continuous
 62
     0
100
AcDbPoint
 10
-2193.279776771458
 20
-394.9754847865603
 30
0.0
  0
ENDBLK
  5
2FF6
330
2FED
100
AcDbEntity
  8
0
100
AcDbBlockEnd
  0
BLOCK
  5
2FF8
330
2FF7
100
AcDbEntity
  8
0
100
AcDbBlockBegin
  2
*D9
 70
     1
 10
0.0
 20
0.0
 30
0.0
  3
*D9
  1

  0
LINE
  5
2FF9
330
2FF7
100
AcDbEntity
  8
0
  6
Continuous
 62
     7
370
    -2
100
AcDbLine
 10
-2171.886064971459
 20
-410.6054144865602
 30
0.0
 11
-2165.884878502473
 21
-410.6054144865602
 31
0.0
  0
LINE
  5
2FFA
330
2FF7
100
AcDbEntity
  8
0
  6
Continuous
 62
     7
370
    -2
100
AcDbLine
 10
-2171.886064971459
 20
-394.7786342865602
 30
0.0
 11
-2165.884878502473
 21
-394.7786342865602
 31
0.0
  0
LINE
  5
2FFB
330
2FF7
100
AcDbEntity
  8
0
  6
Continuous
 62
     7
370
    -2
100
AcDbLine
 10
-2166.884878502473
 20
-409.6054144865602
 30
0.0
 11
-2166.884878502473
 21
-395.7786342865603
 31
0.0
  0
INSERT
  5
2FFC
330
2FF7
100
AcDbEntity
  8
0
  6
Continuous
 62
     7
370
    -2
100
AcDbBlockReference
  2
_CLOSED
 10
-2166.884878502473
 20
-410.6054144865602
 30
0.0
 50
270.0
  0
INSERT
  5
2FFD
330
2FF7
100
AcDbEntity
  8
0
  6
Continuous
 62
     7
370
    -2
100
AcDbBlockReference
  2
_CLOSED
 10
-2166.884878502473
 20
-394.7786342865602
 30
0.0
 50
90.0
  0
MTEXT
  5
2FFE
330
2FF7
100
AcDbEntity
  8
0
  6
Continuous
 62
     2
370
     0
100
AcDbMText
 10
-2168.401931708476
 20
-402.6920243865605
 30
0.0
 40
1.0
 41
0.0
 46
0.0
 71
     5
 72
     1
  1
\A1;\fArial|b0|i0|c0|p0;15  4/5"
  7
Default
 11
0.0000000000000001
 21
1.0
 31
0.0
 73
     1
 44
1.0
  0
POINT
  5
2FFF
330
2FF7
100
AcDbEntity
  8
Defpoints
  6
Continuous
 62
     0
100
AcDbPoint
 10
-2172.886064971458
 20
-410.6054144865602
 30
0.0
  0
POINT
  5
3000
330
2FF7
100
AcDbEntity
  8
Defpoints
  6
Continuous
 62
     0
100
AcDbPoint
 10
-2172.886064971458
 20
-394.7786342865602
 30
0.0
  0
POINT
  5
3001
330
2FF7
100
AcDbEntity
  8
Defpoints
  6
Continuous
 62
     0
100
AcDbPoint
 10
-2166.884878502473
 20
-394.7786342865602
 30
0.0
  0
ENDBLK
  5
3002
330
2FF7
100
AcDbEntity
  8
0
100
AcDbBlockEnd
  0
BLOCK
  5
3004
330
3003
100
AcDbEntity
  8
0
100
AcDbBlockBegin
  2
*D10
 70
     1
 10
0.0
 20
0.0
 30
0.0
  3
*D10
  1

  0
LINE
  5
3005
330
3003
100
AcDbEntity
  8
0
  6
Continuous
 62
     7
370
    -2
100
AcDbLine
 10
-2172.689214471458
 20
-411.4085639865602
 30
0.0
 11
-2172.689214471458
 21
-416.9028604967858
 31
0.0
  0
LINE
  5
3006
330
3003
100
AcDbEntity
  8
0
  6
Continuous
 62
     7
370
    -2
100
AcDbLine
 10
-2193.476627271458
 20
-411.4085639865602
 30
0.0
 11
-2193.476627271458
 21
-416.9028604967858
 31
0.0
  0
LINE
  5
3007
330
3003
100
AcDbEntity
  8
0
  6
Continuous
 62
     7
370
    -2
100
AcDbLine
 10
-2173.689214471458
 20
-415.9028604967859
 30
0.0
 11
-2192.476627271458
 21
-415.9028604967859
 31
0.0
  0
INSERT
  5
3008
330
3003
100
AcDbEntity
  8
0
  6
Continuous
 62
     7
370
    -2
100
AcDbBlockReference
  2
_CLOSED
 10
-2172.689214471458
 20
-415.9028604967859
 30
0.0
  0
INSERT
  5
3009
330
3003
100
AcDbEntity
  8
0
  6
Continuous
 62
     7
370
    -2
100
AcDbBlockReference
  2
_CLOSED
 10
-2193.476627271458
 20
-415.9028604967859
 30
0.0
 50
180.0
  0
MTEXT
  5
300A
330
3003
100
AcDbEntity
  8
0
  6
Continuous
 62
     2
370
     0
100
AcDbMText
 10
-2183.082920871459
 20
-414.3854662266631
 30
0.0
 40
1.0
 41
0.0
 46
0.0
 71
     5
 72
     1
  1
\A1;\fArial|b0|i0|c0|p0;20  3/4"
  7
Default
 73
     1
 44
1.0
  0
POINT
  5
300B
330
3003
100
AcDbEntity
  8
Defpoints
  6
Continuous
 62
     0
100
AcDbPoint
 10
-2172.689214471458
 20
-410.4085639865602
 30
0.0
  0
POINT
  5
300C
330
3003
100
AcDbEntity
  8
Defpoints
  6
Continuous
 62
     0
100
AcDbPoint
 10
-2193.476627271458
 20
-410.4085639865602
 30
0.0
  0
POINT
  5
300D
330
3003
100
AcDbEntity
  8
Defpoints
  6
Continuous
 62
     0
100
AcDbPoint
 10
-2193.476627271458
 20
-415.9028604967859
 30
0.0
  0
ENDBLK
  5
300E
330
3003
100
AcDbEntity
  8
0
100
AcDbBlockEnd
  0
BLOCK
  5
303F
330
3037
100
AcDbEntity
  8
0
100
AcDbBlockBegin
  2
*D12
 70
     1
 10
0.0
 20
0.0
 30
0.0
  3
*D12
  1

  0
LINE
  5
3099
330
3037
100
AcDbEntity
  8
0
  6
Continuous
 62
     7
370
    -2
100
AcDbLine
 10
1111.197879712944
 20
1291.567715507014
 30
0.0
 11
1107.422404651569
 21
1295.951037603351
 31
0.0
  0
MTEXT
  5
309A
330
3037
100
AcDbEntity
  8
0
  6
Continuous
 62
     7
370
     0
100
AcDbMText
 10
1110.785903479538
 20
1294.370587667066
 30
0.0
 40
1.0
 41
0.0
 46
0.0
 71
     5
 72
     1
  1
\A1;R1/5
  7
TSTYLE10
 11
0.6526171960825666
 21
-0.7576877954522752
 31
0.0
 73
     1
 44
1.0
  0
SOLID
  5
309B
330
3037
100
AcDbEntity
  8
0
  6
Continuous
 62
     7
100
AcDbTrace
 10
1107.548685950811
 20
1296.059807136032
 30
0.0
 11
1107.296123352327
 21
1295.842268070671
 31
0.0
 12
1106.769787455486
 22
1296.708725398804
 32
0.0
 13
1106.769787455486
 23
1296.708725398804
 33
0.0
  0
LINE
  5
309C
330
3037
100
AcDbEntity
  8
0
  6
Continuous
 62
     0
370
    -2
100
AcDbLine
 10
1106.551319433358
 20
1296.857876621078
 30
0.0
 11
1106.731319433358
 21
1296.857876621078
 31
0.0
  0
LINE
  5
309D
330
3037
100
AcDbEntity
  8
0
  6
Continuous
 62
     0
370
    -2
100
AcDbLine
 10
1106.641319433357
 20
1296.767876621078
 30
0.0
 11
1106.641319433358
 21
1296.947876621078
 31
0.0
  0
POINT
  5
309E
330
3037
100
AcDbEntity
  8
Defpoints
  6
Continuous
 62
     0
100
AcDbPoint
 10
1106.769787455486
 20
1296.708725398804
 30
0.0
  0
POINT
  5
309F
330
3037
100
AcDbEntity
  8
Defpoints
  6
Continuous
 62
     0
100
AcDbPoint
 10
1106.641319433358
 20
1296.857876621078
 30
0.0
  0
ENDBLK
  5
3040
330
3037
100
AcDbEntity
  8
0
100
AcDbBlockEnd
  0
BLOCK
  5
304B
330
3041
100
AcDbEntity
  8
0
100
AcDbBlockBegin
  2
*D13
 70
     1
 10
0.0
 20
0.0
 30
0.0
  3
*D13
  1

  0
LINE
  5
30A0
330
3041
100
AcDbEntity
  8
0
  6
Continuous
 62
     7
370
    -2
100
AcDbLine
 10
1128.035031233358
 20
1281.227946921078
 30
0.0
 11
1134.036217702343
 21
1281.227946921078
 31
0.0
  0
LINE
  5
30A1
330
3041
100
AcDbEntity
  8
0
  6
Continuous
 62
     7
370
    -2
100
AcDbLine
 10
1128.035031233358
 20
1297.054727121078
 30
0.0
 11
1134.036217702343
 21
1297.054727121078
 31
0.0
  0
LINE
  5
30A2
330
3041
100
AcDbEntity
  8
0
  6
Continuous
 62
     7
370
    -2
100
AcDbLine
 10
1133.036217702343
 20
1282.227946921078
 30
0.0
 11
1133.036217702343
 21
1296.054727121078
 31
0.0
  0
INSERT
  5
30A3
330
3041
100
AcDbEntity
  8
0
  6
Continuous
 62
     7
370
    -2
100
AcDbBlockReference
  2
_CLOSED
 10
1133.036217702343
 20
1281.227946921078
 30
0.0
 50
270.0
  0
INSERT
  5
30A4
330
3041
100
AcDbEntity
  8
0
  6
Continuous
 62
     7
370
    -2
100
AcDbBlockReference
  2
_CLOSED
 10
1133.036217702343
 20
1297.054727121078
 30
0.0
 50
90.0
  0
MTEXT
  5
30A5
330
3041
100
AcDbEntity
  8
0
  6
Continuous
 62
     7
370
     0
100
AcDbMText
 10
1131.51916449634
 20
1289.141337021078
 30
0.0
 40
1.0
 41
0.0
 46
0.0
 71
     5
 72
     1
  1
\A1;\fArial|b0|i0|c0|p0;15  4/5"
  7
Default
 11
0.0000000000000001
 21
1.0
 31
0.0
 73
     1
 44
1.0
  0
POINT
  5
30A6
330
3041
100
AcDbEntity
  8
Defpoints
  6
Continuous
 62
     0
100
AcDbPoint
 10
1127.035031233358
 20
1281.227946921078
 30
0.0
  0
POINT
  5
30A7
330
3041
100
AcDbEntity
  8
Defpoints
  6
Continuous
 62
     0
100
AcDbPoint
 10
1127.035031233358
 20
1297.054727121078
 30
0.0
  0
POINT
  5
30A8
330
3041
100
AcDbEntity
  8
Defpoints
  6
Continuous
 62
     0
100
AcDbPoint
 10
1133.036217702343
 20
1297.054727121078
 30
0.0
  0
ENDBLK
  5
304C
330
3041
100
AcDbEntity
  8
0
100
AcDbBlockEnd
  0
BLOCK
  5
3057
330
304D
100
AcDbEntity
  8
0
100
AcDbBlockBegin
  2
*D14
 70
     1
 10
0.0
 20
0.0
 30
0.0
  3
*D14
  1

  0
LINE
  5
30A9
330
304D
100
AcDbEntity
  8
0
  6
Continuous
 62
     7
370
    -2
100
AcDbLine
 10
1127.231881733358
 20
1280.424797421078
 30
0.0
 11
1127.231881733358
 21
1274.930500910852
 31
0.0
  0
LINE
  5
30AA
330
304D
100
AcDbEntity
  8
0
  6
Continuous
 62
     7
370
    -2
100
AcDbLine
 10
1106.444468933358
 20
1280.424797421078
 30
0.0
 11
1106.444468933358
 21
1274.930500910852
 31
0.0
  0
LINE
  5
30AB
330
304D
100
AcDbEntity
  8
0
  6
Continuous
 62
     7
370
    -2
100
AcDbLine
 10
1126.231881733358
 20
1275.930500910852
 30
0.0
 11
1107.444468933358
 21
1275.930500910852
 31
0.0
  0
INSERT
  5
30AC
330
304D
100
AcDbEntity
  8
0
  6
Continuous
 62
     7
370
    -2
100
AcDbBlockReference
  2
_CLOSED
 10
1127.231881733358
 20
1275.930500910852
 30
0.0
  0
INSERT
  5
30AD
330
304D
100
AcDbEntity
  8
0
  6
Continuous
 62
     7
370
    -2
100
AcDbBlockReference
  2
_CLOSED
 10
1106.444468933358
 20
1275.930500910852
 30
0.0
 50
180.0
  0
MTEXT
  5
30AE
330
304D
100
AcDbEntity
  8
0
  6
Continuous
 62
     7
370
     0
100
AcDbMText
 10
1116.838175333358
 20
1277.447895180975
 30
0.0
 40
1.0
 41
0.0
 46
0.0
 71
     5
 72
     1
  1
\A1;\fArial|b0|i0|c0|p0;20  3/4"
  7
Default
 73
     1
 44
1.0
  0
POINT
  5
30AF
330
304D
100
AcDbEntity
  8
Defpoints
  6
Continuous
 62
     0
100
AcDbPoint
 10
1127.231881733358
 20
1281.424797421078
 30
0.0
  0
POINT
  5
30B0
330
304D
100
AcDbEntity
  8
Defpoints
  6
Continuous
 62
     0
100
AcDbPoint
 10
1106.444468933358
 20
1281.424797421078
 30
0.0
  0
POINT
  5
30B1
330
304D
100
AcDbEntity
  8
Defpoints
  6
Continuous
 62
     0
100
AcDbPoint
 10
1106.444468933358
 20
1275.930500910852
 30
0.0
  0
ENDBLK
  5
3058
330
304D
100
AcDbEntity
  8
0
100
AcDbBlockEnd
  0
BLOCK
  5
30B3
330
30B2
100
AcDbEntity
  8
0
100
AcDbBlockBegin
  2
*D16
 70
     1
 10
0.0
 20
0.0
 30
0.0
  3
*D16
  1

  0
LINE
  5
30B4
330
30B2
100
AcDbEntity
  8
0
  6
Continuous
 62
     7
370
    -2
100
AcDbLine
 10
-2326.026129925566
 20
702.6088414938035
 30
0.0
 11
-2326.026129925566
 21
697.3890790294641
 31
0.0
  0
LINE
  5
30B5
330
30B2
100
AcDbEntity
  8
0
  6
Continuous
 62
     7
370
    -2
100
AcDbLine
 10
-2295.860759305566
 20
702.6088414938035
 30
0.0
 11
-2295.860759305566
 21
697.3890790294641
 31
0.0
  0
LINE
  5
30B6
330
30B2
100
AcDbEntity
  8
0
  6
Continuous
 62
     7
370
    -2
100
AcDbLine
 10
-2325.026129925566
 20
698.3890790294641
 30
0.0
 11
-2296.860759305566
 21
698.3890790294641
 31
0.0
  0
INSERT
  5
30B7
330
30B2
100
AcDbEntity
  8
0
  6
Continuous
 62
     7
370
    -2
100
AcDbBlockReference
  2
_CLOSED
 10
-2326.026129925566
 20
698.3890790294641
 30
0.0
 50
180.0
  0
INSERT
  5
30B8
330
30B2
100
AcDbEntity
  8
0
  6
Continuous
 62
     7
370
    -2
100
AcDbBlockReference
  2
_CLOSED
 10
-2295.860759305566
 20
698.3890790294641
 30
0.0
  0
MTEXT
  5
30B9
330
30B2
100
AcDbEntity
  8
0
  6
Continuous
 62
     7
370
     0
100
AcDbMText
 10
-2310.943444615566
 20
699.9064732995869
 30
0.0
 40
1.0
 41
0.0
 46
0.0
 71
     5
 72
     1
  1
\A1;\fArial|b0|i0|c0|p0;30 1/8"
  7
Default
 73
     1
 44
1.0
  0
POINT
  5
30BA
330
30B2
100
AcDbEntity
  8
Defpoints
  6
Continuous
 62
     0
100
AcDbPoint
 10
-2326.026129925566
 20
703.6088414938035
 30
0.0
  0
POINT
  5
30BB
330
30B2
100
AcDbEntity
  8
Defpoints
  6
Continuous
 62
     0
100
AcDbPoint
 10
-2295.860759305566
 20
703.6088414938035
 30
0.0
  0
POINT
  5
30BC
330
30B2
100
AcDbEntity
  8
Defpoints
  6
Continuous
 62
     0
100
AcDbPoint
 10
-2295.860759305566
 20
698.3890790294641
 30
0.0
  0
ENDBLK
  5
30BD
330
30B2
100
AcDbEntity
  8
0
100
AcDbBlockEnd
  0
BLOCK
  5
30BF
330
30BE
100
AcDbEntity
  8
0
100
AcDbBlockBegin
  2
*D17
 70
     1
 10
0.0
 20
0.0
 30
0.0
  3
*D17
  1

  0
LINE
  5
30C0
330
30BE
100
AcDbEntity
  8
0
  6
Continuous
 62
     7
370
    -2
100
AcDbLine
 10
-2295.057609805566
 20
703.4119909938035
 30
0.0
 11
-2289.79814540563
 21
703.4119909938035
 31
0.0
  0
LINE
  5
30C1
330
30BE
100
AcDbEntity
  8
0
  6
Continuous
 62
     7
370
    -2
100
AcDbLine
 10
-2295.057609805566
 20
720.7742050938035
 30
0.0
 11
-2289.79814540563
 21
720.7742050938035
 31
0.0
  0
LINE
  5
30C2
330
30BE
100
AcDbEntity
  8
0
  6
Continuous
 62
     7
370
    -2
100
AcDbLine
 10
-2290.79814540563
 20
704.4119909938035
 30
0.0
 11
-2290.79814540563
 21
719.7742050938034
 31
0.0
  0
INSERT
  5
30C3
330
30BE
100
AcDbEntity
  8
0
  6
Continuous
 62
     7
370
    -2
100
AcDbBlockReference
  2
_CLOSED
 10
-2290.79814540563
 20
703.4119909938035
 30
0.0
 50
270.0
  0
INSERT
  5
30C4
330
30BE
100
AcDbEntity
  8
0
  6
Continuous
 62
     7
370
    -2
100
AcDbBlockReference
  2
_CLOSED
 10
-2290.79814540563
 20
720.7742050938035
 30
0.0
 50
90.0
  0
MTEXT
  5
30C5
330
30BE
100
AcDbEntity
  8
0
  6
Continuous
 62
     7
370
     0
100
AcDbMText
 10
-2292.315539675753
 20
712.0930980438032
 30
0.0
 40
1.0
 41
0.0
 46
0.0
 71
     5
 72
     1
  1
\A1;\fArial|b0|i0|c0|p0;17 3/8"
  7
Default
 11
0.0000000000000001
 21
1.0
 31
0.0
 73
     1
 44
1.0
  0
POINT
  5
30C6
330
30BE
100
AcDbEntity
  8
Defpoints
  6
Continuous
 62
     0
100
AcDbPoint
 10
-2296.057609805566
 20
703.4119909938035
 30
0.0
  0
POINT
  5
30C7
330
30BE
100
AcDbEntity
  8
Defpoints
  6
Continuous
 62
     0
100
AcDbPoint
 10
-2296.057609805566
 20
720.7742050938035
 30
0.0
  0
POINT
  5
30C8
330
30BE
100
AcDbEntity
  8
Defpoints
  6
Continuous
 62
     0
100
AcDbPoint
 10
-2290.79814540563
 20
720.7742050938035
 30
0.0
  0
ENDBLK
  5
30C9
330
30BE
100
AcDbEntity
  8
0
100
AcDbBlockEnd
  0
BLOCK
  5
30CB
330
30CA
100
AcDbEntity
  8
0
100
AcDbBlockBegin
  2
*D18
 70
     1
 10
0.0
 20
0.0
 30
0.0
  3
*D18
  1

  0
LINE
  5
30CC
330
30CA
100
AcDbEntity
  8
0
  6
Continuous
 62
     7
370
    -2
100
AcDbLine
 10
-2320.077063734775
 20
714.2862788116793
 30
0.0
 11
-2325.021652909102
 21
719.6940706747277
 31
0.0
  0
MTEXT
  5
30CD
330
30CA
100
AcDbEntity
  8
0
  6
Continuous
 62
     7
370
     0
100
AcDbMText
 10
-2320.985512903467
 20
717.5348841737553
 30
0.0
 40
1.0
 41
0.0
 46
0.0
 71
     5
 72
     1
  1
\A1;R1/4"
  7
Default
 11
0.6747931591044272
 21
-0.7380069054052729
 31
0.0
 73
     1
 44
1.0
  0
INSERT
  5
30CE
330
30CA
100
AcDbEntity
  8
0
  6
Continuous
 62
     7
370
    -2
100
AcDbBlockReference
  2
_CLOSED
 10
-2325.696446068207
 20
720.4320775801329
 30
0.0
 50
132.4380898812435
  0
LINE
  5
30CF
330
30CA
100
AcDbEntity
  8
0
  6
Continuous
 62
     0
370
    -2
100
AcDbLine
 10
-2325.919279425567
 20
720.5773545938034
 30
0.0
 11
-2325.739279425567
 21
720.5773545938034
 31
0.0
  0
LINE
  5
30D0
330
30CA
100
AcDbEntity
  8
0
  6
Continuous
 62
     0
370
    -2
100
AcDbLine
 10
-2325.829279425567
 20
720.4873545938035
 30
0.0
 11
-2325.829279425567
 21
720.6673545938034
 31
0.0
  0
POINT
  5
30D1
330
30CA
100
AcDbEntity
  8
Defpoints
  6
Continuous
 62
     0
100
AcDbPoint
 10
-2325.696446068207
 20
720.4320775801329
 30
0.0
  0
POINT
  5
30D2
330
30CA
100
AcDbEntity
  8
Defpoints
  6
Continuous
 62
     0
100
AcDbPoint
 10
-2325.829279425567
 20
720.5773545938034
 30
0.0
  0
ENDBLK
  5
30D3
330
30CA
100
AcDbEntity
  8
0
100
AcDbBlockEnd
  0
BLOCK
  5
30D5
330
30D4
100
AcDbEntity
  8
0
100
AcDbBlockBegin
  2
*D19
 70
     1
 10
0.0
 20
0.0
 30
0.0
  3
*D19
  1

  0
LINE
  5
30D6
330
30D4
100
AcDbEntity
  8
0
  6
Continuous
 62
     7
370
    -2
100
AcDbLine
 10
-2303.128609946597
 20
707.7962395315523
 30
0.0
 11
-2297.087430507015
 21
704.2186942866865
 31
0.0
  0
MTEXT
  5
30D7
330
30D4
100
AcDbEntity
  8
0
  6
Continuous
 62
     7
370
     0
100
AcDbMText
 10
-2299.762864716434
 20
707.5715714736454
 30
0.0
 40
1.0
 41
0.0
 46
0.0
 71
     5
 72
     1
  1
\A1;R1/4"
  7
Default
 11
0.8604422241582765
 21
-0.5095480143083262
 31
0.0
 73
     1
 44
1.0
  0
INSERT
  5
30D8
330
30D4
100
AcDbEntity
  8
0
  6
Continuous
 62
     7
370
    -2
100
AcDbBlockReference
  2
_CLOSED
 10
-2296.226988282857
 20
703.7091462723781
 30
0.0
 50
329.3662721077997
  0
LINE
  5
30D9
330
30D4
100
AcDbEntity
  8
0
  6
Continuous
 62
     0
370
    -2
100
AcDbLine
 10
-2296.147609805566
 20
703.6088414938038
 30
0.0
 11
-2295.967609805566
 21
703.6088414938038
 31
0.0
  0
LINE
  5
30DA
330
30D4
100
AcDbEntity
  8
0
  6
Continuous
 62
     0
370
    -2
100
AcDbLine
 10
-2296.057609805567
 20
703.5188414938038
 30
0.0
 11
-2296.057609805567
 21
703.6988414938036
 31
0.0
  0
POINT
  5
30DB
330
30D4
100
AcDbEntity
  8
Defpoints
  6
Continuous
 62
     0
100
AcDbPoint
 10
-2296.226988282857
 20
703.7091462723781
 30
0.0
  0
POINT
  5
30DC
330
30D4
100
AcDbEntity
  8
Defpoints
  6
Continuous
 62
     0
100
AcDbPoint
 10
-2296.057609805566
 20
703.6088414938038
 30
0.0
  0
ENDBLK
  5
30DD
330
30D4
100
AcDbEntity
  8
0
100
AcDbBlockEnd
  0
BLOCK
  5
30DF
330
30DE
100
AcDbEntity
  8
0
100
AcDbBlockBegin
  2
*D20
 70
     1
 10
0.0
 20
0.0
 30
0.0
  3
*D20
  1

  0
LINE
  5
30E0
330
30DE
100
AcDbEntity
  8
0
  6
Continuous
 62
     7
370
    -2
100
AcDbLine
 10
-2301.679168016911
 20
714.5830716461362
 30
0.0
 11
-2296.876333715764
 21
719.7043470415841
 31
0.0
  0
MTEXT
  5
30E1
330
30DE
100
AcDbEntity
  8
0
  6
Continuous
 62
     7
370
     0
100
AcDbMText
 10
-2300.7297393679
 20
717.8199377124172
 30
0.0
 40
1.0
 41
0.0
 46
0.0
 71
     5
 72
     1
  1
\A1;R1/4"
  7
Default
 11
0.684065333544866
 21
0.7294207423991665
 31
0.0
 73
     1
 44
1.0
  0
INSERT
  5
30E2
330
30DE
100
AcDbEntity
  8
0
  6
Continuous
 62
     7
370
    -2
100
AcDbBlockReference
  2
_CLOSED
 10
-2296.19226838222
 20
720.4337677839832
 30
0.0
 50
46.83785480591961
  0
LINE
  5
30E3
330
30DE
100
AcDbEntity
  8
0
  6
Continuous
 62
     0
370
    -2
100
AcDbLine
 10
-2296.147609805567
 20
720.5773545938037
 30
0.0
 11
-2295.967609805567
 21
720.5773545938038
 31
0.0
  0
LINE
  5
30E4
330
30DE
100
AcDbEntity
  8
0
  6
Continuous
 62
     0
370
    -2
100
AcDbLine
 10
-2296.057609805567
 20
720.4873545938037
 30
0.0
 11
-2296.057609805567
 21
720.6673545938039
 31
0.0
  0
POINT
  5
30E5
330
30DE
100
AcDbEntity
  8
Defpoints
  6
Continuous
 62
     0
100
AcDbPoint
 10
-2296.19226838222
 20
720.4337677839832
 30
0.0
  0
POINT
  5
30E6
330
30DE
100
AcDbEntity
  8
Defpoints
  6
Continuous
 62
     0
100
AcDbPoint
 10
-2296.057609805567
 20
720.5773545938037
 30
0.0
  0
ENDBLK
  5
30E7
330
30DE
100
AcDbEntity
  8
0
100
AcDbBlockEnd
  0
BLOCK
  5
30E9
330
30E8
100
AcDbEntity
  8
0
100
AcDbBlockBegin
  2
*D21
 70
     1
 10
0.0
 20
0.0
 30
0.0
  3
*D21
  1

  0
LINE
  5
30EA
330
30E8
100
AcDbEntity
  8
0
  6
Continuous
 62
     7
370
    -2
100
AcDbLine
 10
-2319.082745275508
 20
708.2052523680858
 30
0.0
 11
-2324.896182293852
 21
704.2684225477816
 31
0.0
  0
MTEXT
  5
30EB
330
30E8
100
AcDbEntity
  8
0
  6
Continuous
 62
     7
370
     0
100
AcDbMText
 10
-2322.428707192429
 20
707.7771688001651
 30
0.0
 40
1.0
 41
0.0
 46
0.0
 71
     5
 72
     1
  1
\A1;R1/4"
  7
Default
 11
0.8280049828174057
 21
0.5607207401457055
 31
0.0
 73
     1
 44
1.0
  0
INSERT
  5
30EC
330
30E8
100
AcDbEntity
  8
0
  6
Continuous
 62
     7
370
    -2
100
AcDbBlockReference
  2
_CLOSED
 10
-2325.724187276669
 20
703.7077018076359
 30
0.0
 50
214.105656391467
  0
LINE
  5
30ED
330
30E8
100
AcDbEntity
  8
0
  6
Continuous
 62
     0
370
    -2
100
AcDbLine
 10
-2325.977180439719
 20
703.5973236711259
 30
0.0
 11
-2325.797180439718
 21
703.5973236711262
 31
0.0
  0
LINE
  5
30EE
330
30E8
100
AcDbEntity
  8
0
  6
Continuous
 62
     0
370
    -2
100
AcDbLine
 10
-2325.887180439718
 20
703.507323671126
 30
0.0
 11
-2325.887180439718
 21
703.6873236711262
 31
0.0
  0
POINT
  5
30EF
330
30E8
100
AcDbEntity
  8
Defpoints
  6
Continuous
 62
     0
100
AcDbPoint
 10
-2325.724187276669
 20
703.7077018076359
 30
0.0
  0
POINT
  5
30F0
330
30E8
100
AcDbEntity
  8
Defpoints
  6
Continuous
 62
     0
100
AcDbPoint
 10
-2325.887180439718
 20
703.5973236711261
 30
0.0
  0
ENDBLK
  5
30F1
330
30E8
100
AcDbEntity
  8
0
100
AcDbBlockEnd
  0
BLOCK
  5
311F
330
3115
100
AcDbEntity
  8
0
100
AcDbBlockBegin
  2
*D23
 70
     1
 10
0.0
 20
0.0
 30
0.0
  3
*D23
  1

  0
LINE
  5
3155
330
3115
100
AcDbEntity
  8
0
  6
Continuous
 62
     7
370
    -2
100
AcDbLine
 10
1143.428351052338
 20
1280.468281683719
 30
0.0
 11
1143.428351052338
 21
1275.248519219379
 31
0.0
  0
LINE
  5
3156
330
3115
100
AcDbEntity
  8
0
  6
Continuous
 62
     7
370
    -2
100
AcDbLine
 10
1173.593721672338
 20
1280.468281683719
 30
0.0
 11
1173.593721672338
 21
1275.248519219379
 31
0.0
  0
LINE
  5
3157
330
3115
100
AcDbEntity
  8
0
  6
Continuous
 62
     7
370
    -2
100
AcDbLine
 10
1144.428351052338
 20
1276.248519219379
 30
0.0
 11
1172.593721672338
 21
1276.248519219379
 31
0.0
  0
INSERT
  5
3158
330
3115
100
AcDbEntity
  8
0
  6
Continuous
 62
     7
370
    -2
100
AcDbBlockReference
  2
_CLOSED
 10
1143.428351052338
 20
1276.248519219379
 30
0.0
 50
180.0
  0
INSERT
  5
3159
330
3115
100
AcDbEntity
  8
0
  6
Continuous
 62
     7
370
    -2
100
AcDbBlockReference
  2
_CLOSED
 10
1173.593721672338
 20
1276.248519219379
 30
0.0
  0
MTEXT
  5
315A
330
3115
100
AcDbEntity
  8
0
  6
Continuous
 62
     7
370
     0
100
AcDbMText
 10
1158.511036362338
 20
1277.765913489502
 30
0.0
 40
1.0
 41
0.0
 46
0.0
 71
     5
 72
     1
  1
\A1;\fArial|b0|i0|c0|p0;30 1/8"
  7
Default
 73
     1
 44
1.0
  0
POINT
  5
315B
330
3115
100
AcDbEntity
  8
Defpoints
  6
Continuous
 62
     0
100
AcDbPoint
 10
1143.428351052338
 20
1281.468281683719
 30
0.0
  0
POINT
  5
315C
330
3115
100
AcDbEntity
  8
Defpoints
  6
Continuous
 62
     0
100
AcDbPoint
 10
1173.593721672338
 20
1281.468281683719
 30
0.0
  0
POINT
  5
315D
330
3115
100
AcDbEntity
  8
Defpoints
  6
Continuous
 62
     0
100
AcDbPoint
 10
1173.593721672338
 20
1276.248519219379
 30
0.0
  0
ENDBLK
  5
3120
330
3115
100
AcDbEntity
  8
0
100
AcDbBlockEnd
  0
BLOCK
  5
312B
330
3121
100
AcDbEntity
  8
0
100
AcDbBlockBegin
  2
*D24
 70
     1
 10
0.0
 20
0.0
 30
0.0
  3
*D24
  1

  0
LINE
  5
315E
330
3121
100
AcDbEntity
  8
0
  6
Continuous
 62
     7
370
    -2
100
AcDbLine
 10
1174.396871172338
 20
1281.271431183719
 30
0.0
 11
1179.656335572274
 21
1281.271431183719
 31
0.0
  0
LINE
  5
315F
330
3121
100
AcDbEntity
  8
0
  6
Continuous
 62
     7
370
    -2
100
AcDbLine
 10
1174.396871172338
 20
1298.633645283719
 30
0.0
 11
1179.656335572274
 21
1298.633645283719
 31
0.0
  0
LINE
  5
3160
330
3121
100
AcDbEntity
  8
0
  6
Continuous
 62
     7
370
    -2
100
AcDbLine
 10
1178.656335572274
 20
1282.271431183719
 30
0.0
 11
1178.656335572274
 21
1297.633645283719
 31
0.0
  0
INSERT
  5
3161
330
3121
100
AcDbEntity
  8
0
  6
Continuous
 62
     7
370
    -2
100
AcDbBlockReference
  2
_CLOSED
 10
1178.656335572274
 20
1281.271431183719
 30
0.0
 50
270.0
  0
INSERT
  5
3162
330
3121
100
AcDbEntity
  8
0
  6
Continuous
 62
     7
370
    -2
100
AcDbBlockReference
  2
_CLOSED
 10
1178.656335572274
 20
1298.633645283719
 30
0.0
 50
90.0
  0
MTEXT
  5
3163
330
3121
100
AcDbEntity
  8
0
  6
Continuous
 62
     7
370
     0
100
AcDbMText
 10
1177.138941302151
 20
1289.952538233719
 30
0.0
 40
1.0
 41
0.0
 46
0.0
 71
     5
 72
     1
  1
\A1;\fArial|b0|i0|c0|p0;17 3/8"
  7
Default
 11
0.0000000000000001
 21
1.0
 31
0.0
 73
     1
 44
1.0
  0
POINT
  5
3164
330
3121
100
AcDbEntity
  8
Defpoints
  6
Continuous
 62
     0
100
AcDbPoint
 10
1173.396871172338
 20
1281.271431183719
 30
0.0
  0
POINT
  5
3165
330
3121
100
AcDbEntity
  8
Defpoints
  6
Continuous
 62
     0
100
AcDbPoint
 10
1173.396871172338
 20
1298.633645283719
 30
0.0
  0
POINT
  5
3166
330
3121
100
AcDbEntity
  8
Defpoints
  6
Continuous
 62
     0
100
AcDbPoint
 10
1178.656335572274
 20
1298.633645283719
 30
0.0
  0
ENDBLK
  5
312C
330
3121
100
AcDbEntity
  8
0
100
AcDbBlockEnd
  0
BLOCK
  5
3135
330
312D
100
AcDbEntity
  8
0
100
AcDbBlockBegin
  2
*D25
 70
     1
 10
0.0
 20
0.0
 30
0.0
  3
*D25
  1

  0
LINE
  5
3191
330
312D
100
AcDbEntity
  8
0
  6
Continuous
 62
     7
370
    -2
100
AcDbLine
 10
1149.546229904626
 20
1291.961092189327
 30
0.0
 11
1144.432828068801
 21
1297.553510864643
 31
0.0
  0
MTEXT
  5
3192
330
312D
100
AcDbEntity
  8
0
  6
Continuous
 62
     7
370
     0
100
AcDbMText
 10
1148.460712403969
 20
1295.386775830026
 30
0.0
 40
1.0
 41
0.0
 46
0.0
 71
     5
 72
     1
  1
\A1;R 0.2"
  7
Default
 11
0.6747931591044272
 21
-0.7380069054052729
 31
0.0
 73
     1
 44
1.0
  0
INSERT
  5
3193
330
312D
100
AcDbEntity
  8
0
  6
Continuous
 62
     7
370
    -2
100
AcDbBlockReference
  2
_CLOSED
 10
1143.758034909697
 20
1298.291517770048
 30
0.0
 50
132.4380898812435
  0
LINE
  5
3194
330
312D
100
AcDbEntity
  8
0
  6
Continuous
 62
     0
370
    -2
100
AcDbLine
 10
1143.535201552337
 20
1298.436794783718
 30
0.0
 11
1143.715201552337
 21
1298.436794783719
 31
0.0
  0
LINE
  5
3195
330
312D
100
AcDbEntity
  8
0
  6
Continuous
 62
     0
370
    -2
100
AcDbLine
 10
1143.625201552337
 20
1298.346794783719
 30
0.0
 11
1143.625201552337
 21
1298.526794783718
 31
0.0
  0
POINT
  5
3196
330
312D
100
AcDbEntity
  8
Defpoints
  6
Continuous
 62
     0
100
AcDbPoint
 10
1143.758034909697
 20
1298.291517770048
 30
0.0
  0
POINT
  5
3197
330
312D
100
AcDbEntity
  8
Defpoints
  6
Continuous
 62
     0
100
AcDbPoint
 10
1143.625201552337
 20
1298.436794783719
 30
0.0
  0
ENDBLK
  5
3136
330
312D
100
AcDbEntity
  8
0
100
AcDbBlockEnd
  0
BLOCK
  5
313F
330
3137
100
AcDbEntity
  8
0
100
AcDbBlockBegin
  2
*D26
 70
     1
 10
0.0
 20
0.0
 30
0.0
  3
*D26
  1

  0
LINE
  5
316E
330
3137
100
AcDbEntity
  8
0
  6
Continuous
 62
     7
370
    -2
100
AcDbLine
 10
1166.325871031306
 20
1285.655679721467
 30
0.0
 11
1172.367050470888
 21
1282.078134476602
 31
0.0
  0
MTEXT
  5
316F
330
3137
100
AcDbEntity
  8
0
  6
Continuous
 62
     7
370
     0
100
AcDbMText
 10
1169.691616261469
 20
1285.43101166356
 30
0.0
 40
1.0
 41
0.0
 46
0.0
 71
     5
 72
     1
  1
\A1;R1/4"
  7
Default
 11
0.8604422241582765
 21
-0.5095480143083262
 31
0.0
 73
     1
 44
1.0
  0
INSERT
  5
3170
330
3137
100
AcDbEntity
  8
0
  6
Continuous
 62
     7
370
    -2
100
AcDbBlockReference
  2
_CLOSED
 10
1173.227492695047
 20
1281.568586462293
 30
0.0
 50
329.3662721077997
  0
LINE
  5
3171
330
3137
100
AcDbEntity
  8
0
  6
Continuous
 62
     0
370
    -2
100
AcDbLine
 10
1173.306871172338
 20
1281.468281683719
 30
0.0
 11
1173.486871172338
 21
1281.468281683719
 31
0.0
  0
LINE
  5
3172
330
3137
100
AcDbEntity
  8
0
  6
Continuous
 62
     0
370
    -2
100
AcDbLine
 10
1173.396871172338
 20
1281.378281683719
 30
0.0
 11
1173.396871172338
 21
1281.558281683719
 31
0.0
  0
POINT
  5
3173
330
3137
100
AcDbEntity
  8
Defpoints
  6
Continuous
 62
     0
100
AcDbPoint
 10
1173.227492695047
 20
1281.568586462293
 30
0.0
  0
POINT
  5
3174
330
3137
100
AcDbEntity
  8
Defpoints
  6
Continuous
 62
     0
100
AcDbPoint
 10
1173.396871172338
 20
1281.468281683719
 30
0.0
  0
ENDBLK
  5
3140
330
3137
100
AcDbEntity
  8
0
100
AcDbBlockEnd
  0
BLOCK
  5
3149
330
3141
100
AcDbEntity
  8
0
100
AcDbBlockBegin
  2
*D27
 70
     1
 10
0.0
 20
0.0
 30
0.0
  3
*D27
  1

  0
LINE
  5
3175
330
3141
100
AcDbEntity
  8
0
  6
Continuous
 62
     7
370
    -2
100
AcDbLine
 10
1167.775312960995
 20
1292.442511836049
 30
0.0
 11
1172.578147262139
 21
1297.563787231499
 31
0.0
  0
MTEXT
  5
3176
330
3141
100
AcDbEntity
  8
0
  6
Continuous
 62
     7
370
     0
100
AcDbMText
 10
1168.724741610005
 20
1295.679377902331
 30
0.0
 40
1.0
 41
0.0
 46
0.0
 71
     5
 72
     1
  1
\A1;R1/4"
  7
Default
 11
0.6840653335445781
 21
0.7294207423994367
 31
0.0
 73
     1
 44
1.0
  0
INSERT
  5
3177
330
3141
100
AcDbEntity
  8
0
  6
Continuous
 62
     7
370
    -2
100
AcDbBlockReference
  2
_CLOSED
 10
1173.262212595684
 20
1298.293207973898
 30
0.0
 50
46.83785480594223
  0
LINE
  5
3178
330
3141
100
AcDbEntity
  8
0
  6
Continuous
 62
     0
370
    -2
100
AcDbLine
 10
1173.306871172337
 20
1298.436794783719
 30
0.0
 11
1173.486871172337
 21
1298.436794783719
 31
0.0
  0
LINE
  5
3179
330
3141
100
AcDbEntity
  8
0
  6
Continuous
 62
     0
370
    -2
100
AcDbLine
 10
1173.396871172337
 20
1298.346794783719
 30
0.0
 11
1173.396871172337
 21
1298.526794783719
 31
0.0
  0
POINT
  5
317A
330
3141
100
AcDbEntity
  8
Defpoints
  6
Continuous
 62
     0
100
AcDbPoint
 10
1173.262212595684
 20
1298.293207973898
 30
0.0
  0
POINT
  5
317B
330
3141
100
AcDbEntity
  8
Defpoints
  6
Continuous
 62
     0
100
AcDbPoint
 10
1173.396871172337
 20
1298.436794783719
 30
0.0
  0
ENDBLK
  5
314A
330
3141
100
AcDbEntity
  8
0
100
AcDbBlockEnd
  0
BLOCK
  5
3153
330
314B
100
AcDbEntity
  8
0
100
AcDbBlockBegin
  2
*D28
 70
     1
 10
0.0
 20
0.0
 30
0.0
  3
*D28
  1

  0
LINE
  5
317C
330
314B
100
AcDbEntity
  8
0
  6
Continuous
 62
     7
370
    -2
100
AcDbLine
 10
1150.371735702387
 20
1286.064692558013
 30
0.0
 11
1144.558298684051
 21
1282.127862737698
 31
0.0
  0
MTEXT
  5
317D
330
314B
100
AcDbEntity
  8
0
  6
Continuous
 62
     7
370
     0
100
AcDbMText
 10
1147.025773785468
 20
1285.636608990086
 30
0.0
 40
1.0
 41
0.0
 46
0.0
 71
     5
 72
     1
  1
\A1;R1/4"
  7
Default
 11
0.8280049828164115
 21
0.5607207401471735
 31
0.0
 73
     1
 44
1.0
  0
INSERT
  5
317E
330
314B
100
AcDbEntity
  8
0
  6
Continuous
 62
     7
370
    -2
100
AcDbBlockReference
  2
_CLOSED
 10
1143.730293701234
 20
1281.567141997551
 30
0.0
 50
214.1056563915686
  0
LINE
  5
317F
330
314B
100
AcDbEntity
  8
0
  6
Continuous
 62
     0
370
    -2
100
AcDbLine
 10
1143.477300538185
 20
1281.456763861041
 30
0.0
 11
1143.657300538185
 21
1281.456763861041
 31
0.0
  0
LINE
  5
3180
330
314B
100
AcDbEntity
  8
0
  6
Continuous
 62
     0
370
    -2
100
AcDbLine
 10
1143.567300538185
 20
1281.366763861041
 30
0.0
 11
1143.567300538185
 21
1281.546763861041
 31
0.0
  0
POINT
  5
3181
330
314B
100
AcDbEntity
  8
Defpoints
  6
Continuous
 62
     0
100
AcDbPoint
 10
1143.730293701234
 20
1281.567141997551
 30
0.0
  0
POINT
  5
3182
330
314B
100
AcDbEntity
  8
Defpoints
  6
Continuous
 62
     0
100
AcDbPoint
 10
1143.567300538185
 20
1281.456763861041
 30
0.0
  0
ENDBLK
  5
3154
330
314B
100
AcDbEntity
  8
0
100
AcDbBlockEnd
  0
BLOCK
  5
3216
330
3215
100
AcDbEntity
  8
0
100
AcDbBlockBegin
  2
*D29
 70
     1
 10
0.0
 20
0.0
 30
0.0
  3
*D29
  1

  0
LINE
  5
3217
330
3215
100
AcDbEntity
  8
0
  6
Continuous
 62
     7
370
    -2
100
AcDbLine
 10
16105.62830887678
 20
471.4463535346746
 30
0.0
 11
16105.62830887678
 21
466.7530623388814
 31
0.0
  0
LINE
  5
3218
330
3215
100
AcDbEntity
  8
0
  6
Continuous
 62
     7
370
    -2
100
AcDbLine
 10
16135.79367949678
 20
471.4463535346746
 30
0.0
 11
16135.79367949678
 21
466.7530623388814
 31
0.0
  0
LINE
  5
3219
330
3215
100
AcDbEntity
  8
0
  6
Continuous
 62
     7
370
    -2
100
AcDbLine
 10
16106.62830887678
 20
467.7530623388815
 30
0.0
 11
16134.79367949678
 21
467.7530623388815
 31
0.0
  0
INSERT
  5
321A
330
3215
100
AcDbEntity
  8
0
  6
Continuous
 62
     7
370
    -2
100
AcDbBlockReference
  2
_CLOSED
 10
16105.62830887678
 20
467.7530623388815
 30
0.0
 50
180.0
  0
INSERT
  5
321B
330
3215
100
AcDbEntity
  8
0
  6
Continuous
 62
     7
370
    -2
100
AcDbBlockReference
  2
_CLOSED
 10
16135.79367949678
 20
467.7530623388815
 30
0.0
  0
MTEXT
  5
321C
330
3215
100
AcDbEntity
  8
0
  6
Continuous
 62
     7
370
     0
100
AcDbMText
 10
16120.71099418678
 20
469.2639763907232
 30
0.0
 40
1.0
 41
0.0
 46
0.0
 71
     5
 72
     1
  1
\A1;\fArial|b0|i0|c0|p0;30.17
  7
Default
 73
     1
 44
1.0
  0
POINT
  5
321D
330
3215
100
AcDbEntity
  8
Defpoints
  6
Continuous
 62
     0
100
AcDbPoint
 10
16105.62830887678
 20
472.4463535346746
 30
0.0
  0
POINT
  5
321E
330
3215
100
AcDbEntity
  8
Defpoints
  6
Continuous
 62
     0
100
AcDbPoint
 10
16135.79367949678
 20
472.4463535346746
 30
0.0
  0
POINT
  5
321F
330
3215
100
AcDbEntity
  8
Defpoints
  6
Continuous
 62
     0
100
AcDbPoint
 10
16135.79367949678
 20
467.7530623388815
 30
0.0
  0
ENDBLK
  5
3220
330
3215
100
AcDbEntity
  8
0
100
AcDbBlockEnd
  0
BLOCK
  5
3222
330
3221
100
AcDbEntity
  8
0
100
AcDbBlockBegin
  2
*D30
 70
     1
 10
0.0
 20
0.0
 30
0.0
  3
*D30
  1

  0
LINE
  5
3223
330
3221
100
AcDbEntity
  8
0
  6
Continuous
 62
     7
370
    -2
100
AcDbLine
 10
16104.98263977678
 20
472.0920226346747
 30
0.0
 11
16100.20554916566
 21
472.0920226346747
 31
0.0
  0
LINE
  5
3224
330
3221
100
AcDbEntity
  8
0
  6
Continuous
 62
     7
370
    -2
100
AcDbLine
 10
16112.76955563526
 20
491.2563838495658
 30
0.0
 11
16100.20554916566
 21
491.2563838495658
 31
0.0
  0
LINE
  5
3225
330
3221
100
AcDbEntity
  8
0
  6
Continuous
 62
     7
370
    -2
100
AcDbLine
 10
16101.20554916566
 20
473.0920226346746
 30
0.0
 11
16101.20554916566
 21
490.2563838495658
 31
0.0
  0
INSERT
  5
3226
330
3221
100
AcDbEntity
  8
0
  6
Continuous
 62
     7
370
    -2
100
AcDbBlockReference
  2
_CLOSED
 10
16101.20554916566
 20
472.0920226346747
 30
0.0
 50
270.0
  0
INSERT
  5
3227
330
3221
100
AcDbEntity
  8
0
  6
Continuous
 62
     7
370
    -2
100
AcDbBlockReference
  2
_CLOSED
 10
16101.20554916566
 20
491.2563838495658
 30
0.0
 50
90.0
  0
MTEXT
  5
3228
330
3221
100
AcDbEntity
  8
0
  6
Continuous
 62
     7
370
     0
100
AcDbMText
 10
16099.69497617794
 20
481.6742032421228
 30
0.0
 40
1.0
 41
0.0
 46
0.0
 71
     5
 72
     1
  1
\A1;\fArial|b0|i0|c0|p0;19.16
  7
Default
 11
0.0000000000000001
 21
1.0
 31
0.0
 73
     1
 44
1.0
  0
POINT
  5
3229
330
3221
100
AcDbEntity
  8
Defpoints
  6
Continuous
 62
     0
100
AcDbPoint
 10
16105.98263977678
 20
472.0920226346747
 30
0.0
  0
POINT
  5
322A
330
3221
100
AcDbEntity
  8
Defpoints
  6
Continuous
 62
     0
100
AcDbPoint
 10
16113.76955563526
 20
491.2563838495658
 30
0.0
  0
POINT
  5
322B
330
3221
100
AcDbEntity
  8
Defpoints
  6
Continuous
 62
     0
100
AcDbPoint
 10
16101.20554916566
 20
491.2563838495658
 30
0.0
  0
ENDBLK
  5
322C
330
3221
100
AcDbEntity
  8
0
100
AcDbBlockEnd
  0
BLOCK
  5
322E
330
322D
100
AcDbEntity
  8
0
100
AcDbBlockBegin
  2
*D31
 70
     1
 10
0.0
 20
0.0
 30
0.0
  3
*D31
  1

  0
LINE
  5
322F
330
322D
100
AcDbEntity
  8
0
  6
Continuous
 62
     7
370
    -2
100
AcDbLine
 10
16113.01582667967
 20
476.6828932393736
 30
0.0
 11
16107.1427571797
 21
473.1451666769244
 31
0.0
  0
MTEXT
  5
3230
330
322D
100
AcDbEntity
  8
0
  6
Continuous
 62
     7
370
     0
100
AcDbMText
 10
16109.72819274795
 20
476.4659208100929
 30
0.0
 40
1.0
 41
0.0
 46
0.0
 71
     5
 72
     1
  1
\A1;R0.35
  7
Default
 11
0.856598191677982
 21
0.5159840482166198
 31
0.0
 73
     1
 44
1.0
  0
INSERT
  5
3231
330
322D
100
AcDbEntity
  8
0
  6
Continuous
 62
     7
370
    -2
100
AcDbBlockReference
  2
_CLOSED
 10
16106.28615898803
 20
472.6291826287069
 30
0.0
 50
211.0632528461269
  0
LINE
  5
3232
330
322D
100
AcDbEntity
  8
0
  6
Continuous
 62
     0
370
    -2
100
AcDbLine
 10
16105.89263977678
 20
472.4463535346758
 30
0.0
 11
16106.07263977678
 21
472.4463535346758
 31
0.0
  0
LINE
  5
3233
330
322D
100
AcDbEntity
  8
0
  6
Continuous
 62
     0
370
    -2
100
AcDbLine
 10
16105.98263977678
 20
472.3563535346766
 30
0.0
 11
16105.98263977678
 21
472.5363535346769
 31
0.0
  0
POINT
  5
3234
330
322D
100
AcDbEntity
  8
Defpoints
  6
Continuous
 62
     0
100
AcDbPoint
 10
16106.28615898803
 20
472.6291826287069
 30
0.0
  0
POINT
  5
3235
330
322D
100
AcDbEntity
  8
Defpoints
  6
Continuous
 62
     0
100
AcDbPoint
 10
16105.98263977678
 20
472.4463535346758
 30
0.0
  0
ENDBLK
  5
3236
330
322D
100
AcDbEntity
  8
0
100
AcDbBlockEnd
  0
BLOCK
  5
3261
330
3257
100
AcDbEntity
  8
0
100
AcDbBlockBegin
  2
*D33
 70
     1
 10
0.0
 20
0.0
 30
0.0
  3
*D33
  1

  0
LINE
  5
32DB
330
3257
100
AcDbEntity
  8
0
  6
Continuous
 62
     7
370
    -2
100
AcDbLine
 10
1202.208168207615
 20
1279.251922325678
 30
0.0
 11
1202.208168207615
 21
1274.558631129885
 31
0.0
  0
LINE
  5
32DC
330
3257
100
AcDbEntity
  8
0
  6
Continuous
 62
     7
370
    -2
100
AcDbLine
 10
1232.373538827614
 20
1279.251922325678
 30
0.0
 11
1232.373538827614
 21
1274.558631129885
 31
0.0
  0
LINE
  5
32DD
330
3257
100
AcDbEntity
  8
0
  6
Continuous
 62
     7
370
    -2
100
AcDbLine
 10
1203.208168207615
 20
1275.558631129885
 30
0.0
 11
1231.373538827614
 21
1275.558631129885
 31
0.0
  0
INSERT
  5
32DE
330
3257
100
AcDbEntity
  8
0
  6
Continuous
 62
     7
370
    -2
100
AcDbBlockReference
  2
_CLOSED
 10
1202.208168207615
 20
1275.558631129885
 30
0.0
 50
180.0
  0
INSERT
  5
32DF
330
3257
100
AcDbEntity
  8
0
  6
Continuous
 62
     7
370
    -2
100
AcDbBlockReference
  2
_CLOSED
 10
1232.373538827614
 20
1275.558631129885
 30
0.0
  0
MTEXT
  5
32E0
330
3257
100
AcDbEntity
  8
0
  6
Continuous
 62
     7
370
     0
100
AcDbMText
 10
1217.290853517614
 20
1277.069545181727
 30
0.0
 40
1.0
 41
0.0
 46
0.0
 71
     5
 72
     1
  1
\A1;\fArial|b0|i0|c0|p0;30.17
  7
Default
 73
     1
 44
1.0
  0
POINT
  5
32E1
330
3257
100
AcDbEntity
  8
Defpoints
  6
Continuous
 62
     0
100
AcDbPoint
 10
1202.208168207615
 20
1280.251922325678
 30
0.0
  0
POINT
  5
32E2
330
3257
100
AcDbEntity
  8
Defpoints
  6
Continuous
 62
     0
100
AcDbPoint
 10
1232.373538827614
 20
1280.251922325678
 30
0.0
  0
POINT
  5
32E3
330
3257
100
AcDbEntity
  8
Defpoints
  6
Continuous
 62
     0
100
AcDbPoint
 10
1232.373538827614
 20
1275.558631129885
 30
0.0
  0
ENDBLK
  5
3262
330
3257
100
AcDbEntity
  8
0
100
AcDbBlockEnd
  0
BLOCK
  5
326D
330
3263
100
AcDbEntity
  8
0
100
AcDbBlockBegin
  2
*D34
 70
     1
 10
0.0
 20
0.0
 30
0.0
  3
*D34
  1

  0
LINE
  5
32D2
330
3263
100
AcDbEntity
  8
0
  6
Continuous
 62
     7
370
    -2
100
AcDbLine
 10
1201.562499107615
 20
1279.897591425678
 30
0.0
 11
1196.785408496491
 21
1279.897591425678
 31
0.0
  0
LINE
  5
32D3
330
3263
100
AcDbEntity
  8
0
  6
Continuous
 62
     7
370
    -2
100
AcDbLine
 10
1209.349414966089
 20
1299.061952640569
 30
0.0
 11
1196.785408496491
 21
1299.061952640569
 31
0.0
  0
LINE
  5
32D4
330
3263
100
AcDbEntity
  8
0
  6
Continuous
 62
     7
370
    -2
100
AcDbLine
 10
1197.785408496491
 20
1280.897591425678
 30
0.0
 11
1197.785408496491
 21
1298.061952640569
 31
0.0
  0
INSERT
  5
32D5
330
3263
100
AcDbEntity
  8
0
  6
Continuous
 62
     7
370
    -2
100
AcDbBlockReference
  2
_CLOSED
 10
1197.785408496491
 20
1279.897591425678
 30
0.0
 50
270.0
  0
INSERT
  5
32D6
330
3263
100
AcDbEntity
  8
0
  6
Continuous
 62
     7
370
    -2
100
AcDbBlockReference
  2
_CLOSED
 10
1197.785408496491
 20
1299.061952640569
 30
0.0
 50
90.0
  0
MTEXT
  5
32D7
330
3263
100
AcDbEntity
  8
0
  6
Continuous
 62
     7
370
     0
100
AcDbMText
 10
1196.274835508769
 20
1289.479772033127
 30
0.0
 40
1.0
 41
0.0
 46
0.0
 71
     5
 72
     1
  1
\A1;\fArial|b0|i0|c0|p0;19.16
  7
Default
 11
0.0000000000000001
 21
1.0
 31
0.0
 73
     1
 44
1.0
  0
POINT
  5
32D8
330
3263
100
AcDbEntity
  8
Defpoints
  6
Continuous
 62
     0
100
AcDbPoint
 10
1202.562499107615
 20
1279.897591425678
 30
0.0
  0
POINT
  5
32D9
330
3263
100
AcDbEntity
  8
Defpoints
  6
Continuous
 62
     0
100
AcDbPoint
 10
1210.349414966089
 20
1299.061952640569
 30
0.0
  0
POINT
  5
32DA
330
3263
100
AcDbEntity
  8
Defpoints
  6
Continuous
 62
     0
100
AcDbPoint
 10
1197.785408496491
 20
1299.061952640569
 30
0.0
  0
ENDBLK
  5
326E
330
3263
100
AcDbEntity
  8
0
100
AcDbBlockEnd
  0
BLOCK
  5
3277
330
326F
100
AcDbEntity
  8
0
100
AcDbBlockBegin
  2
*D35
 70
     1
 10
0.0
 20
0.0
 30
0.0
  3
*D35
  1

  0
LINE
  5
32CB
330
326F
100
AcDbEntity
  8
0
  6
Continuous
 62
     7
370
    -2
100
AcDbLine
 10
1209.595686010482
 20
1284.488462030406
 30
0.0
 11
1203.722616510538
 21
1280.950735467931
 31
0.0
  0
MTEXT
  5
32CC
330
326F
100
AcDbEntity
  8
0
  6
Continuous
 62
     7
370
     0
100
AcDbMText
 10
1206.308052078765
 20
1284.271489601112
 30
0.0
 40
1.0
 41
0.0
 46
0.0
 71
     5
 72
     1
  1
\A1;R0.35
  7
Default
 11
0.8565981916758355
 21
0.5159840482201834
 31
0.0
 73
     1
 44
1.0
  0
INSERT
  5
32CD
330
326F
100
AcDbEntity
  8
0
  6
Continuous
 62
     7
370
    -2
100
AcDbBlockReference
  2
_CLOSED
 10
1202.866018318862
 20
1280.43475141971
 30
0.0
 50
211.0632528463652
  0
LINE
  5
32CE
330
326F
100
AcDbEntity
  8
0
  6
Continuous
 62
     0
370
    -2
100
AcDbLine
 10
1202.472499107613
 20
1280.251922325679
 30
0.0
 11
1202.652499107613
 21
1280.251922325679
 31
0.0
  0
LINE
  5
32CF
330
326F
100
AcDbEntity
  8
0
  6
Continuous
 62
     0
370
    -2
100
AcDbLine
 10
1202.562499107613
 20
1280.161922325679
 30
0.0
 11
1202.562499107613
 21
1280.341922325679
 31
0.0
  0
POINT
  5
32D0
330
326F
100
AcDbEntity
  8
Defpoints
  6
Continuous
 62
     0
100
AcDbPoint
 10
1202.866018318862
 20
1280.43475141971
 30
0.0
  0
POINT
  5
32D1
330
326F
100
AcDbEntity
  8
Defpoints
  6
Continuous
 62
     0
100
AcDbPoint
 10
1202.562499107613
 20
1280.251922325679
 30
0.0
  0
ENDBLK
  5
3278
330
326F
100
AcDbEntity
  8
0
100
AcDbBlockEnd
  0
BLOCK
  5
3293
330
3292
100
AcDbEntity
  8
0
100
AcDbBlockBegin
  2
*D36
 70
     1
 10
0.0
 20
0.0
 30
0.0
  3
*D36
  1

  0
LINE
  5
3294
330
3292
100
AcDbEntity
  8
0
  6
Continuous
 62
     7
370
    -2
100
AcDbLine
 10
16105.62830887678
 20
471.4463535346746
 30
0.0
 11
16105.62830887678
 21
466.7530623388814
 31
0.0
  0
LINE
  5
3295
330
3292
100
AcDbEntity
  8
0
  6
Continuous
 62
     7
370
    -2
100
AcDbLine
 10
16135.79367949678
 20
471.4463535346746
 30
0.0
 11
16135.79367949678
 21
466.7530623388814
 31
0.0
  0
LINE
  5
3296
330
3292
100
AcDbEntity
  8
0
  6
Continuous
 62
     7
370
    -2
100
AcDbLine
 10
16106.62830887678
 20
467.7530623388815
 30
0.0
 11
16134.79367949678
 21
467.7530623388815
 31
0.0
  0
INSERT
  5
3297
330
3292
100
AcDbEntity
  8
0
  6
Continuous
 62
     7
370
    -2
100
AcDbBlockReference
  2
_CLOSED
 10
16105.62830887678
 20
467.7530623388815
 30
0.0
 50
180.0
  0
INSERT
  5
3298
330
3292
100
AcDbEntity
  8
0
  6
Continuous
 62
     7
370
    -2
100
AcDbBlockReference
  2
_CLOSED
 10
16135.79367949678
 20
467.7530623388815
 30
0.0
  0
MTEXT
  5
3299
330
3292
100
AcDbEntity
  8
0
  6
Continuous
 62
     7
370
     0
100
AcDbMText
 10
16120.71099418678
 20
469.2639763907232
 30
0.0
 40
1.0
 41
0.0
 46
0.0
 71
     5
 72
     1
  1
\A1;\fArial|b0|i0|c0|p0;30.17
  7
Default
 73
     1
 44
1.0
  0
POINT
  5
329A
330
3292
100
AcDbEntity
  8
Defpoints
  6
Continuous
 62
     0
100
AcDbPoint
 10
16105.62830887678
 20
472.4463535346746
 30
0.0
  0
POINT
  5
329B
330
3292
100
AcDbEntity
  8
Defpoints
  6
Continuous
 62
     0
100
AcDbPoint
 10
16135.79367949678
 20
472.4463535346746
 30
0.0
  0
POINT
  5
329C
330
3292
100
AcDbEntity
  8
Defpoints
  6
Continuous
 62
     0
100
AcDbPoint
 10
16135.79367949678
 20
467.7530623388815
 30
0.0
  0
ENDBLK
  5
329D
330
3292
100
AcDbEntity
  8
0
100
AcDbBlockEnd
  0
BLOCK
  5
329F
330
329E
100
AcDbEntity
  8
0
100
AcDbBlockBegin
  2
*D37
 70
     1
 10
0.0
 20
0.0
 30
0.0
  3
*D37
  1

  0
LINE
  5
32A0
330
329E
100
AcDbEntity
  8
0
  6
Continuous
 62
     7
370
    -2
100
AcDbLine
 10
16104.98263977678
 20
472.0920226346747
 30
0.0
 11
16100.20554916566
 21
472.0920226346747
 31
0.0
  0
LINE
  5
32A1
330
329E
100
AcDbEntity
  8
0
  6
Continuous
 62
     7
370
    -2
100
AcDbLine
 10
16112.76955563526
 20
491.2563838495658
 30
0.0
 11
16100.20554916566
 21
491.2563838495658
 31
0.0
  0
LINE
  5
32A2
330
329E
100
AcDbEntity
  8
0
  6
Continuous
 62
     7
370
    -2
100
AcDbLine
 10
16101.20554916566
 20
473.0920226346746
 30
0.0
 11
16101.20554916566
 21
490.2563838495658
 31
0.0
  0
INSERT
  5
32A3
330
329E
100
AcDbEntity
  8
0
  6
Continuous
 62
     7
370
    -2
100
AcDbBlockReference
  2
_CLOSED
 10
16101.20554916566
 20
472.0920226346747
 30
0.0
 50
270.0
  0
INSERT
  5
32A4
330
329E
100
AcDbEntity
  8
0
  6
Continuous
 62
     7
370
    -2
100
AcDbBlockReference
  2
_CLOSED
 10
16101.20554916566
 20
491.2563838495658
 30
0.0
 50
90.0
  0
MTEXT
  5
32A5
330
329E
100
AcDbEntity
  8
0
  6
Continuous
 62
     7
370
     0
100
AcDbMText
 10
16099.69497617794
 20
481.6742032421228
 30
0.0
 40
1.0
 41
0.0
 46
0.0
 71
     5
 72
     1
  1
\A1;\fArial|b0|i0|c0|p0;19.16
  7
Default
 11
0.0000000000000001
 21
1.0
 31
0.0
 73
     1
 44
1.0
  0
POINT
  5
32A6
330
329E
100
AcDbEntity
  8
Defpoints
  6
Continuous
 62
     0
100
AcDbPoint
 10
16105.98263977678
 20
472.0920226346747
 30
0.0
  0
POINT
  5
32A7
330
329E
100
AcDbEntity
  8
Defpoints
  6
Continuous
 62
     0
100
AcDbPoint
 10
16113.76955563526
 20
491.2563838495658
 30
0.0
  0
POINT
  5
32A8
330
329E
100
AcDbEntity
  8
Defpoints
  6
Continuous
 62
     0
100
AcDbPoint
 10
16101.20554916566
 20
491.2563838495658
 30
0.0
  0
ENDBLK
  5
32A9
330
329E
100
AcDbEntity
  8
0
100
AcDbBlockEnd
  0
BLOCK
  5
32AB
330
32AA
100
AcDbEntity
  8
0
100
AcDbBlockBegin
  2
*D38
 70
     1
 10
0.0
 20
0.0
 30
0.0
  3
*D38
  1

  0
LINE
  5
32AC
330
32AA
100
AcDbEntity
  8
0
  6
Continuous
 62
     7
370
    -2
100
AcDbLine
 10
16113.01582667967
 20
476.6828932393736
 30
0.0
 11
16107.1427571797
 21
473.1451666769244
 31
0.0
  0
MTEXT
  5
32AD
330
32AA
100
AcDbEntity
  8
0
  6
Continuous
 62
     7
370
     0
100
AcDbMText
 10
16109.72819274795
 20
476.4659208100929
 30
0.0
 40
1.0
 41
0.0
 46
0.0
 71
     5
 72
     1
  1
\A1;R0.35
  7
Default
 11
0.856598191677982
 21
0.5159840482166198
 31
0.0
 73
     1
 44
1.0
  0
INSERT
  5
32AE
330
32AA
100
AcDbEntity
  8
0
  6
Continuous
 62
     7
370
    -2
100
AcDbBlockReference
  2
_CLOSED
 10
16106.28615898803
 20
472.6291826287069
 30
0.0
 50
211.0632528461269
  0
LINE
  5
32AF
330
32AA
100
AcDbEntity
  8
0
  6
Continuous
 62
     0
370
    -2
100
AcDbLine
 10
16105.89263977678
 20
472.4463535346758
 30
0.0
 11
16106.07263977678
 21
472.4463535346758
 31
0.0
  0
LINE
  5
32B0
330
32AA
100
AcDbEntity
  8
0
  6
Continuous
 62
     0
370
    -2
100
AcDbLine
 10
16105.98263977678
 20
472.3563535346766
 30
0.0
 11
16105.98263977678
 21
472.5363535346769
 31
0.0
  0
POINT
  5
32B1
330
32AA
100
AcDbEntity
  8
Defpoints
  6
Continuous
 62
     0
100
AcDbPoint
 10
16106.28615898803
 20
472.6291826287069
 30
0.0
  0
POINT
  5
32B2
330
32AA
100
AcDbEntity
  8
Defpoints
  6
Continuous
 62
     0
100
AcDbPoint
 10
16105.98263977678
 20
472.4463535346758
 30
0.0
  0
ENDBLK
  5
32B3
330
32AA
100
AcDbEntity
  8
0
100
AcDbBlockEnd
  0
BLOCK
  5
32C3
330
32B4
100
AcDbEntity
  8
0
100
AcDbBlockBegin
  2
A$C5F901649
 70
     0
 10
0.0
 20
0.0
 30
0.0
  3
A$C5F901649
  1

  0
MTEXT
  5
32B5
330
32B4
100
AcDbEntity
  8
0
  6
Continuous
 62
     7
420
 16777215
370
     0
100
AcDbMText
 10
29.46306461991662
 20
15.77821945920897
 30
0.0
 40
2.078741240629899
 41
0.0
 46
0.0
 71
     3
 72
     1
  1
{\fArial|b0|i0|c0|p0;Undermount}
  7
ANSI
 73
     1
 44
1.0
  0
LINE
  5
32B6
330
32B4
100
AcDbEntity
  8
0
  6
Continuous
 62
     6
420
 16711935
370
     0
100
AcDbLine
 10
36.90309596036605
 20
5.693294840124224
 30
0.0
 11
36.90309596036605
 21
22.02744531410406
 31
0.0
  0
ARC
  5
32B7
330
32B4
100
AcDbEntity
  8
0
  6
Continuous
 62
     6
420
 16711935
370
     0
100
AcDbCircle
 10
36.54876506036635
 20
5.693294840124224
 30
0.0
 40
0.3543309
100
AcDbArc
 50
270.0
 51
0.0
  0
LINE
  5
32B8
330
32B4
100
AcDbEntity
  8
0
  6
Continuous
 62
     6
420
 16711935
370
     0
100
AcDbLine
 10
7.092056240366218
 20
5.338963940124244
 30
0.0
 11
36.54876506036635
 21
5.338963940124244
 31
0.0
  0
ARC
  5
32B9
330
32B4
100
AcDbEntity
  8
0
  6
Continuous
 62
     6
420
 16711935
370
     0
100
AcDbCircle
 10
7.092056240366218
 20
5.693294840124224
 30
0.0
 40
0.3543309
100
AcDbArc
 50
180.0
 51
270.0
  0
LINE
  5
32BA
330
32B4
100
AcDbEntity
  8
0
  6
Continuous
 62
     6
420
 16711935
370
     0
100
AcDbLine
 10
6.737725340366523
 20
22.13649777456715
 30
0.0
 11
6.737725340366523
 21
5.693294840124224
 31
0.0
  0
ARC
  5
32BB
330
32B4
100
AcDbEntity
  8
0
  6
Continuous
 62
     6
420
 16711935
370
     0
100
AcDbCircle
 10
7.092056240366218
 20
22.13649777456715
 30
0.0
 40
0.3543309
100
AcDbArc
 50
116.5715269992078
 51
180.0
  0
SPLINE
  5
32BC
330
32B4
100
AcDbEntity
  8
0
  6
Continuous
 62
     6
420
 16711935
370
     0
100
AcDbSpline
210
0.0
220
0.0
230
1.0
 70
     8
 71
     3
 72
    16
 73
    12
 74
     0
 42
0.0000000001
 43
0.0000000001
 40
0.0
 40
0.0
 40
0.0
 40
0.0
 40
20.91215310368818
 40
62.73645931106455
 40
122.8021956071855
 40
181.1736782964749
 40
238.9139218942094
 40
297.1207560114926
 40
356.8661347799451
 40
398.3834862232223
 40
419.1421619448608
 40
419.1421619448608
 40
419.1421619448608
 40
419.1421619448608
 10
6.933558822556733
 20
22.45340304478003
 30
0.0
 10
7.179009626370316
 20
22.57616312807158
 30
0.0
 10
7.92199055448691
 20
22.93119008988384
 30
0.0
 10
9.416064214896323
 20
23.54338348702214
 30
0.0
 10
11.43834714872719
 20
24.14009389416651
 30
0.0
 10
13.72995815584181
 20
24.49718896436406
 30
0.0
 10
16.02457440309808
 20
24.5353309336947
 30
0.0
 10
18.32042147493666
 20
24.25441857348233
 30
0.0
 10
20.35062961716176
 20
23.72470180846102
 30
0.0
 10
21.85305554701518
 20
23.1616703130079
 30
0.0
 10
22.60064044568208
 20
22.83110593676656
 30
0.0
 10
22.8477352975915
 20
22.71639406480205
 30
0.0
  0
ARC
  5
32BD
330
32B4
100
AcDbEntity
  8
0
  6
Continuous
 62
     6
420
 16711935
370
     0
100
AcDbCircle
 10
24.19054661527844
 20
25.60887382287757
 30
0.0
 40
3.188978100000007
100
AcDbArc
 50
245.0972799991408
 51
275.8659059987276
  0
SPLINE
  5
32BE
330
32B4
100
AcDbEntity
  8
0
  6
Continuous
 62
     6
420
 16711935
370
     0
100
AcDbSpline
210
0.0
220
0.0
230
1.0
 70
     8
 71
     3
 72
    12
 73
     8
 74
     0
 42
0.0000000001
 43
0.0000000001
 40
0.0
 40
0.0
 40
0.0
 40
0.0
 40
34.15023990024536
 40
102.4507197007361
 40
204.6593646118242
 40
272.9872157507059
 40
307.1511413201467
 40
307.1511413201467
 40
307.1511413201467
 40
307.1511413201467
 10
24.51648184642545
 20
22.43659583221449
 30
0.0
 10
24.96230129823198
 20
22.48239853385229
 30
0.0
 10
26.30137786368687
 20
22.60405583176924
 30
0.0
 10
28.98508164931445
 20
22.75187629016835
 30
0.0
 10
32.12160133409998
 20
22.73703594667995
 30
0.0
 10
34.80432575937448
 20
22.56386364612348
 30
0.0
 10
36.1427354052139
 20
22.42956990181796
 30
0.0
 10
36.58828388575239
 20
22.37956552256191
 30
0.0
  0
ARC
  5
32BF
330
32B4
100
AcDbEntity
  8
0
  6
Continuous
 62
     6
420
 16711935
370
     0
100
AcDbCircle
 10
36.54876506036635
 20
22.02744531410406
 30
0.0
 40
0.3543309
100
AcDbArc
 50
0.0
 51
83.59643000006986
  0
DIMENSION
  5
32C0
330
32B4
100
AcDbEntity
  8
0
  6
Continuous
 62
     7
370
     0
100
AcDbDimension
  2
*D36
 10
36.90309596036605
 20
1.000003644331059
 30
0.0
 11
21.82041065036537
 21
1.000003644331059
 31
0.0
 12
-16098.89058353641
 22
-466.7530586945503
 32
0.0
 70
   129
  1
\fArial|b0|i0|c0|p0;<>
 71
     5
 42
30.16537061999952
 73
     0
 74
     0
 75
     0
  3
Default
100
AcDbAlignedDimension
 13
6.737725340366523
 23
5.693294840124224
 33
0.0
 14
36.90309596036605
 24
5.693294840124224
 34
0.0
1001
ACAD
1000
DSTYLE
1002
{
1070
   178
1070
     7
1070
   279
1070
     0
1070
    41
1040
1.0
1070
   176
1070
     7
1070
   177
1070
     7
1070
    44
1040
1.0
1070
    42
1040
1.0
1070
   147
1040
1.0
1070
     3
1000

1070
   140
1040
1.0
1002
}
  0
DIMENSION
  5
32C1
330
32B4
100
AcDbEntity
  8
0
  6
Continuous
 62
     7
370
     0
100
AcDbDimension
  2
*D37
 10
2.314965629242578
 20
24.50332515501543
 30
0.0
 11
2.314965629242578
 21
14.92114454757245
 31
0.0
 12
-16098.89058353641
 22
-466.7530586945503
 32
0.0
 70
   128
  1
\fArial|b0|i0|c0|p0;<>
 71
     5
 42
19.16436121489119
 73
     0
 74
     0
 75
     0
  3
Default
100
AcDbAlignedDimension
 13
7.092056240366218
 23
5.338963940124244
 33
0.0
 14
14.87897209884067
 24
24.50332515501543
 34
0.0
 50
90.0
100
AcDbRotatedDimension
1001
ACAD
1000
DSTYLE
1002
{
1070
   178
1070
     7
1070
   279
1070
     0
1070
    41
1040
1.0
1070
   176
1070
     7
1070
   177
1070
     7
1070
    44
1040
1.0
1070
    42
1040
1.0
1070
   147
1040
1.0
1070
     3
1000

1070
   140
1040
1.0
1002
}
  0
DIMENSION
  5
32C2
330
32B4
100
AcDbEntity
  8
0
  6
Continuous
 62
     7
370
     0
100
AcDbDimension
  2
*D38
 10
7.092056240364399
 20
5.693294840125417
 30
0.0
 11
11.6170074891088
 21
8.418963287706901
 31
0.0
 12
-16098.89058353641
 22
-466.7530586945503
 32
0.0
 70
     4
  1
R<>
 71
     5
 42
0.3543309035667335
 73
     0
 74
     0
 75
     0
  3
Default
100
AcDbRadialDimension
 15
7.395575451613694
 25
5.876123934156566
 35
0.0
 40
0.0
1001
ACAD
1000
DSTYLE
1002
{
1070
   178
1070
     7
1070
    41
1040
1.0
1070
   176
1070
     7
1070
   147
1040
1.0
1070
   172
1070
     0
1070
   140
1040
1.0
1002
}
  0
ENDBLK
  5
32C4
330
32B4
100
AcDbEntity
  8
0
100
AcDbBlockEnd
  0
ENDSEC
  0
SECTION
  2
ENTITIES
  0
POINT
  5
37C
330
2
100
AcDbEntity
  8
0
 60
     1
100
AcDbPoint
 10
170.4737662487822
 20
-90.83440570086338
 30
0.0
1001
GENIUS_GENOBJ-N-TIT_13
1002
{
1000
OWNER
1000
GEN
1002
}
1001
GENIUS_GENOENT_13
1002
{
1000
MYREF
1005
37C
1002
}
1002
{
1000
GRP
1005
0
1002
}
1001
GENIUS_GENOLIS_13
1002
{
1000
ENT
1005
0
1005
0
1002
}
1001
GENIUS_GENTITLE_13
1002
{
1000
SCALE
1000
1:1
1002
}
1002
{
1000
BORDER
1000
GEN_A1
1002
}
1002
{
1000
TITLE
1000
GENTITLE
1002
}
1002
{
1000
UNCHG
1002
{
1000
GEN-TITLE-SCA
1000
GEN-TITLE-SIZ
1002
}
1002
}
1002
{
1000
HRA
1005
0
1002
}
1002
{
1000
HTIT
1005
0
1002
}
1002
{
1000
GENIUSID
1005
37C
1002
}
1001
GENIUS_GENODEF_13
1002
{
1000
HIER
1070
     1
1002
}
1002
{
1000
MANEDIT
1070
     0
1002
}
1002
{
1000
NOSEL
1070
     0
1002
}
1002
{
1000
BEHIND
1070
     0
1002
}
1002
{
1000
REACTOR
1002
}
  0
TEXT
  5
384
330
2
100
AcDbEntity
  8
0
 60
     1
100
AcDbText
 10
830.9999999999996
 20
-52.92726755347096
 30
0.0
 40
3.5
  1
!GENTITLE-INSERT
100
AcDbText
  0
TEXT
  5
385
330
2
100
AcDbEntity
  8
0
 60
     1
100
AcDbText
 10
10.0
 20
-47.92726755347096
 30
0.0
 40
3.5
  1
!GENTITLE-LL
100
AcDbText
  0
TEXT
  5
386
330
2
100
AcDbEntity
  8
0
 60
     1
100
AcDbText
 10
831.0
 20
526.072732446529
 30
0.0
 40
3.5
  1
!GENTITLE-RU
100
AcDbText
  0
TEXT
  5
387
330
2
100
AcDbEntity
  8
0
 60
     1
100
AcDbText
 10
841.0
 20
536.0727324465289
 30
0.0
 40
3.5
  1
!GENTITLE-MAX
100
AcDbText
  0
TEXT
  5
3FA
330
2
100
AcDbEntity
  8
0
 60
     1
100
AcDbText
 10
684.8812705983662
 20
141.8068575944205
 30
0.0
 40
3.5
  1
!GENTITLE-INSERT
100
AcDbText
  0
TEXT
  5
3FB
330
2
100
AcDbEntity
  8
0
 60
     1
100
AcDbText
 10
-136.1187294016335
 20
146.8068575944205
 30
0.0
 40
3.5
  1
!GENTITLE-LL
100
AcDbText
  0
TEXT
  5
3FC
330
2
100
AcDbEntity
  8
0
 60
     1
100
AcDbText
 10
684.8812705983664
 20
720.8068575944203
 30
0.0
 40
3.5
  1
!GENTITLE-RU
100
AcDbText
  0
TEXT
  5
3FD
330
2
100
AcDbEntity
  8
0
 60
     1
100
AcDbText
 10
694.8812705983664
 20
730.8068575944203
 30
0.0
 40
3.5
  1
!GENTITLE-MAX
100
AcDbText
  0
MTEXT
  5
2BFE
330
2
100
AcDbEntity
  8
0
100
AcDbMText
 10
1211.424686457425
 20
1289.83934574927
 30
0.0
 40
0.3937
 41
14.93397349915023
 46
0.0
 71
     1
 72
     5
  3
{\fTimes New Roman|b0|i0|c0|p18;\H1.27x;Model : P-175U\P\H0.58x;IMPORTANT ! \PThis template is provided as a guide for Undermount cutout only. \PBefore beginning to cut countertop, compare physical dimension of the template and the cutout line with t
  1
he actual sink unit for an accurate cut.\PHouzer is not responsible for any countertop, installation or labor charges due to failure to follow these instructions.\PHOUZER Inc.                  \Lwww.HouzerSink.com }
  7
스타일2
 73
     1
 44
1.0
1001
ACAD
1000
MTEXTBEGIN
1070
    73
1070
     1
1070
    44
1040
1.0
1070
    74
1070
     0
1000
MTEXTEND
  0
LINE
  5
324A
330
2
100
AcDbEntity
  8
0
  6
Continuous
 62
     7
370
     0
100
AcDbLine
 10
1232.373538827614
 20
1280.251922325678
 30
0.0
 11
1232.373538827614
 21
1296.586072799658
 31
0.0
  0
ARC
  5
324B
330
2
100
AcDbEntity
  8
0
  6
Continuous
 62
     7
370
     0
100
AcDbCircle
 10
1232.019207927615
 20
1280.251922325678
 30
0.0
 40
0.3543309
100
AcDbArc
 50
270.0
 51
0.0
  0
LINE
  5
324C
330
2
100
AcDbEntity
  8
0
  6
Continuous
 62
     7
370
     0
100
AcDbLine
 10
1202.562499107615
 20
1279.897591425678
 30
0.0
 11
1232.019207927615
 21
1279.897591425678
 31
0.0
  0
ARC
  5
324D
330
2
100
AcDbEntity
  8
0
  6
Continuous
 62
     7
370
     0
100
AcDbCircle
 10
1202.562499107615
 20
1280.251922325678
 30
0.0
 40
0.3543309
100
AcDbArc
 50
180.0
 51
270.0
  0
LINE
  5
324E
330
2
100
AcDbEntity
  8
0
  6
Continuous
 62
     7
370
     0
100
AcDbLine
 10
1202.208168207615
 20
1296.695125260121
 30
0.0
 11
1202.208168207615
 21
1280.251922325678
 31
0.0
  0
ARC
  5
324F
330
2
100
AcDbEntity
  8
0
  6
Continuous
 62
     7
370
     0
100
AcDbCircle
 10
1202.562499107615
 20
1296.695125260121
 30
0.0
 40
0.3543309
100
AcDbArc
 50
116.571526999202
 51
180.0
  0
SPLINE
  5
3250
330
2
100
AcDbEntity
  8
0
  6
Continuous
 62
     7
370
     0
100
AcDbSpline
210
0.0
220
0.0
230
1.0
 70
     8
 71
     3
 72
    16
 73
    12
 74
     0
 42
0.0000000001
 43
0.0000000001
 40
0.0
 40
0.0
 40
0.0
 40
0.0
 40
20.91215310368818
 40
62.73645931106455
 40
122.8021956071855
 40
181.1736782964749
 40
238.9139218942094
 40
297.1207560114926
 40
356.8661347799451
 40
398.3834862232223
 40
419.1421619448608
 40
419.1421619448608
 40
419.1421619448608
 40
419.1421619448608
 10
1202.404001689805
 20
1297.012030530334
 30
0.0
 10
1202.649452493619
 20
1297.134790613626
 30
0.0
 10
1203.392433421735
 20
1297.489817575438
 30
0.0
 10
1204.886507082145
 20
1298.102010972576
 30
0.0
 10
1206.908790015976
 20
1298.69872137972
 30
0.0
 10
1209.20040102309
 20
1299.055816449918
 30
0.0
 10
1211.495017270346
 20
1299.093958419249
 30
0.0
 10
1213.790864342185
 20
1298.813046059036
 30
0.0
 10
1215.82107248441
 20
1298.283329294015
 30
0.0
 10
1217.323498414264
 20
1297.720297798562
 30
0.0
 10
1218.07108331293
 20
1297.389733422321
 30
0.0
 10
1218.31817816484
 20
1297.275021550356
 30
0.0
  0
ARC
  5
3251
330
2
100
AcDbEntity
  8
0
  6
Continuous
 62
     7
370
     0
100
AcDbCircle
 10
1219.660989482527
 20
1300.167501308431
 30
0.0
 40
3.188978100000007
100
AcDbArc
 50
245.0972799991395
 51
275.8659059987276
  0
SPLINE
  5
3252
330
2
100
AcDbEntity
  8
0
  6
Continuous
 62
     7
370
     0
100
AcDbSpline
210
0.0
220
0.0
230
1.0
 70
     8
 71
     3
 72
    12
 73
     8
 74
     0
 42
0.0000000001
 43
0.0000000001
 40
0.0
 40
0.0
 40
0.0
 40
0.0
 40
34.15023990024536
 40
102.4507197007361
 40
204.6593646118242
 40
272.9872157507059
 40
307.1511413201467
 40
307.1511413201467
 40
307.1511413201467
 40
307.1511413201467
 10
1219.986924713674
 20
1296.995223317769
 30
0.0
 10
1220.43274416548
 20
1297.041026019406
 30
0.0
 10
1221.771820730935
 20
1297.162683317323
 30
0.0
 10
1224.455524516563
 20
1297.310503775722
 30
0.0
 10
1227.592044201348
 20
1297.295663432234
 30
0.0
 10
1230.274768626623
 20
1297.122491131677
 30
0.0
 10
1231.613178272462
 20
1296.988197387372
 30
0.0
 10
1232.058726753001
 20
1296.938193008116
 30
0.0
  0
ARC
  5
3253
330
2
100
AcDbEntity
  8
0
  6
Continuous
 62
     7
370
     0
100
AcDbCircle
 10
1232.019207927615
 20
1296.586072799658
 30
0.0
 40
0.3543309
100
AcDbArc
 50
0.0
 51
83.59643000007059
  0
DIMENSION
  5
3254
330
2
100
AcDbEntity
  8
0
  6
Continuous
 62
     7
370
     0
100
AcDbDimension
  2
*D33
 10
1232.373538827614
 20
1275.558631129885
 30
0.0
 11
1217.290853517614
 21
1275.558631129885
 31
0.0
 70
   161
  1
\fArial|b0|i0|c0|p0;<>
 71
     5
 42
30.16537061999952
 73
     0
 74
     0
 75
     0
  3
Default
100
AcDbAlignedDimension
 13
1202.208168207615
 23
1280.251922325678
 33
0.0
 14
1232.373538827614
 24
1280.251922325678
 34
0.0
1001
ACAD
1000
DSTYLE
1002
{
1070
   178
1070
     7
1070
   279
1070
     0
1070
    41
1040
1.0
1070
   176
1070
     7
1070
   177
1070
     7
1070
    44
1040
1.0
1070
    42
1040
1.0
1070
   147
1040
1.0
1070
     3
1000

1070
   140
1040
1.0
1002
}
  0
DIMENSION
  5
3255
330
2
100
AcDbEntity
  8
0
  6
Continuous
 62
     7
370
     0
100
AcDbDimension
  2
*D34
 10
1197.785408496491
 20
1299.061952640569
 30
0.0
 11
1197.785408496491
 21
1289.479772033127
 31
0.0
 70
   160
  1
\fArial|b0|i0|c0|p0;<>
 71
     5
 42
19.16436121489096
 73
     0
 74
     0
 75
     0
  3
Default
100
AcDbAlignedDimension
 13
1202.562499107615
 23
1279.897591425678
 33
0.0
 14
1210.349414966089
 24
1299.061952640569
 34
0.0
 50
90.0
100
AcDbRotatedDimension
1001
ACAD
1000
DSTYLE
1002
{
1070
   178
1070
     7
1070
   279
1070
     0
1070
    41
1040
1.0
1070
   176
1070
     7
1070
   177
1070
     7
1070
    44
1040
1.0
1070
    42
1040
1.0
1070
   147
1040
1.0
1070
     3
1000

1070
   140
1040
1.0
1002
}
  0
DIMENSION
  5
3256
330
2
100
AcDbEntity
  8
0
  6
Continuous
 62
     7
370
     0
100
AcDbDimension
  2
*D35
 10
1202.562499107613
 20
1280.251922325679
 30
0.0
 11
1206.308052078765
 21
1284.271489601112
 31
0.0
 70
    36
  1
R<>
 71
     5
 42
0.354330903565824
 73
     0
 74
     0
 75
     0
  3
Default
100
AcDbRadialDimension
 15
1202.866018318862
 25
1280.43475141971
 35
0.0
 40
0.0
1001
ACAD
1000
DSTYLE
1002
{
1070
   178
1070
     7
1070
    41
1040
1.0
1070
   176
1070
     7
1070
   147
1040
1.0
1070
   172
1070
     0
1070
   140
1040
1.0
1002
}
  0
VIEWPORT
  5
74
330
C
100
AcDbEntity
 67
     1
  8
0
100
AcDbViewport
 10
490.633788896909
 20
297.0009369707932
 30
0.0
 40
1115.370256166983
 41
599.3755656108596
 68
     1
 69
     1
 12
490.633788896909
 22
297.0009369707932
 13
0.0
 23
0.0
 14
10.0
 24
10.0
 15
10.0
 25
10.0
 16
0.0
 26
0.0
 36
1.0
 17
0.0
 27
0.0
 37
0.0
 42
50.0
 43
0.0
 44
0.0
 45
599.3755656108596
 50
0.0
 51
0.0
 72
  1000
 90
    32800
  1

281
     0
 71
     1
 74
     0
110
0.0
120
0.0
130
0.0
111
1.0
121
0.0
131
0.0
112
0.0
122
1.0
132
0.0
 79
     0
146
0.0
170
     0
 61
     5
348
2C38
292
     1
282
     1
141
0.0
142
0.0
 63
   250
421
  3355443
  0
ENDSEC
  0
SECTION
  2
OBJECTS
  0
DICTIONARY
  5
7
330
0
100
AcDbDictionary
281
     1
  3
ACAD_COLOR
350
5A3
  3
ACAD_GROUP
350
20
  3
ACAD_LAYOUT
350
B
  3
ACAD_MATERIAL
350
5A2
  3
ACAD_MLINESTYLE
350
21
  3
ACAD_PLOTSETTINGS
350
22
  3
ACAD_PLOTSTYLENAME
350
6
  3
ACAD_TABLESTYLE
350
5C3
  3
ACAD_VISUALSTYLE
350
2C32
  3
AcDbVariableDictionary
350
81
  0
DICTIONARY
  5
1CC0
330
10
100
AcDbDictionary
280
     1
281
     1
  3
ACAD_LAYERSTATES
360
1CC1
  0
DICTIONARY
  5
95E
330
2
100
AcDbDictionary
280
     1
281
     1
  3
ACAD_SORTENTS
360
95F
  0
DICTIONARY
  5
5A3
102
{ACAD_REACTORS
330
7
102
}
330
7
100
AcDbDictionary
281
     1
  0
DICTIONARY
  5
20
102
{ACAD_REACTORS
330
7
102
}
330
7
100
AcDbDictionary
281
     1
  0
DICTIONARY
  5
B
102
{ACAD_REACTORS
330
7
102
}
330
7
100
AcDbDictionary
281
     1
  3
DIN A1 Title Block
350
F
  3
Model
350
A
  0
DICTIONARY
  5
5A2
102
{ACAD_REACTORS
330
7
102
}
330
7
100
AcDbDictionary
281
     1
  3
ByBlock
350
2C30
  3
ByLayer
350
2C2F
  3
Global
350
2C31
  0
DICTIONARY
  5
21
102
{ACAD_REACTORS
330
7
102
}
330
7
100
AcDbDictionary
281
     1
  3
Standard
350
23
  0
DICTIONARY
  5
22
102
{ACAD_REACTORS
330
7
102
}
330
7
100
AcDbDictionary
281
     1
  0
ACDBDICTIONARYWDFLT
  5
6
102
{ACAD_REACTORS
330
7
102
}
330
7
100
AcDbDictionary
281
     1
  3
Normal
350
5
100
AcDbDictionaryWithDefault
340
5
  0
DICTIONARY
  5
5C3
102
{ACAD_REACTORS
330
7
102
}
330
7
100
AcDbDictionary
281
     1
  3
Standard
350
5C4
  0
DICTIONARY
  5
2C32
102
{ACAD_REACTORS
330
7
102
}
330
7
100
AcDbDictionary
281
     1
  3
2dWireframe
350
2C38
  3
3D Hidden
350
2C3A
  3
3dWireframe
350
2C39
  3
Basic
350
2C37
  3
Brighten
350
2C3E
  3
ColorChange
350
2C42
  3
Conceptual
350
2C3B
  3
Dim
350
2C3D
  3
Facepattern
350
2C41
  3
Flat
350
2C33
  3
FlatWithEdges
350
2C34
  3
Gouraud
350
2C35
  3
GouraudWithEdges
350
2C36
  3
Linepattern
350
2C40
  3
Realistic
350
2C3C
  3
Thicken
350
2C3F
  0
DICTIONARY
  5
81
102
{ACAD_REACTORS
330
7
102
}
330
7
100
AcDbDictionary
281
     1
  3
CTABLESTYLE
350
5EE
  3
DIMASSOC
350
82
  3
PROJECTNAME
350
2C00
  0
DICTIONARY
  5
1CC1
102
{ACAD_REACTORS
330
1CC0
102
}
330
1CC0
100
AcDbDictionary
281
     1
  0
SORTENTSTABLE
  5
95F
102
{ACAD_REACTORS
330
95E
102
}
330
95E
100
AcDbSortentsTable
330
2
331
3FC
  5
3FC
331
3FA
  5
3FA
331
386
  5
386
331
384
  5
384
331
3FD
  5
3FD
331
37C
  5
37C
331
3FB
  5
3FB
331
387
  5
387
331
385
  5
385
  0
LAYOUT
  5
F
102
{ACAD_REACTORS
330
B
102
}
330
B
100
AcDbPlotSettings
  1

  2
none_device
  4
ISO_A1_(841.00_x_594.00_MM)
  6

 40
7.549999999999998
 41
20.05
 42
7.549999999999998
 43
20.05
 44
841.0
 45
594.0
 46
-7.57
 47
-20.06
 48
0.0
 49
0.0
140
0.0
141
0.0
142
1.0
143
1.0
 70
   688
 72
     1
 73
     0
 74
     5
  7

 75
    16
147
1.0
 76
     0
 77
     2
 78
   300
148
0.0128164049386896
149
0.0090630292066862
100
AcDbLayout
  1
DIN A1 Title Block
 70
     1
 71
     1
 10
0.0071835950613108
 20
0.0009369707933118
 11
841.0071835950612
 21
594.0009369707931
 12
0.0
 22
0.0
 32
0.0
 14
1.000000000000000E+20
 24
1.000000000000000E+20
 34
1.000000000000000E+20
 15
-1.000000000000000E+20
 25
-1.000000000000000E+20
 35
-1.000000000000000E+20
146
0.0
 13
0.0
 23
0.0
 33
0.0
 16
1.0
 26
0.0
 36
0.0
 17
0.0
 27
1.0
 37
0.0
 76
     0
330
C
331
74
  0
LAYOUT
  5
A
102
{ACAD_REACTORS
330
B
102
}
330
B
100
AcDbPlotSettings
  1

  2
none_device
  4
ISO_A4_(297.00_x_210.00_MM)
  6

 40
7.5
 41
20.0
 42
7.5
 43
20.0
 44
297.0
 45
210.0
 46
0.0
 47
0.0
 48
969.1120635225747
 49
1410.089773188028
140
997.7071895623687
141
1431.243016253039
142
1.0
143
20.0
 70
 11952
 72
     1
 73
     0
 74
     4
  7

 75
    22
147
0.05
 76
     0
 77
     2
 78
   300
148
-969.1120635225747
149
-1410.089773188028
100
AcDbLayout
  1
Model
 70
     1
 71
     0
 10
0.0
 20
0.0
 11
12.0
 21
9.0
 12
0.0
 22
0.0
 32
0.0
 14
0.0
 24
0.0
 34
0.0
 15
0.0
 25
0.0
 35
0.0
146
0.0
 13
0.0
 23
0.0
 33
0.0
 16
1.0
 26
0.0
 36
0.0
 17
0.0
 27
1.0
 37
0.0
 76
     0
330
2
331
2C29
1001
ACAD_PSEXT
1000
없음
1000
없음
1000
적용 가능하지 않음
1000
배치가 새로운 플로터 구성을 선택할 때까지 플롯되지 않습니다.
1070
     0
  0
MATERIAL
  5
2C30
102
{ACAD_REACTORS
330
5A2
102
}
330
5A2
100
AcDbMaterial
  1
ByBlock
  0
MATERIAL
  5
2C2F
102
{ACAD_REACTORS
330
5A2
102
}
330
5A2
100
AcDbMaterial
  1
ByLayer
  0
MATERIAL
  5
2C31
102
{ACAD_REACTORS
330
5A2
102
}
330
5A2
100
AcDbMaterial
  1
Global
  0
MLINESTYLE
  5
23
102
{ACAD_REACTORS
330
21
102
}
330
21
100
AcDbMlineStyle
  2
STANDARD
 70
     0
  3

 62
   256
 51
90.0
 52
90.0
 71
     2
 49
0.5
 62
   256
  6
BYLAYER
 49
-0.5
 62
   256
  6
BYLAYER
  0
ACDBPLACEHOLDER
  5
5
102
{ACAD_REACTORS
330
6
102
}
330
6
  0
TABLESTYLE
  5
5C4
102
{ACAD_REACTORS
330
5C3
102
}
330
5C3
100
AcDbTableStyle
  3
Standard
 70
     0
 71
     0
 40
1.5
 41
1.5
280
     0
281
     0
  7
Standard
140
4.5
170
     2
 62
     0
 63
     7
283
     0
 90
        4
 91
        0
  1

274
    -2
284
     1
 64
     0
275
    -2
285
     1
 65
     0
276
    -2
286
     1
 66
     0
277
    -2
287
     1
 67
     0
278
    -2
288
     1
 68
     0
279
    -2
289
     1
 69
     0
  7
Standard
140
6.0
170
     5
 62
     0
 63
     7
283
     0
 90
        4
 91
        0
  1

274
    -2
284
     1
 64
     0
275
    -2
285
     1
 65
     0
276
    -2
286
     1
 66
     0
277
    -2
287
     1
 67
     0
278
    -2
288
     1
 68
     0
279
    -2
289
     1
 69
     0
  7
Standard
140
4.5
170
     5
 62
     0
 63
     7
283
     0
 90
        4
 91
        0
  1

274
    -2
284
     1
 64
     0
275
    -2
285
     1
 65
     0
276
    -2
286
     1
 66
     0
277
    -2
287
     1
 67
     0
278
    -2
288
     1
 68
     0
279
    -2
289
     1
 69
     0
  0
VISUALSTYLE
  5
2C38
102
{ACAD_REACTORS
330
2C32
102
}
330
2C32
100
AcDbVisualStyle
  2
2dWireframe
 70
     4
 71
     0
 72
     2
 73
     0
 90
        0
 40
-0.6
 41
-30.0
 62
     5
 63
     7
421
 16777215
 74
     1
 91
        4
 64
     7
 65
   257
 75
     1
175
     1
 42
1.0
 92
        0
 66
   257
 43
1.0
 76
     1
 77
     6
 78
     2
 67
     7
 79
     5
170
     0
171
     0
290
     0
174
     0
 93
        1
 44
0.0
173
     0
291
     0
 45
0.0
  0
VISUALSTYLE
  5
2C3A
102
{ACAD_REACTORS
330
2C32
102
}
330
2C32
100
AcDbVisualStyle
  2
3D Hidden
 70
     6
 71
     1
 72
     2
 73
     2
 90
        0
 40
-0.6
 41
-30.0
 62
     5
 63
     7
421
 16777215
 74
     2
 91
        2
 64
     7
 65
   257
 75
     2
175
     1
 42
40.0
 92
        0
 66
   257
 43
1.0
 76
     1
 77
     6
 78
     2
 67
     7
 79
     3
170
     0
171
     0
290
     0
174
     0
 93
        1
 44
0.0
173
     0
291
     0
 45
0.0
  0
VISUALSTYLE
  5
2C39
102
{ACAD_REACTORS
330
2C32
102
}
330
2C32
100
AcDbVisualStyle
  2
3dWireframe
 70
     5
 71
     0
 72
     2
 73
     0
 90
        0
 40
-0.6
 41
-30.0
 62
     5
 63
     7
421
 16777215
 74
     1
 91
        4
 64
     7
 65
   257
 75
     1
175
     1
 42
1.0
 92
        0
 66
   257
 43
1.0
 76
     1
 77
     6
 78
     2
 67
     7
 79
     5
170
     0
171
     0
290
     0
174
     0
 93
        1
 44
0.0
173
     0
291
     0
 45
0.0
  0
VISUALSTYLE
  5
2C37
102
{ACAD_REACTORS
330
2C32
102
}
330
2C32
100
AcDbVisualStyle
  2
Basic
 70
     7
 71
     1
 72
     0
 73
     1
 90
        0
 40
-0.6
 41
-30.0
 62
     5
 63
     7
421
 16777215
 74
     0
 91
        4
 64
     7
 65
   257
 75
     1
175
     1
 42
1.0
 92
        8
 66
     7
 43
1.0
 76
     1
 77
     6
 78
     2
 67
     7
 79
     5
170
     0
171
     0
290
     0
174
     0
 93
        1
 44
0.0
173
     0
291
     1
 45
0.0
  0
VISUALSTYLE
  5
2C3E
102
{ACAD_REACTORS
330
2C32
102
}
330
2C32
100
AcDbVisualStyle
  2
Brighten
 70
    12
 71
     2
 72
     2
 73
     0
 90
        0
 40
-0.6
 41
-30.0
 62
     5
 63
     7
421
 16777215
 74
     1
 91
        4
 64
     7
 65
   257
 75
     1
175
     1
 42
1.0
 92
        8
 66
     7
 43
1.0
 76
     1
 77
     6
 78
     2
 67
     7
 79
     5
170
     0
171
     0
290
     0
174
     0
 93
        1
 44
50.0
173
     0
291
     1
 45
0.0
  0
VISUALSTYLE
  5
2C42
102
{ACAD_REACTORS
330
2C32
102
}
330
2C32
100
AcDbVisualStyle
  2
ColorChange
 70
    16
 71
     2
 72
     2
 73
     3
 90
        0
 40
-0.6
 41
-30.0
 62
     5
 63
     8
421
  8421504
 74
     1
 91
        4
 64
     7
 65
   257
 75
     1
175
     1
 42
1.0
 92
        8
 66
     8
424
  8421504
 43
1.0
 76
     1
 77
     6
 78
     2
 67
     7
 79
     5
170
     0
171
     0
290
     0
174
     0
 93
        1
 44
0.0
173
     0
291
     1
 45
0.0
  0
VISUALSTYLE
  5
2C3B
102
{ACAD_REACTORS
330
2C32
102
}
330
2C32
100
AcDbVisualStyle
  2
Conceptual
 70
     9
 71
     3
 72
     2
 73
     0
 90
        0
 40
-0.6
 41
-30.0
 62
     5
 63
     7
421
 16777215
 74
     2
 91
        2
 64
     7
 65
   257
 75
     1
175
     1
 42
40.0
 92
        8
 66
     7
 43
1.0
 76
     1
 77
     6
 78
     2
 67
     7
 79
     3
170
     0
171
     0
290
     0
174
     0
 93
        1
 44
0.0
173
     0
291
     0
 45
0.0
  0
VISUALSTYLE
  5
2C3D
102
{ACAD_REACTORS
330
2C32
102
}
330
2C32
100
AcDbVisualStyle
  2
Dim
 70
    11
 71
     2
 72
     2
 73
     0
 90
        0
 40
-0.6
 41
-30.0
 62
     5
 63
     7
421
 16777215
 74
     1
 91
        4
 64
     7
 65
   257
 75
     1
175
     1
 42
1.0
 92
        8
 66
     7
 43
1.0
 76
     1
 77
     6
 78
     2
 67
     7
 79
     5
170
     0
171
     0
290
     0
174
     0
 93
        1
 44
-50.0
173
     0
291
     1
 45
0.0
  0
VISUALSTYLE
  5
2C41
102
{ACAD_REACTORS
330
2C32
102
}
330
2C32
100
AcDbVisualStyle
  2
Facepattern
 70
    15
 71
     2
 72
     2
 73
     0
 90
        0
 40
-0.6
 41
-30.0
 62
     5
 63
     7
421
 16777215
 74
     1
 91
        4
 64
     7
 65
   257
 75
     1
175
     1
 42
1.0
 92
        8
 66
     7
 43
1.0
 76
     1
 77
     6
 78
     2
 67
     7
 79
     5
170
     0
171
     0
290
     0
174
     0
 93
        1
 44
0.0
173
     0
291
     1
 45
0.0
  0
VISUALSTYLE
  5
2C33
102
{ACAD_REACTORS
330
2C32
102
}
330
2C32
100
AcDbVisualStyle
  2
Flat
 70
     0
 71
     2
 72
     1
 73
     1
 90
        2
 40
-0.6
 41
30.0
 62
     5
 63
     7
421
 16777215
 74
     0
 91
        4
 64
     7
 65
   257
 75
     1
175
     1
 42
1.0
 92
        8
 66
     7
 43
1.0
 76
     1
 77
     6
 78
     2
 67
     7
 79
     5
170
     0
171
     0
290
     0
174
     0
 93
       13
 44
0.0
173
     0
291
     1
 45
0.0
  0
VISUALSTYLE
  5
2C34
102
{ACAD_REACTORS
330
2C32
102
}
330
2C32
100
AcDbVisualStyle
  2
FlatWithEdges
 70
     1
 71
     2
 72
     1
 73
     1
 90
        2
 40
-0.6
 41
30.0
 62
     5
 63
     7
421
 16777215
 74
     1
 91
        4
 64
     7
 65
   257
 75
     1
175
     1
 42
1.0
 92
        0
 66
   257
 43
1.0
 76
     1
 77
     6
 78
     2
 67
     7
 79
     5
170
     0
171
     0
290
     0
174
     0
 93
       13
 44
0.0
173
     0
291
     1
 45
0.0
  0
VISUALSTYLE
  5
2C35
102
{ACAD_REACTORS
330
2C32
102
}
330
2C32
100
AcDbVisualStyle
  2
Gouraud
 70
     2
 71
     2
 72
     2
 73
     1
 90
        2
 40
-0.6
 41
30.0
 62
     5
 63
     7
421
 16777215
 74
     0
 91
        4
 64
     7
 65
   257
 75
     1
175
     1
 42
1.0
 92
        0
 66
     7
 43
1.0
 76
     1
 77
     6
 78
     2
 67
     7
 79
     5
170
     0
171
     0
290
     0
174
     0
 93
       13
 44
0.0
173
     0
291
     1
 45
0.0
  0
VISUALSTYLE
  5
2C36
102
{ACAD_REACTORS
330
2C32
102
}
330
2C32
100
AcDbVisualStyle
  2
GouraudWithEdges
 70
     3
 71
     2
 72
     2
 73
     1
 90
        2
 40
-0.6
 41
30.0
 62
     5
 63
     7
421
 16777215
 74
     1
 91
        4
 64
     7
 65
   257
 75
     1
175
     1
 42
1.0
 92
        0
 66
   257
 43
1.0
 76
     1
 77
     6
 78
     2
 67
     7
 79
     5
170
     0
171
     0
290
     0
174
     0
 93
       13
 44
0.0
173
     0
291
     1
 45
0.0
  0
VISUALSTYLE
  5
2C40
102
{ACAD_REACTORS
330
2C32
102
}
330
2C32
100
AcDbVisualStyle
  2
Linepattern
 70
    14
 71
     2
 72
     2
 73
     0
 90
        0
 40
-0.6
 41
-30.0
 62
     5
 63
     7
421
 16777215
 74
     1
 91
        4
 64
     7
 65
   257
 75
     7
175
     7
 42
1.0
 92
        8
 66
     7
 43
1.0
 76
     1
 77
     6
 78
     2
 67
     7
 79
     5
170
     0
171
     0
290
     0
174
     0
 93
        1
 44
0.0
173
     0
291
     1
 45
0.0
  0
VISUALSTYLE
  5
2C3C
102
{ACAD_REACTORS
330
2C32
102
}
330
2C32
100
AcDbVisualStyle
  2
Realistic
 70
     8
 71
     2
 72
     2
 73
     0
 90
        0
 40
-0.6
 41
-30.0
 62
     5
 63
     7
421
 16777215
 74
     1
 91
        0
 64
     7
 65
   257
 75
     1
175
     1
 42
1.0
 92
        8
 66
     8
424
  7895160
 43
1.0
 76
     1
 77
     6
 78
     2
 67
     7
 79
     5
170
     0
171
     0
290
     0
174
     0
 93
       13
 44
0.0
173
     0
291
     0
 45
0.0
  0
VISUALSTYLE
  5
2C3F
102
{ACAD_REACTORS
330
2C32
102
}
330
2C32
100
AcDbVisualStyle
  2
Thicken
 70
    13
 71
     2
 72
     2
 73
     0
 90
        0
 40
-0.6
 41
-30.0
 62
     5
 63
     7
421
 16777215
 74
     1
 91
        4
 64
     7
 65
   257
 75
     1
175
     1
 42
1.0
 92
       12
 66
     7
 43
1.0
 76
     1
 77
     6
 78
     2
 67
     7
 79
     5
170
     0
171
     0
290
     0
174
     0
 93
        1
 44
0.0
173
     0
291
     1
 45
0.0
  0
DICTIONARYVAR
  5
5EE
102
{ACAD_REACTORS
330
81
102
}
330
81
100
DictionaryVariables
280
     0
  1
STANDARD
  0
DICTIONARYVAR
  5
82
102
{ACAD_REACTORS
330
81
102
}
330
81
100
DictionaryVariables
280
     0
  1
1
  0
DICTIONARYVAR
  5
2C00
102
{ACAD_REACTORS
330
81
102
}
330
81
100
DictionaryVariables
280
     0
  1

  0
ENDSEC
  0
EOF
