  0
SECTION
  2
HEADER
  9
$ACADVER
  1
AC1024
  9
$ACADMAINTVER
 70
     6
  9
$DWGCODEPAGE
  3
ANSI_1252
  9
$INSBASE
 10
0.0
 20
0.0
 30
0.0
  9
$EXTMIN
 10
1.000000E+20
 20
1.000000E+20
 30
1.000000E+20
  9
$EXTMAX
 10
-1.000000E+20
 20
-1.000000E+20
 30
-1.000000E+20
  9
$LIMMIN
 10
0.0
 20
0.0
  9
$LIMMAX
 10
420.0
 20
297.0
  9
$ORTHOMODE
 70
     0
  9
$REGENMODE
 70
     1
  9
$FILLMODE
 70
     1
  9
$QTEXTMODE
 70
     0
  9
$MIRRTEXT
 70
     1
  9
$LTSCALE
 40
1.0
  9
$ATTMODE
 70
     1
  9
$TEXTSIZE
 40
2.5
  9
$TRACEWID
 40
1.0
  9
$TEXTSTYLE
  7
Standard
  9
$CLAYER
  8
0
  9
$CELTYPE
  6
ByLayer
  9
$CECOLOR
 62
   256
  9
$CELTSCALE
 40
1.0
  9
$DISPSILH
 70
     0
  9
$DIMSCALE
 40
1.0
  9
$DIMASZ
 40
2.5
  9
$DIMEXO
 40
0.625
  9
$DIMDLI
 40
3.75
  9
$DIMRND
 40
0.0
  9
$DIMDLE
 40
0.0
  9
$DIMEXE
 40
1.25
  9
$DIMTP
 40
0.0
  9
$DIMTM
 40
0.0
  9
$DIMTXT
 40
2.5
  9
$DIMCEN
 40
2.5
  9
$DIMTSZ
 40
0.0
  9
$DIMTOL
 70
     0
  9
$DIMLIM
 70
     0
  9
$DIMTIH
 70
     0
  9
$DIMTOH
 70
     0
  9
$DIMSE1
 70
     0
  9
$DIMSE2
 70
     0
  9
$DIMTAD
 70
     1
  9
$DIMZIN
 70
     8
  9
$DIMBLK
  1

  9
$DIMASO
 70
     1
  9
$DIMSHO
 70
     1
  9
$DIMPOST
  1

  9
$DIMAPOST
  1

  9
$DIMALT
 70
     0
  9
$DIMALTD
 70
     3
  9
$DIMALTF
 40
0.03937
  9
$DIMLFAC
 40
1.0
  9
$DIMTOFL
 70
     1
  9
$DIMTVP
 40
0.0
  9
$DIMTIX
 70
     0
  9
$DIMSOXD
 70
     0
  9
$DIMSAH
 70
     0
  9
$DIMBLK1
  1

  9
$DIMBLK2
  1

  9
$DIMSTYLE
  2
ISO-25
  9
$DIMCLRD
 70
     0
  9
$DIMCLRE
 70
     0
  9
$DIMCLRT
 70
     0
  9
$DIMTFAC
 40
1.0
  9
$DIMGAP
 40
0.625
  9
$DIMJUST
 70
     0
  9
$DIMSD1
 70
     0
  9
$DIMSD2
 70
     0
  9
$DIMTOLJ
 70
     0
  9
$DIMTZIN
 70
     8
  9
$DIMALTZ
 70
     0
  9
$DIMALTTZ
 70
     0
  9
$DIMUPT
 70
     0
  9
$DIMDEC
 70
     2
  9
$DIMTDEC
 70
     2
  9
$DIMALTU
 70
     2
  9
$DIMALTTD
 70
     3
  9
$DIMTXSTY
  7
Standard
  9
$DIMAUNIT
 70
     0
  9
$DIMADEC
 70
     0
  9
$DIMALTRND
 40
0.0
  9
$DIMAZIN
 70
     0
  9
$DIMDSEP
 70
    44
  9
$DIMATFIT
 70
     3
  9
$DIMFRAC
 70
     0
  9
$DIMLDRBLK
  1

  9
$DIMLUNIT
 70
     2
  9
$DIMLWD
 70
    -2
  9
$DIMLWE
 70
    -2
  9
$DIMTMOVE
 70
     0
  9
$DIMFXL
 40
1.0
  9
$DIMFXLON
 70
     0
  9
$DIMJOGANG
 40
0.785398
  9
$DIMTFILL
 70
     0
  9
$DIMTFILLCLR
 70
     0
  9
$DIMARCSYM
 70
     0
  9
$DIMLTYPE
  6

  9
$DIMLTEX1
  6

  9
$DIMLTEX2
  6

  9
$DIMTXTDIRECTION
 70
     0
  9
$LUNITS
 70
     2
  9
$LUPREC
 70
     4
  9
$SKETCHINC
 40
1.0
  9
$FILLETRAD
 40
10.0
  9
$AUNITS
 70
     0
  9
$AUPREC
 70
     0
  9
$MENU
  1
.
  9
$ELEVATION
 40
0.0
  9
$PELEVATION
 40
0.0
  9
$THICKNESS
 40
0.0
  9
$LIMCHECK
 70
     0
  9
$CHAMFERA
 40
10.0
  9
$CHAMFERB
 40
10.0
  9
$CHAMFERC
 40
20.0
  9
$CHAMFERD
 40
0.0
  9
$SKPOLY
 70
     0
  9
$TDCREATE
 40
2458732.516353542
  9
$TDUCREATE
 40
2458732.433020208
  9
$TDUPDATE
 40
2458732.516353553
  9
$TDUUPDATE
 40
2458732.43302022
  9
$TDINDWG
 40
0.0000000116
  9
$TDUSRTIMER
 40
0.0000000116
  9
$USRTIMER
 70
     1
  9
$ANGBASE
 50
0.0
  9
$ANGDIR
 70
     0
  9
$PDMODE
 70
     0
  9
$PDSIZE
 40
0.0
  9
$PLINEWID
 40
0.0
  9
$SPLFRAME
 70
     0
  9
$SPLINETYPE
 70
     6
  9
$SPLINESEGS
 70
     8
  9
$HANDSEED
  5
178
  9
$SURFTAB1
 70
     6
  9
$SURFTAB2
 70
     6
  9
$SURFTYPE
 70
     6
  9
$SURFU
 70
     6
  9
$SURFV
 70
     6
  9
$UCSBASE
  2

  9
$UCSNAME
  2

  9
$UCSORG
 10
0.0
 20
0.0
 30
0.0
  9
$UCSXDIR
 10
1.0
 20
0.0
 30
0.0
  9
$UCSYDIR
 10
0.0
 20
1.0
 30
0.0
  9
$UCSORTHOREF
  2

  9
$UCSORTHOVIEW
 70
     0
  9
$UCSORGTOP
 10
0.0
 20
0.0
 30
0.0
  9
$UCSORGBOTTOM
 10
0.0
 20
0.0
 30
0.0
  9
$UCSORGLEFT
 10
0.0
 20
0.0
 30
0.0
  9
$UCSORGRIGHT
 10
0.0
 20
0.0
 30
0.0
  9
$UCSORGFRONT
 10
0.0
 20
0.0
 30
0.0
  9
$UCSORGBACK
 10
0.0
 20
0.0
 30
0.0
  9
$PUCSBASE
  2

  9
$PUCSNAME
  2

  9
$PUCSORG
 10
0.0
 20
0.0
 30
0.0
  9
$PUCSXDIR
 10
1.0
 20
0.0
 30
0.0
  9
$PUCSYDIR
 10
0.0
 20
1.0
 30
0.0
  9
$PUCSORTHOREF
  2

  9
$PUCSORTHOVIEW
 70
     0
  9
$PUCSORGTOP
 10
0.0
 20
0.0
 30
0.0
  9
$PUCSORGBOTTOM
 10
0.0
 20
0.0
 30
0.0
  9
$PUCSORGLEFT
 10
0.0
 20
0.0
 30
0.0
  9
$PUCSORGRIGHT
 10
0.0
 20
0.0
 30
0.0
  9
$PUCSORGFRONT
 10
0.0
 20
0.0
 30
0.0
  9
$PUCSORGBACK
 10
0.0
 20
0.0
 30
0.0
  9
$USERI1
 70
     0
  9
$USERI2
 70
     0
  9
$USERI3
 70
     0
  9
$USERI4
 70
     0
  9
$USERI5
 70
     0
  9
$USERR1
 40
0.0
  9
$USERR2
 40
0.0
  9
$USERR3
 40
0.0
  9
$USERR4
 40
0.0
  9
$USERR5
 40
0.0
  9
$WORLDVIEW
 70
     1
  9
$SHADEDGE
 70
     3
  9
$SHADEDIF
 70
    70
  9
$TILEMODE
 70
     1
  9
$MAXACTVP
 70
    64
  9
$PINSBASE
 10
0.0
 20
0.0
 30
0.0
  9
$PLIMCHECK
 70
     0
  9
$PEXTMIN
 10
1.000000E+20
 20
1.000000E+20
 30
1.000000E+20
  9
$PEXTMAX
 10
-1.000000E+20
 20
-1.000000E+20
 30
-1.000000E+20
  9
$PLIMMIN
 10
0.0
 20
0.0
  9
$PLIMMAX
 10
420.0
 20
297.0
  9
$UNITMODE
 70
     0
  9
$VISRETAIN
 70
     1
  9
$PLINEGEN
 70
     0
  9
$PSLTSCALE
 70
     1
  9
$TREEDEPTH
 70
  3020
  9
$CMLSTYLE
  2
Standard
  9
$CMLJUST
 70
     0
  9
$CMLSCALE
 40
20.0
  9
$PROXYGRAPHICS
 70
     1
  9
$MEASUREMENT
 70
     1
  9
$CELWEIGHT
370
    -1
  9
$ENDCAPS
280
     0
  9
$JOINSTYLE
280
     0
  9
$LWDISPLAY
290
     0
  9
$INSUNITS
 70
     4
  9
$HYPERLINKBASE
  1

  9
$STYLESHEET
  1

  9
$XEDIT
290
     1
  9
$CEPSNTYPE
380
     0
  9
$PSTYLEMODE
290
     1
  9
$FINGERPRINTGUID
  2
{D8CB346E-63DB-4672-AEBA-98E8FB032EF4}
  9
$VERSIONGUID
  2
{FAEB1C32-E019-11D5-929B-00C0DF256EC4}
  9
$EXTNAMES
290
     1
  9
$PSVPSCALE
 40
0.0
  9
$OLESTARTUP
290
     0
  9
$SORTENTS
280
   127
  9
$INDEXCTL
280
     0
  9
$HIDETEXT
280
     1
  9
$XCLIPFRAME
280
     2
  9
$HALOGAP
280
     0
  9
$OBSCOLOR
 70
   257
  9
$OBSLTYPE
280
     0
  9
$INTERSECTIONDISPLAY
280
     0
  9
$INTERSECTIONCOLOR
 70
   257
  9
$DIMASSOC
280
     2
  9
$PROJECTNAME
  1

  9
$CAMERADISPLAY
290
     0
  9
$LENSLENGTH
 40
50.0
  9
$CAMERAHEIGHT
 40
0.0
  9
$STEPSPERSEC
 40
2.0
  9
$STEPSIZE
 40
6.0
  9
$3DDWFPREC
 40
2.0
  9
$PSOLWIDTH
 40
5.0
  9
$PSOLHEIGHT
 40
80.0
  9
$LOFTANG1
 40
1.570796
  9
$LOFTANG2
 40
1.570796
  9
$LOFTMAG1
 40
0.0
  9
$LOFTMAG2
 40
0.0
  9
$LOFTPARAM
 70
     7
  9
$LOFTNORMALS
280
     1
  9
$LATITUDE
 40
37.795
  9
$LONGITUDE
 40
-122.394
  9
$NORTHDIRECTION
 40
0.0
  9
$TIMEZONE
 70
 -8000
  9
$LIGHTGLYPHDISPLAY
280
     1
  9
$TILEMODELIGHTSYNCH
280
     1
  9
$SOLIDHIST
280
     1
  9
$SHOWHIST
280
     1
  9
$DWFFRAME
280
     2
  9
$DGNFRAME
280
     2
  9
$REALWORLDSCALE
290
     1
  9
$INTERFERECOLOR
 62
   256
  9
$CSHADOW
280
     0
  9
$SHADOWPLANELOCATION
 40
0.0
  0
ENDSEC
  0
SECTION
  2
CLASSES
  0
CLASS
  1
ACDBDICTIONARYWDFLT
  2
AcDbDictionaryWithDefault
  3
ObjectDBX Classes
 90
        0
 91
        4
280
     0
281
     0
  0
CLASS
  1
VISUALSTYLE
  2
AcDbVisualStyle
  3
ObjectDBX Classes
 90
     4095
 91
        4
280
     0
281
     0
  0
CLASS
  1
MATERIAL
  2
AcDbMaterial
  3
ObjectDBX Classes
 90
     1153
 91
        4
280
     0
281
     0
  0
CLASS
  1
SCALE
  2
AcDbScale
  3
ObjectDBX Classes
 90
     1153
 91
        4
280
     0
281
     0
  0
CLASS
  1
DICTIONARYVAR
  2
AcDbDictionaryVar
  3
ObjectDBX Classes
 90
        0
 91
        4
280
     0
281
     0
  0
ENDSEC
  0
SECTION
  2
TABLES
  0
TABLE
  2
VPORT
  5
8
330
0
100
AcDbSymbolTable
 70
     1
  0
VPORT
  5
29
330
8
100
AcDbSymbolTableRecord
100
AcDbViewportTableRecord
  2
*Active
 70
     0
 10
0.0
 20
0.0
 11
1.0
 21
1.0
 12
344.186916
 22
148.5
 13
0.0
 23
0.0
 14
10.0
 24
10.0
 15
10.0
 25
10.0
 16
0.0
 26
0.0
 36
1.0
 17
0.0
 27
0.0
 37
0.0
 40
297.0
 41
1.972973
 42
50.0
 43
0.0
 44
0.0
 50
0.0
 51
0.0
 71
     0
 72
   100
 73
     1
 74
     3
 75
     0
 76
     0
 77
     0
 78
     0
281
     0
 65
     1
110
0.0
120
0.0
130
0.0
111
1.0
121
0.0
131
0.0
112
0.0
122
1.0
132
0.0
 79
     0
146
0.0
 60
     3
 61
     5
292
     1
282
     1
141
0.0
142
0.0
 63
   250
  0
ENDTAB
  0
TABLE
  2
LTYPE
  5
5
330
0
100
AcDbSymbolTable
 70
     3
  0
LTYPE
  5
14
330
5
100
AcDbSymbolTableRecord
100
AcDbLinetypeTableRecord
  2
ByBlock
 70
     0
  3

 72
    65
 73
     0
 40
0.0
  0
LTYPE
  5
15
330
5
100
AcDbSymbolTableRecord
100
AcDbLinetypeTableRecord
  2
ByLayer
 70
     0
  3

 72
    65
 73
     0
 40
0.0
  0
LTYPE
  5
16
330
5
100
AcDbSymbolTableRecord
100
AcDbLinetypeTableRecord
  2
Continuous
 70
     0
  3
Solid line
 72
    65
 73
     0
 40
0.0
  0
LTYPE
  5
83
330
5
100
AcDbSymbolTableRecord
100
AcDbLinetypeTableRecord
  2
CENTER2
 70
     0
  3
Center (.5x) ___ _ ___ _ ___ _ ___ _ ___ _ ___
 72
    65
 73
     4
 40
28.575
 49
19.05
 74
     0
 49
-3.175
 74
     0
 49
3.175
 74
     0
 49
-3.175
 74
     0
  0
LTYPE
  5
C2
330
5
100
AcDbSymbolTableRecord
100
AcDbLinetypeTableRecord
  2
HIDDEN2
 70
     0
  3
Hidden (.5x) _ _ _ _ _ _ _ _ _ _ _ _ _ _ _ _ _ 
 72
    65
 73
     2
 40
4.7625
 49
3.175
 74
     0
 49
-1.5875
 74
     0
  0
ENDTAB
  0
TABLE
  2
LAYER
  5
2
330
0
100
AcDbSymbolTable
 70
    11
  0
LAYER
  5
10
330
2
100
AcDbSymbolTableRecord
100
AcDbLayerTableRecord
  2
0
 70
     0
 62
     7
  6
Continuous
370
     0
390
F
347
3E
  0
LAYER
  5
3F
330
2
100
AcDbSymbolTableRecord
100
AcDbLayerTableRecord
  2
1
 70
     0
 62
     7
  6
Continuous
370
     0
390
F
347
3E
1001
AcAecLayerStandard
1000

1000
1
  0
LAYER
  5
41
330
2
100
AcDbSymbolTableRecord
100
AcDbLayerTableRecord
  2
2
 70
     0
 62
     7
  6
Continuous
370
     0
390
F
347
3E
1001
AcAecLayerStandard
1000

1000
2
  0
LAYER
  5
42
330
2
100
AcDbSymbolTableRecord
100
AcDbLayerTableRecord
  2
3
 70
     0
 62
     7
  6
Continuous
370
     0
390
F
347
3E
1001
AcAecLayerStandard
1000

1000
255
  0
LAYER
  5
43
330
2
100
AcDbSymbolTableRecord
100
AcDbLayerTableRecord
  2
4
 70
     0
 62
     7
  6
Continuous
370
     0
390
F
347
3E
1001
AcAecLayerStandard
1000

1000
DEFPOINTS
  0
LAYER
  5
44
330
2
100
AcDbSymbolTableRecord
100
AcDbLayerTableRecord
  2
5
 70
     0
 62
     7
  6
Continuous
370
     0
390
F
347
3E
1001
AcAecLayerStandard
1000

1000
__BYBLOCK
  0
LAYER
  5
45
330
2
100
AcDbSymbolTableRecord
100
AcDbLayerTableRecord
  2
6
 70
     0
 62
     7
  6
Continuous
370
     0
390
F
347
3E
1001
AcAecLayerStandard
1000

1000
255_1
  0
LAYER
  5
46
330
2
100
AcDbSymbolTableRecord
100
AcDbLayerTableRecord
  2
7
 70
     0
 62
     7
  6
Continuous
370
     0
390
F
347
3E
1001
AcAecLayerStandard
1000

1000
255_2
  0
LAYER
  5
47
330
2
100
AcDbSymbolTableRecord
100
AcDbLayerTableRecord
  2
8
 70
     0
 62
     7
  6
Continuous
370
     0
390
F
347
3E
1001
AcAecLayerStandard
1000

1000
quote
  0
LAYER
  5
48
330
2
100
AcDbSymbolTableRecord
100
AcDbLayerTableRecord
  2
9
 70
     0
 62
     7
  6
Continuous
370
     0
390
F
347
3E
  0
LAYER
  5
49
330
2
100
AcDbSymbolTableRecord
100
AcDbLayerTableRecord
  2
Defpoints
 70
     0
 62
     7
  6
Continuous
290
     0
370
     0
390
F
347
3E
  0
ENDTAB
  0
TABLE
  2
STYLE
  5
3
330
0
100
AcDbSymbolTable
 70
     5
  0
STYLE
  5
11
330
3
100
AcDbSymbolTableRecord
100
AcDbTextStyleTableRecord
  2
Standard
 70
     0
 40
0.0
 41
1.0
 50
0.0
 71
     0
 42
2.5
  3
txt
  4

1001
ACAD
1000
txt
1071
        0
  0
STYLE
  5
4A
330
3
100
AcDbSymbolTableRecord
100
AcDbTextStyleTableRecord
  2
Default
 70
     0
 40
0.0
 41
1.0
 50
0.0
 71
     0
 42
0.2
  3

  4

1001
ACAD
1000
txt
1071
        0
  0
STYLE
  5
4B
330
3
100
AcDbSymbolTableRecord
100
AcDbTextStyleTableRecord
  2
ANSI
 70
     0
 40
0.0
 41
1.0
 50
0.0
 71
     0
 42
0.2
  3

  4

1001
ACAD
1000
txt
1071
        0
  0
STYLE
  5
4C
330
3
100
AcDbSymbolTableRecord
100
AcDbTextStyleTableRecord
  2
Testo nota (ISO)
 70
     0
 40
0.0
 41
1.0
 50
0.0
 71
     0
 42
0.2
  3

  4

1001
ACAD
1000
Tahoma
1071
        0
  0
STYLE
  5
4D
330
3
100
AcDbSymbolTableRecord
100
AcDbTextStyleTableRecord
  2
ISO
 70
     0
 40
0.0
 41
1.0
 50
0.0
 71
     0
 42
0.2
  3

  4

1001
ACAD
1000
txt
1071
        0
  0
ENDTAB
  0
TABLE
  2
VIEW
  5
6
330
0
100
AcDbSymbolTable
 70
     0
  0
ENDTAB
  0
TABLE
  2
UCS
  5
7
330
0
100
AcDbSymbolTable
 70
     0
  0
ENDTAB
  0
TABLE
  2
APPID
  5
9
330
0
100
AcDbSymbolTable
 70
     2
  0
APPID
  5
12
330
9
100
AcDbSymbolTableRecord
100
AcDbRegAppTableRecord
  2
ACAD
 70
     0
  0
APPID
  5
40
330
9
100
AcDbSymbolTableRecord
100
AcDbRegAppTableRecord
  2
AcAecLayerStandard
 70
     0
  0
ENDTAB
  0
TABLE
  2
DIMSTYLE
  5
A
330
0
100
AcDbSymbolTable
 70
     7
100
AcDbDimStyleTable
  0
DIMSTYLE
105
27
102
{ACAD_REACTORS
330
EC
330
F9
330
106
330
116
330
123
330
130
330
13D
330
14A
330
157
330
167
102
}
330
A
100
AcDbSymbolTableRecord
100
AcDbDimStyleTableRecord
  2
ISO-25
 70
     0
 41
2.5
 42
0.625
 43
3.75
 44
1.25
 73
     0
 74
     0
 77
     1
 78
     8
140
2.5
141
2.5
143
0.03937
147
0.625
171
     3
172
     1
271
     2
272
     2
274
     3
278
    44
283
     0
284
     8
340
11
  0
DIMSTYLE
105
4E
330
A
100
AcDbSymbolTableRecord
100
AcDbDimStyleTableRecord
  2
Default
 70
     0
  3
<>
 41
4.375
 42
1.05
 44
2.1
 49
10.01
 73
     0
 74
     0
 77
     1
 78
     8
140
3.5
146
0.4
147
1.75
172
     1
178
     2
271
     2
272
     3
284
     8
340
4A
341
4F
342
4F
  0
DIMSTYLE
105
56
330
A
100
AcDbSymbolTableRecord
100
AcDbDimStyleTableRecord
  2
faultDimensionStyle
 70
     0
  3
<>
 41
2.5
 42
0.875
 44
1.75
 49
10.01
 73
     0
 74
     0
 77
     1
 78
     8
140
3.5
147
1.75
172
     1
178
     2
271
     2
272
     2
278
    44
284
     8
340
11
  0
DIMSTYLE
105
57
330
A
100
AcDbSymbolTableRecord
100
AcDbDimStyleTableRecord
  2
DefaultDimensionStyle
 70
     0
  3
<>
 41
2.5
 42
0.875
 44
1.75
 49
10.01
 73
     0
 74
     0
 77
     1
 78
     8
140
3.5
147
1.75
172
     1
178
     2
271
     2
272
     2
278
    44
284
     8
340
11
  0
DIMSTYLE
105
58
330
A
100
AcDbSymbolTableRecord
100
AcDbDimStyleTableRecord
  2
ANSI
 70
     0
  3
<>
 41
2.0
 42
3.5
 44
2.03
 49
10.01
 73
     0
 74
     0
 77
     1
 78
     8
140
3.5
146
0.4
147
1.75
172
     1
178
     2
271
     2
272
     3
284
    12
340
4B
341
4F
342
4F
  0
DIMSTYLE
105
59
330
A
100
AcDbSymbolTableRecord
100
AcDbDimStyleTableRecord
  2
Default (ISO)
 70
     0
  3
<>
 41
5.0
 42
0.035
 44
6.35
 49
10.01
 73
     0
 74
     0
 77
     1
140
3.5
146
1.001486
147
1.524
172
     1
178
     2
271
     2
272
     2
278
    44
340
4C
  0
DIMSTYLE
105
5A
330
A
100
AcDbSymbolTableRecord
100
AcDbDimStyleTableRecord
  2
DSTYLE1
 70
     0
  3
<>
 41
35.0
 42
9.2414
 44
1.166665
 49
10.01
 73
     0
 74
     0
 78
     8
140
3.5
146
0.6
147
1.225
172
     1
178
     2
340
11
  0
ENDTAB
  0
TABLE
  2
BLOCK_RECORD
  5
1
330
0
100
AcDbSymbolTable
 70
    13
  0
BLOCK_RECORD
  5
1F
330
1
100
AcDbSymbolTableRecord
100
AcDbBlockTableRecord
  2
*Model_Space
340
22
 70
     0
280
     1
281
     0
  0
BLOCK_RECORD
  5
1B
330
1
100
AcDbSymbolTableRecord
100
AcDbBlockTableRecord
  2
*Paper_Space
340
1E
 70
     0
280
     1
281
     0
  0
BLOCK_RECORD
  5
23
330
1
100
AcDbSymbolTableRecord
100
AcDbBlockTableRecord
  2
*Paper_Space0
340
26
 70
     0
280
     1
281
     0
  0
BLOCK_RECORD
  5
4F
330
1
100
AcDbSymbolTableRecord
100
AcDbBlockTableRecord
  2
_CLOSED
340
0
102
{BLKREFS
331
F2
331
F1
331
FF
331
FE
331
10F
331
10E
331
11C
331
11B
331
129
331
128
331
136
331
135
331
143
331
142
331
150
331
14F
331
160
331
15F
331
16D
331
16C
102
}
 70
     0
280
     1
281
     0
  0
BLOCK_RECORD
  5
DF
330
1
100
AcDbSymbolTableRecord
100
AcDbBlockTableRecord
  2
.TD_DIMENSION_1
340
0
102
{BLKREFS
331
E9
102
}
 70
     0
280
     1
281
     0
  0
BLOCK_RECORD
  5
ED
330
1
100
AcDbSymbolTableRecord
100
AcDbBlockTableRecord
  2
*D3
340
0
 70
     0
280
     1
281
     0
  0
BLOCK_RECORD
  5
FA
330
1
100
AcDbSymbolTableRecord
100
AcDbBlockTableRecord
  2
*D4
340
0
 70
     0
280
     1
281
     0
  0
BLOCK_RECORD
  5
107
330
1
100
AcDbSymbolTableRecord
100
AcDbBlockTableRecord
  2
*D5
340
0
 70
     0
280
     1
281
     0
  0
BLOCK_RECORD
  5
117
330
1
100
AcDbSymbolTableRecord
100
AcDbBlockTableRecord
  2
*D6
340
0
 70
     0
280
     1
281
     0
  0
BLOCK_RECORD
  5
124
330
1
100
AcDbSymbolTableRecord
100
AcDbBlockTableRecord
  2
*D7
340
0
 70
     0
280
     1
281
     0
  0
BLOCK_RECORD
  5
131
330
1
100
AcDbSymbolTableRecord
100
AcDbBlockTableRecord
  2
*D8
340
0
 70
     0
280
     1
281
     0
  0
BLOCK_RECORD
  5
13E
330
1
100
AcDbSymbolTableRecord
100
AcDbBlockTableRecord
  2
*D9
340
0
 70
     0
280
     1
281
     0
  0
BLOCK_RECORD
  5
14B
330
1
100
AcDbSymbolTableRecord
100
AcDbBlockTableRecord
  2
*D10
340
0
 70
     0
280
     1
281
     0
  0
BLOCK_RECORD
  5
158
330
1
100
AcDbSymbolTableRecord
100
AcDbBlockTableRecord
  2
*D11
340
0
 70
     0
280
     1
281
     0
  0
BLOCK_RECORD
  5
168
330
1
100
AcDbSymbolTableRecord
100
AcDbBlockTableRecord
  2
*D12
340
0
 70
     0
280
     1
281
     0
  0
ENDTAB
  0
ENDSEC
  0
SECTION
  2
BLOCKS
  0
BLOCK
  5
20
330
1F
100
AcDbEntity
  8
0
100
AcDbBlockBegin
  2
*Model_Space
 70
     0
 10
0.0
 20
0.0
 30
0.0
  3
*Model_Space
  1

  0
ENDBLK
  5
21
330
1F
100
AcDbEntity
  8
0
100
AcDbBlockEnd
  0
BLOCK
  5
1C
330
1B
100
AcDbEntity
 67
     1
  8
0
100
AcDbBlockBegin
  2
*Paper_Space
 70
     0
 10
0.0
 20
0.0
 30
0.0
  3
*Paper_Space
  1

  0
ENDBLK
  5
1D
330
1B
100
AcDbEntity
 67
     1
  8
0
100
AcDbBlockEnd
  0
BLOCK
  5
24
330
23
100
AcDbEntity
  8
0
100
AcDbBlockBegin
  2
*Paper_Space0
 70
     0
 10
0.0
 20
0.0
 30
0.0
  3
*Paper_Space0
  1

  0
ENDBLK
  5
25
330
23
100
AcDbEntity
  8
0
100
AcDbBlockEnd
  0
BLOCK
  5
50
330
4F
100
AcDbEntity
  8
0
100
AcDbBlockBegin
  2
_CLOSED
 70
     0
 10
0.0
 20
0.0
 30
0.0
  3
_CLOSED
  1

  0
LINE
  5
52
330
4F
100
AcDbEntity
  8
0
  6
ByBlock
 62
     0
370
    -2
100
AcDbLine
 10
-1.0
 20
0.166667
 30
0.0
 11
0.0
 21
0.0
 31
0.0
  0
LINE
  5
53
330
4F
100
AcDbEntity
  8
0
  6
ByBlock
 62
     0
370
    -2
100
AcDbLine
 10
0.0
 20
0.0
 30
0.0
 11
-1.0
 21
-0.166667
 31
0.0
  0
LINE
  5
54
330
4F
100
AcDbEntity
  8
0
  6
ByBlock
 62
     0
370
    -2
100
AcDbLine
 10
-1.0
 20
0.166667
 30
0.0
 11
-1.0
 21
-0.166667
 31
0.0
  0
LINE
  5
55
330
4F
100
AcDbEntity
  8
0
  6
ByBlock
 62
     0
370
    -2
100
AcDbLine
 10
0.0
 20
0.0
 30
0.0
 11
-1.0
 21
0.0
 31
0.0
  0
ENDBLK
  5
51
330
4F
100
AcDbEntity
  8
0
100
AcDbBlockEnd
  0
BLOCK
  5
E7
330
DF
100
AcDbEntity
  8
0
100
AcDbBlockBegin
  2
.TD_DIMENSION_1
 70
     0
 10
-17680.648436
 20
8822.612304
 30
0.0
  3
.TD_DIMENSION_1
  1

  0
LINE
  5
E0
330
DF
100
AcDbEntity
  8
0
  6
Continuous
 62
     0
100
AcDbLine
 10
-4370.943848
 20
2297.160645
 30
0.0
 11
-4364.662598
 21
2289.379395
 31
0.0
  0
LINE
  5
E1
330
DF
100
AcDbEntity
  8
0
  6
Continuous
 62
     0
100
AcDbLine
 10
-4364.662598
 20
2289.379395
 30
0.0
 11
-4297.078125
 21
2205.653076
 31
0.0
  0
MTEXT
  5
E2
330
DF
100
AcDbEntity
  8
0
  6
Continuous
 62
     0
100
AcDbMText
 10
-4327.596679
 20
2295.203125
 30
0.0
 40
25.0
 41
0.0
 46
0.0
 71
     1
 72
     1
  1
{\fArial|b0|i0;R}
 11
0.6281092882806896
 21
-0.7781251325947039
 31
0.0
 73
     2
 44
0.99598
  0
MTEXT
  5
E3
330
DF
100
AcDbEntity
  8
0
  6
Continuous
 62
     0
100
AcDbMText
 10
-4311.894042
 20
2275.75
 30
0.0
 40
25.0
 41
0.0
 46
0.0
 71
     1
 72
     1
  1
{\W1.04;{\W1.0816;{\W1.11405;{\fArial|b0|i0;3/8"}}}}
 11
0.6281092882806896
 21
-0.7781251325947039
 31
0.0
 73
     2
 44
0.99598
  0
LINE
  5
E4
330
DF
100
AcDbEntity
  8
0
  6
Continuous
 62
     0
100
AcDbLine
 10
-4357.310059
 20
2285.675781
 30
0.0
 11
-4370.943848
 21
2297.160645
 31
0.0
  0
LINE
  5
E5
330
DF
100
AcDbEntity
  8
0
  6
Continuous
 62
     0
100
AcDbLine
 10
-4370.943848
 20
2297.160645
 30
0.0
 11
-4362.59375
 21
2281.411133
 31
0.0
  0
LINE
  5
E6
330
DF
100
AcDbEntity
  8
0
  6
Continuous
 62
     0
100
AcDbLine
 10
-4362.59375
 20
2281.411133
 30
0.0
 11
-4357.310059
 21
2285.675781
 31
0.0
  0
ENDBLK
  5
E8
330
DF
100
AcDbEntity
  8
0
100
AcDbBlockEnd
  0
BLOCK
  5
F7
330
ED
100
AcDbEntity
  8
0
100
AcDbBlockBegin
  2
*D3
 70
     1
 10
0.0
 20
0.0
 30
0.0
  3
*D3
  1

  0
LINE
  5
EE
330
ED
100
AcDbEntity
  8
0
  6
Continuous
 62
     7
370
    -2
100
AcDbLine
 10
-3964.662775
 20
3095.608233
 30
0.0
 11
-3818.846191
 21
3095.608233
 31
0.0
  0
LINE
  5
EF
330
ED
100
AcDbEntity
  8
0
  6
Continuous
 62
     7
370
    -2
100
AcDbLine
 10
-3964.662775
 20
3600.608233
 30
0.0
 11
-3818.846191
 21
3600.608233
 31
0.0
  0
LINE
  5
F0
330
ED
100
AcDbEntity
  8
0
  6
Continuous
 62
     7
370
    -2
100
AcDbLine
 10
-3838.846191
 20
3130.608233
 30
0.0
 11
-3838.846191
 21
3565.608233
 31
0.0
  0
INSERT
  5
F1
330
ED
100
AcDbEntity
  8
0
 62
     7
370
    -2
100
AcDbBlockReference
  2
_CLOSED
 10
-3838.846191
 20
3095.608233
 30
0.0
 41
35.0
 42
35.0
 43
35.0
 50
270.0
  0
INSERT
  5
F2
330
ED
100
AcDbEntity
  8
0
 62
     7
370
    -2
100
AcDbBlockReference
  2
_CLOSED
 10
-3838.846191
 20
3600.608233
 30
0.0
 41
35.0
 42
35.0
 43
35.0
 50
90.0
  0
MTEXT
  5
F3
330
ED
100
AcDbEntity
  8
0
 62
     2
370
     0
100
AcDbMText
 10
-3879.671192
 20
3348.108233
 30
0.0
 40
50.0
 41
0.0
 46
0.0
 71
     5
 72
     1
  1
\fArial|b0|i0|c0|p0;{\fArial|b0|i0;19 7/8"}
 11
0.0
 21
1.0
 31
0.0
 73
     1
 44
1.0
  0
POINT
  5
F4
330
ED
100
AcDbEntity
  8
Defpoints
 62
     0
100
AcDbPoint
 10
-3979.662775
 20
3095.608233
 30
0.0
  0
POINT
  5
F5
330
ED
100
AcDbEntity
  8
Defpoints
 62
     0
100
AcDbPoint
 10
-3979.662775
 20
3600.608233
 30
0.0
  0
POINT
  5
F6
330
ED
100
AcDbEntity
  8
Defpoints
 62
     0
100
AcDbPoint
 10
-3838.846191
 20
3600.608233
 30
0.0
  0
ENDBLK
  5
F8
330
ED
100
AcDbEntity
  8
0
100
AcDbBlockEnd
  0
BLOCK
  5
104
330
FA
100
AcDbEntity
  8
0
100
AcDbBlockBegin
  2
*D4
 70
     1
 10
0.0
 20
0.0
 30
0.0
  3
*D4
  1

  0
LINE
  5
FB
330
FA
100
AcDbEntity
  8
0
  6
Continuous
 62
     7
370
    -2
100
AcDbLine
 10
-4384.662775
 20
3645.608233
 30
0.0
 11
-4384.662775
 21
3738.701416
 31
0.0
  0
LINE
  5
FC
330
FA
100
AcDbEntity
  8
0
  6
Continuous
 62
     7
370
    -2
100
AcDbLine
 10
-3974.662775
 20
3645.608233
 30
0.0
 11
-3974.662775
 21
3738.701416
 31
0.0
  0
LINE
  5
FD
330
FA
100
AcDbEntity
  8
0
  6
Continuous
 62
     7
370
    -2
100
AcDbLine
 10
-4349.662775
 20
3718.701416
 30
0.0
 11
-4009.662775
 21
3718.701416
 31
0.0
  0
INSERT
  5
FE
330
FA
100
AcDbEntity
  8
0
 62
     7
370
    -2
100
AcDbBlockReference
  2
_CLOSED
 10
-4384.662775
 20
3718.701416
 30
0.0
 41
35.0
 42
35.0
 43
35.0
 50
180.0
  0
INSERT
  5
FF
330
FA
100
AcDbEntity
  8
0
 62
     7
370
    -2
100
AcDbBlockReference
  2
_CLOSED
 10
-3974.662775
 20
3718.701416
 30
0.0
 41
35.0
 42
35.0
 43
35.0
  0
MTEXT
  5
100
330
FA
100
AcDbEntity
  8
0
 62
     2
370
     0
100
AcDbMText
 10
-4086.162598
 20
3759.526417
 30
0.0
 40
50.0
 41
0.0
 46
0.0
 71
     5
 72
     1
  1
\fArial|b0|i0|c0|p0;{\fArial|b0|i0;16 1/8"}
 73
     1
 44
1.0
  0
POINT
  5
101
330
FA
100
AcDbEntity
  8
Defpoints
 62
     0
100
AcDbPoint
 10
-4384.662775
 20
3595.608233
 30
0.0
  0
POINT
  5
102
330
FA
100
AcDbEntity
  8
Defpoints
 62
     0
100
AcDbPoint
 10
-3974.662775
 20
3595.608233
 30
0.0
  0
POINT
  5
103
330
FA
100
AcDbEntity
  8
Defpoints
 62
     0
100
AcDbPoint
 10
-3974.662775
 20
3718.701416
 30
0.0
  0
ENDBLK
  5
105
330
FA
100
AcDbEntity
  8
0
100
AcDbBlockEnd
  0
BLOCK
  5
114
330
107
100
AcDbEntity
  8
0
100
AcDbBlockBegin
  2
*D5
 70
     1
 10
0.0
 20
0.0
 30
0.0
  3
*D5
  1

  0
LINE
  5
108
330
107
100
AcDbEntity
  8
0
  6
Continuous
 62
     7
370
    -2
100
AcDbLine
 10
-4394.662775
 20
3600.608233
 30
0.0
 11
-4507.455567
 21
3600.608233
 31
0.0
  0
LINE
  5
109
330
107
100
AcDbEntity
  8
0
  6
Continuous
 62
     7
370
    -2
100
AcDbLine
 10
-4359.423184
 20
3530.368643
 30
0.0
 11
-4507.455567
 21
3530.368643
 31
0.0
  0
LINE
  5
10A
330
107
100
AcDbEntity
  8
0
  6
Continuous
 62
     7
370
    -2
100
AcDbLine
 10
-4487.455566
 20
3600.608233
 30
0.0
 11
-4487.455566
 21
3895.258233
 31
0.0
  0
LINE
  5
10B
330
107
100
AcDbEntity
  8
0
  6
Continuous
 62
     7
370
    -2
100
AcDbLine
 10
-4487.455566
 20
3600.608233
 30
0.0
 11
-4487.455566
 21
3530.368643
 31
0.0
  0
LINE
  5
10C
330
107
100
AcDbEntity
  8
0
  6
Continuous
 62
     7
370
    -2
100
AcDbLine
 10
-4487.455566
 20
3635.608233
 30
0.0
 11
-4487.455566
 21
3670.608233
 31
0.0
  0
LINE
  5
10D
330
107
100
AcDbEntity
  8
0
  6
Continuous
 62
     7
370
    -2
100
AcDbLine
 10
-4487.455566
 20
3495.368643
 30
0.0
 11
-4487.455566
 21
3460.368643
 31
0.0
  0
INSERT
  5
10E
330
107
100
AcDbEntity
  8
0
 62
     7
370
    -2
100
AcDbBlockReference
  2
_CLOSED
 10
-4487.455566
 20
3600.608233
 30
0.0
 41
35.0
 42
35.0
 43
35.0
 50
270.0
  0
INSERT
  5
10F
330
107
100
AcDbEntity
  8
0
 62
     7
370
    -2
100
AcDbBlockReference
  2
_CLOSED
 10
-4487.455566
 20
3530.368643
 30
0.0
 41
35.0
 42
35.0
 43
35.0
 50
90.0
  0
MTEXT
  5
110
330
107
100
AcDbEntity
  8
0
 62
     2
370
     0
100
AcDbMText
 10
-4538.280566
 20
3782.933233
 30
0.0
 40
50.0
 41
0.0
 46
0.0
 71
     5
 72
     1
  1
\fArial|b0|i0|c0|p0;{\fArial|b0|i0;2 3/4"}
 11
0.0
 21
1.0
 31
0.0
 73
     1
 44
1.0
  0
POINT
  5
111
330
107
100
AcDbEntity
  8
Defpoints
 62
     0
100
AcDbPoint
 10
-4379.662775
 20
3600.608233
 30
0.0
  0
POINT
  5
112
330
107
100
AcDbEntity
  8
Defpoints
 62
     0
100
AcDbPoint
 10
-4344.423184
 20
3530.368643
 30
0.0
  0
POINT
  5
113
330
107
100
AcDbEntity
  8
Defpoints
 62
     0
100
AcDbPoint
 10
-4487.455566
 20
3530.368643
 30
0.0
  0
ENDBLK
  5
115
330
107
100
AcDbEntity
  8
0
100
AcDbBlockEnd
  0
BLOCK
  5
121
330
117
100
AcDbEntity
  8
0
100
AcDbBlockBegin
  2
*D6
 70
     1
 10
0.0
 20
0.0
 30
0.0
  3
*D6
  1

  0
LINE
  5
118
330
117
100
AcDbEntity
  8
0
  6
Continuous
 62
     7
370
    -2
100
AcDbLine
 10
-4360.364223
 20
3530.368643
 30
0.0
 11
-4507.738771
 21
3530.368643
 31
0.0
  0
LINE
  5
119
330
117
100
AcDbEntity
  8
0
  6
Continuous
 62
     7
370
    -2
100
AcDbLine
 10
-4360.364222
 20
3130.847825
 30
0.0
 11
-4507.73877
 21
3130.847825
 31
0.0
  0
LINE
  5
11A
330
117
100
AcDbEntity
  8
0
  6
Continuous
 62
     7
370
    -2
100
AcDbLine
 10
-4487.73877
 20
3495.368643
 30
0.0
 11
-4487.738769
 21
3165.847825
 31
0.0
  0
INSERT
  5
11B
330
117
100
AcDbEntity
  8
0
 62
     7
370
    -2
100
AcDbBlockReference
  2
_CLOSED
 10
-4487.73877
 20
3530.368643
 30
0.0
 41
35.0
 42
35.0
 43
35.0
 50
90.0
  0
INSERT
  5
11C
330
117
100
AcDbEntity
  8
0
 62
     7
370
    -2
100
AcDbBlockReference
  2
_CLOSED
 10
-4487.738769
 20
3130.847825
 30
0.0
 41
35.0
 42
35.0
 43
35.0
 50
270.0
  0
MTEXT
  5
11D
330
117
100
AcDbEntity
  8
0
 62
     2
370
     0
100
AcDbMText
 10
-4528.56377
 20
3330.608234
 30
0.0
 40
50.0
 41
0.0
 46
0.0
 71
     5
 72
     1
  1
\fArial|b0|i0|c0|p0;{\fArial|b0|i0;15 3/4"}
 11
-2.502997050434188E-9
 21
1.0
 31
0.0
 73
     1
 44
1.0
  0
POINT
  5
11E
330
117
100
AcDbEntity
  8
Defpoints
 62
     0
100
AcDbPoint
 10
-4345.364223
 20
3530.368643
 30
0.0
  0
POINT
  5
11F
330
117
100
AcDbEntity
  8
Defpoints
 62
     0
100
AcDbPoint
 10
-4345.364222
 20
3130.847825
 30
0.0
  0
POINT
  5
120
330
117
100
AcDbEntity
  8
Defpoints
 62
     0
100
AcDbPoint
 10
-4487.738769
 20
3130.847825
 30
0.0
  0
ENDBLK
  5
122
330
117
100
AcDbEntity
  8
0
100
AcDbBlockEnd
  0
BLOCK
  5
12E
330
124
100
AcDbEntity
  8
0
100
AcDbBlockBegin
  2
*D7
 70
     1
 10
0.0
 20
0.0
 30
0.0
  3
*D7
  1

  0
LINE
  5
125
330
124
100
AcDbEntity
  8
0
  6
Continuous
 62
     7
370
    -2
100
AcDbLine
 10
-4404.662775
 20
2495.452928
 30
0.0
 11
-4404.662775
 21
2397.369385
 31
0.0
  0
LINE
  5
126
330
124
100
AcDbEntity
  8
0
  6
Continuous
 62
     7
370
    -2
100
AcDbLine
 10
-3954.662775
 20
2495.452928
 30
0.0
 11
-3954.662775
 21
2397.369385
 31
0.0
  0
LINE
  5
127
330
124
100
AcDbEntity
  8
0
  6
Continuous
 62
     7
370
    -2
100
AcDbLine
 10
-4376.662775
 20
2413.369385
 30
0.0
 11
-3982.662775
 21
2413.369385
 31
0.0
  0
INSERT
  5
128
330
124
100
AcDbEntity
  8
0
 62
     7
370
    -2
100
AcDbBlockReference
  2
_CLOSED
 10
-4404.662775
 20
2413.369385
 30
0.0
 41
28.0
 42
28.0
 43
28.0
 50
180.0
  0
INSERT
  5
129
330
124
100
AcDbEntity
  8
0
 62
     7
370
    -2
100
AcDbBlockReference
  2
_CLOSED
 10
-3954.662775
 20
2413.369385
 30
0.0
 41
28.0
 42
28.0
 43
28.0
  0
MTEXT
  5
12A
330
124
100
AcDbEntity
  8
0
 62
     2
370
     0
100
AcDbMText
 10
-4179.662775
 20
2446.049385
 30
0.0
 40
40.0
 41
0.0
 46
0.0
 71
     5
 72
     1
  1
\fArial|b0|i0|c0|p0;{\fArial|b0|i0;CABINET 18"}
 73
     1
 44
1.0
  0
POINT
  5
12B
330
124
100
AcDbEntity
  8
Defpoints
 62
     0
100
AcDbPoint
 10
-4404.662775
 20
2535.452928
 30
0.0
  0
POINT
  5
12C
330
124
100
AcDbEntity
  8
Defpoints
 62
     0
100
AcDbPoint
 10
-3954.662775
 20
2535.452928
 30
0.0
  0
POINT
  5
12D
330
124
100
AcDbEntity
  8
Defpoints
 62
     0
100
AcDbPoint
 10
-3954.662775
 20
2413.369385
 30
0.0
  0
ENDBLK
  5
12F
330
124
100
AcDbEntity
  8
0
100
AcDbBlockEnd
  0
BLOCK
  5
13B
330
131
100
AcDbEntity
  8
0
100
AcDbBlockBegin
  2
*D8
 70
     1
 10
0.0
 20
0.0
 30
0.0
  3
*D8
  1

  0
LINE
  5
132
330
131
100
AcDbEntity
  8
0
  6
Continuous
 62
     7
370
    -2
100
AcDbLine
 10
-3969.662775
 20
1819.379348
 30
0.0
 11
-3818.846191
 21
1819.379348
 31
0.0
  0
LINE
  5
133
330
131
100
AcDbEntity
  8
0
  6
Continuous
 62
     7
370
    -2
100
AcDbLine
 10
-3969.662775
 20
2299.379348
 30
0.0
 11
-3818.846191
 21
2299.379348
 31
0.0
  0
LINE
  5
134
330
131
100
AcDbEntity
  8
0
  6
Continuous
 62
     7
370
    -2
100
AcDbLine
 10
-3838.846191
 20
1854.379348
 30
0.0
 11
-3838.846191
 21
2264.379348
 31
0.0
  0
INSERT
  5
135
330
131
100
AcDbEntity
  8
0
 62
     7
370
    -2
100
AcDbBlockReference
  2
_CLOSED
 10
-3838.846191
 20
1819.379348
 30
0.0
 41
35.0
 42
35.0
 43
35.0
 50
270.0
  0
INSERT
  5
136
330
131
100
AcDbEntity
  8
0
 62
     7
370
    -2
100
AcDbBlockReference
  2
_CLOSED
 10
-3838.846191
 20
2299.379348
 30
0.0
 41
35.0
 42
35.0
 43
35.0
 50
90.0
  0
MTEXT
  5
137
330
131
100
AcDbEntity
  8
0
 62
     2
370
     0
100
AcDbMText
 10
-3879.671192
 20
2059.379348
 30
0.0
 40
50.0
 41
0.0
 46
0.0
 71
     5
 72
     1
  1
\fArial|b0|i0|c0|p0;{\fArial|b0|i0;18 7/8"}
 11
0.0
 21
1.0
 31
0.0
 73
     1
 44
1.0
  0
POINT
  5
138
330
131
100
AcDbEntity
  8
Defpoints
 62
     0
100
AcDbPoint
 10
-3984.662775
 20
1819.379348
 30
0.0
  0
POINT
  5
139
330
131
100
AcDbEntity
  8
Defpoints
 62
     0
100
AcDbPoint
 10
-3984.662775
 20
2299.379348
 30
0.0
  0
POINT
  5
13A
330
131
100
AcDbEntity
  8
Defpoints
 62
     0
100
AcDbPoint
 10
-3838.846191
 20
2299.379348
 30
0.0
  0
ENDBLK
  5
13C
330
131
100
AcDbEntity
  8
0
100
AcDbBlockEnd
  0
BLOCK
  5
148
330
13E
100
AcDbEntity
  8
0
100
AcDbBlockBegin
  2
*D9
 70
     1
 10
0.0
 20
0.0
 30
0.0
  3
*D9
  1

  0
LINE
  5
13F
330
13E
100
AcDbEntity
  8
0
  6
Continuous
 62
     7
370
    -2
100
AcDbLine
 10
-4374.662775
 20
1744.379348
 30
0.0
 11
-4374.662775
 21
1658.001953
 31
0.0
  0
LINE
  5
140
330
13E
100
AcDbEntity
  8
0
  6
Continuous
 62
     7
370
    -2
100
AcDbLine
 10
-3984.662775
 20
1744.379348
 30
0.0
 11
-3984.662775
 21
1658.001953
 31
0.0
  0
LINE
  5
141
330
13E
100
AcDbEntity
  8
0
  6
Continuous
 62
     7
370
    -2
100
AcDbLine
 10
-4339.662775
 20
1678.001953
 30
0.0
 11
-4019.662775
 21
1678.001953
 31
0.0
  0
INSERT
  5
142
330
13E
100
AcDbEntity
  8
0
 62
     7
370
    -2
100
AcDbBlockReference
  2
_CLOSED
 10
-4374.662775
 20
1678.001953
 30
0.0
 41
35.0
 42
35.0
 43
35.0
 50
180.0
  0
INSERT
  5
143
330
13E
100
AcDbEntity
  8
0
 62
     7
370
    -2
100
AcDbBlockReference
  2
_CLOSED
 10
-3984.662775
 20
1678.001953
 30
0.0
 41
35.0
 42
35.0
 43
35.0
  0
MTEXT
  5
144
330
13E
100
AcDbEntity
  8
0
 62
     2
370
     0
100
AcDbMText
 10
-4179.662775
 20
1718.826954
 30
0.0
 40
50.0
 41
0.0
 46
0.0
 71
     5
 72
     1
  1
\fArial|b0|i0|c0|p0;{\fArial|b0|i0;15 3/8"}
 73
     1
 44
1.0
  0
POINT
  5
145
330
13E
100
AcDbEntity
  8
Defpoints
 62
     0
100
AcDbPoint
 10
-4374.662775
 20
1819.379348
 30
0.0
  0
POINT
  5
146
330
13E
100
AcDbEntity
  8
Defpoints
 62
     0
100
AcDbPoint
 10
-3984.662775
 20
1819.379348
 30
0.0
  0
POINT
  5
147
330
13E
100
AcDbEntity
  8
Defpoints
 62
     0
100
AcDbPoint
 10
-3984.662775
 20
1678.001953
 30
0.0
  0
ENDBLK
  5
149
330
13E
100
AcDbEntity
  8
0
100
AcDbBlockEnd
  0
BLOCK
  5
155
330
14B
100
AcDbEntity
  8
0
100
AcDbBlockBegin
  2
*D10
 70
     1
 10
0.0
 20
0.0
 30
0.0
  3
*D10
  1

  0
LINE
  5
14C
330
14B
100
AcDbEntity
  8
0
  6
Continuous
 62
     7
370
    -2
100
AcDbLine
 10
-4349.423184
 20
3060.847824
 30
0.0
 11
-4349.423184
 21
2952.443115
 31
0.0
  0
LINE
  5
14D
330
14B
100
AcDbEntity
  8
0
  6
Continuous
 62
     7
370
    -2
100
AcDbLine
 10
-4009.902366
 20
3060.847824
 30
0.0
 11
-4009.902366
 21
2952.443115
 31
0.0
  0
LINE
  5
14E
330
14B
100
AcDbEntity
  8
0
  6
Continuous
 62
     7
370
    -2
100
AcDbLine
 10
-4314.423184
 20
2972.443115
 30
0.0
 11
-4044.902366
 21
2972.443115
 31
0.0
  0
INSERT
  5
14F
330
14B
100
AcDbEntity
  8
0
 62
     7
370
    -2
100
AcDbBlockReference
  2
_CLOSED
 10
-4349.423184
 20
2972.443115
 30
0.0
 41
35.0
 42
35.0
 43
35.0
 50
180.0
  0
INSERT
  5
150
330
14B
100
AcDbEntity
  8
0
 62
     7
370
    -2
100
AcDbBlockReference
  2
_CLOSED
 10
-4009.902366
 20
2972.443115
 30
0.0
 41
35.0
 42
35.0
 43
35.0
  0
MTEXT
  5
151
330
14B
100
AcDbEntity
  8
0
 62
     2
370
     0
100
AcDbMText
 10
-4223.162598
 20
3013.268116
 30
0.0
 40
50.0
 41
0.0
 46
0.0
 71
     5
 72
     1
  1
\fArial|b0|i0|c0|p0;{\fArial|b0|i0;13 3/8"}
 73
     1
 44
1.0
  0
POINT
  5
152
330
14B
100
AcDbEntity
  8
Defpoints
 62
     0
100
AcDbPoint
 10
-4349.423184
 20
3135.847824
 30
0.0
  0
POINT
  5
153
330
14B
100
AcDbEntity
  8
Defpoints
 62
     0
100
AcDbPoint
 10
-4009.902366
 20
3135.847824
 30
0.0
  0
POINT
  5
154
330
14B
100
AcDbEntity
  8
Defpoints
 62
     0
100
AcDbPoint
 10
-4009.902366
 20
2972.443115
 30
0.0
  0
ENDBLK
  5
156
330
14B
100
AcDbEntity
  8
0
100
AcDbBlockEnd
  0
BLOCK
  5
165
330
158
100
AcDbEntity
  8
0
100
AcDbBlockBegin
  2
*D11
 70
     1
 10
0.0
 20
0.0
 30
0.0
  3
*D11
  1

  0
LINE
  5
159
330
158
100
AcDbEntity
  8
0
  6
Continuous
 62
     7
370
    -2
100
AcDbLine
 10
-4359.423184
 20
3130.847824
 30
0.0
 11
-4506.833985
 21
3130.847824
 31
0.0
  0
LINE
  5
15A
330
158
100
AcDbEntity
  8
0
  6
Continuous
 62
     7
370
    -2
100
AcDbLine
 10
-4394.662775
 20
3095.608233
 30
0.0
 11
-4506.833985
 21
3095.608233
 31
0.0
  0
LINE
  5
15B
330
158
100
AcDbEntity
  8
0
  6
Continuous
 62
     7
370
    -2
100
AcDbLine
 10
-4486.833984
 20
3095.608233
 30
0.0
 11
-4486.833984
 21
2806.508233
 31
0.0
  0
LINE
  5
15C
330
158
100
AcDbEntity
  8
0
  6
Continuous
 62
     7
370
    -2
100
AcDbLine
 10
-4486.833984
 20
3130.847824
 30
0.0
 11
-4486.833984
 21
3095.608233
 31
0.0
  0
LINE
  5
15D
330
158
100
AcDbEntity
  8
0
  6
Continuous
 62
     7
370
    -2
100
AcDbLine
 10
-4486.833984
 20
3165.847824
 30
0.0
 11
-4486.833984
 21
3200.847824
 31
0.0
  0
LINE
  5
15E
330
158
100
AcDbEntity
  8
0
  6
Continuous
 62
     7
370
    -2
100
AcDbLine
 10
-4486.833984
 20
3060.608233
 30
0.0
 11
-4486.833984
 21
3025.608233
 31
0.0
  0
INSERT
  5
15F
330
158
100
AcDbEntity
  8
0
 62
     7
370
    -2
100
AcDbBlockReference
  2
_CLOSED
 10
-4486.833984
 20
3130.847824
 30
0.0
 41
35.0
 42
35.0
 43
35.0
 50
270.0
  0
INSERT
  5
160
330
158
100
AcDbEntity
  8
0
 62
     7
370
    -2
100
AcDbBlockReference
  2
_CLOSED
 10
-4486.833984
 20
3095.608233
 30
0.0
 41
35.0
 42
35.0
 43
35.0
 50
90.0
  0
MTEXT
  5
161
330
158
100
AcDbEntity
  8
0
 62
     2
370
     0
100
AcDbMText
 10
-4537.658984
 20
2916.058233
 30
0.0
 40
50.0
 41
0.0
 46
0.0
 71
     5
 72
     1
  1
\fArial|b0|i0|c0|p0;{\fArial|b0|i0;1 3/8"}
 11
0.0
 21
1.0
 31
0.0
 73
     1
 44
1.0
  0
POINT
  5
162
330
158
100
AcDbEntity
  8
Defpoints
 62
     0
100
AcDbPoint
 10
-4344.423184
 20
3130.847824
 30
0.0
  0
POINT
  5
163
330
158
100
AcDbEntity
  8
Defpoints
 62
     0
100
AcDbPoint
 10
-4379.662775
 20
3095.608233
 30
0.0
  0
POINT
  5
164
330
158
100
AcDbEntity
  8
Defpoints
 62
     0
100
AcDbPoint
 10
-4486.833984
 20
3095.608233
 30
0.0
  0
ENDBLK
  5
166
330
158
100
AcDbEntity
  8
0
100
AcDbBlockEnd
  0
BLOCK
  5
172
330
168
100
AcDbEntity
  8
0
100
AcDbBlockBegin
  2
*D12
 70
     1
 10
0.0
 20
0.0
 30
0.0
  3
*D12
  1

  0
LINE
  5
169
330
168
100
AcDbEntity
  8
0
  6
Continuous
 62
     7
370
    -2
100
AcDbLine
 10
-4187.007884
 20
2655.452938
 30
0.0
 11
-4192.347656
 21
2655.452938
 31
0.0
  0
LINE
  5
16A
330
168
100
AcDbEntity
  8
0
  6
Continuous
 62
     7
370
    -2
100
AcDbLine
 10
-4187.007884
 20
2852.452938
 30
0.0
 11
-4192.347656
 21
2852.452938
 31
0.0
  0
LINE
  5
16B
330
168
100
AcDbEntity
  8
0
  6
Continuous
 62
     7
370
    -2
100
AcDbLine
 10
-4176.347656
 20
2683.452938
 30
0.0
 11
-4176.347656
 21
2824.452938
 31
0.0
  0
INSERT
  5
16C
330
168
100
AcDbEntity
  8
0
 62
     7
370
    -2
100
AcDbBlockReference
  2
_CLOSED
 10
-4176.347656
 20
2655.452938
 30
0.0
 41
28.0
 42
28.0
 43
28.0
 50
270.0
  0
INSERT
  5
16D
330
168
100
AcDbEntity
  8
0
 62
     7
370
    -2
100
AcDbBlockReference
  2
_CLOSED
 10
-4176.347656
 20
2852.452938
 30
0.0
 41
28.0
 42
28.0
 43
28.0
 50
90.0
  0
MTEXT
  5
16E
330
168
100
AcDbEntity
  8
0
 62
     2
370
     0
100
AcDbMText
 10
-4217.007656
 20
2753.952938
 30
0.0
 40
40.0
 41
0.0
 46
0.0
 71
     5
 72
     1
  1
\fArial|b0|i0|c0|p0;{\fArial|b0|i0;7 7/8"}
 11
0.0
 21
1.0
 31
0.0
 73
     1
 44
1.0
  0
POINT
  5
16F
330
168
100
AcDbEntity
  8
Defpoints
 62
     0
100
AcDbPoint
 10
-4175.007884
 20
2655.452938
 30
0.0
  0
POINT
  5
170
330
168
100
AcDbEntity
  8
Defpoints
 62
     0
100
AcDbPoint
 10
-4175.007884
 20
2852.452938
 30
0.0
  0
POINT
  5
171
330
168
100
AcDbEntity
  8
Defpoints
 62
     0
100
AcDbPoint
 10
-4176.347656
 20
2852.452938
 30
0.0
  0
ENDBLK
  5
173
330
168
100
AcDbEntity
  8
0
100
AcDbBlockEnd
  0
ENDSEC
  0
SECTION
  2
ENTITIES
  0
LINE
  5
5B
330
1F
100
AcDbEntity
  8
0
  6
Continuous
 62
     4
420
    65535
370
     0
100
AcDbLine
 10
-5093.19373
 20
1220.130985
 30
0.0
 11
-5093.19373
 21
3970.130985
 31
0.0
  0
LINE
  5
5C
330
1F
100
AcDbEntity
  8
0
  6
Continuous
 62
     4
420
    65535
370
     0
100
AcDbLine
 10
-5083.19373
 20
3960.130985
 30
0.0
 11
-5083.19373
 21
1230.130985
 31
0.0
  0
LINE
  5
5D
330
1F
100
AcDbEntity
  8
0
  6
Continuous
 62
     4
420
    65535
370
     0
100
AcDbLine
 10
-5093.19373
 20
1220.130985
 30
0.0
 11
-3193.19373
 21
1220.130985
 31
0.0
  0
LINE
  5
5E
330
1F
100
AcDbEntity
  8
0
  6
Continuous
 62
     4
420
    65535
370
     0
100
AcDbLine
 10
-3203.19373
 20
1230.130985
 30
0.0
 11
-5083.19373
 21
1230.130985
 31
0.0
  0
LINE
  5
5F
330
1F
100
AcDbEntity
  8
0
  6
Continuous
 62
     4
420
    65535
370
     0
100
AcDbLine
 10
-3193.19373
 20
3970.130985
 30
0.0
 11
-5093.19373
 21
3970.130985
 31
0.0
  0
LINE
  5
60
330
1F
100
AcDbEntity
  8
0
  6
Continuous
 62
     4
420
    65535
370
     0
100
AcDbLine
 10
-3203.19373
 20
3960.130985
 30
0.0
 11
-5083.19373
 21
3960.130985
 31
0.0
  0
LINE
  5
61
330
1F
100
AcDbEntity
  8
0
  6
Continuous
 62
     4
420
    65535
370
     0
100
AcDbLine
 10
-3193.19373
 20
3970.130985
 30
0.0
 11
-3193.19373
 21
1220.130985
 31
0.0
  0
LINE
  5
62
330
1F
100
AcDbEntity
  8
0
  6
Continuous
 62
     4
420
    65535
370
     0
100
AcDbLine
 10
-3203.19373
 20
3960.130985
 30
0.0
 11
-3203.19373
 21
1230.130985
 31
0.0
  0
LINE
  5
63
330
1F
100
AcDbEntity
  8
0
  6
Continuous
 62
     6
420
 16711935
370
     0
100
AcDbLine
 10
-4009.902366
 20
3525.368643
 30
0.0
 11
-4009.902366
 21
3135.847824
 31
0.0
  0
LINE
  5
64
330
1F
100
AcDbEntity
  8
0
  6
Continuous
 62
     6
420
 16711935
370
     0
100
AcDbLine
 10
-4014.902366
 20
3130.847824
 30
0.0
 11
-4344.423184
 21
3130.847824
 31
0.0
  0
LINE
  5
65
330
1F
100
AcDbEntity
  8
0
  6
Continuous
 62
     6
420
 16711935
370
     0
100
AcDbLine
 10
-4349.423184
 20
3135.847824
 30
0.0
 11
-4349.423184
 21
3525.368643
 31
0.0
  0
LINE
  5
66
330
1F
100
AcDbEntity
  8
0
  6
Continuous
 62
     6
420
 16711935
370
     0
100
AcDbLine
 10
-4379.662775
 20
3095.608233
 30
0.0
 11
-3979.662775
 21
3095.608233
 31
0.0
  0
LINE
  5
67
330
1F
100
AcDbEntity
  8
0
  6
Continuous
 62
     6
420
 16711935
370
     0
100
AcDbLine
 10
-3974.662775
 20
3100.608233
 30
0.0
 11
-3974.662775
 21
3595.608233
 31
0.0
  0
LINE
  5
68
330
1F
100
AcDbEntity
  8
0
  6
Continuous
 62
     6
420
 16711935
370
     0
100
AcDbLine
 10
-4384.662775
 20
3595.608233
 30
0.0
 11
-4384.662775
 21
3100.608233
 31
0.0
  0
LINE
  5
69
330
1F
100
AcDbEntity
  8
0
  6
Continuous
 62
     6
420
 16711935
370
     0
100
AcDbLine
 10
-3979.662775
 20
3600.608233
 30
0.0
 11
-4379.662775
 21
3600.608233
 31
0.0
  0
LINE
  5
6A
330
1F
100
AcDbEntity
  8
0
  6
Continuous
 62
     6
420
 16711935
370
     0
100
AcDbLine
 10
-3981.662775
 20
2841.452938
 30
0.0
 11
-3974.662775
 21
2841.452938
 31
0.0
  0
LINE
  5
6B
330
1F
100
AcDbEntity
  8
0
  6
Continuous
 62
     6
420
 16711935
370
     0
100
AcDbLine
 10
-3974.662775
 20
2841.452938
 30
0.0
 11
-3974.662775
 21
2849.452938
 31
0.0
  0
ARC
  5
6C
330
1F
100
AcDbEntity
  8
0
  6
Continuous
 62
     6
420
 16711935
370
     0
100
AcDbCircle
 10
-3977.662775
 20
2849.452938
 30
0.0
 40
2.999999999999948
100
AcDbArc
 50
0.0
 51
90.0
  0
ARC
  5
6D
330
1F
100
AcDbEntity
  8
0
  6
Continuous
 62
     6
420
 16711935
370
     0
100
AcDbCircle
 10
-4006.913781
 20
2849.452938
 30
0.0
 40
3.000000000000041
100
AcDbArc
 50
90.0
 51
175.0
  0
LINE
  5
6E
330
1F
100
AcDbEntity
  8
0
  6
Continuous
 62
     6
420
 16711935
370
     0
100
AcDbLine
 10
-4009.902366
 20
2849.714405
 30
0.0
 11
-4025.327259
 21
2673.407069
 31
0.0
  0
ARC
  5
6F
330
1F
100
AcDbEntity
  8
0
  6
Continuous
 62
     6
420
 16711935
370
     0
100
AcDbCircle
 10
-4037.281595
 20
2674.452938
 30
0.0
 40
12.0
100
AcDbArc
 50
270.0
 51
355.0
  0
LINE
  5
70
330
1F
100
AcDbEntity
  8
0
  6
Continuous
 62
     6
420
 16711935
370
     0
100
AcDbLine
 10
-4037.281595
 20
2662.452938
 30
0.0
 11
-4322.043955
 21
2662.452938
 31
0.0
  0
ARC
  5
71
330
1F
100
AcDbEntity
  8
0
  6
Continuous
 62
     6
420
 16711935
370
     0
100
AcDbCircle
 10
-4322.043955
 20
2674.452938
 30
0.0
 40
12.00000000000003
100
AcDbArc
 50
185.0
 51
270.0
  0
LINE
  5
72
330
1F
100
AcDbEntity
  8
0
  6
Continuous
 62
     6
420
 16711935
370
     0
100
AcDbLine
 10
-4333.998291
 20
2673.407069
 30
0.0
 11
-4349.423184
 21
2849.714405
 31
0.0
  0
ARC
  5
73
330
1F
100
AcDbEntity
  8
0
  6
Continuous
 62
     6
420
 16711935
370
     0
100
AcDbCircle
 10
-4352.411768
 20
2849.452938
 30
0.0
 40
3.000000000000076
100
AcDbArc
 50
5.0
 51
90.0
  0
LINE
  5
74
330
1F
100
AcDbEntity
  8
0
  6
Continuous
 62
     6
420
 16711935
370
     0
100
AcDbLine
 10
-4352.411768
 20
2852.452938
 30
0.0
 11
-4381.662775
 21
2852.452938
 31
0.0
  0
ARC
  5
75
330
1F
100
AcDbEntity
  8
0
  6
Continuous
 62
     6
420
 16711935
370
     0
100
AcDbCircle
 10
-4381.662775
 20
2849.452938
 30
0.0
 40
3.000000000000113
100
AcDbArc
 50
90.0
 51
180.0
  0
LINE
  5
76
330
1F
100
AcDbEntity
  8
0
  6
Continuous
 62
     6
420
 16711935
370
     0
100
AcDbLine
 10
-4384.662775
 20
2849.452938
 30
0.0
 11
-4384.662775
 21
2841.452938
 31
0.0
  0
LINE
  5
77
330
1F
100
AcDbEntity
  8
0
  6
Continuous
 62
     6
420
 16711935
370
     0
100
AcDbLine
 10
-4384.662775
 20
2841.452938
 30
0.0
 11
-4377.662775
 21
2841.452938
 31
0.0
  0
LINE
  5
78
330
1F
100
AcDbEntity
  8
0
  6
Continuous
 62
     6
420
 16711935
370
     0
100
AcDbLine
 10
-4377.662775
 20
2841.452938
 30
0.0
 11
-4377.662775
 21
2842.452938
 31
0.0
  0
LINE
  5
79
330
1F
100
AcDbEntity
  8
0
  6
Continuous
 62
     6
420
 16711935
370
     0
100
AcDbLine
 10
-4374.662775
 20
2845.452938
 30
0.0
 11
-4361.57508
 21
2845.452938
 31
0.0
  0
ARC
  5
7A
330
1F
100
AcDbEntity
  8
0
  6
Continuous
 62
     6
420
 16711935
370
     0
100
AcDbCircle
 10
-4361.57508
 20
2839.452938
 30
0.0
 40
5.999999999999906
100
AcDbArc
 50
5.0
 51
90.0
  0
LINE
  5
7B
330
1F
100
AcDbEntity
  8
0
  6
Continuous
 62
     6
420
 16711935
370
     0
100
AcDbLine
 10
-4355.597912
 20
2839.975873
 30
0.0
 11
-4340.971654
 21
2672.796979
 31
0.0
  0
ARC
  5
7C
330
1F
100
AcDbEntity
  8
0
  6
Continuous
 62
     6
420
 16711935
370
     0
100
AcDbCircle
 10
-4322.043955
 20
2674.452938
 30
0.0
 40
18.99999999999996
100
AcDbArc
 50
185.0
 51
270.0
  0
ARC
  5
7D
330
1F
100
AcDbEntity
  8
0
  6
Continuous
 62
     6
420
 16711935
370
     0
100
AcDbCircle
 10
-4037.281595
 20
2674.452938
 30
0.0
 40
19.0
100
AcDbArc
 50
270.0
 51
355.0
  0
LINE
  5
7E
330
1F
100
AcDbEntity
  8
0
  6
Continuous
 62
     6
420
 16711935
370
     0
100
AcDbLine
 10
-4018.353896
 20
2672.796979
 30
0.0
 11
-4003.727638
 21
2839.975873
 31
0.0
  0
ARC
  5
7F
330
1F
100
AcDbEntity
  8
0
  6
Continuous
 62
     6
420
 16711935
370
     0
100
AcDbCircle
 10
-3997.75047
 20
2839.452938
 30
0.0
 40
6.000000000000051
100
AcDbArc
 50
90.0
 51
175.0
  0
LINE
  5
80
330
1F
100
AcDbEntity
  8
0
  6
Continuous
 62
     6
420
 16711935
370
     0
100
AcDbLine
 10
-3997.75047
 20
2845.452938
 30
0.0
 11
-3984.662775
 21
2845.452938
 31
0.0
  0
LINE
  5
81
330
1F
100
AcDbEntity
  8
0
  6
Continuous
 62
     6
420
 16711935
370
     0
100
AcDbLine
 10
-3981.662775
 20
2842.452938
 30
0.0
 11
-3981.662775
 21
2841.452938
 31
0.0
  0
CIRCLE
  5
82
330
1F
100
AcDbEntity
  8
0
  6
Continuous
 62
     7
420
 16777215
370
     0
100
AcDbCircle
 10
-4179.662378
 20
3437.488856
 30
0.0
 40
55.0
  0
LINE
  5
84
330
1F
100
AcDbEntity
  8
0
  6
CENTER2
 62
     1
420
 16711680
370
     0
100
AcDbLine
 10
-4179.662775
 20
3497.488643
 30
0.0
 11
-4179.662775
 21
3377.488643
 31
0.0
  0
LINE
  5
85
330
1F
100
AcDbEntity
  8
0
  6
CENTER2
 62
     1
420
 16711680
370
     0
100
AcDbLine
 10
-4119.662775
 20
3437.488643
 30
0.0
 11
-4239.662775
 21
3437.488643
 31
0.0
  0
LINE
  5
86
330
1F
100
AcDbEntity
  8
0
  6
Continuous
 62
     6
420
 16711935
370
     0
100
AcDbLine
 10
-4364.662775
 20
2299.379348
 30
0.0
 11
-3994.662775
 21
2299.379348
 31
0.0
  0
LINE
  5
87
330
1F
100
AcDbEntity
  8
0
  6
Continuous
 62
     6
420
 16711935
370
     0
100
AcDbLine
 10
-3994.662775
 20
1819.379348
 30
0.0
 11
-4364.662775
 21
1819.379348
 31
0.0
  0
MTEXT
  5
AA
330
1F
100
AcDbEntity
  8
0
  6
Continuous
 62
     7
420
 16777215
370
     0
100
AcDbMText
 10
-4001.689453
 20
2129.769775
 30
0.0
 40
52.799999
 41
0.0
 46
0.0
 71
     3
 72
     1
  1
{\fArial|b0|i0;Countertop}
  7
ANSI
 73
     2
 44
0.99598
  0
LINE
  5
AB
330
1F
100
AcDbEntity
  8
0
  6
Continuous
 62
     6
420
 16711935
370
     0
100
AcDbLine
 10
-4374.662775
 20
2289.379348
 30
0.0
 11
-4374.662775
 21
1829.379348
 31
0.0
  0
LINE
  5
AC
330
1F
100
AcDbEntity
  8
0
  6
Continuous
 62
     6
420
 16711935
370
     0
100
AcDbLine
 10
-3984.662775
 20
1829.379348
 30
0.0
 11
-3984.662775
 21
2289.379348
 31
0.0
  0
LINE
  5
AD
330
1F
100
AcDbEntity
  8
0
  6
Continuous
 62
     7
420
 16777215
370
     0
100
AcDbLine
 10
-4386.662775
 20
2811.452928
 30
0.0
 11
-4386.662775
 21
2535.452928
 31
0.0
  0
LINE
  5
AE
330
1F
100
AcDbEntity
  8
0
  6
Continuous
 62
     7
420
 16777215
370
     0
100
AcDbLine
 10
-4404.662775
 20
2535.452928
 30
0.0
 11
-4404.662775
 21
2811.452928
 31
0.0
  0
LINE
  5
AF
330
1F
100
AcDbEntity
  8
0
  6
Continuous
 62
     7
420
 16777215
370
     0
100
AcDbLine
 10
-4386.662775
 20
2535.452928
 30
0.0
 11
-4404.662775
 21
2535.452928
 31
0.0
  0
LINE
  5
B0
330
1F
100
AcDbEntity
  8
0
  6
Continuous
 62
     7
420
 16777215
370
     0
100
AcDbLine
 10
-4374.662775
 20
2811.452928
 30
0.0
 11
-4460.078496
 21
2811.452928
 31
0.0
  0
SPLINE
  5
B1
330
1F
100
AcDbEntity
  8
0
  6
Continuous
 62
     7
420
 16777215
370
     0
100
AcDbSpline
210
0.0
220
0.0
230
1.0
 70
     8
 71
     3
 72
     8
 73
     4
 74
     0
 42
0.0
 43
0.0
 40
0.0
 40
0.0
 40
0.0
 40
0.0
 40
1.0
 40
1.0
 40
1.0
 40
1.0
 10
-4460.0784963613
 20
2811.452927745716
 30
0.0
 10
-4454.781842482206
 20
2822.4858350962
 30
0.0
 10
-4461.475646488873
 20
2833.911541895349
 30
0.0
 10
-4462.842935434269
 20
2841.452927745716
 30
0.0
  0
LINE
  5
B2
330
1F
100
AcDbEntity
  8
0
  6
Continuous
 62
     7
420
 16777215
370
     0
100
AcDbLine
 10
-4374.662775
 20
2841.452928
 30
0.0
 11
-4374.662775
 21
2811.452928
 31
0.0
  0
LINE
  5
B3
330
1F
100
AcDbEntity
  8
0
  6
Continuous
 62
     7
420
 16777215
370
     0
100
AcDbLine
 10
-4386.662775
 20
2811.452927
 30
0.0
 11
-4404.662775
 21
2811.452928
 31
0.0
  0
LINE
  5
B4
330
1F
100
AcDbEntity
  8
0
  6
Continuous
 62
     7
420
 16777215
370
     0
100
AcDbLine
 10
-4462.842935
 20
2841.452928
 30
0.0
 11
-4374.662775
 21
2841.452928
 31
0.0
  0
LINE
  5
B5
330
1F
100
AcDbEntity
  8
0
  6
Continuous
 62
     7
420
 16777215
370
     0
100
AcDbLine
 10
-3972.662775
 20
2811.452928
 30
0.0
 11
-3972.662775
 21
2535.452928
 31
0.0
  0
LINE
  5
B6
330
1F
100
AcDbEntity
  8
0
  6
Continuous
 62
     7
420
 16777215
370
     0
100
AcDbLine
 10
-3954.662775
 20
2535.452928
 30
0.0
 11
-3954.662775
 21
2811.452928
 31
0.0
  0
LINE
  5
B7
330
1F
100
AcDbEntity
  8
0
  6
Continuous
 62
     7
420
 16777215
370
     0
100
AcDbLine
 10
-3972.662775
 20
2535.452928
 30
0.0
 11
-3954.662775
 21
2535.452928
 31
0.0
  0
LINE
  5
B8
330
1F
100
AcDbEntity
  8
0
  6
Continuous
 62
     7
420
 16777215
370
     0
100
AcDbLine
 10
-3984.662775
 20
2811.452928
 30
0.0
 11
-3899.247054
 21
2811.452928
 31
0.0
  0
SPLINE
  5
B9
330
1F
100
AcDbEntity
  8
0
  6
Continuous
 62
     7
420
 16777215
370
     0
100
AcDbSpline
210
0.0
220
0.0
230
1.0
 70
     8
 71
     3
 72
     8
 73
     4
 74
     0
 42
0.0
 43
0.0
 40
0.0
 40
0.0
 40
0.0
 40
0.0
 40
1.0
 40
1.0
 40
1.0
 40
1.0
 10
-3899.247053585724
 20
2811.452927745716
 30
0.0
 10
-3904.543707464818
 20
2822.4858350962
 30
0.0
 10
-3897.84990345815
 20
2833.911541895349
 30
0.0
 10
-3896.482614512759
 20
2841.452927745716
 30
0.0
  0
LINE
  5
BA
330
1F
100
AcDbEntity
  8
0
  6
Continuous
 62
     7
420
 16777215
370
     0
100
AcDbLine
 10
-3896.482615
 20
2841.452928
 30
0.0
 11
-3984.662775
 21
2841.452928
 31
0.0
  0
LINE
  5
BB
330
1F
100
AcDbEntity
  8
0
  6
Continuous
 62
     7
420
 16777215
370
     0
100
AcDbLine
 10
-3984.662775
 20
2841.452928
 30
0.0
 11
-3984.662775
 21
2811.452928
 31
0.0
  0
LINE
  5
BC
330
1F
100
AcDbEntity
  8
0
  6
Continuous
 62
     7
420
 16777215
370
     0
100
AcDbLine
 10
-4399.662775
 20
2811.452928
 30
0.0
 11
-4381.662775
 21
2811.452928
 31
0.0
  0
LINE
  5
BD
330
1F
100
AcDbEntity
  8
0
  6
Continuous
 62
     7
420
 16777215
370
     0
100
AcDbLine
 10
-3977.662775
 20
2811.452928
 30
0.0
 11
-3959.662775
 21
2811.452928
 31
0.0
  0
CIRCLE
  5
BE
330
1F
100
AcDbEntity
  8
0
  6
Continuous
 62
     7
420
 16777215
370
     0
100
AcDbCircle
 10
-4179.662775
 20
3437.488643
 30
0.0
 40
37.99999999999959
  0
MTEXT
  5
BF
330
1F
100
AcDbEntity
  8
0
  6
Continuous
 62
     7
420
 16777215
370
     0
100
AcDbMText
 10
-4106.924316
 20
2037.462402
 30
0.0
 40
52.799999
 41
0.0
 46
0.0
 71
     3
 72
     1
  1
{\W1.04;{\W1.0816;{\W1.12486;{\fArial|b0|i0;hole}}}}
  7
ANSI
 73
     2
 44
0.99598
  0
LINE
  5
C0
330
1F
100
AcDbEntity
  8
0
  6
Continuous
 62
     7
420
 16777215
370
     0
100
AcDbLine
 10
-3972.662775
 20
2811.452928
 30
0.0
 11
-3954.662775
 21
2811.452928
 31
0.0
  0
LINE
  5
C1
330
1F
100
AcDbEntity
  8
0
  6
Continuous
 62
     6
420
 16711935
370
     0
100
AcDbLine
 10
-4006.913781
 20
2852.452938
 30
0.0
 11
-3977.662775
 21
2852.452938
 31
0.0
  0
CIRCLE
  5
C3
330
1F
100
AcDbEntity
  8
0
  6
HIDDEN2
 62
     7
420
 16777215
370
     0
100
AcDbCircle
 10
-4179.662775
 20
3565.608233
 30
0.0
 40
17.0
  0
CIRCLE
  5
C4
330
1F
100
AcDbEntity
  8
0
  6
HIDDEN2
 62
     7
420
 16777215
370
     0
100
AcDbCircle
 10
-4299.662775
 20
3565.608233
 30
0.0
 40
17.0
  0
CIRCLE
  5
C5
330
1F
100
AcDbEntity
  8
0
  6
HIDDEN2
 62
     7
420
 16777215
370
     0
100
AcDbCircle
 10
-4059.662775
 20
3565.608233
 30
0.0
 40
17.0
  0
ARC
  5
C6
330
1F
100
AcDbEntity
  8
0
  6
Continuous
 62
     6
420
 16711935
370
     0
100
AcDbCircle
 10
-4374.662775
 20
2842.452938
 30
0.0
 40
3.0
100
AcDbArc
 50
90.0
 51
180.0
  0
ARC
  5
C7
330
1F
100
AcDbEntity
  8
0
  6
Continuous
 62
     6
420
 16711935
370
     0
100
AcDbCircle
 10
-3984.662775
 20
2842.452938
 30
0.0
 40
3.0
100
AcDbArc
 50
0.0
 51
90.0
  0
ARC
  5
C8
330
1F
100
AcDbEntity
  8
0
  6
Continuous
 62
     6
420
 16711935
370
     0
100
AcDbCircle
 10
-4379.662775
 20
3595.608233
 30
0.0
 40
5.0
100
AcDbArc
 50
90.0
 51
180.0
  0
ARC
  5
C9
330
1F
100
AcDbEntity
  8
0
  6
Continuous
 62
     6
420
 16711935
370
     0
100
AcDbCircle
 10
-3979.662775
 20
3595.608233
 30
0.0
 40
5.0
100
AcDbArc
 50
0.0
 51
90.0
  0
ARC
  5
CA
330
1F
100
AcDbEntity
  8
0
  6
Continuous
 62
     6
420
 16711935
370
     0
100
AcDbCircle
 10
-3979.662775
 20
3100.608233
 30
0.0
 40
5.0
100
AcDbArc
 50
270.0
 51
0.0
  0
ARC
  5
CB
330
1F
100
AcDbEntity
  8
0
  6
Continuous
 62
     6
420
 16711935
370
     0
100
AcDbCircle
 10
-4379.662775
 20
3100.608233
 30
0.0
 40
5.0
100
AcDbArc
 50
180.0
 51
270.0
  0
ARC
  5
CC
330
1F
100
AcDbEntity
  8
0
  6
Continuous
 62
     6
420
 16711935
370
     0
100
AcDbCircle
 10
-4344.423184
 20
3135.847824
 30
0.0
 40
5.0
100
AcDbArc
 50
180.0
 51
270.0
  0
ARC
  5
CD
330
1F
100
AcDbEntity
  8
0
  6
Continuous
 62
     6
420
 16711935
370
     0
100
AcDbCircle
 10
-4014.902366
 20
3135.847824
 30
0.0
 40
5.0
100
AcDbArc
 50
270.0
 51
0.0
  0
ARC
  5
CE
330
1F
100
AcDbEntity
  8
0
  6
Continuous
 62
     6
420
 16711935
370
     0
100
AcDbCircle
 10
-4014.902366
 20
3525.368643
 30
0.0
 40
5.0
100
AcDbArc
 50
0.0
 51
90.0
  0
ARC
  5
CF
330
1F
100
AcDbEntity
  8
0
  6
Continuous
 62
     6
420
 16711935
370
     0
100
AcDbCircle
 10
-4344.423184
 20
3525.368643
 30
0.0
 40
5.0
100
AcDbArc
 50
90.0
 51
180.0
  0
LINE
  5
D0
330
1F
100
AcDbEntity
  8
0
  6
Continuous
 62
     1
420
 16711680
370
     0
100
AcDbLine
 10
-4049.782366
 20
3502.488643
 30
0.0
 11
-4309.543184
 21
3502.488643
 31
0.0
  0
LINE
  5
D1
330
1F
100
AcDbEntity
  8
0
  6
Continuous
 62
     1
420
 16711680
370
     0
100
AcDbLine
 10
-4321.543184
 20
3490.488643
 30
0.0
 11
-4321.543184
 21
3170.727824
 31
0.0
  0
LINE
  5
D2
330
1F
100
AcDbEntity
  8
0
  6
Continuous
 62
     1
420
 16711680
370
     0
100
AcDbLine
 10
-4037.782366
 20
3170.727824
 30
0.0
 11
-4037.782366
 21
3490.488643
 31
0.0
  0
ARC
  5
D3
330
1F
100
AcDbEntity
  8
0
  6
Continuous
 62
     1
420
 16711680
370
     0
100
AcDbCircle
 10
-4309.543184
 20
3490.488643
 30
0.0
 40
12.0
100
AcDbArc
 50
90.0
 51
180.0
  0
ARC
  5
D4
330
1F
100
AcDbEntity
  8
0
  6
Continuous
 62
     1
420
 16711680
370
     0
100
AcDbCircle
 10
-4049.782366
 20
3490.488643
 30
0.0
 40
12.0
100
AcDbArc
 50
0.0
 51
90.0
  0
ARC
  5
D5
330
1F
100
AcDbEntity
  8
0
  6
Continuous
 62
     1
420
 16711680
370
     0
100
AcDbCircle
 10
-4049.782366
 20
3170.727824
 30
0.0
 40
12.0
100
AcDbArc
 50
270.0
 51
0.0
  0
ARC
  5
D6
330
1F
100
AcDbEntity
  8
0
  6
Continuous
 62
     1
420
 16711680
370
     0
100
AcDbCircle
 10
-4309.543184
 20
3170.727824
 30
0.0
 40
12.0
100
AcDbArc
 50
180.0
 51
270.0
  0
LINE
  5
D7
330
1F
100
AcDbEntity
  8
0
  6
Continuous
 62
     6
420
 16711935
370
     0
100
AcDbLine
 10
-4344.423184
 20
3530.368643
 30
0.0
 11
-4014.902366
 21
3530.368643
 31
0.0
  0
LINE
  5
D8
330
1F
100
AcDbEntity
  8
0
  6
Continuous
 62
     1
420
 16711680
370
     0
100
AcDbLine
 10
-4309.543184
 20
3158.727824
 30
0.0
 11
-4049.782366
 21
3158.727824
 31
0.0
  0
LINE
  5
D9
330
1F
100
AcDbEntity
  8
0
  6
Continuous
 62
     7
420
 16777215
370
     0
100
AcDbLine
 10
-4352.411768
 20
2852.452938
 30
0.0
 11
-4006.913781
 21
2852.452938
 31
0.0
  0
LINE
  5
DA
330
1F
100
AcDbEntity
  8
0
  6
Continuous
 62
     6
420
 16711935
370
     0
100
AcDbLine
 10
-4322.043955
 20
2655.452938
 30
0.0
 11
-4037.281595
 21
2655.452938
 31
0.0
  0
ARC
  5
DB
330
1F
100
AcDbEntity
  8
0
  6
Continuous
 62
     6
420
 16711935
370
     0
100
AcDbCircle
 10
-4364.662775
 20
2289.379348
 30
0.0
 40
10.0
100
AcDbArc
 50
90.0
 51
180.0
  0
ARC
  5
DC
330
1F
100
AcDbEntity
  8
0
  6
Continuous
 62
     6
420
 16711935
370
     0
100
AcDbCircle
 10
-3994.662775
 20
2289.379348
 30
0.0
 40
10.0
100
AcDbArc
 50
0.0
 51
90.0
  0
ARC
  5
DD
330
1F
100
AcDbEntity
  8
0
  6
Continuous
 62
     6
420
 16711935
370
     0
100
AcDbCircle
 10
-3994.662775
 20
1829.379348
 30
0.0
 40
10.0
100
AcDbArc
 50
270.0
 51
0.0
  0
ARC
  5
DE
330
1F
100
AcDbEntity
  8
0
  6
Continuous
 62
     6
420
 16711935
370
     0
100
AcDbCircle
 10
-4364.662775
 20
1829.379348
 30
0.0
 40
10.0
100
AcDbArc
 50
180.0
 51
270.0
  0
INSERT
  5
E9
330
1F
100
AcDbEntity
  8
0
  6
Continuous
 62
     7
420
 16777215
370
     0
100
AcDbBlockReference
  2
.TD_DIMENSION_1
 10
-17680.648436
 20
8822.612304
 30
0.0
  0
MTEXT
  5
EA
330
1F
100
AcDbEntity
  8
0
  6
Continuous
 62
     7
420
 16777215
370
     0
100
AcDbMText
 10
-4762.830566
 20
4731.987793
 30
0.0
 40
480.0
 41
0.0
 46
0.0
 71
     1
 72
     1
  1
{\W1.06;{\W1.1236;{\W1.19102;{\fArial|b0|i0;inch}}}}
  7
ANSI
 73
     2
 44
0.99598
  0
MTEXT
  5
EB
330
1F
100
AcDbEntity
  8
0
  6
Continuous
 62
     7
420
 16777215
370
     0
100
AcDbMText
 10
-5027.140137
 20
3900.59375
 30
0.0
 40
50.0
 41
0.0
 46
0.0
 71
     1
 72
     1
  1
{\fTimes New Roman|b0|i0;ON4110}
 73
     2
 44
0.99598
  0
DIMENSION
  5
EC
330
1F
100
AcDbEntity
  8
0
  6
Continuous
 62
     7
420
 16777215
370
     0
100
AcDbDimension
280
     0
  2
*D3
 10
-3838.846191
 20
3600.608233
 30
0.0
 11
-3879.671192
 21
3348.108233
 31
0.0
 70
    33
  1
\fArial|b0|i0|c0|p0;{\fArial|b0|i0;19 7/8"}
 71
     5
 42
505.0
 73
     0
 74
     0
 75
     0
  3
ISO-25
100
AcDbAlignedDimension
 13
-3979.662775
 23
3095.608233
 33
0.0
 14
-3979.662775
 24
3600.608233
 34
0.0
1001
ACAD
1000
DSTYLE
1002
{
1070
    41
1040
35.0
1070
   342
1005
4F
1070
   176
1070
     7
1070
   177
1070
     7
1070
   178
1070
     2
1070
   271
1070
     0
1070
   278
1070
    46
1070
    44
1040
20.0
1070
    42
1040
15.0
1070
   147
1040
15.000001
1070
    45
1040
1.0
1070
   272
1070
     3
1070
   146
1040
0.4
1070
   140
1040
50.0
1070
   284
1070
    12
1070
    78
1070
    12
1002
}
  0
DIMENSION
  5
F9
330
1F
100
AcDbEntity
  8
0
  6
Continuous
 62
     7
420
 16777215
370
     0
100
AcDbDimension
280
     0
  2
*D4
 10
-3974.662775
 20
3718.701416
 30
0.0
 11
-4086.162598
 21
3718.701416
 31
0.0
 70
   161
  1
\fArial|b0|i0|c0|p0;{\fArial|b0|i0;16 1/8"}
 71
     5
 42
410.0
 73
     0
 74
     0
 75
     0
  3
ISO-25
100
AcDbAlignedDimension
 13
-4384.662775
 23
3595.608233
 33
0.0
 14
-3974.662775
 24
3595.608233
 34
0.0
1001
ACAD
1000
DSTYLE
1002
{
1070
   279
1070
     0
1070
    41
1040
35.0
1070
   342
1005
4F
1070
   176
1070
     7
1070
   177
1070
     7
1070
   178
1070
     2
1070
   278
1070
    46
1070
    44
1040
20.0
1070
    42
1040
50.0
1070
   147
1040
15.000001
1070
   272
1070
     3
1070
   146
1040
0.4
1070
   140
1040
50.0
1002
}
  0
DIMENSION
  5
106
330
1F
100
AcDbEntity
  8
0
  6
Continuous
 62
     7
420
 16777215
370
     0
100
AcDbDimension
280
     0
  2
*D5
 10
-4487.455566
 20
3530.368643
 30
0.0
 11
-4487.455566
 21
3782.933233
 31
0.0
 70
   160
  1
\fArial|b0|i0|c0|p0;{\fArial|b0|i0;2 3/4"}
 71
     5
 42
70.23959
 73
     0
 74
     0
 75
     0
  3
ISO-25
100
AcDbAlignedDimension
 13
-4379.662775
 23
3600.608233
 33
0.0
 14
-4344.423184
 24
3530.368643
 34
0.0
 50
90.0
100
AcDbRotatedDimension
1001
ACAD
1000
DSTYLE
1002
{
1070
   280
1070
     0
1070
   344
1005
0
1070
   343
1005
0
1070
    76
1070
     0
1070
    75
1070
     0
1070
   279
1070
     0
1070
    41
1040
35.0
1070
   342
1005
4F
1070
   176
1070
     7
1070
   177
1070
     7
1070
   178
1070
     2
1070
   271
1070
     0
1070
   278
1070
    46
1070
    44
1040
20.0
1070
    42
1040
15.0
1070
   147
1040
25.0
1070
    45
1040
1.0
1070
   272
1070
     3
1070
   146
1040
0.4
1070
   140
1040
50.0
1070
   284
1070
    12
1070
    78
1070
    12
1002
}
  0
DIMENSION
  5
116
330
1F
100
AcDbEntity
  8
0
  6
Continuous
 62
     7
420
 16777215
370
     0
100
AcDbDimension
280
     0
  2
*D6
 10
-4487.738769
 20
3130.847825
 30
0.0
 11
-4528.56377
 21
3330.608234
 31
0.0
 70
    33
  1
\fArial|b0|i0|c0|p0;{\fArial|b0|i0;15 3/4"}
 71
     5
 42
399.520818
 73
     0
 74
     0
 75
     0
  3
ISO-25
100
AcDbAlignedDimension
 13
-4345.364223
 23
3530.368643
 33
0.0
 14
-4345.364222
 24
3130.847825
 34
0.0
1001
ACAD
1000
DSTYLE
1002
{
1070
   280
1070
     0
1070
   344
1005
0
1070
   343
1005
0
1070
    76
1070
     0
1070
    75
1070
     0
1070
    41
1040
35.0
1070
   342
1005
4F
1070
   176
1070
     7
1070
   177
1070
     7
1070
   178
1070
     2
1070
   271
1070
     0
1070
   278
1070
    46
1070
    44
1040
20.0
1070
    42
1040
15.0
1070
   147
1040
15.000001
1070
    45
1040
1.0
1070
   272
1070
     3
1070
   146
1040
0.4
1070
   140
1040
50.0
1070
   284
1070
    12
1070
    78
1070
    12
1002
}
  0
DIMENSION
  5
123
330
1F
100
AcDbEntity
  8
0
  6
Continuous
 62
     7
420
 16777215
370
     0
100
AcDbDimension
280
     0
  2
*D7
 10
-3954.662775
 20
2413.369385
 30
0.0
 11
-4179.662775
 21
2446.049385
 31
0.0
 70
    33
  1
\fArial|b0|i0|c0|p0;{\fArial|b0|i0;CABINET 18"}
 71
     5
 42
450.0
 73
     0
 74
     0
 75
     0
  3
ISO-25
100
AcDbAlignedDimension
 13
-4404.662775
 23
2535.452928
 33
0.0
 14
-3954.662775
 24
2535.452928
 34
0.0
1001
ACAD
1000
DSTYLE
1002
{
1070
    41
1040
28.0
1070
   342
1005
4F
1070
   176
1070
     7
1070
   177
1070
     7
1070
   178
1070
     2
1070
   278
1070
    46
1070
    44
1040
16.0
1070
    42
1040
40.0
1070
   147
1040
12.0
1070
   272
1070
     3
1070
   146
1040
0.4
1070
   140
1040
40.0
1002
}
  0
DIMENSION
  5
130
330
1F
100
AcDbEntity
  8
0
  6
Continuous
 62
     7
420
 16777215
370
     0
100
AcDbDimension
280
     0
  2
*D8
 10
-3838.846191
 20
2299.379348
 30
0.0
 11
-3879.671192
 21
2059.379348
 31
0.0
 70
    33
  1
\fArial|b0|i0|c0|p0;{\fArial|b0|i0;18 7/8"}
 71
     5
 42
480.0
 73
     0
 74
     0
 75
     0
  3
ISO-25
100
AcDbAlignedDimension
 13
-3984.662775
 23
1819.379348
 33
0.0
 14
-3984.662775
 24
2299.379348
 34
0.0
1001
ACAD
1000
DSTYLE
1002
{
1070
    41
1040
35.0
1070
   342
1005
4F
1070
   176
1070
     7
1070
   177
1070
     7
1070
   178
1070
     2
1070
   271
1070
     0
1070
   278
1070
    46
1070
    44
1040
20.0
1070
    42
1040
15.0
1070
   147
1040
15.000001
1070
    45
1040
1.0
1070
   272
1070
     3
1070
   146
1040
0.4
1070
   140
1040
50.0
1070
   284
1070
    12
1070
    78
1070
    12
1002
}
  0
DIMENSION
  5
13D
330
1F
100
AcDbEntity
  8
0
  6
Continuous
 62
     7
420
 16777215
370
     0
100
AcDbDimension
280
     0
  2
*D9
 10
-3984.662775
 20
1678.001953
 30
0.0
 11
-4179.662775
 21
1718.826954
 31
0.0
 70
    33
  1
\fArial|b0|i0|c0|p0;{\fArial|b0|i0;15 3/8"}
 71
     5
 42
390.0
 73
     0
 74
     0
 75
     0
  3
ISO-25
100
AcDbAlignedDimension
 13
-4374.662775
 23
1819.379348
 33
0.0
 14
-3984.662775
 24
1819.379348
 34
0.0
1001
ACAD
1000
DSTYLE
1002
{
1070
    41
1040
35.0
1070
   342
1005
4F
1070
   176
1070
     7
1070
   177
1070
     7
1070
   178
1070
     2
1070
   278
1070
    46
1070
    44
1040
20.0
1070
    42
1040
75.0
1070
   147
1040
15.000001
1070
   272
1070
     3
1070
   146
1040
0.4
1070
   140
1040
50.0
1002
}
  0
DIMENSION
  5
14A
330
1F
100
AcDbEntity
  8
0
  6
Continuous
 62
     7
420
 16777215
370
     0
100
AcDbDimension
280
     0
  2
*D10
 10
-4009.902366
 20
2972.443115
 30
0.0
 11
-4223.162598
 21
2972.443115
 31
0.0
 70
   161
  1
\fArial|b0|i0|c0|p0;{\fArial|b0|i0;13 3/8"}
 71
     5
 42
339.520818
 73
     0
 74
     0
 75
     0
  3
ISO-25
100
AcDbAlignedDimension
 13
-4349.423184
 23
3135.847824
 33
0.0
 14
-4009.902366
 24
3135.847824
 34
0.0
1001
ACAD
1000
DSTYLE
1002
{
1070
   279
1070
     0
1070
    41
1040
35.0
1070
   342
1005
4F
1070
   176
1070
     7
1070
   177
1070
     7
1070
   178
1070
     2
1070
   278
1070
    46
1070
    44
1040
20.0
1070
    42
1040
75.0
1070
   147
1040
15.000001
1070
   272
1070
     3
1070
   146
1040
0.4
1070
   140
1040
50.0
1002
}
  0
DIMENSION
  5
157
330
1F
100
AcDbEntity
  8
0
  6
Continuous
 62
     7
420
 16777215
370
     0
100
AcDbDimension
280
     0
  2
*D11
 10
-4486.833984
 20
3095.608233
 30
0.0
 11
-4486.833984
 21
2916.058233
 31
0.0
 70
   160
  1
\fArial|b0|i0|c0|p0;{\fArial|b0|i0;1 3/8"}
 71
     5
 42
35.239591
 73
     0
 74
     0
 75
     0
  3
ISO-25
100
AcDbAlignedDimension
 13
-4344.423184
 23
3130.847824
 33
0.0
 14
-4379.662775
 24
3095.608233
 34
0.0
 50
90.0
100
AcDbRotatedDimension
1001
ACAD
1000
DSTYLE
1002
{
1070
   280
1070
     0
1070
   344
1005
0
1070
   343
1005
0
1070
    76
1070
     0
1070
    75
1070
     0
1070
   279
1070
     0
1070
    41
1040
35.0
1070
   342
1005
4F
1070
   176
1070
     7
1070
   177
1070
     7
1070
   178
1070
     2
1070
   271
1070
     0
1070
   278
1070
    46
1070
    44
1040
20.0
1070
    42
1040
15.0
1070
   147
1040
25.0
1070
    45
1040
1.0
1070
   272
1070
     3
1070
   146
1040
0.4
1070
   140
1040
50.0
1070
   284
1070
    12
1070
    78
1070
    12
1002
}
  0
DIMENSION
  5
167
330
1F
100
AcDbEntity
  8
0
  6
Continuous
 62
     7
420
 16777215
370
     0
100
AcDbDimension
280
     0
  2
*D12
 10
-4176.347656
 20
2852.452938
 30
0.0
 11
-4217.007656
 21
2753.952938
 31
0.0
 70
    33
  1
\fArial|b0|i0|c0|p0;{\fArial|b0|i0;7 7/8"}
 71
     5
 42
197.0
 73
     0
 74
     0
 75
     0
  3
ISO-25
100
AcDbAlignedDimension
 13
-4175.007884
 23
2655.452938
 33
0.0
 14
-4175.007884
 24
2852.452938
 34
0.0
1001
ACAD
1000
DSTYLE
1002
{
1070
    41
1040
28.0
1070
   342
1005
4F
1070
   176
1070
     7
1070
   177
1070
     7
1070
   178
1070
     2
1070
   271
1070
     0
1070
   278
1070
    46
1070
    44
1040
16.0
1070
    42
1040
12.0
1070
   147
1040
20.0
1070
    45
1040
1.0
1070
   272
1070
     3
1070
   146
1040
0.4
1070
   140
1040
40.0
1070
   284
1070
    12
1070
    78
1070
    12
1002
}
  0
ENDSEC
  0
SECTION
  2
OBJECTS
  0
DICTIONARY
  5
C
330
0
100
AcDbDictionary
281
     1
  3
ACAD_GROUP
350
D
  3
ACAD_LAYOUT
350
1A
  3
ACAD_MATERIAL
350
3B
  3
ACAD_MLEADERSTYLE
350
177
  3
ACAD_MLINESTYLE
350
17
  3
ACAD_PLOTSETTINGS
350
19
  3
ACAD_PLOTSTYLENAME
350
E
  3
ACAD_SCALELIST
350
88
  3
ACAD_TABLESTYLE
350
176
  3
ACAD_VISUALSTYLE
350
2A
  3
AcDbVariableDictionary
350
174
  0
DICTIONARY
  5
D
102
{ACAD_REACTORS
330
C
102
}
330
C
100
AcDbDictionary
281
     1
  0
DICTIONARY
  5
1A
102
{ACAD_REACTORS
330
C
102
}
330
C
100
AcDbDictionary
281
     1
  3
Layout1
350
1E
  3
Layout2
350
26
  3
Model
350
22
  0
DICTIONARY
  5
3B
102
{ACAD_REACTORS
330
C
102
}
330
C
100
AcDbDictionary
281
     1
  3
ByBlock
350
3D
  3
ByLayer
350
3C
  3
Global
350
3E
  0
DICTIONARY
  5
177
102
{ACAD_REACTORS
330
C
102
}
330
C
100
AcDbDictionary
281
     1
  0
DICTIONARY
  5
17
102
{ACAD_REACTORS
330
C
102
}
330
C
100
AcDbDictionary
281
     1
  3
Standard
350
18
  0
DICTIONARY
  5
19
102
{ACAD_REACTORS
330
C
102
}
330
C
100
AcDbDictionary
281
     1
  0
ACDBDICTIONARYWDFLT
  5
E
102
{ACAD_REACTORS
330
C
102
}
330
C
100
AcDbDictionary
281
     1
  3
Normal
350
F
100
AcDbDictionaryWithDefault
340
F
  0
DICTIONARY
  5
88
102
{ACAD_REACTORS
330
C
102
}
330
C
100
AcDbDictionary
281
     1
  3
A0
350
89
  3
A1
350
8A
  3
A2
350
8B
  3
A3
350
8C
  3
A4
350
8D
  3
A5
350
8E
  3
A6
350
8F
  3
A7
350
90
  3
A8
350
91
  3
A9
350
92
  3
B0
350
93
  3
B1
350
94
  3
B2
350
95
  3
B3
350
96
  3
B4
350
97
  3
B5
350
98
  3
B6
350
99
  3
B7
350
9A
  3
B8
350
9B
  3
B9
350
9C
  3
C0
350
9D
  3
C1
350
9E
  3
C2
350
9F
  3
C3
350
A0
  3
C4
350
A1
  3
C5
350
A2
  3
C6
350
A3
  3
C7
350
A4
  3
C8
350
A5
  3
C9
350
A6
  3
D0
350
A7
  3
D1
350
A8
  3
D2
350
A9
  0
DICTIONARY
  5
176
102
{ACAD_REACTORS
330
C
102
}
330
C
100
AcDbDictionary
281
     1
  0
DICTIONARY
  5
2A
102
{ACAD_REACTORS
330
C
102
}
330
C
100
AcDbDictionary
281
     1
  3
2dWireframe
350
2F
  3
3D Hidden
350
31
  3
3dWireframe
350
30
  3
Basic
350
32
  3
Brighten
350
36
  3
ColorChange
350
3A
  3
Conceptual
350
34
  3
Dim
350
35
  3
Facepattern
350
39
  3
Flat
350
2B
  3
FlatWithEdges
350
2C
  3
Gouraud
350
2D
  3
GouraudWithEdges
350
2E
  3
Linepattern
350
38
  3
Realistic
350
33
  3
Thicken
350
37
  0
DICTIONARY
  5
174
102
{ACAD_REACTORS
330
C
102
}
330
C
100
AcDbDictionary
281
     1
  3
CANNOSCALE
350
175
  0
LAYOUT
  5
1E
102
{ACAD_REACTORS
330
1A
102
}
330
1A
100
AcDbPlotSettings
  1

  2
none_device
  4

  6

 40
0.0
 41
0.0
 42
0.0
 43
0.0
 44
0.0
 45
0.0
 46
0.0
 47
0.0
 48
0.0
 49
0.0
140
0.0
141
0.0
142
1.0
143
1.0
 70
   688
 72
     0
 73
     0
 74
     5
  7

 75
    16
 76
     0
 77
     2
 78
   300
147
1.0
148
0.0
149
0.0
100
AcDbLayout
  1
Layout1
 70
     1
 71
     1
 10
0.0
 20
0.0
 11
420.0
 21
297.0
 12
0.0
 22
0.0
 32
0.0
 14
1.000000E+20
 24
1.000000E+20
 34
1.000000E+20
 15
-1.000000E+20
 25
-1.000000E+20
 35
-1.000000E+20
146
0.0
 13
0.0
 23
0.0
 33
0.0
 16
1.0
 26
0.0
 36
0.0
 17
0.0
 27
1.0
 37
0.0
 76
     0
330
1B
  0
LAYOUT
  5
26
102
{ACAD_REACTORS
330
1A
102
}
330
1A
100
AcDbPlotSettings
  1

  2
none_device
  4

  6

 40
0.0
 41
0.0
 42
0.0
 43
0.0
 44
0.0
 45
0.0
 46
0.0
 47
0.0
 48
0.0
 49
0.0
140
0.0
141
0.0
142
1.0
143
1.0
 70
   688
 72
     0
 73
     0
 74
     5
  7

 75
    16
 76
     0
 77
     2
 78
   300
147
1.0
148
0.0
149
0.0
100
AcDbLayout
  1
Layout2
 70
     1
 71
     2
 10
0.0
 20
0.0
 11
0.0
 21
0.0
 12
0.0
 22
0.0
 32
0.0
 14
0.0
 24
0.0
 34
0.0
 15
0.0
 25
0.0
 35
0.0
146
0.0
 13
0.0
 23
0.0
 33
0.0
 16
1.0
 26
0.0
 36
0.0
 17
0.0
 27
1.0
 37
0.0
 76
     0
330
23
  0
LAYOUT
  5
22
102
{ACAD_REACTORS
330
1A
102
}
330
1A
100
AcDbPlotSettings
  1

  2
none_device
  4

  6

 40
0.0
 41
0.0
 42
0.0
 43
0.0
 44
0.0
 45
0.0
 46
0.0
 47
0.0
 48
0.0
 49
0.0
140
0.0
141
0.0
142
1.0
143
1.0
 70
  1712
 72
     0
 73
     0
 74
     0
  7

 75
     0
 76
     0
 77
     2
 78
   300
147
1.0
148
0.0
149
0.0
100
AcDbLayout
  1
Model
 70
     1
 71
     0
 10
0.0
 20
0.0
 11
420.0
 21
297.0
 12
0.0
 22
0.0
 32
0.0
 14
1.000000E+20
 24
1.000000E+20
 34
1.000000E+20
 15
-1.000000E+20
 25
-1.000000E+20
 35
-1.000000E+20
146
0.0
 13
0.0
 23
0.0
 33
0.0
 16
1.0
 26
0.0
 36
0.0
 17
0.0
 27
1.0
 37
0.0
 76
     0
330
1F
331
29
  0
MATERIAL
  5
3D
102
{ACAD_REACTORS
330
3B
102
}
330
3B
100
AcDbMaterial
  1
ByBlock
 72
     1
 94
      127
  0
MATERIAL
  5
3C
102
{ACAD_REACTORS
330
3B
102
}
330
3B
100
AcDbMaterial
  1
ByLayer
 72
     1
 94
      127
  0
MATERIAL
  5
3E
102
{ACAD_REACTORS
330
3B
102
}
330
3B
100
AcDbMaterial
  1
Global
 72
     1
 94
      127
  0
MLINESTYLE
  5
18
102
{ACAD_REACTORS
330
17
102
}
330
17
100
AcDbMlineStyle
  2
Standard
 70
     0
  3

 62
   256
 51
90.0
 52
90.0
 71
     2
 49
0.5
 62
   256
  6
BYLAYER
 49
-0.5
 62
   256
  6
BYLAYER
  0
ACDBPLACEHOLDER
  5
F
102
{ACAD_REACTORS
330
E
102
}
330
E
  0
SCALE
  5
89
102
{ACAD_REACTORS
330
88
102
}
330
88
100
AcDbScale
 70
     0
300
1:1
140
1.0
141
1.0
290
     1
  0
SCALE
  5
8A
102
{ACAD_REACTORS
330
88
102
}
330
88
100
AcDbScale
 70
     0
300
1:2
140
1.0
141
2.0
290
     0
  0
SCALE
  5
8B
102
{ACAD_REACTORS
330
88
102
}
330
88
100
AcDbScale
 70
     0
300
1:4
140
1.0
141
4.0
290
     0
  0
SCALE
  5
8C
102
{ACAD_REACTORS
330
88
102
}
330
88
100
AcDbScale
 70
     0
300
1:5
140
1.0
141
5.0
290
     0
  0
SCALE
  5
8D
102
{ACAD_REACTORS
330
88
102
}
330
88
100
AcDbScale
 70
     0
300
1:8
140
1.0
141
8.0
290
     0
  0
SCALE
  5
8E
102
{ACAD_REACTORS
330
88
102
}
330
88
100
AcDbScale
 70
     0
300
1:10
140
1.0
141
10.0
290
     0
  0
SCALE
  5
8F
102
{ACAD_REACTORS
330
88
102
}
330
88
100
AcDbScale
 70
     0
300
1:16
140
1.0
141
16.0
290
     0
  0
SCALE
  5
90
102
{ACAD_REACTORS
330
88
102
}
330
88
100
AcDbScale
 70
     0
300
1:20
140
1.0
141
20.0
290
     0
  0
SCALE
  5
91
102
{ACAD_REACTORS
330
88
102
}
330
88
100
AcDbScale
 70
     0
300
1:30
140
1.0
141
30.0
290
     0
  0
SCALE
  5
92
102
{ACAD_REACTORS
330
88
102
}
330
88
100
AcDbScale
 70
     0
300
1:40
140
1.0
141
40.0
290
     0
  0
SCALE
  5
93
102
{ACAD_REACTORS
330
88
102
}
330
88
100
AcDbScale
 70
     0
300
1:50
140
1.0
141
50.0
290
     0
  0
SCALE
  5
94
102
{ACAD_REACTORS
330
88
102
}
330
88
100
AcDbScale
 70
     0
300
1:100
140
1.0
141
100.0
290
     0
  0
SCALE
  5
95
102
{ACAD_REACTORS
330
88
102
}
330
88
100
AcDbScale
 70
     0
300
2:1
140
2.0
141
1.0
290
     0
  0
SCALE
  5
96
102
{ACAD_REACTORS
330
88
102
}
330
88
100
AcDbScale
 70
     0
300
4:1
140
4.0
141
1.0
290
     0
  0
SCALE
  5
97
102
{ACAD_REACTORS
330
88
102
}
330
88
100
AcDbScale
 70
     0
300
8:1
140
8.0
141
1.0
290
     0
  0
SCALE
  5
98
102
{ACAD_REACTORS
330
88
102
}
330
88
100
AcDbScale
 70
     0
300
10:1
140
10.0
141
1.0
290
     0
  0
SCALE
  5
99
102
{ACAD_REACTORS
330
88
102
}
330
88
100
AcDbScale
 70
     0
300
100:1
140
100.0
141
1.0
290
     0
  0
SCALE
  5
9A
102
{ACAD_REACTORS
330
88
102
}
330
88
100
AcDbScale
 70
     0
300
1/128" = 1'-0"
140
0.007812
141
12.0
290
     0
  0
SCALE
  5
9B
102
{ACAD_REACTORS
330
88
102
}
330
88
100
AcDbScale
 70
     0
300
1/64" = 1'-0"
140
0.015625
141
12.0
290
     0
  0
SCALE
  5
9C
102
{ACAD_REACTORS
330
88
102
}
330
88
100
AcDbScale
 70
     0
300
1/32" = 1'-0"
140
0.03125
141
12.0
290
     0
  0
SCALE
  5
9D
102
{ACAD_REACTORS
330
88
102
}
330
88
100
AcDbScale
 70
     0
300
1/16" = 1'-0"
140
0.0625
141
12.0
290
     0
  0
SCALE
  5
9E
102
{ACAD_REACTORS
330
88
102
}
330
88
100
AcDbScale
 70
     0
300
3/32" = 1'-0"
140
0.09375
141
12.0
290
     0
  0
SCALE
  5
9F
102
{ACAD_REACTORS
330
88
102
}
330
88
100
AcDbScale
 70
     0
300
1/8" = 1'-0"
140
0.125
141
12.0
290
     0
  0
SCALE
  5
A0
102
{ACAD_REACTORS
330
88
102
}
330
88
100
AcDbScale
 70
     0
300
3/16" = 1'-0"
140
0.1875
141
12.0
290
     0
  0
SCALE
  5
A1
102
{ACAD_REACTORS
330
88
102
}
330
88
100
AcDbScale
 70
     0
300
1/4" = 1'-0"
140
0.25
141
12.0
290
     0
  0
SCALE
  5
A2
102
{ACAD_REACTORS
330
88
102
}
330
88
100
AcDbScale
 70
     0
300
3/8" = 1'-0"
140
0.375
141
12.0
290
     0
  0
SCALE
  5
A3
102
{ACAD_REACTORS
330
88
102
}
330
88
100
AcDbScale
 70
     0
300
1/2" = 1'-0"
140
0.5
141
12.0
290
     0
  0
SCALE
  5
A4
102
{ACAD_REACTORS
330
88
102
}
330
88
100
AcDbScale
 70
     0
300
3/4" = 1'-0"
140
0.75
141
12.0
290
     0
  0
SCALE
  5
A5
102
{ACAD_REACTORS
330
88
102
}
330
88
100
AcDbScale
 70
     0
300
1" = 1'-0"
140
1.0
141
12.0
290
     0
  0
SCALE
  5
A6
102
{ACAD_REACTORS
330
88
102
}
330
88
100
AcDbScale
 70
     0
300
1-1/2" = 1'-0"
140
1.5
141
12.0
290
     0
  0
SCALE
  5
A7
102
{ACAD_REACTORS
330
88
102
}
330
88
100
AcDbScale
 70
     0
300
3" = 1'-0"
140
3.0
141
12.0
290
     0
  0
SCALE
  5
A8
102
{ACAD_REACTORS
330
88
102
}
330
88
100
AcDbScale
 70
     0
300
6" = 1'-0"
140
6.0
141
12.0
290
     0
  0
SCALE
  5
A9
102
{ACAD_REACTORS
330
88
102
}
330
88
100
AcDbScale
 70
     0
300
1'-0" = 1'-0"
140
12.0
141
12.0
290
     0
  0
VISUALSTYLE
  5
2F
102
{ACAD_REACTORS
330
2A
102
}
330
2A
100
AcDbVisualStyle
  2
2dWireframe
 70
     4
177
     2
291
     0
 71
     0
176
     1
 72
     2
176
     1
 73
     0
176
     1
 90
        0
176
     1
 40
-0.6
176
     1
 41
-30.0
176
     1
 62
     5
 63
     7
421
 16777215
176
     1
 74
     1
176
     1
 91
        4
176
     1
 64
     7
176
     1
 65
   257
176
     1
 75
     1
176
     1
175
     1
176
     1
 42
1.0
176
     1
 92
        0
176
     1
 66
   257
176
     1
 43
1.0
176
     1
 76
     1
176
     1
 77
     6
176
     1
 78
     2
176
     1
 67
     7
176
     1
 79
     5
176
     1
170
     0
176
     1
171
     0
176
     1
290
     0
176
     1
 93
        1
176
     1
 44
0.0
176
     1
173
     0
176
     1
  0
VISUALSTYLE
  5
31
102
{ACAD_REACTORS
330
2A
102
}
330
2A
100
AcDbVisualStyle
  2
3D Hidden
 70
     6
177
     2
291
     0
 71
     1
176
     1
 72
     2
176
     1
 73
     2
176
     1
 90
        0
176
     1
 40
-0.6
176
     1
 41
-30.0
176
     1
 62
     5
 63
     7
421
 16777215
176
     1
 74
     2
176
     1
 91
        2
176
     1
 64
     7
176
     1
 65
   257
176
     1
 75
     2
176
     1
175
     1
176
     1
 42
40.0
176
     1
 92
        0
176
     1
 66
   257
176
     1
 43
1.0
176
     1
 76
     1
176
     1
 77
     6
176
     1
 78
     2
176
     1
 67
     7
176
     1
 79
     3
176
     1
170
     0
176
     1
171
     0
176
     1
290
     0
176
     1
 93
        1
176
     1
 44
0.0
176
     1
173
     0
176
     1
  0
VISUALSTYLE
  5
30
102
{ACAD_REACTORS
330
2A
102
}
330
2A
100
AcDbVisualStyle
  2
3dWireframe
 70
     5
177
     2
291
     0
 71
     0
176
     1
 72
     2
176
     1
 73
     0
176
     1
 90
        0
176
     1
 40
-0.6
176
     1
 41
-30.0
176
     1
 62
     5
 63
     7
421
 16777215
176
     1
 74
     1
176
     1
 91
        4
176
     1
 64
     7
176
     1
 65
   257
176
     1
 75
     1
176
     1
175
     1
176
     1
 42
1.0
176
     1
 92
        0
176
     1
 66
   257
176
     1
 43
1.0
176
     1
 76
     1
176
     1
 77
     6
176
     1
 78
     2
176
     1
 67
     7
176
     1
 79
     5
176
     1
170
     0
176
     1
171
     0
176
     1
290
     0
176
     1
 93
        1
176
     1
 44
0.0
176
     1
173
     0
176
     1
  0
VISUALSTYLE
  5
32
102
{ACAD_REACTORS
330
2A
102
}
330
2A
100
AcDbVisualStyle
  2
Basic
 70
     7
177
     2
291
     1
 71
     1
176
     1
 72
     0
176
     1
 73
     1
176
     1
 90
        0
176
     1
 40
-0.6
176
     1
 41
-30.0
176
     1
 62
     5
 63
     7
421
 16777215
176
     1
 74
     0
176
     1
 91
        4
176
     1
 64
     7
176
     1
 65
   257
176
     1
 75
     1
176
     1
175
     1
176
     1
 42
1.0
176
     1
 92
        8
176
     1
 66
     7
176
     1
 43
1.0
176
     1
 76
     1
176
     1
 77
     6
176
     1
 78
     2
176
     1
 67
     7
176
     1
 79
     5
176
     1
170
     0
176
     1
171
     0
176
     1
290
     0
176
     1
 93
        1
176
     1
 44
0.0
176
     1
173
     0
176
     1
  0
VISUALSTYLE
  5
36
102
{ACAD_REACTORS
330
2A
102
}
330
2A
100
AcDbVisualStyle
  2
Brighten
 70
    12
177
     2
291
     1
 71
     2
176
     1
 72
     2
176
     1
 73
     0
176
     1
 90
        0
176
     1
 40
-0.6
176
     1
 41
-30.0
176
     1
 62
     5
 63
     7
421
 16777215
176
     1
 74
     1
176
     1
 91
        4
176
     1
 64
     7
176
     1
 65
   257
176
     1
 75
     1
176
     1
175
     1
176
     1
 42
1.0
176
     1
 92
        8
176
     1
 66
     7
176
     1
 43
1.0
176
     1
 76
     1
176
     1
 77
     6
176
     1
 78
     2
176
     1
 67
     7
176
     1
 79
     5
176
     1
170
     0
176
     1
171
     0
176
     1
290
     0
176
     1
 93
        1
176
     1
 44
50.0
176
     1
173
     0
176
     1
  0
VISUALSTYLE
  5
3A
102
{ACAD_REACTORS
330
2A
102
}
330
2A
100
AcDbVisualStyle
  2
ColorChange
 70
    16
177
     2
291
     1
 71
     2
176
     1
 72
     2
176
     1
 73
     3
176
     1
 90
        0
176
     1
 40
-0.6
176
     1
 41
-30.0
176
     1
 62
     5
 63
     8
421
  8421504
176
     1
 74
     1
176
     1
 91
        4
176
     1
 64
     7
176
     1
 65
   257
176
     1
 75
     1
176
     1
175
     1
176
     1
 42
1.0
176
     1
 92
        8
176
     1
 66
     8
424
  8421504
176
     1
 43
1.0
176
     1
 76
     1
176
     1
 77
     6
176
     1
 78
     2
176
     1
 67
     7
176
     1
 79
     5
176
     1
170
     0
176
     1
171
     0
176
     1
290
     0
176
     1
 93
        1
176
     1
 44
0.0
176
     1
173
     0
176
     1
  0
VISUALSTYLE
  5
34
102
{ACAD_REACTORS
330
2A
102
}
330
2A
100
AcDbVisualStyle
  2
Conceptual
 70
     9
177
     2
291
     0
 71
     3
176
     1
 72
     2
176
     1
 73
     0
176
     1
 90
        0
176
     1
 40
-0.6
176
     1
 41
-30.0
176
     1
 62
     5
 63
     7
421
 16777215
176
     1
 74
     2
176
     1
 91
        2
176
     1
 64
     7
176
     1
 65
   257
176
     1
 75
     1
176
     1
175
     1
176
     1
 42
40.0
176
     1
 92
        8
176
     1
 66
     7
176
     1
 43
1.0
176
     1
 76
     1
176
     1
 77
     6
176
     1
 78
     2
176
     1
 67
     7
176
     1
 79
     3
176
     1
170
     0
176
     1
171
     0
176
     1
290
     0
176
     1
 93
        1
176
     1
 44
0.0
176
     1
173
     0
176
     1
  0
VISUALSTYLE
  5
35
102
{ACAD_REACTORS
330
2A
102
}
330
2A
100
AcDbVisualStyle
  2
Dim
 70
    11
177
     2
291
     1
 71
     2
176
     1
 72
     2
176
     1
 73
     0
176
     1
 90
        0
176
     1
 40
-0.6
176
     1
 41
-30.0
176
     1
 62
     5
 63
     7
421
 16777215
176
     1
 74
     1
176
     1
 91
        4
176
     1
 64
     7
176
     1
 65
   257
176
     1
 75
     1
176
     1
175
     1
176
     1
 42
1.0
176
     1
 92
        8
176
     1
 66
     7
176
     1
 43
1.0
176
     1
 76
     1
176
     1
 77
     6
176
     1
 78
     2
176
     1
 67
     7
176
     1
 79
     5
176
     1
170
     0
176
     1
171
     0
176
     1
290
     0
176
     1
 93
        1
176
     1
 44
-50.0
176
     1
173
     0
176
     1
  0
VISUALSTYLE
  5
39
102
{ACAD_REACTORS
330
2A
102
}
330
2A
100
AcDbVisualStyle
  2
Facepattern
 70
    15
177
     2
291
     1
 71
     2
176
     1
 72
     2
176
     1
 73
     0
176
     1
 90
        0
176
     1
 40
-0.6
176
     1
 41
-30.0
176
     1
 62
     5
 63
     7
421
 16777215
176
     1
 74
     1
176
     1
 91
        4
176
     1
 64
     7
176
     1
 65
   257
176
     1
 75
     1
176
     1
175
     1
176
     1
 42
1.0
176
     1
 92
        8
176
     1
 66
     7
176
     1
 43
1.0
176
     1
 76
     1
176
     1
 77
     6
176
     1
 78
     2
176
     1
 67
     7
176
     1
 79
     5
176
     1
170
     0
176
     1
171
     0
176
     1
290
     0
176
     1
 93
        1
176
     1
 44
0.0
176
     1
173
     0
176
     1
  0
VISUALSTYLE
  5
2B
102
{ACAD_REACTORS
330
2A
102
}
330
2A
100
AcDbVisualStyle
  2
Flat
 70
     0
177
     2
291
     1
 71
     2
176
     1
 72
     1
176
     1
 73
     1
176
     1
 90
        2
176
     1
 40
-0.6
176
     1
 41
30.0
176
     1
 62
     5
 63
     7
421
 16777215
176
     1
 74
     0
176
     1
 91
        4
176
     1
 64
     7
176
     1
 65
   257
176
     1
 75
     1
176
     1
175
     1
176
     1
 42
1.0
176
     1
 92
        8
176
     1
 66
     7
176
     1
 43
1.0
176
     1
 76
     1
176
     1
 77
     6
176
     1
 78
     2
176
     1
 67
     7
176
     1
 79
     5
176
     1
170
     0
176
     1
171
     0
176
     1
290
     0
176
     1
 93
       13
176
     1
 44
0.0
176
     1
173
     0
176
     1
  0
VISUALSTYLE
  5
2C
102
{ACAD_REACTORS
330
2A
102
}
330
2A
100
AcDbVisualStyle
  2
FlatWithEdges
 70
     1
177
     2
291
     1
 71
     2
176
     1
 72
     1
176
     1
 73
     1
176
     1
 90
        2
176
     1
 40
-0.6
176
     1
 41
30.0
176
     1
 62
     5
 63
     7
421
 16777215
176
     1
 74
     1
176
     1
 91
        4
176
     1
 64
     7
176
     1
 65
   257
176
     1
 75
     1
176
     1
175
     1
176
     1
 42
1.0
176
     1
 92
        0
176
     1
 66
   257
176
     1
 43
1.0
176
     1
 76
     1
176
     1
 77
     6
176
     1
 78
     2
176
     1
 67
     7
176
     1
 79
     5
176
     1
170
     0
176
     1
171
     0
176
     1
290
     0
176
     1
 93
       13
176
     1
 44
0.0
176
     1
173
     0
176
     1
  0
VISUALSTYLE
  5
2D
102
{ACAD_REACTORS
330
2A
102
}
330
2A
100
AcDbVisualStyle
  2
Gouraud
 70
     2
177
     2
291
     1
 71
     2
176
     1
 72
     2
176
     1
 73
     1
176
     1
 90
        2
176
     1
 40
-0.6
176
     1
 41
30.0
176
     1
 62
     5
 63
     7
421
 16777215
176
     1
 74
     0
176
     1
 91
        4
176
     1
 64
     7
176
     1
 65
   257
176
     1
 75
     1
176
     1
175
     1
176
     1
 42
1.0
176
     1
 92
        0
176
     1
 66
     7
176
     1
 43
1.0
176
     1
 76
     1
176
     1
 77
     6
176
     1
 78
     2
176
     1
 67
     7
176
     1
 79
     5
176
     1
170
     0
176
     1
171
     0
176
     1
290
     0
176
     1
 93
       13
176
     1
 44
0.0
176
     1
173
     0
176
     1
  0
VISUALSTYLE
  5
2E
102
{ACAD_REACTORS
330
2A
102
}
330
2A
100
AcDbVisualStyle
  2
GouraudWithEdges
 70
     3
177
     2
291
     1
 71
     2
176
     1
 72
     2
176
     1
 73
     1
176
     1
 90
        2
176
     1
 40
-0.6
176
     1
 41
30.0
176
     1
 62
     5
 63
     7
421
 16777215
176
     1
 74
     1
176
     1
 91
        4
176
     1
 64
     7
176
     1
 65
   257
176
     1
 75
     1
176
     1
175
     1
176
     1
 42
1.0
176
     1
 92
        0
176
     1
 66
   257
176
     1
 43
1.0
176
     1
 76
     1
176
     1
 77
     6
176
     1
 78
     2
176
     1
 67
     7
176
     1
 79
     5
176
     1
170
     0
176
     1
171
     0
176
     1
290
     0
176
     1
 93
       13
176
     1
 44
0.0
176
     1
173
     0
176
     1
  0
VISUALSTYLE
  5
38
102
{ACAD_REACTORS
330
2A
102
}
330
2A
100
AcDbVisualStyle
  2
Linepattern
 70
    14
177
     2
291
     1
 71
     2
176
     1
 72
     2
176
     1
 73
     0
176
     1
 90
        0
176
     1
 40
-0.6
176
     1
 41
-30.0
176
     1
 62
     5
 63
     7
421
 16777215
176
     1
 74
     1
176
     1
 91
        4
176
     1
 64
     7
176
     1
 65
   257
176
     1
 75
     7
176
     1
175
     7
176
     1
 42
1.0
176
     1
 92
        8
176
     1
 66
     7
176
     1
 43
1.0
176
     1
 76
     1
176
     1
 77
     6
176
     1
 78
     2
176
     1
 67
     7
176
     1
 79
     5
176
     1
170
     0
176
     1
171
     0
176
     1
290
     0
176
     1
 93
        1
176
     1
 44
0.0
176
     1
173
     0
176
     1
  0
VISUALSTYLE
  5
33
102
{ACAD_REACTORS
330
2A
102
}
330
2A
100
AcDbVisualStyle
  2
Realistic
 70
     8
177
     2
291
     0
 71
     2
176
     1
 72
     2
176
     1
 73
     0
176
     1
 90
        0
176
     1
 40
-0.6
176
     1
 41
-30.0
176
     1
 62
     5
 63
     7
421
 16777215
176
     1
 74
     1
176
     1
 91
        0
176
     1
 64
     7
176
     1
 65
   257
176
     1
 75
     1
176
     1
175
     1
176
     1
 42
1.0
176
     1
 92
        8
176
     1
 66
     8
424
  7895160
176
     1
 43
1.0
176
     1
 76
     1
176
     1
 77
     6
176
     1
 78
     2
176
     1
 67
     7
176
     1
 79
     5
176
     1
170
     0
176
     1
171
     0
176
     1
290
     0
176
     1
 93
       13
176
     1
 44
0.0
176
     1
173
     0
176
     1
  0
VISUALSTYLE
  5
37
102
{ACAD_REACTORS
330
2A
102
}
330
2A
100
AcDbVisualStyle
  2
Thicken
 70
    13
177
     2
291
     1
 71
     2
176
     1
 72
     2
176
     1
 73
     0
176
     1
 90
        0
176
     1
 40
-0.6
176
     1
 41
-30.0
176
     1
 62
     5
 63
     7
421
 16777215
176
     1
 74
     1
176
     1
 91
        4
176
     1
 64
     7
176
     1
 65
   257
176
     1
 75
     1
176
     1
175
     1
176
     1
 42
1.0
176
     1
 92
       12
176
     1
 66
     7
176
     1
 43
1.0
176
     1
 76
     1
176
     1
 77
     6
176
     1
 78
     2
176
     1
 67
     7
176
     1
 79
     5
176
     1
170
     0
176
     1
171
     0
176
     1
290
     0
176
     1
 93
        1
176
     1
 44
0.0
176
     1
173
     0
176
     1
  0
DICTIONARYVAR
  5
175
102
{ACAD_REACTORS
330
174
102
}
330
174
100
DictionaryVariables
280
     0
  1
1:1
  0
ENDSEC
  0
EOF
