  0
SECTION
  2
HEADER
  9
$ACADVER
  1
AC1024
  9
$ACADMAINTVER
 70
     6
  9
$DWGCODEPAGE
  3
ANSI_1252
  9
$INSBASE
 10
0.0
 20
0.0
 30
0.0
  9
$EXTMIN
 10
1.000000E+20
 20
1.000000E+20
 30
1.000000E+20
  9
$EXTMAX
 10
-1.000000E+20
 20
-1.000000E+20
 30
-1.000000E+20
  9
$LIMMIN
 10
0.0
 20
0.0
  9
$LIMMAX
 10
420.0
 20
297.0
  9
$ORTHOMODE
 70
     0
  9
$REGENMODE
 70
     1
  9
$FILLMODE
 70
     1
  9
$QTEXTMODE
 70
     0
  9
$MIRRTEXT
 70
     1
  9
$LTSCALE
 40
1.0
  9
$ATTMODE
 70
     1
  9
$TEXTSIZE
 40
2.5
  9
$TRACEWID
 40
1.0
  9
$TEXTSTYLE
  7
Standard
  9
$CLAYER
  8
0
  9
$CELTYPE
  6
ByLayer
  9
$CECOLOR
 62
   256
  9
$CELTSCALE
 40
1.0
  9
$DISPSILH
 70
     0
  9
$DIMSCALE
 40
1.0
  9
$DIMASZ
 40
2.5
  9
$DIMEXO
 40
0.625
  9
$DIMDLI
 40
3.75
  9
$DIMRND
 40
0.0
  9
$DIMDLE
 40
0.0
  9
$DIMEXE
 40
1.25
  9
$DIMTP
 40
0.0
  9
$DIMTM
 40
0.0
  9
$DIMTXT
 40
2.5
  9
$DIMCEN
 40
2.5
  9
$DIMTSZ
 40
0.0
  9
$DIMTOL
 70
     0
  9
$DIMLIM
 70
     0
  9
$DIMTIH
 70
     0
  9
$DIMTOH
 70
     0
  9
$DIMSE1
 70
     0
  9
$DIMSE2
 70
     0
  9
$DIMTAD
 70
     1
  9
$DIMZIN
 70
     8
  9
$DIMBLK
  1

  9
$DIMASO
 70
     1
  9
$DIMSHO
 70
     1
  9
$DIMPOST
  1

  9
$DIMAPOST
  1

  9
$DIMALT
 70
     0
  9
$DIMALTD
 70
     3
  9
$DIMALTF
 40
0.03937
  9
$DIMLFAC
 40
1.0
  9
$DIMTOFL
 70
     1
  9
$DIMTVP
 40
0.0
  9
$DIMTIX
 70
     0
  9
$DIMSOXD
 70
     0
  9
$DIMSAH
 70
     0
  9
$DIMBLK1
  1

  9
$DIMBLK2
  1

  9
$DIMSTYLE
  2
ISO-25
  9
$DIMCLRD
 70
     0
  9
$DIMCLRE
 70
     0
  9
$DIMCLRT
 70
     0
  9
$DIMTFAC
 40
1.0
  9
$DIMGAP
 40
0.625
  9
$DIMJUST
 70
     0
  9
$DIMSD1
 70
     0
  9
$DIMSD2
 70
     0
  9
$DIMTOLJ
 70
     0
  9
$DIMTZIN
 70
     8
  9
$DIMALTZ
 70
     0
  9
$DIMALTTZ
 70
     0
  9
$DIMUPT
 70
     0
  9
$DIMDEC
 70
     2
  9
$DIMTDEC
 70
     2
  9
$DIMALTU
 70
     2
  9
$DIMALTTD
 70
     3
  9
$DIMTXSTY
  7
Standard
  9
$DIMAUNIT
 70
     0
  9
$DIMADEC
 70
     0
  9
$DIMALTRND
 40
0.0
  9
$DIMAZIN
 70
     0
  9
$DIMDSEP
 70
    44
  9
$DIMATFIT
 70
     3
  9
$DIMFRAC
 70
     0
  9
$DIMLDRBLK
  1

  9
$DIMLUNIT
 70
     2
  9
$DIMLWD
 70
    -2
  9
$DIMLWE
 70
    -2
  9
$DIMTMOVE
 70
     0
  9
$DIMFXL
 40
1.0
  9
$DIMFXLON
 70
     0
  9
$DIMJOGANG
 40
0.785398
  9
$DIMTFILL
 70
     0
  9
$DIMTFILLCLR
 70
     0
  9
$DIMARCSYM
 70
     0
  9
$DIMLTYPE
  6

  9
$DIMLTEX1
  6

  9
$DIMLTEX2
  6

  9
$DIMTXTDIRECTION
 70
     0
  9
$LUNITS
 70
     2
  9
$LUPREC
 70
     4
  9
$SKETCHINC
 40
1.0
  9
$FILLETRAD
 40
10.0
  9
$AUNITS
 70
     0
  9
$AUPREC
 70
     0
  9
$MENU
  1
.
  9
$ELEVATION
 40
0.0
  9
$PELEVATION
 40
0.0
  9
$THICKNESS
 40
0.0
  9
$LIMCHECK
 70
     0
  9
$CHAMFERA
 40
10.0
  9
$CHAMFERB
 40
10.0
  9
$CHAMFERC
 40
20.0
  9
$CHAMFERD
 40
0.0
  9
$SKPOLY
 70
     0
  9
$TDCREATE
 40
2458641.64140463
  9
$TDUCREATE
 40
2458641.558071296
  9
$TDUPDATE
 40
2458641.641404641
  9
$TDUUPDATE
 40
2458641.558071308
  9
$TDINDWG
 40
0.0000000116
  9
$TDUSRTIMER
 40
0.0000000116
  9
$USRTIMER
 70
     1
  9
$ANGBASE
 50
0.0
  9
$ANGDIR
 70
     0
  9
$PDMODE
 70
     0
  9
$PDSIZE
 40
0.0
  9
$PLINEWID
 40
0.0
  9
$SPLFRAME
 70
     0
  9
$SPLINETYPE
 70
     6
  9
$SPLINESEGS
 70
     8
  9
$HANDSEED
  5
64D
  9
$SURFTAB1
 70
     6
  9
$SURFTAB2
 70
     6
  9
$SURFTYPE
 70
     6
  9
$SURFU
 70
     6
  9
$SURFV
 70
     6
  9
$UCSBASE
  2

  9
$UCSNAME
  2

  9
$UCSORG
 10
0.0
 20
0.0
 30
0.0
  9
$UCSXDIR
 10
1.0
 20
0.0
 30
0.0
  9
$UCSYDIR
 10
0.0
 20
1.0
 30
0.0
  9
$UCSORTHOREF
  2

  9
$UCSORTHOVIEW
 70
     0
  9
$UCSORGTOP
 10
0.0
 20
0.0
 30
0.0
  9
$UCSORGBOTTOM
 10
0.0
 20
0.0
 30
0.0
  9
$UCSORGLEFT
 10
0.0
 20
0.0
 30
0.0
  9
$UCSORGRIGHT
 10
0.0
 20
0.0
 30
0.0
  9
$UCSORGFRONT
 10
0.0
 20
0.0
 30
0.0
  9
$UCSORGBACK
 10
0.0
 20
0.0
 30
0.0
  9
$PUCSBASE
  2

  9
$PUCSNAME
  2

  9
$PUCSORG
 10
0.0
 20
0.0
 30
0.0
  9
$PUCSXDIR
 10
1.0
 20
0.0
 30
0.0
  9
$PUCSYDIR
 10
0.0
 20
1.0
 30
0.0
  9
$PUCSORTHOREF
  2

  9
$PUCSORTHOVIEW
 70
     0
  9
$PUCSORGTOP
 10
0.0
 20
0.0
 30
0.0
  9
$PUCSORGBOTTOM
 10
0.0
 20
0.0
 30
0.0
  9
$PUCSORGLEFT
 10
0.0
 20
0.0
 30
0.0
  9
$PUCSORGRIGHT
 10
0.0
 20
0.0
 30
0.0
  9
$PUCSORGFRONT
 10
0.0
 20
0.0
 30
0.0
  9
$PUCSORGBACK
 10
0.0
 20
0.0
 30
0.0
  9
$USERI1
 70
     0
  9
$USERI2
 70
     0
  9
$USERI3
 70
     0
  9
$USERI4
 70
     0
  9
$USERI5
 70
     0
  9
$USERR1
 40
0.0
  9
$USERR2
 40
0.0
  9
$USERR3
 40
0.0
  9
$USERR4
 40
0.0
  9
$USERR5
 40
0.0
  9
$WORLDVIEW
 70
     1
  9
$SHADEDGE
 70
     3
  9
$SHADEDIF
 70
    70
  9
$TILEMODE
 70
     1
  9
$MAXACTVP
 70
    64
  9
$PINSBASE
 10
0.0
 20
0.0
 30
0.0
  9
$PLIMCHECK
 70
     0
  9
$PEXTMIN
 10
1.000000E+20
 20
1.000000E+20
 30
1.000000E+20
  9
$PEXTMAX
 10
-1.000000E+20
 20
-1.000000E+20
 30
-1.000000E+20
  9
$PLIMMIN
 10
0.0
 20
0.0
  9
$PLIMMAX
 10
420.0
 20
297.0
  9
$UNITMODE
 70
     0
  9
$VISRETAIN
 70
     1
  9
$PLINEGEN
 70
     0
  9
$PSLTSCALE
 70
     1
  9
$TREEDEPTH
 70
  3020
  9
$CMLSTYLE
  2
Standard
  9
$CMLJUST
 70
     0
  9
$CMLSCALE
 40
20.0
  9
$PROXYGRAPHICS
 70
     1
  9
$MEASUREMENT
 70
     1
  9
$CELWEIGHT
370
    -1
  9
$ENDCAPS
280
     0
  9
$JOINSTYLE
280
     0
  9
$LWDISPLAY
290
     0
  9
$INSUNITS
 70
     4
  9
$HYPERLINKBASE
  1

  9
$STYLESHEET
  1

  9
$XEDIT
290
     1
  9
$CEPSNTYPE
380
     0
  9
$PSTYLEMODE
290
     1
  9
$FINGERPRINTGUID
  2
{56161081-A007-4406-B77F-CCBBF57D256D}
  9
$VERSIONGUID
  2
{FAEB1C32-E019-11D5-929B-00C0DF256EC4}
  9
$EXTNAMES
290
     1
  9
$PSVPSCALE
 40
0.0
  9
$OLESTARTUP
290
     0
  9
$SORTENTS
280
   127
  9
$INDEXCTL
280
     0
  9
$HIDETEXT
280
     1
  9
$XCLIPFRAME
280
     2
  9
$HALOGAP
280
     0
  9
$OBSCOLOR
 70
   257
  9
$OBSLTYPE
280
     0
  9
$INTERSECTIONDISPLAY
280
     0
  9
$INTERSECTIONCOLOR
 70
   257
  9
$DIMASSOC
280
     2
  9
$PROJECTNAME
  1

  9
$CAMERADISPLAY
290
     0
  9
$LENSLENGTH
 40
50.0
  9
$CAMERAHEIGHT
 40
0.0
  9
$STEPSPERSEC
 40
2.0
  9
$STEPSIZE
 40
6.0
  9
$3DDWFPREC
 40
2.0
  9
$PSOLWIDTH
 40
5.0
  9
$PSOLHEIGHT
 40
80.0
  9
$LOFTANG1
 40
1.570796
  9
$LOFTANG2
 40
1.570796
  9
$LOFTMAG1
 40
0.0
  9
$LOFTMAG2
 40
0.0
  9
$LOFTPARAM
 70
     7
  9
$LOFTNORMALS
280
     1
  9
$LATITUDE
 40
37.795
  9
$LONGITUDE
 40
-122.394
  9
$NORTHDIRECTION
 40
0.0
  9
$TIMEZONE
 70
 -8000
  9
$LIGHTGLYPHDISPLAY
280
     1
  9
$TILEMODELIGHTSYNCH
280
     1
  9
$SOLIDHIST
280
     1
  9
$SHOWHIST
280
     1
  9
$DWFFRAME
280
     2
  9
$DGNFRAME
280
     2
  9
$REALWORLDSCALE
290
     1
  9
$INTERFERECOLOR
 62
   256
  9
$CSHADOW
280
     0
  9
$SHADOWPLANELOCATION
 40
0.0
  0
ENDSEC
  0
SECTION
  2
CLASSES
  0
CLASS
  1
ACDBDICTIONARYWDFLT
  2
AcDbDictionaryWithDefault
  3
ObjectDBX Classes
 90
        0
 91
        4
280
     0
281
     0
  0
CLASS
  1
VISUALSTYLE
  2
AcDbVisualStyle
  3
ObjectDBX Classes
 90
     4095
 91
        4
280
     0
281
     0
  0
CLASS
  1
MATERIAL
  2
AcDbMaterial
  3
ObjectDBX Classes
 90
     1153
 91
        4
280
     0
281
     0
  0
CLASS
  1
SCALE
  2
AcDbScale
  3
ObjectDBX Classes
 90
     1153
 91
        4
280
     0
281
     0
  0
CLASS
  1
DICTIONARYVAR
  2
AcDbDictionaryVar
  3
ObjectDBX Classes
 90
        0
 91
        4
280
     0
281
     0
  0
ENDSEC
  0
SECTION
  2
TABLES
  0
TABLE
  2
VPORT
  5
8
330
0
100
AcDbSymbolTable
 70
     1
  0
VPORT
  5
29
330
8
100
AcDbSymbolTableRecord
100
AcDbViewportTableRecord
  2
*Active
 70
     0
 10
0.0
 20
0.0
 11
1.0
 21
1.0
 12
344.186916
 22
148.5
 13
0.0
 23
0.0
 14
10.0
 24
10.0
 15
10.0
 25
10.0
 16
0.0
 26
0.0
 36
1.0
 17
0.0
 27
0.0
 37
0.0
 40
297.0
 41
1.972973
 42
50.0
 43
0.0
 44
0.0
 50
0.0
 51
0.0
 71
     0
 72
   100
 73
     1
 74
     3
 75
     0
 76
     0
 77
     0
 78
     0
281
     0
 65
     1
110
0.0
120
0.0
130
0.0
111
1.0
121
0.0
131
0.0
112
0.0
122
1.0
132
0.0
 79
     0
146
0.0
 60
     3
 61
     5
292
     1
282
     1
141
0.0
142
0.0
 63
   250
  0
ENDTAB
  0
TABLE
  2
LTYPE
  5
5
330
0
100
AcDbSymbolTable
 70
     3
  0
LTYPE
  5
14
330
5
100
AcDbSymbolTableRecord
100
AcDbLinetypeTableRecord
  2
ByBlock
 70
     0
  3

 72
    65
 73
     0
 40
0.0
  0
LTYPE
  5
15
330
5
100
AcDbSymbolTableRecord
100
AcDbLinetypeTableRecord
  2
ByLayer
 70
     0
  3

 72
    65
 73
     0
 40
0.0
  0
LTYPE
  5
16
330
5
100
AcDbSymbolTableRecord
100
AcDbLinetypeTableRecord
  2
Continuous
 70
     0
  3
Solid line
 72
    65
 73
     0
 40
0.0
  0
LTYPE
  5
AE
330
5
100
AcDbSymbolTableRecord
100
AcDbLinetypeTableRecord
  2
CENTER2
 70
     0
  3
Center (.5x) ___ _ ___ _ ___ _ ___ _ ___ _ ___
 72
    65
 73
     4
 40
28.575
 49
19.05
 74
     0
 49
-3.175
 74
     0
 49
3.175
 74
     0
 49
-3.175
 74
     0
  0
LTYPE
  5
126
330
5
100
AcDbSymbolTableRecord
100
AcDbLinetypeTableRecord
  2
HIDDEN2
 70
     0
  3
Hidden (.5x) _ _ _ _ _ _ _ _ _ _ _ _ _ _ _ _ _ 
 72
    65
 73
     2
 40
4.7625
 49
3.175
 74
     0
 49
-1.5875
 74
     0
  0
ENDTAB
  0
TABLE
  2
LAYER
  5
2
330
0
100
AcDbSymbolTable
 70
    21
  0
LAYER
  5
10
330
2
100
AcDbSymbolTableRecord
100
AcDbLayerTableRecord
  2
0
 70
     0
 62
     7
  6
Continuous
370
     0
390
F
347
3E
  0
LAYER
  5
3F
330
2
100
AcDbSymbolTableRecord
100
AcDbLayerTableRecord
  2
1
 70
     0
 62
     7
  6
Continuous
370
     0
390
F
347
3E
1001
AcAecLayerStandard
1000

1000
1
  0
LAYER
  5
41
330
2
100
AcDbSymbolTableRecord
100
AcDbLayerTableRecord
  2
2
 70
     0
 62
     7
  6
Continuous
370
     0
390
F
347
3E
1001
AcAecLayerStandard
1000

1000
2
  0
LAYER
  5
42
330
2
100
AcDbSymbolTableRecord
100
AcDbLayerTableRecord
  2
3
 70
     0
 62
     7
  6
Continuous
370
     0
390
F
347
3E
1001
AcAecLayerStandard
1000

1000
255
  0
LAYER
  5
43
330
2
100
AcDbSymbolTableRecord
100
AcDbLayerTableRecord
  2
4
 70
     0
 62
     7
  6
Continuous
370
     0
390
F
347
3E
1001
AcAecLayerStandard
1000

1000
DEFPOINTS
  0
LAYER
  5
44
330
2
100
AcDbSymbolTableRecord
100
AcDbLayerTableRecord
  2
5
 70
     0
 62
     7
  6
Continuous
370
     0
390
F
347
3E
1001
AcAecLayerStandard
1000

1000
__BYBLOCK
  0
LAYER
  5
45
330
2
100
AcDbSymbolTableRecord
100
AcDbLayerTableRecord
  2
6
 70
     0
 62
     7
  6
Continuous
370
     0
390
F
347
3E
1001
AcAecLayerStandard
1000

1000
255_1
  0
LAYER
  5
46
330
2
100
AcDbSymbolTableRecord
100
AcDbLayerTableRecord
  2
7
 70
     0
 62
     7
  6
Continuous
370
     0
390
F
347
3E
1001
AcAecLayerStandard
1000

1000
255_2
  0
LAYER
  5
47
330
2
100
AcDbSymbolTableRecord
100
AcDbLayerTableRecord
  2
8
 70
     0
 62
     7
  6
Continuous
370
     0
390
F
347
3E
1001
AcAecLayerStandard
1000

1000
quote
  0
LAYER
  5
48
330
2
100
AcDbSymbolTableRecord
100
AcDbLayerTableRecord
  2
9
 70
     0
 62
     7
  6
Continuous
370
     0
390
F
347
3E
  0
LAYER
  5
49
330
2
100
AcDbSymbolTableRecord
100
AcDbLayerTableRecord
  2
taglio
 70
     0
 62
     7
  6
Continuous
370
     0
390
F
347
3E
  0
LAYER
  5
4A
330
2
100
AcDbSymbolTableRecord
100
AcDbLayerTableRecord
  2
cordone
 70
     0
 62
     7
  6
Continuous
370
     0
390
F
347
3E
  0
LAYER
  5
4B
330
2
100
AcDbSymbolTableRecord
100
AcDbLayerTableRecord
  2
Design
 70
     0
 62
     7
  6
Continuous
370
     0
390
F
347
3E
  0
LAYER
  5
4C
330
2
100
AcDbSymbolTableRecord
100
AcDbLayerTableRecord
  2
Immaginedistampa
 70
     0
 62
     7
  6
Continuous
370
     0
390
F
347
3E
  0
LAYER
  5
4D
330
2
100
AcDbSymbolTableRecord
100
AcDbLayerTableRecord
  2
Annotation1
 70
     0
 62
     7
  6
Continuous
370
     0
390
F
347
3E
  0
LAYER
  5
4E
330
2
100
AcDbSymbolTableRecord
100
AcDbLayerTableRecord
  2
Unknown
 70
     0
 62
     7
  6
Continuous
370
     0
390
F
347
3E
  0
LAYER
  5
4F
330
2
100
AcDbSymbolTableRecord
100
AcDbLayerTableRecord
  2
255
 70
     0
 62
     1
  6
Continuous
370
     0
390
F
347
3E
  0
LAYER
  5
50
330
2
100
AcDbSymbolTableRecord
100
AcDbLayerTableRecord
  2
DEFPOINTS
 70
     0
 62
     1
  6
Continuous
290
     0
370
     0
390
F
347
3E
  0
LAYER
  5
51
330
2
100
AcDbSymbolTableRecord
100
AcDbLayerTableRecord
  2
255_1
 70
     0
 62
     1
  6
Continuous
370
     0
390
F
347
3E
  0
LAYER
  5
52
330
2
100
AcDbSymbolTableRecord
100
AcDbLayerTableRecord
  2
255_2
 70
     0
 62
     1
  6
Continuous
370
     0
390
F
347
3E
  0
LAYER
  5
53
330
2
100
AcDbSymbolTableRecord
100
AcDbLayerTableRecord
  2
255_3
 70
     0
 62
     1
  6
Continuous
370
     0
390
F
347
3E
  0
ENDTAB
  0
TABLE
  2
STYLE
  5
3
330
0
100
AcDbSymbolTable
 70
     6
  0
STYLE
  5
11
330
3
100
AcDbSymbolTableRecord
100
AcDbTextStyleTableRecord
  2
Standard
 70
     0
 40
0.0
 41
1.0
 50
0.0
 71
     0
 42
2.5
  3
txt
  4

1001
ACAD
1000
txt
1071
        0
  0
STYLE
  5
54
330
3
100
AcDbSymbolTableRecord
100
AcDbTextStyleTableRecord
  2
Default
 70
     0
 40
0.0
 41
1.0
 50
0.0
 71
     0
 42
0.2
  3

  4

1001
ACAD
1000
txt
1071
        0
  0
STYLE
  5
55
330
3
100
AcDbSymbolTableRecord
100
AcDbTextStyleTableRecord
  2
ANSI
 70
     0
 40
0.0
 41
1.0
 50
0.0
 71
     0
 42
0.2
  3

  4

1001
ACAD
1000
txt
1071
        0
  0
STYLE
  5
56
330
3
100
AcDbSymbolTableRecord
100
AcDbTextStyleTableRecord
  2
Testo nota (ISO)
 70
     0
 40
0.0
 41
1.0
 50
0.0
 71
     0
 42
0.2
  3

  4

1001
ACAD
1000
Tahoma
1071
        0
  0
STYLE
  5
57
330
3
100
AcDbSymbolTableRecord
100
AcDbTextStyleTableRecord
  2
SEACAD_arial_ttf
 70
     0
 40
0.0
 41
1.0
 50
0.0
 71
     0
 42
0.2
  3

  4

1001
ACAD
1000
arial
1071
        0
  0
STYLE
  5
58
330
3
100
AcDbSymbolTableRecord
100
AcDbTextStyleTableRecord
  2
ISO
 70
     0
 40
0.0
 41
1.0
 50
0.0
 71
     0
 42
0.2
  3

  4

1001
ACAD
1000
txt
1071
        0
  0
ENDTAB
  0
TABLE
  2
VIEW
  5
6
330
0
100
AcDbSymbolTable
 70
     0
  0
ENDTAB
  0
TABLE
  2
UCS
  5
7
330
0
100
AcDbSymbolTable
 70
     0
  0
ENDTAB
  0
TABLE
  2
APPID
  5
9
330
0
100
AcDbSymbolTable
 70
     2
  0
APPID
  5
12
330
9
100
AcDbSymbolTableRecord
100
AcDbRegAppTableRecord
  2
ACAD
 70
     0
  0
APPID
  5
40
330
9
100
AcDbSymbolTableRecord
100
AcDbRegAppTableRecord
  2
AcAecLayerStandard
 70
     0
  0
ENDTAB
  0
TABLE
  2
DIMSTYLE
  5
A
330
0
100
AcDbSymbolTable
 70
     7
100
AcDbDimStyleTable
  0
DIMSTYLE
105
27
102
{ACAD_REACTORS
330
57C
330
589
330
5BE
330
5CB
330
5D8
330
5E5
330
5F2
330
5FF
330
60C
330
622
330
62F
330
63C
102
}
330
A
100
AcDbSymbolTableRecord
100
AcDbDimStyleTableRecord
  2
ISO-25
 70
     0
 41
2.5
 42
0.625
 43
3.75
 44
1.25
 73
     0
 74
     0
 77
     1
 78
     8
140
2.5
141
2.5
143
0.03937
147
0.625
171
     3
172
     1
271
     2
272
     2
274
     3
278
    44
283
     0
284
     8
340
11
  0
DIMSTYLE
105
59
330
A
100
AcDbSymbolTableRecord
100
AcDbDimStyleTableRecord
  2
Default
 70
     0
  3
<>
 41
4.375
 42
1.05
 44
2.1
 49
10.01
 73
     0
 74
     0
 77
     1
 78
     8
140
3.5
146
0.4
147
1.75
172
     1
178
     2
271
     2
272
     3
284
     8
340
54
341
5A
342
5A
  0
DIMSTYLE
105
61
330
A
100
AcDbSymbolTableRecord
100
AcDbDimStyleTableRecord
  2
DefaultDimensionStyle
 70
     0
  3
<>
 41
2.5
 42
0.875
 44
1.75
 49
10.01
 73
     0
 74
     0
 77
     1
 78
     8
140
3.5
147
1.75
172
     1
178
     2
271
     2
272
     2
278
    44
284
     8
340
11
  0
DIMSTYLE
105
62
330
A
100
AcDbSymbolTableRecord
100
AcDbDimStyleTableRecord
  2
ANSI
 70
     0
  3
<>
 41
2.0
 42
3.5
 44
2.03
 49
10.01
 73
     0
 74
     0
 77
     1
 78
     8
140
3.5
146
0.4
147
1.75
172
     1
178
     2
271
     2
272
     3
284
    12
340
55
341
5A
342
5A
  0
DIMSTYLE
105
63
330
A
100
AcDbSymbolTableRecord
100
AcDbDimStyleTableRecord
  2
Default (ISO)
 70
     0
  3
<>
 41
5.0
 42
0.035
 44
6.35
 49
10.01
 73
     0
 74
     0
 77
     1
140
3.5
146
1.001486
147
1.524
172
     1
178
     2
271
     2
272
     2
278
    44
340
56
  0
DIMSTYLE
105
64
330
A
100
AcDbSymbolTableRecord
100
AcDbDimStyleTableRecord
  2
DSTYLE1
 70
     0
  3
<>
 41
35.0
 42
9.2414
 44
1.166665
 49
10.01
 73
     0
 74
     0
 78
     8
140
3.5
146
0.6
147
1.225
172
     1
178
     2
340
11
  0
DIMSTYLE
105
65
330
A
100
AcDbSymbolTableRecord
100
AcDbDimStyleTableRecord
  2
ISO
 70
     0
  3
<>
 41
4.375
 42
1.05
 44
2.1
 49
10.01
 73
     0
 74
     0
 77
     1
 78
     8
140
3.5
146
0.4
147
1.75
172
     1
178
     2
271
     2
272
     3
284
     8
340
11
341
5A
342
5A
  0
ENDTAB
  0
TABLE
  2
BLOCK_RECORD
  5
1
330
0
100
AcDbSymbolTable
 70
    31
  0
BLOCK_RECORD
  5
1F
330
1
100
AcDbSymbolTableRecord
100
AcDbBlockTableRecord
  2
*Model_Space
340
22
 70
     0
280
     1
281
     0
  0
BLOCK_RECORD
  5
1B
330
1
100
AcDbSymbolTableRecord
100
AcDbBlockTableRecord
  2
*Paper_Space
340
1E
 70
     0
280
     1
281
     0
  0
BLOCK_RECORD
  5
23
330
1
100
AcDbSymbolTableRecord
100
AcDbBlockTableRecord
  2
*Paper_Space0
340
26
 70
     0
280
     1
281
     0
  0
BLOCK_RECORD
  5
5A
330
1
100
AcDbSymbolTableRecord
100
AcDbBlockTableRecord
  2
_CLOSED
340
0
102
{BLKREFS
331
582
331
581
331
58F
331
58E
331
5C4
331
5C3
331
5D1
331
5D0
331
5DE
331
5DD
331
5EB
331
5EA
331
5F8
331
5F7
331
605
331
604
331
612
331
611
331
628
331
627
331
633
331
632
331
640
331
63F
102
}
 70
     0
280
     1
281
     0
  0
BLOCK_RECORD
  5
173
330
1
100
AcDbSymbolTableRecord
100
AcDbBlockTableRecord
  2
.TD_XHATCH_1
340
0
102
{BLKREFS
331
1EF
102
}
 70
     0
280
     1
281
     0
  0
BLOCK_RECORD
  5
1F0
330
1
100
AcDbSymbolTableRecord
100
AcDbBlockTableRecord
  2
.TD_XHATCH_2
340
0
102
{BLKREFS
331
20A
102
}
 70
     0
280
     1
281
     0
  0
BLOCK_RECORD
  5
20B
330
1
100
AcDbSymbolTableRecord
100
AcDbBlockTableRecord
  2
.TD_XHATCH_3
340
0
102
{BLKREFS
331
340
102
}
 70
     0
280
     1
281
     0
  0
BLOCK_RECORD
  5
341
330
1
100
AcDbSymbolTableRecord
100
AcDbBlockTableRecord
  2
.TD_XHATCH_4
340
0
102
{BLKREFS
331
3B6
102
}
 70
     0
280
     1
281
     0
  0
BLOCK_RECORD
  5
3B7
330
1
100
AcDbSymbolTableRecord
100
AcDbBlockTableRecord
  2
.TD_XHATCH_5
340
0
102
{BLKREFS
331
457
102
}
 70
     0
280
     1
281
     0
  0
BLOCK_RECORD
  5
458
330
1
100
AcDbSymbolTableRecord
100
AcDbBlockTableRecord
  2
.TD_XHATCH_6
340
0
102
{BLKREFS
331
4AF
102
}
 70
     0
280
     1
281
     0
  0
BLOCK_RECORD
  5
4B0
330
1
100
AcDbSymbolTableRecord
100
AcDbBlockTableRecord
  2
.TD_XHATCH_7
340
0
102
{BLKREFS
331
519
102
}
 70
     0
280
     1
281
     0
  0
BLOCK_RECORD
  5
51A
330
1
100
AcDbSymbolTableRecord
100
AcDbBlockTableRecord
  2
.TD_DIMENSION_1
340
0
102
{BLKREFS
331
524
102
}
 70
     0
280
     1
281
     0
  0
BLOCK_RECORD
  5
525
330
1
100
AcDbSymbolTableRecord
100
AcDbBlockTableRecord
  2
.TD_DIMENSION_2
340
0
102
{BLKREFS
331
52F
102
}
 70
     0
280
     1
281
     0
  0
BLOCK_RECORD
  5
530
330
1
100
AcDbSymbolTableRecord
100
AcDbBlockTableRecord
  2
.TD_DIMENSION_3
340
0
102
{BLKREFS
331
53A
102
}
 70
     0
280
     1
281
     0
  0
BLOCK_RECORD
  5
53B
330
1
100
AcDbSymbolTableRecord
100
AcDbBlockTableRecord
  2
.TD_DIMENSION_4
340
0
102
{BLKREFS
331
545
102
}
 70
     0
280
     1
281
     0
  0
BLOCK_RECORD
  5
571
330
1
100
AcDbSymbolTableRecord
100
AcDbBlockTableRecord
  2
.TD_DIMENSION_5
340
0
102
{BLKREFS
331
579
102
}
 70
     0
280
     1
281
     0
  0
BLOCK_RECORD
  5
57D
330
1
100
AcDbSymbolTableRecord
100
AcDbBlockTableRecord
  2
*D14
340
0
 70
     0
280
     1
281
     0
  0
BLOCK_RECORD
  5
58A
330
1
100
AcDbSymbolTableRecord
100
AcDbBlockTableRecord
  2
*D15
340
0
 70
     0
280
     1
281
     0
  0
BLOCK_RECORD
  5
596
330
1
100
AcDbSymbolTableRecord
100
AcDbBlockTableRecord
  2
.TD_DIMENSION_6
340
0
102
{BLKREFS
331
59D
102
}
 70
     0
280
     1
281
     0
  0
BLOCK_RECORD
  5
5A0
330
1
100
AcDbSymbolTableRecord
100
AcDbBlockTableRecord
  2
.TD_DIMENSION_7
340
0
102
{BLKREFS
331
5A7
102
}
 70
     0
280
     1
281
     0
  0
BLOCK_RECORD
  5
5AA
330
1
100
AcDbSymbolTableRecord
100
AcDbBlockTableRecord
  2
.TD_DIMENSION_8
340
0
102
{BLKREFS
331
5B1
102
}
 70
     0
280
     1
281
     0
  0
BLOCK_RECORD
  5
5B4
330
1
100
AcDbSymbolTableRecord
100
AcDbBlockTableRecord
  2
.TD_DIMENSION_9
340
0
102
{BLKREFS
331
5BB
102
}
 70
     0
280
     1
281
     0
  0
BLOCK_RECORD
  5
5BF
330
1
100
AcDbSymbolTableRecord
100
AcDbBlockTableRecord
  2
*D20
340
0
 70
     0
280
     1
281
     0
  0
BLOCK_RECORD
  5
5CC
330
1
100
AcDbSymbolTableRecord
100
AcDbBlockTableRecord
  2
*D21
340
0
 70
     0
280
     1
281
     0
  0
BLOCK_RECORD
  5
5D9
330
1
100
AcDbSymbolTableRecord
100
AcDbBlockTableRecord
  2
*D22
340
0
 70
     0
280
     1
281
     0
  0
BLOCK_RECORD
  5
5E6
330
1
100
AcDbSymbolTableRecord
100
AcDbBlockTableRecord
  2
*D23
340
0
 70
     0
280
     1
281
     0
  0
BLOCK_RECORD
  5
5F3
330
1
100
AcDbSymbolTableRecord
100
AcDbBlockTableRecord
  2
*D24
340
0
 70
     0
280
     1
281
     0
  0
BLOCK_RECORD
  5
600
330
1
100
AcDbSymbolTableRecord
100
AcDbBlockTableRecord
  2
*D25
340
0
 70
     0
280
     1
281
     0
  0
BLOCK_RECORD
  5
60D
330
1
100
AcDbSymbolTableRecord
100
AcDbBlockTableRecord
  2
*D26
340
0
 70
     0
280
     1
281
     0
  0
BLOCK_RECORD
  5
619
330
1
100
AcDbSymbolTableRecord
100
AcDbBlockTableRecord
  2
.TD_DIMENSION_10
340
0
102
{BLKREFS
331
61F
102
}
 70
     0
280
     1
281
     0
  0
BLOCK_RECORD
  5
623
330
1
100
AcDbSymbolTableRecord
100
AcDbBlockTableRecord
  2
*D28
340
0
 70
     0
280
     1
281
     0
  0
BLOCK_RECORD
  5
630
330
1
100
AcDbSymbolTableRecord
100
AcDbBlockTableRecord
  2
*D29
340
0
 70
     0
280
     1
281
     0
  0
BLOCK_RECORD
  5
63D
330
1
100
AcDbSymbolTableRecord
100
AcDbBlockTableRecord
  2
*D30
340
0
 70
     0
280
     1
281
     0
  0
ENDTAB
  0
ENDSEC
  0
SECTION
  2
BLOCKS
  0
BLOCK
  5
20
330
1F
100
AcDbEntity
  8
0
100
AcDbBlockBegin
  2
*Model_Space
 70
     0
 10
0.0
 20
0.0
 30
0.0
  3
*Model_Space
  1

  0
ENDBLK
  5
21
330
1F
100
AcDbEntity
  8
0
100
AcDbBlockEnd
  0
BLOCK
  5
1C
330
1B
100
AcDbEntity
 67
     1
  8
0
100
AcDbBlockBegin
  2
*Paper_Space
 70
     0
 10
0.0
 20
0.0
 30
0.0
  3
*Paper_Space
  1

  0
ENDBLK
  5
1D
330
1B
100
AcDbEntity
 67
     1
  8
0
100
AcDbBlockEnd
  0
BLOCK
  5
24
330
23
100
AcDbEntity
  8
0
100
AcDbBlockBegin
  2
*Paper_Space0
 70
     0
 10
0.0
 20
0.0
 30
0.0
  3
*Paper_Space0
  1

  0
ENDBLK
  5
25
330
23
100
AcDbEntity
  8
0
100
AcDbBlockEnd
  0
BLOCK
  5
5B
330
5A
100
AcDbEntity
  8
0
100
AcDbBlockBegin
  2
_CLOSED
 70
     0
 10
0.0
 20
0.0
 30
0.0
  3
_CLOSED
  1

  0
LINE
  5
5D
330
5A
100
AcDbEntity
  8
0
  6
ByBlock
 62
     0
370
    -2
100
AcDbLine
 10
-1.0
 20
0.166667
 30
0.0
 11
0.0
 21
0.0
 31
0.0
  0
LINE
  5
5E
330
5A
100
AcDbEntity
  8
0
  6
ByBlock
 62
     0
370
    -2
100
AcDbLine
 10
0.0
 20
0.0
 30
0.0
 11
-1.0
 21
-0.166667
 31
0.0
  0
LINE
  5
5F
330
5A
100
AcDbEntity
  8
0
  6
ByBlock
 62
     0
370
    -2
100
AcDbLine
 10
-1.0
 20
0.166667
 30
0.0
 11
-1.0
 21
-0.166667
 31
0.0
  0
LINE
  5
60
330
5A
100
AcDbEntity
  8
0
  6
ByBlock
 62
     0
370
    -2
100
AcDbLine
 10
0.0
 20
0.0
 30
0.0
 11
-1.0
 21
0.0
 31
0.0
  0
ENDBLK
  5
5C
330
5A
100
AcDbEntity
  8
0
100
AcDbBlockEnd
  0
BLOCK
  5
1ED
330
173
100
AcDbEntity
  8
0
100
AcDbBlockBegin
  2
.TD_XHATCH_1
 70
     0
 10
10589.274414
 20
1705.399902
 30
0.0
  3
.TD_XHATCH_1
  1

  0
LINE
  5
174
330
173
100
AcDbEntity
  8
0
  6
Continuous
 62
     0
100
AcDbLine
 10
5295.082031
 20
852.699951
 30
0.0
 11
5316.112305
 21
873.730408
 31
0.0
  0
LINE
  5
175
330
173
100
AcDbEntity
  8
0
  6
Continuous
 62
     0
100
AcDbLine
 10
5322.937012
 20
880.555237
 30
0.0
 11
5331.55957
 21
889.177917
 31
0.0
  0
LINE
  5
176
330
173
100
AcDbEntity
  8
0
  6
Continuous
 62
     0
100
AcDbLine
 10
5331.921875
 20
888.871826
 30
0.0
 11
5323.073242
 21
880.023132
 31
0.0
  0
LINE
  5
177
330
173
100
AcDbEntity
  8
0
  6
Continuous
 62
     0
100
AcDbLine
 10
5316.780273
 20
873.730408
 30
0.0
 11
5295.75
 21
852.699951
 31
0.0
  0
LINE
  5
178
330
173
100
AcDbEntity
  8
0
  6
Continuous
 62
     0
100
AcDbLine
 10
5296.418457
 20
852.699951
 30
0.0
 11
5317.44873
 21
873.730408
 31
0.0
  0
LINE
  5
179
330
173
100
AcDbEntity
  8
0
  6
Continuous
 62
     0
100
AcDbLine
 10
5323.156738
 20
879.438477
 30
0.0
 11
5332.271973
 21
888.55365
 31
0.0
  0
LINE
  5
17A
330
173
100
AcDbEntity
  8
0
  6
Continuous
 62
     0
100
AcDbLine
 10
5332.609863
 20
888.223389
 30
0.0
 11
5323.172363
 21
878.785645
 31
0.0
  0
LINE
  5
17B
330
173
100
AcDbEntity
  8
0
  6
Continuous
 62
     0
100
AcDbLine
 10
5318.120605
 20
873.734314
 30
0.0
 11
5310.230469
 21
865.843994
 31
0.0
  0
LINE
  5
17C
330
173
100
AcDbEntity
  8
0
  6
Continuous
 62
     0
100
AcDbLine
 10
5310.022461
 20
865.636169
 30
0.0
 11
5297.086426
 21
852.699951
 31
0.0
  0
LINE
  5
17D
330
173
100
AcDbEntity
  8
0
  6
Continuous
 62
     0
100
AcDbLine
 10
5297.754883
 20
852.699951
 30
0.0
 11
5309.879395
 21
864.82489
 31
0.0
  0
LINE
  5
17E
330
173
100
AcDbEntity
  8
0
  6
Continuous
 62
     0
100
AcDbLine
 10
5310.898926
 20
865.843994
 30
0.0
 11
5318.872559
 21
873.817688
 31
0.0
  0
LINE
  5
17F
330
173
100
AcDbEntity
  8
0
  6
Continuous
 62
     0
100
AcDbLine
 10
5323.088867
 20
878.034058
 30
0.0
 11
5332.936035
 21
887.881226
 31
0.0
  0
LINE
  5
180
330
173
100
AcDbEntity
  8
0
  6
Continuous
 62
     0
100
AcDbLine
 10
5333.25
 20
887.526917
 30
0.0
 11
5322.82666
 21
877.103943
 31
0.0
  0
LINE
  5
181
330
173
100
AcDbEntity
  8
0
  6
Continuous
 62
     0
100
AcDbLine
 10
5319.802734
 20
874.07959
 30
0.0
 11
5311.566895
 21
865.843994
 31
0.0
  0
LINE
  5
182
330
173
100
AcDbEntity
  8
0
  6
Continuous
 62
     0
100
AcDbLine
 10
5309.736328
 20
864.013611
 30
0.0
 11
5298.422852
 21
852.699951
 31
0.0
  0
LINE
  5
183
330
173
100
AcDbEntity
  8
0
  6
Continuous
 62
     0
100
AcDbLine
 10
5299.091309
 20
852.699951
 30
0.0
 11
5309.593262
 21
863.202393
 31
0.0
  0
LINE
  5
184
330
173
100
AcDbEntity
  8
0
  6
Continuous
 62
     0
100
AcDbLine
 10
5312.235352
 20
865.843994
 30
0.0
 11
5333.551758
 21
887.160522
 31
0.0
  0
LINE
  5
185
330
173
100
AcDbEntity
  8
0
  6
Continuous
 62
     0
100
AcDbLine
 10
5333.841309
 20
886.78186
 30
0.0
 11
5312.90332
 21
865.843994
 31
0.0
  0
LINE
  5
186
330
173
100
AcDbEntity
  8
0
  6
Continuous
 62
     0
100
AcDbLine
 10
5309.450684
 20
862.391113
 30
0.0
 11
5299.759277
 21
852.699951
 31
0.0
  0
LINE
  5
187
330
173
100
AcDbEntity
  8
0
  6
Continuous
 62
     0
100
AcDbLine
 10
5300.427734
 20
852.699951
 30
0.0
 11
5309.307617
 21
861.579834
 31
0.0
  0
LINE
  5
188
330
173
100
AcDbEntity
  8
0
  6
Continuous
 62
     0
100
AcDbLine
 10
5313.571777
 20
865.843994
 30
0.0
 11
5334.118164
 21
886.390747
 31
0.0
  0
LINE
  5
189
330
173
100
AcDbEntity
  8
0
  6
Continuous
 62
     0
100
AcDbLine
 10
5334.382812
 20
885.987061
 30
0.0
 11
5314.239746
 21
865.843994
 31
0.0
  0
LINE
  5
18A
330
173
100
AcDbEntity
  8
0
  6
Continuous
 62
     0
100
AcDbLine
 10
5309.164551
 20
860.768555
 30
0.0
 11
5301.095703
 21
852.699951
 31
0.0
  0
LINE
  5
18B
330
173
100
AcDbEntity
  8
0
  6
Continuous
 62
     0
100
AcDbLine
 10
5301.76416
 20
852.699951
 30
0.0
 11
5309.021484
 21
859.957336
 31
0.0
  0
LINE
  5
18C
330
173
100
AcDbEntity
  8
0
  6
Continuous
 62
     0
100
AcDbLine
 10
5314.908203
 20
865.843994
 30
0.0
 11
5334.634277
 21
885.570312
 31
0.0
  0
LINE
  5
18D
330
173
100
AcDbEntity
  8
0
  6
Continuous
 62
     0
100
AcDbLine
 10
5334.872559
 20
885.140259
 30
0.0
 11
5315.576172
 21
865.843994
 31
0.0
  0
LINE
  5
18E
330
173
100
AcDbEntity
  8
0
  6
Continuous
 62
     0
100
AcDbLine
 10
5308.878418
 20
859.146057
 30
0.0
 11
5302.432129
 21
852.699951
 31
0.0
  0
LINE
  5
18F
330
173
100
AcDbEntity
  8
0
  6
Continuous
 62
     0
100
AcDbLine
 10
5303.100586
 20
852.699951
 30
0.0
 11
5308.735352
 21
858.334778
 31
0.0
  0
LINE
  5
190
330
173
100
AcDbEntity
  8
0
  6
Continuous
 62
     0
100
AcDbLine
 10
5316.244629
 20
865.843994
 30
0.0
 11
5335.09668
 21
884.696472
 31
0.0
  0
LINE
  5
191
330
173
100
AcDbEntity
  8
0
  6
Continuous
 62
     0
100
AcDbLine
 10
5335.307129
 20
884.238403
 30
0.0
 11
5316.912598
 21
865.843994
 31
0.0
  0
LINE
  5
192
330
173
100
AcDbEntity
  8
0
  6
Continuous
 62
     0
100
AcDbLine
 10
5308.592285
 20
857.523499
 30
0.0
 11
5303.768555
 21
852.699951
 31
0.0
  0
LINE
  5
193
330
173
100
AcDbEntity
  8
0
  6
Continuous
 62
     0
100
AcDbLine
 10
5304.437012
 20
852.699951
 30
0.0
 11
5308.449219
 21
856.71228
 31
0.0
  0
LINE
  5
194
330
173
100
AcDbEntity
  8
0
  6
Continuous
 62
     0
100
AcDbLine
 10
5317.581055
 20
865.843994
 30
0.0
 11
5335.502441
 21
883.765381
 31
0.0
  0
LINE
  5
195
330
173
100
AcDbEntity
  8
0
  6
Continuous
 62
     0
100
AcDbLine
 10
5335.681641
 20
883.276733
 30
0.0
 11
5318.249023
 21
865.843994
 31
0.0
  0
LINE
  5
196
330
173
100
AcDbEntity
  8
0
  6
Continuous
 62
     0
100
AcDbLine
 10
5308.306152
 20
855.901001
 30
0.0
 11
5305.10498
 21
852.699951
 31
0.0
  0
LINE
  5
197
330
173
100
AcDbEntity
  8
0
  6
Continuous
 62
     0
100
AcDbLine
 10
5305.773438
 20
852.699951
 30
0.0
 11
5308.163086
 21
855.089722
 31
0.0
  0
LINE
  5
198
330
173
100
AcDbEntity
  8
0
  6
Continuous
 62
     0
100
AcDbLine
 10
5318.91748
 20
865.843994
 30
0.0
 11
5335.844727
 21
882.771606
 31
0.0
  0
LINE
  5
199
330
173
100
AcDbEntity
  8
0
  6
Continuous
 62
     0
100
AcDbLine
 10
5335.990234
 20
882.248779
 30
0.0
 11
5319.585449
 21
865.843994
 31
0.0
  0
LINE
  5
19A
330
173
100
AcDbEntity
  8
0
  6
Continuous
 62
     0
100
AcDbLine
 10
5308.02002
 20
854.278442
 30
0.0
 11
5306.441406
 21
852.699951
 31
0.0
  0
LINE
  5
19B
330
173
100
AcDbEntity
  8
0
  6
Continuous
 62
     0
100
AcDbLine
 10
5307.109863
 20
852.699951
 30
0.0
 11
5307.876953
 21
853.467224
 31
0.0
  0
LINE
  5
19C
330
173
100
AcDbEntity
  8
0
  6
Continuous
 62
     0
100
AcDbLine
 10
5320.253906
 20
865.843994
 30
0.0
 11
5336.116699
 21
881.707153
 31
0.0
  0
LINE
  5
19D
330
173
100
AcDbEntity
  8
0
  6
Continuous
 62
     0
100
AcDbLine
 10
5336.223145
 20
881.145081
 30
0.0
 11
5320.921875
 21
865.843994
 31
0.0
  0
LINE
  5
19E
330
173
100
AcDbEntity
  8
0
  6
Continuous
 62
     0
100
AcDbLine
 10
5321.590332
 20
865.843994
 30
0.0
 11
5336.306641
 21
880.560669
 31
0.0
  0
LINE
  5
19F
330
173
100
AcDbEntity
  8
0
  6
Continuous
 62
     0
100
AcDbLine
 10
5336.365723
 20
879.951477
 30
0.0
 11
5322.258301
 21
865.843994
 31
0.0
  0
LINE
  5
1A0
330
173
100
AcDbEntity
  8
0
  6
Continuous
 62
     0
100
AcDbLine
 10
5322.926758
 20
865.843994
 30
0.0
 11
5336.396973
 21
879.314575
 31
0.0
  0
LINE
  5
1A1
330
173
100
AcDbEntity
  8
0
  6
Continuous
 62
     0
100
AcDbLine
 10
5336.396973
 20
878.645935
 30
0.0
 11
5323.599121
 21
865.84845
 31
0.0
  0
LINE
  5
1A2
330
173
100
AcDbEntity
  8
0
  6
Continuous
 62
     0
100
AcDbLine
 10
5324.304688
 20
865.885803
 30
0.0
 11
5336.359375
 21
877.940369
 31
0.0
  0
LINE
  5
1A3
330
173
100
AcDbEntity
  8
0
  6
Continuous
 62
     0
100
AcDbLine
 10
5336.277832
 20
877.190491
 30
0.0
 11
5325.054688
 21
865.967529
 31
0.0
  0
LINE
  5
1A4
330
173
100
AcDbEntity
  8
0
  6
Continuous
 62
     0
100
AcDbLine
 10
5325.859863
 20
866.104248
 30
0.0
 11
5336.141113
 21
876.385498
 31
0.0
  0
LINE
  5
1A5
330
173
100
AcDbEntity
  8
0
  6
Continuous
 62
     0
100
AcDbLine
 10
5335.932129
 20
875.508667
 30
0.0
 11
5326.736328
 21
866.312866
 31
0.0
  0
LINE
  5
1A6
330
173
100
AcDbEntity
  8
0
  6
Continuous
 62
     0
100
AcDbLine
 10
5327.714844
 20
866.622986
 30
0.0
 11
5335.62207
 21
874.530334
 31
0.0
  0
LINE
  5
1A7
330
173
100
AcDbEntity
  8
0
  6
Continuous
 62
     0
100
AcDbLine
 10
5335.148926
 20
873.388855
 30
0.0
 11
5328.856445
 21
867.096252
 31
0.0
  0
LINE
  5
1A8
330
173
100
AcDbEntity
  8
0
  6
Continuous
 62
     0
100
AcDbLine
 10
5330.351074
 20
867.922546
 30
0.0
 11
5334.322754
 21
871.894348
 31
0.0
  0
LINE
  5
1A9
330
173
100
AcDbEntity
  8
0
  6
Continuous
 62
     0
100
AcDbLine
 10
5331.185547
 20
889.471802
 30
0.0
 11
5322.757324
 21
881.043823
 31
0.0
  0
LINE
  5
1AA
330
173
100
AcDbEntity
  8
0
  6
Continuous
 62
     0
100
AcDbLine
 10
5315.443848
 20
873.730408
 30
0.0
 11
5294.637207
 21
852.923401
 31
0.0
  0
LINE
  5
1AB
330
173
100
AcDbEntity
  8
0
  6
Continuous
 62
     0
100
AcDbLine
 10
5294.780273
 20
853.734619
 30
0.0
 11
5314.775879
 21
873.730408
 31
0.0
  0
LINE
  5
1AC
330
173
100
AcDbEntity
  8
0
  6
Continuous
 62
     0
100
AcDbLine
 10
5322.540039
 20
881.494629
 30
0.0
 11
5330.798828
 21
889.753296
 31
0.0
  0
LINE
  5
1AD
330
173
100
AcDbEntity
  8
0
  6
Continuous
 62
     0
100
AcDbLine
 10
5330.399414
 20
890.022217
 30
0.0
 11
5322.288574
 21
881.911255
 31
0.0
  0
LINE
  5
1AE
330
173
100
AcDbEntity
  8
0
  6
Continuous
 62
     0
100
AcDbLine
 10
5314.107422
 20
873.730408
 30
0.0
 11
5294.922852
 21
854.545898
 31
0.0
  0
LINE
  5
1AF
330
173
100
AcDbEntity
  8
0
  6
Continuous
 62
     0
100
AcDbLine
 10
5295.065918
 20
855.357178
 30
0.0
 11
5313.439453
 21
873.730408
 31
0.0
  0
LINE
  5
1B0
330
173
100
AcDbEntity
  8
0
  6
Continuous
 62
     0
100
AcDbLine
 10
5322.004883
 20
882.296021
 30
0.0
 11
5329.987305
 21
890.27832
 31
0.0
  0
LINE
  5
1B1
330
173
100
AcDbEntity
  8
0
  6
Continuous
 62
     0
100
AcDbLine
 10
5329.562012
 20
890.52124
 30
0.0
 11
5321.690918
 21
882.650146
 31
0.0
  0
LINE
  5
1B2
330
173
100
AcDbEntity
  8
0
  6
Continuous
 62
     0
100
AcDbLine
 10
5312.770996
 20
873.730408
 30
0.0
 11
5295.208984
 21
856.168457
 31
0.0
  0
LINE
  5
1B3
330
173
100
AcDbEntity
  8
0
  6
Continuous
 62
     0
100
AcDbLine
 10
5295.352051
 20
856.979675
 30
0.0
 11
5312.103027
 21
873.730408
 31
0.0
  0
LINE
  5
1B4
330
173
100
AcDbEntity
  8
0
  6
Continuous
 62
     0
100
AcDbLine
 10
5321.34668
 20
882.974182
 30
0.0
 11
5329.123047
 21
890.750549
 31
0.0
  0
LINE
  5
1B5
330
173
100
AcDbEntity
  8
0
  6
Continuous
 62
     0
100
AcDbLine
 10
5328.669922
 20
890.965759
 30
0.0
 11
5320.972168
 21
883.267883
 31
0.0
  0
LINE
  5
1B6
330
173
100
AcDbEntity
  8
0
  6
Continuous
 62
     0
100
AcDbLine
 10
5311.453125
 20
873.748779
 30
0.0
 11
5295.495117
 21
857.790955
 31
0.0
  0
LINE
  5
1B7
330
173
100
AcDbEntity
  8
0
  6
Continuous
 62
     0
100
AcDbLine
 10
5295.638184
 20
858.602234
 30
0.0
 11
5311.596191
 21
874.560059
 31
0.0
  0
LINE
  5
1B8
330
173
100
AcDbEntity
  8
0
  6
Continuous
 62
     0
100
AcDbLine
 10
5320.566406
 20
883.530212
 30
0.0
 11
5328.202637
 21
891.166321
 31
0.0
  0
LINE
  5
1B9
330
173
100
AcDbEntity
  8
0
  6
Continuous
 62
     0
100
AcDbLine
 10
5327.719238
 20
891.351501
 30
0.0
 11
5320.126953
 21
883.759216
 31
0.0
  0
LINE
  5
1BA
330
173
100
AcDbEntity
  8
0
  6
Continuous
 62
     0
100
AcDbLine
 10
5311.739258
 20
875.371338
 30
0.0
 11
5295.78125
 21
859.413452
 31
0.0
  0
LINE
  5
1BB
330
173
100
AcDbEntity
  8
0
  6
Continuous
 62
     0
100
AcDbLine
 10
5295.924316
 20
860.224731
 30
0.0
 11
5311.882324
 21
876.182617
 31
0.0
  0
LINE
  5
1BC
330
173
100
AcDbEntity
  8
0
  6
Continuous
 62
     0
100
AcDbLine
 10
5319.651367
 20
883.951843
 30
0.0
 11
5327.220215
 21
891.520447
 31
0.0
  0
LINE
  5
1BD
330
173
100
AcDbEntity
  8
0
  6
Continuous
 62
     0
100
AcDbLine
 10
5326.703613
 20
891.67218
 30
0.0
 11
5319.134766
 21
884.103088
 31
0.0
  0
LINE
  5
1BE
330
173
100
AcDbEntity
  8
0
  6
Continuous
 62
     0
100
AcDbLine
 10
5312.025391
 20
876.993835
 30
0.0
 11
5296.067383
 21
861.036011
 31
0.0
  0
LINE
  5
1BF
330
173
100
AcDbEntity
  8
0
  6
Continuous
 62
     0
100
AcDbLine
 10
5296.210449
 20
861.84729
 30
0.0
 11
5312.168457
 21
877.805115
 31
0.0
  0
LINE
  5
1C0
330
173
100
AcDbEntity
  8
0
  6
Continuous
 62
     0
100
AcDbLine
 10
5318.568359
 20
884.205322
 30
0.0
 11
5326.168945
 21
891.805542
 31
0.0
  0
LINE
  5
1C1
330
173
100
AcDbEntity
  8
0
  6
Continuous
 62
     0
100
AcDbLine
 10
5325.614258
 20
891.919067
 30
0.0
 11
5317.94043
 21
884.245605
 31
0.0
  0
LINE
  5
1C2
330
173
100
AcDbEntity
  8
0
  6
Continuous
 62
     0
100
AcDbLine
 10
5312.311523
 20
878.616394
 30
0.0
 11
5296.353516
 21
862.658569
 31
0.0
  0
LINE
  5
1C3
330
173
100
AcDbEntity
  8
0
  6
Continuous
 62
     0
100
AcDbLine
 10
5296.496582
 20
863.469788
 30
0.0
 11
5312.45459
 21
879.427612
 31
0.0
  0
LINE
  5
1C4
330
173
100
AcDbEntity
  8
0
  6
Continuous
 62
     0
100
AcDbLine
 10
5317.272461
 20
884.245667
 30
0.0
 11
5325.037598
 21
892.010925
 31
0.0
  0
LINE
  5
1C5
330
173
100
AcDbEntity
  8
0
  6
Continuous
 62
     0
100
AcDbLine
 10
5324.4375
 20
892.078979
 30
0.0
 11
5316.604492
 21
884.245667
 31
0.0
  0
LINE
  5
1C6
330
173
100
AcDbEntity
  8
0
  6
Continuous
 62
     0
100
AcDbLine
 10
5312.597656
 20
880.238892
 30
0.0
 11
5296.639648
 21
864.281067
 31
0.0
  0
LINE
  5
1C7
330
173
100
AcDbEntity
  8
0
  6
Continuous
 62
     0
100
AcDbLine
 10
5296.782715
 20
865.092346
 30
0.0
 11
5312.740723
 21
881.050171
 31
0.0
  0
LINE
  5
1C8
330
173
100
AcDbEntity
  8
0
  6
Continuous
 62
     0
100
AcDbLine
 10
5315.936035
 20
884.245667
 30
0.0
 11
5323.811035
 21
892.120422
 31
0.0
  0
LINE
  5
1C9
330
173
100
AcDbEntity
  8
0
  6
Continuous
 62
     0
100
AcDbLine
 10
5323.154297
 20
892.13208
 30
0.0
 11
5315.268066
 21
884.245667
 31
0.0
  0
LINE
  5
1CA
330
173
100
AcDbEntity
  8
0
  6
Continuous
 62
     0
100
AcDbLine
 10
5312.883789
 20
881.86145
 30
0.0
 11
5296.925781
 21
865.903564
 31
0.0
  0
LINE
  5
1CB
330
173
100
AcDbEntity
  8
0
  6
Continuous
 62
     0
100
AcDbLine
 10
5297.068848
 20
866.714844
 30
0.0
 11
5313.026855
 21
882.672729
 31
0.0
  0
LINE
  5
1CC
330
173
100
AcDbEntity
  8
0
  6
Continuous
 62
     0
100
AcDbLine
 10
5314.599609
 20
884.245667
 30
0.0
 11
5322.48584
 21
892.13208
 31
0.0
  0
LINE
  5
1CD
330
173
100
AcDbEntity
  8
0
  6
Continuous
 62
     0
100
AcDbLine
 10
5321.817871
 20
892.13208
 30
0.0
 11
5313.931641
 21
884.245667
 31
0.0
  0
LINE
  5
1CE
330
173
100
AcDbEntity
  8
0
  6
Continuous
 62
     0
100
AcDbLine
 10
5313.169922
 20
883.483948
 30
0.0
 11
5297.211914
 21
867.526123
 31
0.0
  0
LINE
  5
1CF
330
173
100
AcDbEntity
  8
0
  6
Continuous
 62
     0
100
AcDbLine
 10
5297.35498
 20
868.337402
 30
0.0
 11
5321.149414
 21
892.13208
 31
0.0
  0
LINE
  5
1D0
330
173
100
AcDbEntity
  8
0
  6
Continuous
 62
     0
100
AcDbLine
 10
5320.481445
 20
892.13208
 30
0.0
 11
5297.498047
 21
869.148621
 31
0.0
  0
LINE
  5
1D1
330
173
100
AcDbEntity
  8
0
  6
Continuous
 62
     0
100
AcDbLine
 10
5297.641113
 20
869.9599
 30
0.0
 11
5319.812988
 21
892.13208
 31
0.0
  0
LINE
  5
1D2
330
173
100
AcDbEntity
  8
0
  6
Continuous
 62
     0
100
AcDbLine
 10
5319.14502
 20
892.13208
 30
0.0
 11
5297.78418
 21
870.771179
 31
0.0
  0
LINE
  5
1D3
330
173
100
AcDbEntity
  8
0
  6
Continuous
 62
     0
100
AcDbLine
 10
5297.927246
 20
871.582458
 30
0.0
 11
5318.476562
 21
892.13208
 31
0.0
  0
LINE
  5
1D4
330
173
100
AcDbEntity
  8
0
  6
Continuous
 62
     0
100
AcDbLine
 10
5317.808594
 20
892.13208
 30
0.0
 11
5298.070312
 21
872.393677
 31
0.0
  0
LINE
  5
1D5
330
173
100
AcDbEntity
  8
0
  6
Continuous
 62
     0
100
AcDbLine
 10
5298.213379
 20
873.204956
 30
0.0
 11
5317.140137
 21
892.13208
 31
0.0
  0
LINE
  5
1D6
330
173
100
AcDbEntity
  8
0
  6
Continuous
 62
     0
100
AcDbLine
 10
5316.472168
 20
892.13208
 30
0.0
 11
5298.356445
 21
874.016235
 31
0.0
  0
LINE
  5
1D7
330
173
100
AcDbEntity
  8
0
  6
Continuous
 62
     0
100
AcDbLine
 10
5298.499512
 20
874.827515
 30
0.0
 11
5315.803711
 21
892.13208
 31
0.0
  0
LINE
  5
1D8
330
173
100
AcDbEntity
  8
0
  6
Continuous
 62
     0
100
AcDbLine
 10
5315.135742
 20
892.13208
 30
0.0
 11
5298.642578
 21
875.638733
 31
0.0
  0
LINE
  5
1D9
330
173
100
AcDbEntity
  8
0
  6
Continuous
 62
     0
100
AcDbLine
 10
5298.785156
 20
876.450012
 30
0.0
 11
5314.467285
 21
892.13208
 31
0.0
  0
LINE
  5
1DA
330
173
100
AcDbEntity
  8
0
  6
Continuous
 62
     0
100
AcDbLine
 10
5313.799316
 20
892.13208
 30
0.0
 11
5298.928223
 21
877.261292
 31
0.0
  0
LINE
  5
1DB
330
173
100
AcDbEntity
  8
0
  6
Continuous
 62
     0
100
AcDbLine
 10
5299.071289
 20
878.072571
 30
0.0
 11
5313.130859
 21
892.13208
 31
0.0
  0
LINE
  5
1DC
330
173
100
AcDbEntity
  8
0
  6
Continuous
 62
     0
100
AcDbLine
 10
5312.462891
 20
892.13208
 30
0.0
 11
5299.214355
 21
878.883789
 31
0.0
  0
LINE
  5
1DD
330
173
100
AcDbEntity
  8
0
  6
Continuous
 62
     0
100
AcDbLine
 10
5299.357422
 20
879.695068
 30
0.0
 11
5311.794434
 21
892.13208
 31
0.0
  0
LINE
  5
1DE
330
173
100
AcDbEntity
  8
0
  6
Continuous
 62
     0
100
AcDbLine
 10
5311.126465
 20
892.13208
 30
0.0
 11
5299.500488
 21
880.506348
 31
0.0
  0
LINE
  5
1DF
330
173
100
AcDbEntity
  8
0
  6
Continuous
 62
     0
100
AcDbLine
 10
5299.643555
 20
881.317627
 30
0.0
 11
5310.458008
 21
892.13208
 31
0.0
  0
LINE
  5
1E0
330
173
100
AcDbEntity
  8
0
  6
Continuous
 62
     0
100
AcDbLine
 10
5309.790039
 20
892.13208
 30
0.0
 11
5299.786621
 21
882.128845
 31
0.0
  0
LINE
  5
1E1
330
173
100
AcDbEntity
  8
0
  6
Continuous
 62
     0
100
AcDbLine
 10
5299.929688
 20
882.940125
 30
0.0
 11
5309.121582
 21
892.13208
 31
0.0
  0
LINE
  5
1E2
330
173
100
AcDbEntity
  8
0
  6
Continuous
 62
     0
100
AcDbLine
 10
5308.453613
 20
892.13208
 30
0.0
 11
5300.072754
 21
883.751404
 31
0.0
  0
LINE
  5
1E3
330
173
100
AcDbEntity
  8
0
  6
Continuous
 62
     0
100
AcDbLine
 10
5300.21582
 20
884.562622
 30
0.0
 11
5307.785156
 21
892.13208
 31
0.0
  0
LINE
  5
1E4
330
173
100
AcDbEntity
  8
0
  6
Continuous
 62
     0
100
AcDbLine
 10
5307.117188
 20
892.13208
 30
0.0
 11
5300.358887
 21
885.373901
 31
0.0
  0
LINE
  5
1E5
330
173
100
AcDbEntity
  8
0
  6
Continuous
 62
     0
100
AcDbLine
 10
5300.501953
 20
886.185181
 30
0.0
 11
5306.44873
 21
892.13208
 31
0.0
  0
LINE
  5
1E6
330
173
100
AcDbEntity
  8
0
  6
Continuous
 62
     0
100
AcDbLine
 10
5305.780762
 20
892.13208
 30
0.0
 11
5300.64502
 21
886.99646
 31
0.0
  0
LINE
  5
1E7
330
173
100
AcDbEntity
  8
0
  6
Continuous
 62
     0
100
AcDbLine
 10
5300.788086
 20
887.807739
 30
0.0
 11
5305.112305
 21
892.13208
 31
0.0
  0
LINE
  5
1E8
330
173
100
AcDbEntity
  8
0
  6
Continuous
 62
     0
100
AcDbLine
 10
5304.444336
 20
892.13208
 30
0.0
 11
5300.931152
 21
888.618958
 31
0.0
  0
LINE
  5
1E9
330
173
100
AcDbEntity
  8
0
  6
Continuous
 62
     0
100
AcDbLine
 10
5301.074219
 20
889.430237
 30
0.0
 11
5303.775879
 21
892.13208
 31
0.0
  0
LINE
  5
1EA
330
173
100
AcDbEntity
  8
0
  6
Continuous
 62
     0
100
AcDbLine
 10
5303.10791
 20
892.13208
 30
0.0
 11
5301.217285
 21
890.241516
 31
0.0
  0
LINE
  5
1EB
330
173
100
AcDbEntity
  8
0
  6
Continuous
 62
     0
100
AcDbLine
 10
5301.360352
 20
891.052734
 30
0.0
 11
5302.439453
 21
892.13208
 31
0.0
  0
LINE
  5
1EC
330
173
100
AcDbEntity
  8
0
  6
Continuous
 62
     0
100
AcDbLine
 10
5301.771484
 20
892.13208
 30
0.0
 11
5301.503418
 21
891.864014
 31
0.0
  0
ENDBLK
  5
1EE
330
173
100
AcDbEntity
  8
0
100
AcDbBlockEnd
  0
BLOCK
  5
208
330
1F0
100
AcDbEntity
  8
0
100
AcDbBlockBegin
  2
.TD_XHATCH_2
 70
     0
 10
10733.106446
 20
1710.659058
 30
0.0
  3
.TD_XHATCH_2
  1

  0
LINE
  5
1F1
330
1F0
100
AcDbEntity
  8
0
  6
Continuous
 62
     0
100
AcDbLine
 10
5368.428223
 20
856.552124
 30
0.0
 11
5375.813477
 21
863.937317
 31
0.0
  0
LINE
  5
1F2
330
1F0
100
AcDbEntity
  8
0
  6
Continuous
 62
     0
100
AcDbLine
 10
5376.102539
 20
863.558228
 30
0.0
 11
5368.807617
 21
856.263
 31
0.0
  0
LINE
  5
1F3
330
1F0
100
AcDbEntity
  8
0
  6
Continuous
 62
     0
100
AcDbLine
 10
5369.218262
 20
856.005493
 30
0.0
 11
5376.360352
 21
863.147522
 31
0.0
  0
LINE
  5
1F4
330
1F0
100
AcDbEntity
  8
0
  6
Continuous
 62
     0
100
AcDbLine
 10
5376.583984
 20
862.703003
 30
0.0
 11
5369.662598
 21
855.781799
 31
0.0
  0
LINE
  5
1F5
330
1F0
100
AcDbEntity
  8
0
  6
Continuous
 62
     0
100
AcDbLine
 10
5370.144531
 20
855.595215
 30
0.0
 11
5376.770508
 21
862.221375
 31
0.0
  0
LINE
  5
1F6
330
1F0
100
AcDbEntity
  8
0
  6
Continuous
 62
     0
100
AcDbLine
 10
5376.914551
 20
861.697266
 30
0.0
 11
5370.668457
 21
855.451111
 31
0.0
  0
LINE
  5
1F7
330
1F0
100
AcDbEntity
  8
0
  6
Continuous
 62
     0
100
AcDbLine
 10
5371.243164
 20
855.357788
 30
0.0
 11
5377.007812
 21
861.122314
 31
0.0
  0
LINE
  5
1F8
330
1F0
100
AcDbEntity
  8
0
  6
Continuous
 62
     0
100
AcDbLine
 10
5377.036133
 20
860.482422
 30
0.0
 11
5371.883301
 21
855.329529
 31
0.0
  0
LINE
  5
1F9
330
1F0
100
AcDbEntity
  8
0
  6
Continuous
 62
     0
100
AcDbLine
 10
5372.615234
 20
855.393433
 30
0.0
 11
5376.972168
 21
859.750244
 31
0.0
  0
LINE
  5
1FA
330
1F0
100
AcDbEntity
  8
0
  6
Continuous
 62
     0
100
AcDbLine
 10
5376.749512
 20
858.859375
 30
0.0
 11
5373.506348
 21
855.61615
 31
0.0
  0
LINE
  5
1FB
330
1F0
100
AcDbEntity
  8
0
  6
Continuous
 62
     0
100
AcDbLine
 10
5374.92334
 20
856.364685
 30
0.0
 11
5376.000977
 21
857.442627
 31
0.0
  0
LINE
  5
1FC
330
1F0
100
AcDbEntity
  8
0
  6
Continuous
 62
     0
100
AcDbLine
 10
5375.493652
 20
864.285828
 30
0.0
 11
5368.080078
 21
856.871887
 31
0.0
  0
LINE
  5
1FD
330
1F0
100
AcDbEntity
  8
0
  6
Continuous
 62
     0
100
AcDbLine
 10
5367.761719
 20
857.221741
 30
0.0
 11
5375.144043
 21
864.604126
 31
0.0
  0
LINE
  5
1FE
330
1F0
100
AcDbEntity
  8
0
  6
Continuous
 62
     0
100
AcDbLine
 10
5374.763672
 20
864.891907
 30
0.0
 11
5367.473633
 21
857.602173
 31
0.0
  0
LINE
  5
1FF
330
1F0
100
AcDbEntity
  8
0
  6
Continuous
 62
     0
100
AcDbLine
 10
5367.217773
 20
858.014404
 30
0.0
 11
5374.351562
 21
865.147949
 31
0.0
  0
LINE
  5
200
330
1F0
100
AcDbEntity
  8
0
  6
Continuous
 62
     0
100
AcDbLine
 10
5373.905273
 20
865.369995
 30
0.0
 11
5366.995605
 21
858.46051
 31
0.0
  0
LINE
  5
201
330
1F0
100
AcDbEntity
  8
0
  6
Continuous
 62
     0
100
AcDbLine
 10
5366.811035
 20
858.94397
 30
0.0
 11
5373.421875
 21
865.554749
 31
0.0
  0
LINE
  5
202
330
1F0
100
AcDbEntity
  8
0
  6
Continuous
 62
     0
100
AcDbLine
 10
5372.895508
 20
865.696777
 30
0.0
 11
5366.668945
 21
859.470215
 31
0.0
  0
LINE
  5
203
330
1F0
100
AcDbEntity
  8
0
  6
Continuous
 62
     0
100
AcDbLine
 10
5366.578125
 20
860.047668
 30
0.0
 11
5372.317871
 21
865.787476
 31
0.0
  0
LINE
  5
204
330
1F0
100
AcDbEntity
  8
0
  6
Continuous
 62
     0
100
AcDbLine
 10
5371.674805
 20
865.812317
 30
0.0
 11
5366.553223
 21
860.69104
 31
0.0
  0
LINE
  5
205
330
1F0
100
AcDbEntity
  8
0
  6
Continuous
 62
     0
100
AcDbLine
 10
5366.622559
 20
861.428467
 30
0.0
 11
5370.9375
 21
865.743164
 31
0.0
  0
LINE
  5
206
330
1F0
100
AcDbEntity
  8
0
  6
Continuous
 62
     0
100
AcDbLine
 10
5370.035645
 20
865.509888
 30
0.0
 11
5366.855957
 21
862.329956
 31
0.0
  0
LINE
  5
207
330
1F0
100
AcDbEntity
  8
0
  6
Continuous
 62
     0
100
AcDbLine
 10
5367.688965
 20
863.831177
 30
0.0
 11
5368.534668
 21
864.67688
 31
0.0
  0
ENDBLK
  5
209
330
1F0
100
AcDbEntity
  8
0
100
AcDbBlockEnd
  0
BLOCK
  5
33E
330
20B
100
AcDbEntity
  8
0
100
AcDbBlockBegin
  2
.TD_XHATCH_3
 70
     0
 10
10663.995118
 20
1705.399902
 30
0.0
  3
.TD_XHATCH_3
  1

  0
LINE
  5
20C
330
20B
100
AcDbEntity
  8
0
  6
Continuous
 62
     0
100
AcDbLine
 10
5332.501953
 20
852.699951
 30
0.0
 11
5348.058594
 21
868.256592
 31
0.0
  0
LINE
  5
20D
330
20B
100
AcDbEntity
  8
0
  6
Continuous
 62
     0
100
AcDbLine
 10
5369.294922
 20
889.493103
 30
0.0
 11
5371.934082
 21
892.13208
 31
0.0
  0
LINE
  5
20E
330
20B
100
AcDbEntity
  8
0
  6
Continuous
 62
     0
100
AcDbLine
 10
5372.602051
 20
892.13208
 30
0.0
 11
5368.382324
 21
887.912109
 31
0.0
  0
LINE
  5
20F
330
20B
100
AcDbEntity
  8
0
  6
Continuous
 62
     0
100
AcDbLine
 10
5347.915527
 20
867.445374
 30
0.0
 11
5333.169922
 21
852.699951
 31
0.0
  0
LINE
  5
210
330
20B
100
AcDbEntity
  8
0
  6
Continuous
 62
     0
100
AcDbLine
 10
5333.838379
 20
852.699951
 30
0.0
 11
5347.772461
 21
866.634094
 31
0.0
  0
LINE
  5
211
330
20B
100
AcDbEntity
  8
0
  6
Continuous
 62
     0
100
AcDbLine
 10
5367.469238
 20
886.331055
 30
0.0
 11
5373.270508
 21
892.13208
 31
0.0
  0
LINE
  5
212
330
20B
100
AcDbEntity
  8
0
  6
Continuous
 62
     0
100
AcDbLine
 10
5373.938477
 20
892.13208
 30
0.0
 11
5366.556641
 21
884.750061
 31
0.0
  0
LINE
  5
213
330
20B
100
AcDbEntity
  8
0
  6
Continuous
 62
     0
100
AcDbLine
 10
5347.650391
 20
865.843994
 30
0.0
 11
5334.506348
 21
852.699951
 31
0.0
  0
LINE
  5
214
330
20B
100
AcDbEntity
  8
0
  6
Continuous
 62
     0
100
AcDbLine
 10
5335.174805
 20
852.699951
 30
0.0
 11
5348.318848
 21
865.843994
 31
0.0
  0
LINE
  5
215
330
20B
100
AcDbEntity
  8
0
  6
Continuous
 62
     0
100
AcDbLine
 10
5365.644043
 20
883.169067
 30
0.0
 11
5374.606934
 21
892.13208
 31
0.0
  0
LINE
  5
216
330
20B
100
AcDbEntity
  8
0
  6
Continuous
 62
     0
100
AcDbLine
 10
5375.274902
 20
892.13208
 30
0.0
 11
5364.730957
 21
881.588013
 31
0.0
  0
LINE
  5
217
330
20B
100
AcDbEntity
  8
0
  6
Continuous
 62
     0
100
AcDbLine
 10
5348.986816
 20
865.843994
 30
0.0
 11
5335.842773
 21
852.699951
 31
0.0
  0
LINE
  5
218
330
20B
100
AcDbEntity
  8
0
  6
Continuous
 62
     0
100
AcDbLine
 10
5336.51123
 20
852.699951
 30
0.0
 11
5349.655273
 21
865.843994
 31
0.0
  0
LINE
  5
219
330
20B
100
AcDbEntity
  8
0
  6
Continuous
 62
     0
100
AcDbLine
 10
5363.818359
 20
880.007019
 30
0.0
 11
5375.943359
 21
892.13208
 31
0.0
  0
LINE
  5
21A
330
20B
100
AcDbEntity
  8
0
  6
Continuous
 62
     0
100
AcDbLine
 10
5376.611328
 20
892.13208
 30
0.0
 11
5362.905273
 21
878.426025
 31
0.0
  0
LINE
  5
21B
330
20B
100
AcDbEntity
  8
0
  6
Continuous
 62
     0
100
AcDbLine
 10
5350.323242
 20
865.843994
 30
0.0
 11
5337.179199
 21
852.699951
 31
0.0
  0
LINE
  5
21C
330
20B
100
AcDbEntity
  8
0
  6
Continuous
 62
     0
100
AcDbLine
 10
5337.847656
 20
852.699951
 30
0.0
 11
5350.991699
 21
865.843994
 31
0.0
  0
LINE
  5
21D
330
20B
100
AcDbEntity
  8
0
  6
Continuous
 62
     0
100
AcDbLine
 10
5361.992676
 20
876.844971
 30
0.0
 11
5377.279785
 21
892.13208
 31
0.0
  0
LINE
  5
21E
330
20B
100
AcDbEntity
  8
0
  6
Continuous
 62
     0
100
AcDbLine
 10
5377.947754
 20
892.13208
 30
0.0
 11
5361.080078
 21
875.263977
 31
0.0
  0
LINE
  5
21F
330
20B
100
AcDbEntity
  8
0
  6
Continuous
 62
     0
100
AcDbLine
 10
5351.659668
 20
865.843994
 30
0.0
 11
5338.515625
 21
852.699951
 31
0.0
  0
LINE
  5
220
330
20B
100
AcDbEntity
  8
0
  6
Continuous
 62
     0
100
AcDbLine
 10
5339.184082
 20
852.699951
 30
0.0
 11
5352.328125
 21
865.843994
 31
0.0
  0
LINE
  5
221
330
20B
100
AcDbEntity
  8
0
  6
Continuous
 62
     0
100
AcDbLine
 10
5360.166992
 20
873.682983
 30
0.0
 11
5378.616211
 21
892.13208
 31
0.0
  0
LINE
  5
222
330
20B
100
AcDbEntity
  8
0
  6
Continuous
 62
     0
100
AcDbLine
 10
5379.28418
 20
892.13208
 30
0.0
 11
5359.254395
 21
872.101929
 31
0.0
  0
LINE
  5
223
330
20B
100
AcDbEntity
  8
0
  6
Continuous
 62
     0
100
AcDbLine
 10
5352.996094
 20
865.843994
 30
0.0
 11
5339.852051
 21
852.699951
 31
0.0
  0
LINE
  5
224
330
20B
100
AcDbEntity
  8
0
  6
Continuous
 62
     0
100
AcDbLine
 10
5340.520508
 20
852.699951
 30
0.0
 11
5353.664551
 21
865.843994
 31
0.0
  0
LINE
  5
225
330
20B
100
AcDbEntity
  8
0
  6
Continuous
 62
     0
100
AcDbLine
 10
5358.341309
 20
870.520935
 30
0.0
 11
5379.952637
 21
892.13208
 31
0.0
  0
LINE
  5
226
330
20B
100
AcDbEntity
  8
0
  6
Continuous
 62
     0
100
AcDbLine
 10
5380.620605
 20
892.13208
 30
0.0
 11
5357.428711
 21
868.93988
 31
0.0
  0
LINE
  5
227
330
20B
100
AcDbEntity
  8
0
  6
Continuous
 62
     0
100
AcDbLine
 10
5354.33252
 20
865.843994
 30
0.0
 11
5341.188477
 21
852.699951
 31
0.0
  0
LINE
  5
228
330
20B
100
AcDbEntity
  8
0
  6
Continuous
 62
     0
100
AcDbLine
 10
5341.856934
 20
852.699951
 30
0.0
 11
5355.000977
 21
865.843994
 31
0.0
  0
LINE
  5
229
330
20B
100
AcDbEntity
  8
0
  6
Continuous
 62
     0
100
AcDbLine
 10
5356.515625
 20
867.358887
 30
0.0
 11
5381.289062
 21
892.13208
 31
0.0
  0
LINE
  5
22A
330
20B
100
AcDbEntity
  8
0
  6
Continuous
 62
     0
100
AcDbLine
 10
5381.957031
 20
892.13208
 30
0.0
 11
5342.524902
 21
852.699951
 31
0.0
  0
LINE
  5
22B
330
20B
100
AcDbEntity
  8
0
  6
Continuous
 62
     0
100
AcDbLine
 10
5343.193359
 20
852.699951
 30
0.0
 11
5382.625488
 21
892.13208
 31
0.0
  0
LINE
  5
22C
330
20B
100
AcDbEntity
  8
0
  6
Continuous
 62
     0
100
AcDbLine
 10
5383.293457
 20
892.13208
 30
0.0
 11
5343.861328
 21
852.699951
 31
0.0
  0
LINE
  5
22D
330
20B
100
AcDbEntity
  8
0
  6
Continuous
 62
     0
100
AcDbLine
 10
5344.529785
 20
852.699951
 30
0.0
 11
5383.961914
 21
892.13208
 31
0.0
  0
LINE
  5
22E
330
20B
100
AcDbEntity
  8
0
  6
Continuous
 62
     0
100
AcDbLine
 10
5384.0625
 20
891.564697
 30
0.0
 11
5345.197754
 21
852.699951
 31
0.0
  0
LINE
  5
22F
330
20B
100
AcDbEntity
  8
0
  6
Continuous
 62
     0
100
AcDbLine
 10
5345.866211
 20
852.699951
 30
0.0
 11
5384.163086
 21
890.996643
 31
0.0
  0
LINE
  5
230
330
20B
100
AcDbEntity
  8
0
  6
Continuous
 62
     0
100
AcDbLine
 10
5384.263184
 20
890.428589
 30
0.0
 11
5346.53418
 21
852.699951
 31
0.0
  0
LINE
  5
231
330
20B
100
AcDbEntity
  8
0
  6
Continuous
 62
     0
100
AcDbLine
 10
5347.202637
 20
852.699951
 30
0.0
 11
5384.363281
 21
889.860596
 31
0.0
  0
LINE
  5
232
330
20B
100
AcDbEntity
  8
0
  6
Continuous
 62
     0
100
AcDbLine
 10
5384.463379
 20
889.29248
 30
0.0
 11
5347.871094
 21
852.699951
 31
0.0
  0
LINE
  5
233
330
20B
100
AcDbEntity
  8
0
  6
Continuous
 62
     0
100
AcDbLine
 10
5348.539062
 20
852.699951
 30
0.0
 11
5384.563477
 21
888.724487
 31
0.0
  0
LINE
  5
234
330
20B
100
AcDbEntity
  8
0
  6
Continuous
 62
     0
100
AcDbLine
 10
5384.663574
 20
888.156372
 30
0.0
 11
5349.20752
 21
852.699951
 31
0.0
  0
LINE
  5
235
330
20B
100
AcDbEntity
  8
0
  6
Continuous
 62
     0
100
AcDbLine
 10
5349.875488
 20
852.699951
 30
0.0
 11
5384.763672
 21
887.588379
 31
0.0
  0
LINE
  5
236
330
20B
100
AcDbEntity
  8
0
  6
Continuous
 62
     0
100
AcDbLine
 10
5384.864258
 20
887.020264
 30
0.0
 11
5350.543945
 21
852.699951
 31
0.0
  0
LINE
  5
237
330
20B
100
AcDbEntity
  8
0
  6
Continuous
 62
     0
100
AcDbLine
 10
5351.211914
 20
852.699951
 30
0.0
 11
5384.964355
 21
886.452271
 31
0.0
  0
LINE
  5
238
330
20B
100
AcDbEntity
  8
0
  6
Continuous
 62
     0
100
AcDbLine
 10
5385.064453
 20
885.884155
 30
0.0
 11
5374.514648
 21
875.334473
 31
0.0
  0
LINE
  5
239
330
20B
100
AcDbEntity
  8
0
  6
Continuous
 62
     0
100
AcDbLine
 10
5373.922852
 20
874.742798
 30
0.0
 11
5351.880371
 21
852.699951
 31
0.0
  0
LINE
  5
23A
330
20B
100
AcDbEntity
  8
0
  6
Continuous
 62
     0
100
AcDbLine
 10
5352.54834
 20
852.699951
 30
0.0
 11
5373.010254
 21
873.161804
 31
0.0
  0
LINE
  5
23B
330
20B
100
AcDbEntity
  8
0
  6
Continuous
 62
     0
100
AcDbLine
 10
5374.614746
 20
874.766418
 30
0.0
 11
5385.164551
 21
885.316162
 31
0.0
  0
LINE
  5
23C
330
20B
100
AcDbEntity
  8
0
  6
Continuous
 62
     0
100
AcDbLine
 10
5385.264648
 20
884.748047
 30
0.0
 11
5374.714844
 21
874.198364
 31
0.0
  0
LINE
  5
23D
330
20B
100
AcDbEntity
  8
0
  6
Continuous
 62
     0
100
AcDbLine
 10
5372.097168
 20
871.58075
 30
0.0
 11
5353.216797
 21
852.699951
 31
0.0
  0
LINE
  5
23E
330
20B
100
AcDbEntity
  8
0
  6
Continuous
 62
     0
100
AcDbLine
 10
5353.884766
 20
852.699951
 30
0.0
 11
5371.18457
 21
869.999756
 31
0.0
  0
LINE
  5
23F
330
20B
100
AcDbEntity
  8
0
  6
Continuous
 62
     0
100
AcDbLine
 10
5374.814941
 20
873.63031
 30
0.0
 11
5385.364746
 21
884.180054
 31
0.0
  0
LINE
  5
240
330
20B
100
AcDbEntity
  8
0
  6
Continuous
 62
     0
100
AcDbLine
 10
5385.464844
 20
883.612
 30
0.0
 11
5374.915527
 21
873.062256
 31
0.0
  0
LINE
  5
241
330
20B
100
AcDbEntity
  8
0
  6
Continuous
 62
     0
100
AcDbLine
 10
5370.271973
 20
868.418762
 30
0.0
 11
5354.553223
 21
852.699951
 31
0.0
  0
LINE
  5
242
330
20B
100
AcDbEntity
  8
0
  6
Continuous
 62
     0
100
AcDbLine
 10
5355.221191
 20
852.699951
 30
0.0
 11
5369.358887
 21
866.837708
 31
0.0
  0
LINE
  5
243
330
20B
100
AcDbEntity
  8
0
  6
Continuous
 62
     0
100
AcDbLine
 10
5375.015625
 20
872.494263
 30
0.0
 11
5385.56543
 21
883.043945
 31
0.0
  0
LINE
  5
244
330
20B
100
AcDbEntity
  8
0
  6
Continuous
 62
     0
100
AcDbLine
 10
5385.665527
 20
882.475891
 30
0.0
 11
5375.115723
 21
871.926147
 31
0.0
  0
LINE
  5
245
330
20B
100
AcDbEntity
  8
0
  6
Continuous
 62
     0
100
AcDbLine
 10
5368.446289
 20
865.256714
 30
0.0
 11
5355.889648
 21
852.699951
 31
0.0
  0
LINE
  5
246
330
20B
100
AcDbEntity
  8
0
  6
Continuous
 62
     0
100
AcDbLine
 10
5356.557617
 20
852.699951
 30
0.0
 11
5367.533203
 21
863.67572
 31
0.0
  0
LINE
  5
247
330
20B
100
AcDbEntity
  8
0
  6
Continuous
 62
     0
100
AcDbLine
 10
5375.21582
 20
871.358154
 30
0.0
 11
5385.765625
 21
881.907837
 31
0.0
  0
LINE
  5
248
330
20B
100
AcDbEntity
  8
0
  6
Continuous
 62
     0
100
AcDbLine
 10
5385.865723
 20
881.339783
 30
0.0
 11
5375.315918
 21
870.790039
 31
0.0
  0
LINE
  5
249
330
20B
100
AcDbEntity
  8
0
  6
Continuous
 62
     0
100
AcDbLine
 10
5366.620605
 20
862.094666
 30
0.0
 11
5357.226074
 21
852.699951
 31
0.0
  0
LINE
  5
24A
330
20B
100
AcDbEntity
  8
0
  6
Continuous
 62
     0
100
AcDbLine
 10
5357.894043
 20
852.699951
 30
0.0
 11
5365.708008
 21
860.513672
 31
0.0
  0
LINE
  5
24B
330
20B
100
AcDbEntity
  8
0
  6
Continuous
 62
     0
100
AcDbLine
 10
5375.416016
 20
870.222046
 30
0.0
 11
5385.96582
 21
880.771729
 31
0.0
  0
LINE
  5
24C
330
20B
100
AcDbEntity
  8
0
  6
Continuous
 62
     0
100
AcDbLine
 10
5397.994629
 20
892.13208
 30
0.0
 11
5397.841797
 21
891.979309
 31
0.0
  0
LINE
  5
24D
330
20B
100
AcDbEntity
  8
0
  6
Continuous
 62
     0
100
AcDbLine
 10
5386.065918
 20
880.203674
 30
0.0
 11
5375.516113
 21
869.653931
 31
0.0
  0
LINE
  5
24E
330
20B
100
AcDbEntity
  8
0
  6
Continuous
 62
     0
100
AcDbLine
 10
5364.794922
 20
858.932617
 30
0.0
 11
5358.5625
 21
852.699951
 31
0.0
  0
LINE
  5
24F
330
20B
100
AcDbEntity
  8
0
  6
Continuous
 62
     0
100
AcDbLine
 10
5359.230469
 20
852.699951
 30
0.0
 11
5363.882324
 21
857.351624
 31
0.0
  0
LINE
  5
250
330
20B
100
AcDbEntity
  8
0
  6
Continuous
 62
     0
100
AcDbLine
 10
5375.616699
 20
869.085938
 30
0.0
 11
5386.166016
 21
879.63562
 31
0.0
  0
LINE
  5
251
330
20B
100
AcDbEntity
  8
0
  6
Continuous
 62
     0
100
AcDbLine
 10
5397.69873
 20
891.16803
 30
0.0
 11
5398.662598
 21
892.13208
 31
0.0
  0
LINE
  5
252
330
20B
100
AcDbEntity
  8
0
  6
Continuous
 62
     0
100
AcDbLine
 10
5399.331055
 20
892.13208
 30
0.0
 11
5397.555664
 21
890.356812
 31
0.0
  0
LINE
  5
253
330
20B
100
AcDbEntity
  8
0
  6
Continuous
 62
     0
100
AcDbLine
 10
5386.266113
 20
879.067566
 30
0.0
 11
5375.716797
 21
868.517883
 31
0.0
  0
LINE
  5
254
330
20B
100
AcDbEntity
  8
0
  6
Continuous
 62
     0
100
AcDbLine
 10
5362.969238
 20
855.77063
 30
0.0
 11
5359.898926
 21
852.699951
 31
0.0
  0
LINE
  5
255
330
20B
100
AcDbEntity
  8
0
  6
Continuous
 62
     0
100
AcDbLine
 10
5360.566895
 20
852.699951
 30
0.0
 11
5362.056641
 21
854.189575
 31
0.0
  0
LINE
  5
256
330
20B
100
AcDbEntity
  8
0
  6
Continuous
 62
     0
100
AcDbLine
 10
5375.816895
 20
867.949829
 30
0.0
 11
5386.366699
 21
878.499512
 31
0.0
  0
LINE
  5
257
330
20B
100
AcDbEntity
  8
0
  6
Continuous
 62
     0
100
AcDbLine
 10
5397.412598
 20
889.545532
 30
0.0
 11
5399.999023
 21
892.13208
 31
0.0
  0
LINE
  5
258
330
20B
100
AcDbEntity
  8
0
  6
Continuous
 62
     0
100
AcDbLine
 10
5400.66748
 20
892.13208
 30
0.0
 11
5397.269531
 21
888.734253
 31
0.0
  0
LINE
  5
259
330
20B
100
AcDbEntity
  8
0
  6
Continuous
 62
     0
100
AcDbLine
 10
5386.466797
 20
877.931458
 30
0.0
 11
5375.916992
 21
867.381775
 31
0.0
  0
LINE
  5
25A
330
20B
100
AcDbEntity
  8
0
  6
Continuous
 62
     0
100
AcDbLine
 10
5376.01709
 20
866.813721
 30
0.0
 11
5386.566895
 21
877.363403
 31
0.0
  0
LINE
  5
25B
330
20B
100
AcDbEntity
  8
0
  6
Continuous
 62
     0
100
AcDbLine
 10
5397.126465
 20
887.922974
 30
0.0
 11
5401.335449
 21
892.13208
 31
0.0
  0
LINE
  5
25C
330
20B
100
AcDbEntity
  8
0
  6
Continuous
 62
     0
100
AcDbLine
 10
5402.003906
 20
892.13208
 30
0.0
 11
5396.983398
 21
887.111755
 31
0.0
  0
LINE
  5
25D
330
20B
100
AcDbEntity
  8
0
  6
Continuous
 62
     0
100
AcDbLine
 10
5386.666992
 20
876.795349
 30
0.0
 11
5376.117188
 21
866.245667
 31
0.0
  0
LINE
  5
25E
330
20B
100
AcDbEntity
  8
0
  6
Continuous
 62
     0
100
AcDbLine
 10
5376.217285
 20
865.677612
 30
0.0
 11
5386.76709
 21
876.227295
 31
0.0
  0
LINE
  5
25F
330
20B
100
AcDbEntity
  8
0
  6
Continuous
 62
     0
100
AcDbLine
 10
5396.840332
 20
886.300476
 30
0.0
 11
5402.671875
 21
892.13208
 31
0.0
  0
LINE
  5
260
330
20B
100
AcDbEntity
  8
0
  6
Continuous
 62
     0
100
AcDbLine
 10
5403.340332
 20
892.13208
 30
0.0
 11
5396.697266
 21
885.489197
 31
0.0
  0
LINE
  5
261
330
20B
100
AcDbEntity
  8
0
  6
Continuous
 62
     0
100
AcDbLine
 10
5386.867188
 20
875.659241
 30
0.0
 11
5376.317383
 21
865.109558
 31
0.0
  0
LINE
  5
262
330
20B
100
AcDbEntity
  8
0
  6
Continuous
 62
     0
100
AcDbLine
 10
5376.417969
 20
864.541504
 30
0.0
 11
5386.967285
 21
875.091187
 31
0.0
  0
LINE
  5
263
330
20B
100
AcDbEntity
  8
0
  6
Continuous
 62
     0
100
AcDbLine
 10
5396.554199
 20
884.677979
 30
0.0
 11
5404.008301
 21
892.13208
 31
0.0
  0
LINE
  5
264
330
20B
100
AcDbEntity
  8
0
  6
Continuous
 62
     0
100
AcDbLine
 10
5404.676758
 20
892.13208
 30
0.0
 11
5396.411133
 21
883.866699
 31
0.0
  0
LINE
  5
265
330
20B
100
AcDbEntity
  8
0
  6
Continuous
 62
     0
100
AcDbLine
 10
5387.067383
 20
874.523132
 30
0.0
 11
5376.518066
 21
863.97345
 31
0.0
  0
LINE
  5
266
330
20B
100
AcDbEntity
  8
0
  6
Continuous
 62
     0
100
AcDbLine
 10
5376.618164
 20
863.405396
 30
0.0
 11
5387.167969
 21
873.955078
 31
0.0
  0
LINE
  5
267
330
20B
100
AcDbEntity
  8
0
  6
Continuous
 62
     0
100
AcDbLine
 10
5396.268066
 20
883.05542
 30
0.0
 11
5405.344727
 21
892.13208
 31
0.0
  0
LINE
  5
268
330
20B
100
AcDbEntity
  8
0
  6
Continuous
 62
     0
100
AcDbLine
 10
5406.013184
 20
892.13208
 30
0.0
 11
5396.125
 21
882.244141
 31
0.0
  0
LINE
  5
269
330
20B
100
AcDbEntity
  8
0
  6
Continuous
 62
     0
100
AcDbLine
 10
5387.268066
 20
873.387024
 30
0.0
 11
5376.718262
 21
862.837341
 31
0.0
  0
LINE
  5
26A
330
20B
100
AcDbEntity
  8
0
  6
Continuous
 62
     0
100
AcDbLine
 10
5376.818359
 20
862.269287
 30
0.0
 11
5387.368164
 21
872.81897
 31
0.0
  0
LINE
  5
26B
330
20B
100
AcDbEntity
  8
0
  6
Continuous
 62
     0
100
AcDbLine
 10
5395.981934
 20
881.432861
 30
0.0
 11
5406.681152
 21
892.13208
 31
0.0
  0
LINE
  5
26C
330
20B
100
AcDbEntity
  8
0
  6
Continuous
 62
     0
100
AcDbLine
 10
5407.349609
 20
892.13208
 30
0.0
 11
5395.838867
 21
880.621643
 31
0.0
  0
LINE
  5
26D
330
20B
100
AcDbEntity
  8
0
  6
Continuous
 62
     0
100
AcDbLine
 10
5387.468262
 20
872.250916
 30
0.0
 11
5376.918457
 21
861.701233
 31
0.0
  0
LINE
  5
26E
330
20B
100
AcDbEntity
  8
0
  6
Continuous
 62
     0
100
AcDbLine
 10
5377.018555
 20
861.133179
 30
0.0
 11
5387.568359
 21
871.682861
 31
0.0
  0
LINE
  5
26F
330
20B
100
AcDbEntity
  8
0
  6
Continuous
 62
     0
100
AcDbLine
 10
5395.695801
 20
879.810364
 30
0.0
 11
5408.017578
 21
892.13208
 31
0.0
  0
LINE
  5
270
330
20B
100
AcDbEntity
  8
0
  6
Continuous
 62
     0
100
AcDbLine
 10
5408.686035
 20
892.13208
 30
0.0
 11
5395.552734
 21
878.999084
 31
0.0
  0
LINE
  5
271
330
20B
100
AcDbEntity
  8
0
  6
Continuous
 62
     0
100
AcDbLine
 10
5387.668457
 20
871.114807
 30
0.0
 11
5377.119141
 21
860.565125
 31
0.0
  0
LINE
  5
272
330
20B
100
AcDbEntity
  8
0
  6
Continuous
 62
     0
100
AcDbLine
 10
5377.219238
 20
859.99707
 30
0.0
 11
5387.768555
 21
870.546753
 31
0.0
  0
LINE
  5
273
330
20B
100
AcDbEntity
  8
0
  6
Continuous
 62
     0
100
AcDbLine
 10
5395.409668
 20
878.187866
 30
0.0
 11
5409.354004
 21
892.13208
 31
0.0
  0
LINE
  5
274
330
20B
100
AcDbEntity
  8
0
  6
Continuous
 62
     0
100
AcDbLine
 10
5410.022461
 20
892.13208
 30
0.0
 11
5395.266602
 21
877.376587
 31
0.0
  0
LINE
  5
275
330
20B
100
AcDbEntity
  8
0
  6
Continuous
 62
     0
100
AcDbLine
 10
5387.869141
 20
869.978699
 30
0.0
 11
5377.319336
 21
859.429016
 31
0.0
  0
LINE
  5
276
330
20B
100
AcDbEntity
  8
0
  6
Continuous
 62
     0
100
AcDbLine
 10
5377.419434
 20
858.860962
 30
0.0
 11
5387.969238
 21
869.410645
 31
0.0
  0
LINE
  5
277
330
20B
100
AcDbEntity
  8
0
  6
Continuous
 62
     0
100
AcDbLine
 10
5395.123535
 20
876.565308
 30
0.0
 11
5410.69043
 21
892.13208
 31
0.0
  0
LINE
  5
278
330
20B
100
AcDbEntity
  8
0
  6
Continuous
 62
     0
100
AcDbLine
 10
5411.358887
 20
892.13208
 30
0.0
 11
5394.980469
 21
875.754028
 31
0.0
  0
LINE
  5
279
330
20B
100
AcDbEntity
  8
0
  6
Continuous
 62
     0
100
AcDbLine
 10
5388.069336
 20
868.84259
 30
0.0
 11
5377.519531
 21
858.292908
 31
0.0
  0
LINE
  5
27A
330
20B
100
AcDbEntity
  8
0
  6
Continuous
 62
     0
100
AcDbLine
 10
5377.619629
 20
857.724854
 30
0.0
 11
5388.169434
 21
868.274536
 31
0.0
  0
LINE
  5
27B
330
20B
100
AcDbEntity
  8
0
  6
Continuous
 62
     0
100
AcDbLine
 10
5394.837891
 20
874.942749
 30
0.0
 11
5412.026855
 21
892.13208
 31
0.0
  0
LINE
  5
27C
330
20B
100
AcDbEntity
  8
0
  6
Continuous
 62
     0
100
AcDbLine
 10
5412.695312
 20
892.13208
 30
0.0
 11
5394.694824
 21
874.131531
 31
0.0
  0
LINE
  5
27D
330
20B
100
AcDbEntity
  8
0
  6
Continuous
 62
     0
100
AcDbLine
 10
5388.269531
 20
867.706482
 30
0.0
 11
5377.719727
 21
857.156799
 31
0.0
  0
LINE
  5
27E
330
20B
100
AcDbEntity
  8
0
  6
Continuous
 62
     0
100
AcDbLine
 10
5377.819824
 20
856.588745
 30
0.0
 11
5388.369629
 21
867.138428
 31
0.0
  0
LINE
  5
27F
330
20B
100
AcDbEntity
  8
0
  6
Continuous
 62
     0
100
AcDbLine
 10
5394.551758
 20
873.320251
 30
0.0
 11
5413.363281
 21
892.13208
 31
0.0
  0
LINE
  5
280
330
20B
100
AcDbEntity
  8
0
  6
Continuous
 62
     0
100
AcDbLine
 10
5414.031738
 20
892.13208
 30
0.0
 11
5394.408691
 21
872.508972
 31
0.0
  0
LINE
  5
281
330
20B
100
AcDbEntity
  8
0
  6
Continuous
 62
     0
100
AcDbLine
 10
5388.469727
 20
866.570374
 30
0.0
 11
5377.92041
 21
856.020691
 31
0.0
  0
LINE
  5
282
330
20B
100
AcDbEntity
  8
0
  6
Continuous
 62
     0
100
AcDbLine
 10
5378.020508
 20
855.452637
 30
0.0
 11
5388.570312
 21
866.002319
 31
0.0
  0
LINE
  5
283
330
20B
100
AcDbEntity
  8
0
  6
Continuous
 62
     0
100
AcDbLine
 10
5394.265625
 20
871.697754
 30
0.0
 11
5414.699707
 21
892.13208
 31
0.0
  0
LINE
  5
284
330
20B
100
AcDbEntity
  8
0
  6
Continuous
 62
     0
100
AcDbLine
 10
5415.368164
 20
892.13208
 30
0.0
 11
5394.122559
 21
870.886475
 31
0.0
  0
LINE
  5
285
330
20B
100
AcDbEntity
  8
0
  6
Continuous
 62
     0
100
AcDbLine
 10
5388.67041
 20
865.434265
 30
0.0
 11
5378.120605
 21
854.884583
 31
0.0
  0
LINE
  5
286
330
20B
100
AcDbEntity
  8
0
  6
Continuous
 62
     0
100
AcDbLine
 10
5378.220703
 20
854.316528
 30
0.0
 11
5388.770508
 21
864.866211
 31
0.0
  0
LINE
  5
287
330
20B
100
AcDbEntity
  8
0
  6
Continuous
 62
     0
100
AcDbLine
 10
5393.979492
 20
870.075195
 30
0.0
 11
5416.036133
 21
892.13208
 31
0.0
  0
LINE
  5
288
330
20B
100
AcDbEntity
  8
0
  6
Continuous
 62
     0
100
AcDbLine
 10
5416.70459
 20
892.13208
 30
0.0
 11
5393.836426
 21
869.263916
 31
0.0
  0
LINE
  5
289
330
20B
100
AcDbEntity
  8
0
  6
Continuous
 62
     0
100
AcDbLine
 10
5388.870605
 20
864.298157
 30
0.0
 11
5378.320801
 21
853.748474
 31
0.0
  0
LINE
  5
28A
330
20B
100
AcDbEntity
  8
0
  6
Continuous
 62
     0
100
AcDbLine
 10
5378.420898
 20
853.18042
 30
0.0
 11
5388.970703
 21
863.730103
 31
0.0
  0
LINE
  5
28B
330
20B
100
AcDbEntity
  8
0
  6
Continuous
 62
     0
100
AcDbLine
 10
5393.693359
 20
868.452637
 30
0.0
 11
5417.372559
 21
892.13208
 31
0.0
  0
LINE
  5
28C
330
20B
100
AcDbEntity
  8
0
  6
Continuous
 62
     0
100
AcDbLine
 10
5418.041016
 20
892.13208
 30
0.0
 11
5410.154297
 21
884.245667
 31
0.0
  0
LINE
  5
28D
330
20B
100
AcDbEntity
  8
0
  6
Continuous
 62
     0
100
AcDbLine
 10
5409.754395
 20
883.845459
 30
0.0
 11
5393.550293
 21
867.641418
 31
0.0
  0
LINE
  5
28E
330
20B
100
AcDbEntity
  8
0
  6
Continuous
 62
     0
100
AcDbLine
 10
5389.070801
 20
863.162109
 30
0.0
 11
5378.608887
 21
852.699951
 31
0.0
  0
LINE
  5
28F
330
20B
100
AcDbEntity
  8
0
  6
Continuous
 62
     0
100
AcDbLine
 10
5379.276855
 20
852.699951
 30
0.0
 11
5389.170898
 21
862.593994
 31
0.0
  0
LINE
  5
290
330
20B
100
AcDbEntity
  8
0
  6
Continuous
 62
     0
100
AcDbLine
 10
5393.407227
 20
866.830139
 30
0.0
 11
5409.611328
 21
883.03418
 31
0.0
  0
LINE
  5
291
330
20B
100
AcDbEntity
  8
0
  6
Continuous
 62
     0
100
AcDbLine
 10
5410.822754
 20
884.245667
 30
0.0
 11
5418.708984
 21
892.13208
 31
0.0
  0
LINE
  5
292
330
20B
100
AcDbEntity
  8
0
  6
Continuous
 62
     0
100
AcDbLine
 10
5419.377441
 20
892.13208
 30
0.0
 11
5411.490723
 21
884.245667
 31
0.0
  0
LINE
  5
293
330
20B
100
AcDbEntity
  8
0
  6
Continuous
 62
     0
100
AcDbLine
 10
5409.468262
 20
882.2229
 30
0.0
 11
5393.26416
 21
866.01886
 31
0.0
  0
LINE
  5
294
330
20B
100
AcDbEntity
  8
0
  6
Continuous
 62
     0
100
AcDbLine
 10
5389.270996
 20
862.026001
 30
0.0
 11
5379.945312
 21
852.699951
 31
0.0
  0
LINE
  5
295
330
20B
100
AcDbEntity
  8
0
  6
Continuous
 62
     0
100
AcDbLine
 10
5380.613281
 20
852.699951
 30
0.0
 11
5389.371582
 21
861.457886
 31
0.0
  0
LINE
  5
296
330
20B
100
AcDbEntity
  8
0
  6
Continuous
 62
     0
100
AcDbLine
 10
5393.121094
 20
865.207642
 30
0.0
 11
5409.325195
 21
881.411621
 31
0.0
  0
LINE
  5
297
330
20B
100
AcDbEntity
  8
0
  6
Continuous
 62
     0
100
AcDbLine
 10
5412.15918
 20
884.245667
 30
0.0
 11
5420.04541
 21
892.13208
 31
0.0
  0
LINE
  5
298
330
20B
100
AcDbEntity
  8
0
  6
Continuous
 62
     0
100
AcDbLine
 10
5420.713867
 20
892.13208
 30
0.0
 11
5412.827148
 21
884.245667
 31
0.0
  0
LINE
  5
299
330
20B
100
AcDbEntity
  8
0
  6
Continuous
 62
     0
100
AcDbLine
 10
5409.182129
 20
880.600342
 30
0.0
 11
5392.978027
 21
864.396362
 31
0.0
  0
LINE
  5
29A
330
20B
100
AcDbEntity
  8
0
  6
Continuous
 62
     0
100
AcDbLine
 10
5389.47168
 20
860.889893
 30
0.0
 11
5381.281738
 21
852.699951
 31
0.0
  0
LINE
  5
29B
330
20B
100
AcDbEntity
  8
0
  6
Continuous
 62
     0
100
AcDbLine
 10
5381.949707
 20
852.699951
 30
0.0
 11
5389.571777
 21
860.321777
 31
0.0
  0
LINE
  5
29C
330
20B
100
AcDbEntity
  8
0
  6
Continuous
 62
     0
100
AcDbLine
 10
5392.834961
 20
863.585083
 30
0.0
 11
5409.039062
 21
879.789124
 31
0.0
  0
LINE
  5
29D
330
20B
100
AcDbEntity
  8
0
  6
Continuous
 62
     0
100
AcDbLine
 10
5413.495605
 20
884.245667
 30
0.0
 11
5421.381836
 21
892.13208
 31
0.0
  0
LINE
  5
29E
330
20B
100
AcDbEntity
  8
0
  6
Continuous
 62
     0
100
AcDbLine
 10
5422.050293
 20
892.13208
 30
0.0
 11
5414.163574
 21
884.245667
 31
0.0
  0
LINE
  5
29F
330
20B
100
AcDbEntity
  8
0
  6
Continuous
 62
     0
100
AcDbLine
 10
5408.895996
 20
878.977844
 30
0.0
 11
5392.691895
 21
862.773804
 31
0.0
  0
LINE
  5
2A0
330
20B
100
AcDbEntity
  8
0
  6
Continuous
 62
     0
100
AcDbLine
 10
5389.671875
 20
859.753784
 30
0.0
 11
5382.618164
 21
852.699951
 31
0.0
  0
LINE
  5
2A1
330
20B
100
AcDbEntity
  8
0
  6
Continuous
 62
     0
100
AcDbLine
 10
5383.286133
 20
852.699951
 30
0.0
 11
5389.771973
 21
859.18573
 31
0.0
  0
LINE
  5
2A2
330
20B
100
AcDbEntity
  8
0
  6
Continuous
 62
     0
100
AcDbLine
 10
5392.548828
 20
861.962585
 30
0.0
 11
5408.75293
 21
878.166565
 31
0.0
  0
LINE
  5
2A3
330
20B
100
AcDbEntity
  8
0
  6
Continuous
 62
     0
100
AcDbLine
 10
5414.832031
 20
884.245667
 30
0.0
 11
5422.709961
 21
892.12384
 31
0.0
  0
LINE
  5
2A4
330
20B
100
AcDbEntity
  8
0
  6
Continuous
 62
     0
100
AcDbLine
 10
5423.34082
 20
892.086304
 30
0.0
 11
5415.5
 21
884.245667
 31
0.0
  0
LINE
  5
2A5
330
20B
100
AcDbEntity
  8
0
  6
Continuous
 62
     0
100
AcDbLine
 10
5408.609863
 20
877.355347
 30
0.0
 11
5392.405762
 21
861.151306
 31
0.0
  0
LINE
  5
2A6
330
20B
100
AcDbEntity
  8
0
  6
Continuous
 62
     0
100
AcDbLine
 10
5389.87207
 20
858.617676
 30
0.0
 11
5383.95459
 21
852.699951
 31
0.0
  0
LINE
  5
2A7
330
20B
100
AcDbEntity
  8
0
  6
Continuous
 62
     0
100
AcDbLine
 10
5384.622559
 20
852.699951
 30
0.0
 11
5389.972168
 21
858.049622
 31
0.0
  0
LINE
  5
2A8
330
20B
100
AcDbEntity
  8
0
  6
Continuous
 62
     0
100
AcDbLine
 10
5392.262695
 20
860.340027
 30
0.0
 11
5408.466797
 21
876.544067
 31
0.0
  0
LINE
  5
2A9
330
20B
100
AcDbEntity
  8
0
  6
Continuous
 62
     0
100
AcDbLine
 10
5416.168457
 20
884.245667
 30
0.0
 11
5423.944336
 21
892.021729
 31
0.0
  0
LINE
  5
2AA
330
20B
100
AcDbEntity
  8
0
  6
Continuous
 62
     0
100
AcDbLine
 10
5424.523926
 20
891.932983
 30
0.0
 11
5416.836426
 21
884.245667
 31
0.0
  0
LINE
  5
2AB
330
20B
100
AcDbEntity
  8
0
  6
Continuous
 62
     0
100
AcDbLine
 10
5408.32373
 20
875.732788
 30
0.0
 11
5392.119629
 21
859.528748
 31
0.0
  0
LINE
  5
2AC
330
20B
100
AcDbEntity
  8
0
  6
Continuous
 62
     0
100
AcDbLine
 10
5390.072754
 20
857.481567
 30
0.0
 11
5385.291016
 21
852.699951
 31
0.0
  0
LINE
  5
2AD
330
20B
100
AcDbEntity
  8
0
  6
Continuous
 62
     0
100
AcDbLine
 10
5385.958984
 20
852.699951
 30
0.0
 11
5390.172852
 21
856.913513
 31
0.0
  0
LINE
  5
2AE
330
20B
100
AcDbEntity
  8
0
  6
Continuous
 62
     0
100
AcDbLine
 10
5391.976562
 20
858.717529
 30
0.0
 11
5408.180664
 21
874.921509
 31
0.0
  0
LINE
  5
2AF
330
20B
100
AcDbEntity
  8
0
  6
Continuous
 62
     0
100
AcDbLine
 10
5417.474121
 20
884.214844
 30
0.0
 11
5425.081543
 21
891.822266
 31
0.0
  0
LINE
  5
2B0
330
20B
100
AcDbEntity
  8
0
  6
Continuous
 62
     0
100
AcDbLine
 10
5425.619141
 20
891.691528
 30
0.0
 11
5418.047852
 21
884.120178
 31
0.0
  0
LINE
  5
2B1
330
20B
100
AcDbEntity
  8
0
  6
Continuous
 62
     0
100
AcDbLine
 10
5408.037598
 20
874.110229
 30
0.0
 11
5391.833496
 21
857.90625
 31
0.0
  0
LINE
  5
2B2
330
20B
100
AcDbEntity
  8
0
  6
Continuous
 62
     0
100
AcDbLine
 10
5390.272949
 20
856.345459
 30
0.0
 11
5386.627441
 21
852.699951
 31
0.0
  0
LINE
  5
2B3
330
20B
100
AcDbEntity
  8
0
  6
Continuous
 62
     0
100
AcDbLine
 10
5387.29541
 20
852.699951
 30
0.0
 11
5390.373047
 21
855.777405
 31
0.0
  0
LINE
  5
2B4
330
20B
100
AcDbEntity
  8
0
  6
Continuous
 62
     0
100
AcDbLine
 10
5391.69043
 20
857.094971
 30
0.0
 11
5407.894531
 21
873.299011
 31
0.0
  0
LINE
  5
2B5
330
20B
100
AcDbEntity
  8
0
  6
Continuous
 62
     0
100
AcDbLine
 10
5418.570801
 20
883.975098
 30
0.0
 11
5426.137695
 21
891.542236
 31
0.0
  0
LINE
  5
2B6
330
20B
100
AcDbEntity
  8
0
  6
Continuous
 62
     0
100
AcDbLine
 10
5426.639648
 20
891.37561
 30
0.0
 11
5419.051758
 21
883.787842
 31
0.0
  0
LINE
  5
2B7
330
20B
100
AcDbEntity
  8
0
  6
Continuous
 62
     0
100
AcDbLine
 10
5407.751465
 20
872.487732
 30
0.0
 11
5391.547363
 21
856.283691
 31
0.0
  0
LINE
  5
2B8
330
20B
100
AcDbEntity
  8
0
  6
Continuous
 62
     0
100
AcDbLine
 10
5390.473145
 20
855.209351
 30
0.0
 11
5387.963867
 21
852.699951
 31
0.0
  0
LINE
  5
2B9
330
20B
100
AcDbEntity
  8
0
  6
Continuous
 62
     0
100
AcDbLine
 10
5388.631836
 20
852.699951
 30
0.0
 11
5390.573242
 21
854.641296
 31
0.0
  0
LINE
  5
2BA
330
20B
100
AcDbEntity
  8
0
  6
Continuous
 62
     0
100
AcDbLine
 10
5391.404297
 20
855.472473
 30
0.0
 11
5407.608398
 21
871.676453
 31
0.0
  0
LINE
  5
2BB
330
20B
100
AcDbEntity
  8
0
  6
Continuous
 62
     0
100
AcDbLine
 10
5419.495605
 20
883.563599
 30
0.0
 11
5427.124512
 21
891.192566
 31
0.0
  0
LINE
  5
2BC
330
20B
100
AcDbEntity
  8
0
  6
Continuous
 62
     0
100
AcDbLine
 10
5427.594238
 20
890.994141
 30
0.0
 11
5419.905762
 21
883.305664
 31
0.0
  0
LINE
  5
2BD
330
20B
100
AcDbEntity
  8
0
  6
Continuous
 62
     0
100
AcDbLine
 10
5407.465332
 20
870.865234
 30
0.0
 11
5391.26123
 21
854.661194
 31
0.0
  0
LINE
  5
2BE
330
20B
100
AcDbEntity
  8
0
  6
Continuous
 62
     0
100
AcDbLine
 10
5390.67334
 20
854.073242
 30
0.0
 11
5389.300293
 21
852.699951
 31
0.0
  0
LINE
  5
2BF
330
20B
100
AcDbEntity
  8
0
  6
Continuous
 62
     0
100
AcDbLine
 10
5389.968262
 20
852.699951
 30
0.0
 11
5390.773438
 21
853.505188
 31
0.0
  0
LINE
  5
2C0
330
20B
100
AcDbEntity
  8
0
  6
Continuous
 62
     0
100
AcDbLine
 10
5391.118652
 20
853.849915
 30
0.0
 11
5407.322266
 21
870.053955
 31
0.0
  0
LINE
  5
2C1
330
20B
100
AcDbEntity
  8
0
  6
Continuous
 62
     0
100
AcDbLine
 10
5420.284668
 20
883.016174
 30
0.0
 11
5428.049316
 21
890.780884
 31
0.0
  0
LINE
  5
2C2
330
20B
100
AcDbEntity
  8
0
  6
Continuous
 62
     0
100
AcDbLine
 10
5428.490234
 20
890.553467
 30
0.0
 11
5420.632812
 21
882.696289
 31
0.0
  0
LINE
  5
2C3
330
20B
100
AcDbEntity
  8
0
  6
Continuous
 62
     0
100
AcDbLine
 10
5407.179199
 20
869.242676
 30
0.0
 11
5390.975586
 21
853.038696
 31
0.0
  0
LINE
  5
2C4
330
20B
100
AcDbEntity
  8
0
  6
Continuous
 62
     0
100
AcDbLine
 10
5390.874023
 20
852.937134
 30
0.0
 11
5390.636719
 21
852.699951
 31
0.0
  0
LINE
  5
2C5
330
20B
100
AcDbEntity
  8
0
  6
Continuous
 62
     0
100
AcDbLine
 10
5391.304688
 20
852.699951
 30
0.0
 11
5407.036133
 21
868.431396
 31
0.0
  0
LINE
  5
2C6
330
20B
100
AcDbEntity
  8
0
  6
Continuous
 62
     0
100
AcDbLine
 10
5420.951172
 20
882.346252
 30
0.0
 11
5428.91748
 21
890.312378
 31
0.0
  0
LINE
  5
2C7
330
20B
100
AcDbEntity
  8
0
  6
Continuous
 62
     0
100
AcDbLine
 10
5429.331055
 20
890.058105
 30
0.0
 11
5421.23877
 21
881.96582
 31
0.0
  0
LINE
  5
2C8
330
20B
100
AcDbEntity
  8
0
  6
Continuous
 62
     0
100
AcDbLine
 10
5406.893066
 20
867.620178
 30
0.0
 11
5391.973145
 21
852.699951
 31
0.0
  0
LINE
  5
2C9
330
20B
100
AcDbEntity
  8
0
  6
Continuous
 62
     0
100
AcDbLine
 10
5392.641113
 20
852.699951
 30
0.0
 11
5406.75
 21
866.808899
 31
0.0
  0
LINE
  5
2CA
330
20B
100
AcDbEntity
  8
0
  6
Continuous
 62
     0
100
AcDbLine
 10
5421.495117
 20
881.55365
 30
0.0
 11
5429.732422
 21
889.790894
 31
0.0
  0
LINE
  5
2CB
330
20B
100
AcDbEntity
  8
0
  6
Continuous
 62
     0
100
AcDbLine
 10
5430.120605
 20
889.511047
 30
0.0
 11
5421.717285
 21
881.107666
 31
0.0
  0
LINE
  5
2CC
330
20B
100
AcDbEntity
  8
0
  6
Continuous
 62
     0
100
AcDbLine
 10
5406.607422
 20
865.99762
 30
0.0
 11
5393.30957
 21
852.699951
 31
0.0
  0
LINE
  5
2CD
330
20B
100
AcDbEntity
  8
0
  6
Continuous
 62
     0
100
AcDbLine
 10
5393.977539
 20
852.699951
 30
0.0
 11
5406.464355
 21
865.18634
 31
0.0
  0
LINE
  5
2CE
330
20B
100
AcDbEntity
  8
0
  6
Continuous
 62
     0
100
AcDbLine
 10
5421.902344
 20
880.624512
 30
0.0
 11
5430.496582
 21
889.218872
 31
0.0
  0
LINE
  5
2CF
330
20B
100
AcDbEntity
  8
0
  6
Continuous
 62
     0
100
AcDbLine
 10
5430.860352
 20
888.914429
 30
0.0
 11
5422.044922
 21
880.098816
 31
0.0
  0
LINE
  5
2D0
330
20B
100
AcDbEntity
  8
0
  6
Continuous
 62
     0
100
AcDbLine
 10
5406.321289
 20
864.375122
 30
0.0
 11
5394.645996
 21
852.699951
 31
0.0
  0
LINE
  5
2D1
330
20B
100
AcDbEntity
  8
0
  6
Continuous
 62
     0
100
AcDbLine
 10
5395.313965
 20
852.699951
 30
0.0
 11
5406.178223
 21
863.563843
 31
0.0
  0
LINE
  5
2D2
330
20B
100
AcDbEntity
  8
0
  6
Continuous
 62
     0
100
AcDbLine
 10
5422.13623
 20
879.522034
 30
0.0
 11
5431.211914
 21
888.5979
 31
0.0
  0
LINE
  5
2D3
330
20B
100
AcDbEntity
  8
0
  6
Continuous
 62
     0
100
AcDbLine
 10
5431.551758
 20
888.269348
 30
0.0
 11
5422.162109
 21
878.879883
 31
0.0
  0
LINE
  5
2D4
330
20B
100
AcDbEntity
  8
0
  6
Continuous
 62
     0
100
AcDbLine
 10
5406.035156
 20
862.752563
 30
0.0
 11
5395.982422
 21
852.699951
 31
0.0
  0
LINE
  5
2D5
330
20B
100
AcDbEntity
  8
0
  6
Continuous
 62
     0
100
AcDbLine
 10
5396.650391
 20
852.699951
 30
0.0
 11
5405.89209
 21
861.941284
 31
0.0
  0
LINE
  5
2D6
330
20B
100
AcDbEntity
  8
0
  6
Continuous
 62
     0
100
AcDbLine
 10
5422.095215
 20
878.144714
 30
0.0
 11
5431.879395
 21
887.928711
 31
0.0
  0
LINE
  5
2D7
330
20B
100
AcDbEntity
  8
0
  6
Continuous
 62
     0
100
AcDbLine
 10
5432.194824
 20
887.576111
 30
0.0
 11
5421.953125
 21
877.334045
 31
0.0
  0
LINE
  5
2D8
330
20B
100
AcDbEntity
  8
0
  6
Continuous
 62
     0
100
AcDbLine
 10
5405.749023
 20
861.130066
 30
0.0
 11
5397.318848
 21
852.699951
 31
0.0
  0
LINE
  5
2D9
330
20B
100
AcDbEntity
  8
0
  6
Continuous
 62
     0
100
AcDbLine
 10
5397.986816
 20
852.699951
 30
0.0
 11
5405.873535
 21
860.586426
 31
0.0
  0
LINE
  5
2DA
330
20B
100
AcDbEntity
  8
0
  6
Continuous
 62
     0
100
AcDbLine
 10
5421.810059
 20
876.522827
 30
0.0
 11
5432.498535
 21
887.211426
 31
0.0
  0
LINE
  5
2DB
330
20B
100
AcDbEntity
  8
0
  6
Continuous
 62
     0
100
AcDbLine
 10
5432.789551
 20
886.834412
 30
0.0
 11
5421.666992
 21
875.711548
 31
0.0
  0
LINE
  5
2DC
330
20B
100
AcDbEntity
  8
0
  6
Continuous
 62
     0
100
AcDbLine
 10
5406.541504
 20
860.586426
 30
0.0
 11
5398.655273
 21
852.699951
 31
0.0
  0
LINE
  5
2DD
330
20B
100
AcDbEntity
  8
0
  6
Continuous
 62
     0
100
AcDbLine
 10
5399.323242
 20
852.699951
 30
0.0
 11
5407.209961
 21
860.586426
 31
0.0
  0
LINE
  5
2DE
330
20B
100
AcDbEntity
  8
0
  6
Continuous
 62
     0
100
AcDbLine
 10
5421.523926
 20
874.900269
 30
0.0
 11
5433.068359
 21
886.445068
 31
0.0
  0
LINE
  5
2DF
330
20B
100
AcDbEntity
  8
0
  6
Continuous
 62
     0
100
AcDbLine
 10
5433.334961
 20
886.04303
 30
0.0
 11
5421.380859
 21
874.088989
 31
0.0
  0
LINE
  5
2E0
330
20B
100
AcDbEntity
  8
0
  6
Continuous
 62
     0
100
AcDbLine
 10
5407.87793
 20
860.586426
 30
0.0
 11
5399.991699
 21
852.699951
 31
0.0
  0
LINE
  5
2E1
330
20B
100
AcDbEntity
  8
0
  6
Continuous
 62
     0
100
AcDbLine
 10
5400.660156
 20
852.699951
 30
0.0
 11
5408.546387
 21
860.586426
 31
0.0
  0
LINE
  5
2E2
330
20B
100
AcDbEntity
  8
0
  6
Continuous
 62
     0
100
AcDbLine
 10
5421.237793
 20
873.27771
 30
0.0
 11
5433.587891
 21
885.628113
 31
0.0
  0
LINE
  5
2E3
330
20B
100
AcDbEntity
  8
0
  6
Continuous
 62
     0
100
AcDbLine
 10
5433.828125
 20
885.199951
 30
0.0
 11
5421.094727
 21
872.466492
 31
0.0
  0
LINE
  5
2E4
330
20B
100
AcDbEntity
  8
0
  6
Continuous
 62
     0
100
AcDbLine
 10
5409.214355
 20
860.586426
 30
0.0
 11
5401.328125
 21
852.699951
 31
0.0
  0
LINE
  5
2E5
330
20B
100
AcDbEntity
  8
0
  6
Continuous
 62
     0
100
AcDbLine
 10
5401.996094
 20
852.699951
 30
0.0
 11
5409.882812
 21
860.586426
 31
0.0
  0
LINE
  5
2E6
330
20B
100
AcDbEntity
  8
0
  6
Continuous
 62
     0
100
AcDbLine
 10
5420.95166
 20
871.655212
 30
0.0
 11
5434.054688
 21
884.758057
 31
0.0
  0
LINE
  5
2E7
330
20B
100
AcDbEntity
  8
0
  6
Continuous
 62
     0
100
AcDbLine
 10
5434.266602
 20
884.301941
 30
0.0
 11
5420.808594
 21
870.843933
 31
0.0
  0
LINE
  5
2E8
330
20B
100
AcDbEntity
  8
0
  6
Continuous
 62
     0
100
AcDbLine
 10
5410.550781
 20
860.586426
 30
0.0
 11
5402.664551
 21
852.699951
 31
0.0
  0
LINE
  5
2E9
330
20B
100
AcDbEntity
  8
0
  6
Continuous
 62
     0
100
AcDbLine
 10
5403.333008
 20
852.699951
 30
0.0
 11
5411.219238
 21
860.586426
 31
0.0
  0
LINE
  5
2EA
330
20B
100
AcDbEntity
  8
0
  6
Continuous
 62
     0
100
AcDbLine
 10
5420.665527
 20
870.032715
 30
0.0
 11
5434.463867
 21
883.831055
 31
0.0
  0
LINE
  5
2EB
330
20B
100
AcDbEntity
  8
0
  6
Continuous
 62
     0
100
AcDbLine
 10
5434.645508
 20
883.344604
 30
0.0
 11
5420.522461
 21
869.221436
 31
0.0
  0
LINE
  5
2EC
330
20B
100
AcDbEntity
  8
0
  6
Continuous
 62
     0
100
AcDbLine
 10
5411.887207
 20
860.586426
 30
0.0
 11
5404.000977
 21
852.699951
 31
0.0
  0
LINE
  5
2ED
330
20B
100
AcDbEntity
  8
0
  6
Continuous
 62
     0
100
AcDbLine
 10
5404.669434
 20
852.699951
 30
0.0
 11
5412.557617
 21
860.588318
 31
0.0
  0
LINE
  5
2EE
330
20B
100
AcDbEntity
  8
0
  6
Continuous
 62
     0
100
AcDbLine
 10
5420.379395
 20
868.410156
 30
0.0
 11
5434.811035
 21
882.841736
 31
0.0
  0
LINE
  5
2EF
330
20B
100
AcDbEntity
  8
0
  6
Continuous
 62
     0
100
AcDbLine
 10
5434.958984
 20
882.321411
 30
0.0
 11
5420.236328
 21
867.598877
 31
0.0
  0
LINE
  5
2F0
330
20B
100
AcDbEntity
  8
0
  6
Continuous
 62
     0
100
AcDbLine
 10
5413.274414
 20
860.637024
 30
0.0
 11
5405.337402
 21
852.699951
 31
0.0
  0
LINE
  5
2F1
330
20B
100
AcDbEntity
  8
0
  6
Continuous
 62
     0
100
AcDbLine
 10
5406.005859
 20
852.699951
 30
0.0
 11
5414.076172
 21
860.770386
 31
0.0
  0
LINE
  5
2F2
330
20B
100
AcDbEntity
  8
0
  6
Continuous
 62
     0
100
AcDbLine
 10
5420.084961
 20
866.779114
 30
0.0
 11
5435.087891
 21
881.782471
 31
0.0
  0
LINE
  5
2F3
330
20B
100
AcDbEntity
  8
0
  6
Continuous
 62
     0
100
AcDbLine
 10
5435.197266
 20
881.223267
 30
0.0
 11
5419.817871
 21
865.843811
 31
0.0
  0
LINE
  5
2F4
330
20B
100
AcDbEntity
  8
0
  6
Continuous
 62
     0
100
AcDbLine
 10
5415.01123
 20
861.037476
 30
0.0
 11
5406.673828
 21
852.699951
 31
0.0
  0
LINE
  5
2F5
330
20B
100
AcDbEntity
  8
0
  6
Continuous
 62
     0
100
AcDbLine
 10
5407.342285
 20
852.699951
 30
0.0
 11
5416.231934
 21
861.589661
 31
0.0
  0
LINE
  5
2F6
330
20B
100
AcDbEntity
  8
0
  6
Continuous
 62
     0
100
AcDbLine
 10
5419.265625
 20
864.623413
 30
0.0
 11
5435.28418
 21
880.642029
 31
0.0
  0
LINE
  5
2F7
330
20B
100
AcDbEntity
  8
0
  6
Continuous
 62
     0
100
AcDbLine
 10
5435.34668
 20
880.036438
 30
0.0
 11
5408.010254
 21
852.699951
 31
0.0
  0
LINE
  5
2F8
330
20B
100
AcDbEntity
  8
0
  6
Continuous
 62
     0
100
AcDbLine
 10
5408.678711
 20
852.699951
 30
0.0
 11
5435.381836
 21
879.403503
 31
0.0
  0
LINE
  5
2F9
330
20B
100
AcDbEntity
  8
0
  6
Continuous
 62
     0
100
AcDbLine
 10
5435.38623
 20
878.739502
 30
0.0
 11
5409.34668
 21
852.699951
 31
0.0
  0
LINE
  5
2FA
330
20B
100
AcDbEntity
  8
0
  6
Continuous
 62
     0
100
AcDbLine
 10
5410.015137
 20
852.699951
 30
0.0
 11
5435.354492
 21
878.039368
 31
0.0
  0
LINE
  5
2FB
330
20B
100
AcDbEntity
  8
0
  6
Continuous
 62
     0
100
AcDbLine
 10
5435.279297
 20
877.296082
 30
0.0
 11
5410.683105
 21
852.699951
 31
0.0
  0
LINE
  5
2FC
330
20B
100
AcDbEntity
  8
0
  6
Continuous
 62
     0
100
AcDbLine
 10
5411.351562
 20
852.699951
 30
0.0
 11
5435.152832
 21
876.501526
 31
0.0
  0
LINE
  5
2FD
330
20B
100
AcDbEntity
  8
0
  6
Continuous
 62
     0
100
AcDbLine
 10
5435.009766
 20
875.690308
 30
0.0
 11
5412.019531
 21
852.699951
 31
0.0
  0
LINE
  5
2FE
330
20B
100
AcDbEntity
  8
0
  6
Continuous
 62
     0
100
AcDbLine
 10
5412.687988
 20
852.699951
 30
0.0
 11
5434.866699
 21
874.879028
 31
0.0
  0
LINE
  5
2FF
330
20B
100
AcDbEntity
  8
0
  6
Continuous
 62
     0
100
AcDbLine
 10
5434.723633
 20
874.067749
 30
0.0
 11
5413.355957
 21
852.700012
 31
0.0
  0
LINE
  5
300
330
20B
100
AcDbEntity
  8
0
  6
Continuous
 62
     0
100
AcDbLine
 10
5414.036621
 20
852.712524
 30
0.0
 11
5434.580566
 21
873.25647
 31
0.0
  0
LINE
  5
301
330
20B
100
AcDbEntity
  8
0
  6
Continuous
 62
     0
100
AcDbLine
 10
5434.4375
 20
872.44519
 30
0.0
 11
5414.741211
 21
852.748779
 31
0.0
  0
LINE
  5
302
330
20B
100
AcDbEntity
  8
0
  6
Continuous
 62
     0
100
AcDbLine
 10
5415.472168
 20
852.811462
 30
0.0
 11
5434.294434
 21
871.633972
 31
0.0
  0
LINE
  5
303
330
20B
100
AcDbEntity
  8
0
  6
Continuous
 62
     0
100
AcDbLine
 10
5434.151367
 20
870.822693
 30
0.0
 11
5416.23291
 21
852.904175
 31
0.0
  0
LINE
  5
304
330
20B
100
AcDbEntity
  8
0
  6
Continuous
 62
     0
100
AcDbLine
 10
5417.02832
 20
853.031433
 30
0.0
 11
5434.008301
 21
870.011292
 31
0.0
  0
LINE
  5
305
330
20B
100
AcDbEntity
  8
0
  6
Continuous
 62
     0
100
AcDbLine
 10
5433.84082
 20
869.175293
 30
0.0
 11
5417.864746
 21
853.199219
 31
0.0
  0
LINE
  5
306
330
20B
100
AcDbEntity
  8
0
  6
Continuous
 62
     0
100
AcDbLine
 10
5418.749023
 20
853.41571
 30
0.0
 11
5433.624023
 21
868.290588
 31
0.0
  0
LINE
  5
307
330
20B
100
AcDbEntity
  8
0
  6
Continuous
 62
     0
100
AcDbLine
 10
5433.347168
 20
867.345398
 30
0.0
 11
5419.694336
 21
853.692688
 31
0.0
  0
LINE
  5
308
330
20B
100
AcDbEntity
  8
0
  6
Continuous
 62
     0
100
AcDbLine
 10
5420.718262
 20
854.048218
 30
0.0
 11
5432.991699
 21
866.321655
 31
0.0
  0
LINE
  5
309
330
20B
100
AcDbEntity
  8
0
  6
Continuous
 62
     0
100
AcDbLine
 10
5432.527344
 20
865.189087
 30
0.0
 11
5421.850586
 21
854.512573
 31
0.0
  0
LINE
  5
30A
330
20B
100
AcDbEntity
  8
0
  6
Continuous
 62
     0
100
AcDbLine
 10
5423.151367
 20
855.145142
 30
0.0
 11
5431.894531
 21
863.888306
 31
0.0
  0
LINE
  5
30B
330
20B
100
AcDbEntity
  8
0
  6
Continuous
 62
     0
100
AcDbLine
 10
5430.939453
 20
862.265015
 30
0.0
 11
5424.774902
 21
856.10022
 31
0.0
  0
LINE
  5
30C
330
20B
100
AcDbEntity
  8
0
  6
Continuous
 62
     0
100
AcDbLine
 10
5331.997559
 20
852.863892
 30
0.0
 11
5348.20166
 21
869.067871
 31
0.0
  0
LINE
  5
30D
330
20B
100
AcDbEntity
  8
0
  6
Continuous
 62
     0
100
AcDbLine
 10
5370.208008
 20
891.074097
 30
0.0
 11
5371.265625
 21
892.13208
 31
0.0
  0
LINE
  5
30E
330
20B
100
AcDbEntity
  8
0
  6
Continuous
 62
     0
100
AcDbLine
 10
5348.344727
 20
869.87915
 30
0.0
 11
5332.140625
 21
853.67511
 31
0.0
  0
LINE
  5
30F
330
20B
100
AcDbEntity
  8
0
  6
Continuous
 62
     0
100
AcDbLine
 10
5332.283691
 20
854.486389
 30
0.0
 11
5348.487793
 21
870.69043
 31
0.0
  0
LINE
  5
310
330
20B
100
AcDbEntity
  8
0
  6
Continuous
 62
     0
100
AcDbLine
 10
5348.630859
 20
871.501648
 30
0.0
 11
5332.426758
 21
855.297668
 31
0.0
  0
LINE
  5
311
330
20B
100
AcDbEntity
  8
0
  6
Continuous
 62
     0
100
AcDbLine
 10
5332.569824
 20
856.108887
 30
0.0
 11
5348.773926
 21
872.312927
 31
0.0
  0
LINE
  5
312
330
20B
100
AcDbEntity
  8
0
  6
Continuous
 62
     0
100
AcDbLine
 10
5348.916992
 20
873.124207
 30
0.0
 11
5332.712891
 21
856.920166
 31
0.0
  0
LINE
  5
313
330
20B
100
AcDbEntity
  8
0
  6
Continuous
 62
     0
100
AcDbLine
 10
5332.855957
 20
857.731445
 30
0.0
 11
5349.060059
 21
873.935486
 31
0.0
  0
LINE
  5
314
330
20B
100
AcDbEntity
  8
0
  6
Continuous
 62
     0
100
AcDbLine
 10
5349.203125
 20
874.746704
 30
0.0
 11
5332.999023
 21
858.542725
 31
0.0
  0
LINE
  5
315
330
20B
100
AcDbEntity
  8
0
  6
Continuous
 62
     0
100
AcDbLine
 10
5333.14209
 20
859.354004
 30
0.0
 11
5349.346191
 21
875.557983
 31
0.0
  0
LINE
  5
316
330
20B
100
AcDbEntity
  8
0
  6
Continuous
 62
     0
100
AcDbLine
 10
5349.489258
 20
876.369263
 30
0.0
 11
5333.285156
 21
860.165222
 31
0.0
  0
LINE
  5
317
330
20B
100
AcDbEntity
  8
0
  6
Continuous
 62
     0
100
AcDbLine
 10
5333.428223
 20
860.976501
 30
0.0
 11
5349.631836
 21
877.180542
 31
0.0
  0
LINE
  5
318
330
20B
100
AcDbEntity
  8
0
  6
Continuous
 62
     0
100
AcDbLine
 10
5349.774902
 20
877.99176
 30
0.0
 11
5333.571289
 21
861.787781
 31
0.0
  0
LINE
  5
319
330
20B
100
AcDbEntity
  8
0
  6
Continuous
 62
     0
100
AcDbLine
 10
5333.714355
 20
862.598999
 30
0.0
 11
5349.917969
 21
878.80304
 31
0.0
  0
LINE
  5
31A
330
20B
100
AcDbEntity
  8
0
  6
Continuous
 62
     0
100
AcDbLine
 10
5350.061035
 20
879.614319
 30
0.0
 11
5333.857422
 21
863.410278
 31
0.0
  0
LINE
  5
31B
330
20B
100
AcDbEntity
  8
0
  6
Continuous
 62
     0
100
AcDbLine
 10
5334.0
 20
864.221558
 30
0.0
 11
5350.204102
 21
880.425537
 31
0.0
  0
LINE
  5
31C
330
20B
100
AcDbEntity
  8
0
  6
Continuous
 62
     0
100
AcDbLine
 10
5350.347168
 20
881.236816
 30
0.0
 11
5334.143066
 21
865.032837
 31
0.0
  0
LINE
  5
31D
330
20B
100
AcDbEntity
  8
0
  6
Continuous
 62
     0
100
AcDbLine
 10
5334.286133
 20
865.844055
 30
0.0
 11
5350.490234
 21
882.048096
 31
0.0
  0
LINE
  5
31E
330
20B
100
AcDbEntity
  8
0
  6
Continuous
 62
     0
100
AcDbLine
 10
5350.633301
 20
882.859375
 30
0.0
 11
5334.429199
 21
866.655334
 31
0.0
  0
LINE
  5
31F
330
20B
100
AcDbEntity
  8
0
  6
Continuous
 62
     0
100
AcDbLine
 10
5334.572266
 20
867.466614
 30
0.0
 11
5350.776367
 21
883.670654
 31
0.0
  0
LINE
  5
320
330
20B
100
AcDbEntity
  8
0
  6
Continuous
 62
     0
100
AcDbLine
 10
5350.919434
 20
884.481873
 30
0.0
 11
5334.715332
 21
868.277893
 31
0.0
  0
LINE
  5
321
330
20B
100
AcDbEntity
  8
0
  6
Continuous
 62
     0
100
AcDbLine
 10
5334.858398
 20
869.089111
 30
0.0
 11
5351.0625
 21
885.293152
 31
0.0
  0
LINE
  5
322
330
20B
100
AcDbEntity
  8
0
  6
Continuous
 62
     0
100
AcDbLine
 10
5351.205566
 20
886.104431
 30
0.0
 11
5335.001465
 21
869.900391
 31
0.0
  0
LINE
  5
323
330
20B
100
AcDbEntity
  8
0
  6
Continuous
 62
     0
100
AcDbLine
 10
5335.144531
 20
870.71167
 30
0.0
 11
5351.348633
 21
886.915649
 31
0.0
  0
LINE
  5
324
330
20B
100
AcDbEntity
  8
0
  6
Continuous
 62
     0
100
AcDbLine
 10
5351.491699
 20
887.726929
 30
0.0
 11
5335.287598
 21
871.522949
 31
0.0
  0
LINE
  5
325
330
20B
100
AcDbEntity
  8
0
  6
Continuous
 62
     0
100
AcDbLine
 10
5335.430664
 20
872.334167
 30
0.0
 11
5351.634766
 21
888.538208
 31
0.0
  0
LINE
  5
326
330
20B
100
AcDbEntity
  8
0
  6
Continuous
 62
     0
100
AcDbLine
 10
5351.777832
 20
889.349487
 30
0.0
 11
5335.57373
 21
873.145447
 31
0.0
  0
LINE
  5
327
330
20B
100
AcDbEntity
  8
0
  6
Continuous
 62
     0
100
AcDbLine
 10
5335.716797
 20
873.956726
 30
0.0
 11
5351.920898
 21
890.160767
 31
0.0
  0
LINE
  5
328
330
20B
100
AcDbEntity
  8
0
  6
Continuous
 62
     0
100
AcDbLine
 10
5352.063965
 20
890.971985
 30
0.0
 11
5335.859863
 21
874.767944
 31
0.0
  0
LINE
  5
329
330
20B
100
AcDbEntity
  8
0
  6
Continuous
 62
     0
100
AcDbLine
 10
5336.00293
 20
875.579224
 30
0.0
 11
5352.207031
 21
891.783264
 31
0.0
  0
LINE
  5
32A
330
20B
100
AcDbEntity
  8
0
  6
Continuous
 62
     0
100
AcDbLine
 10
5351.887695
 20
892.13208
 30
0.0
 11
5336.145996
 21
876.390503
 31
0.0
  0
LINE
  5
32B
330
20B
100
AcDbEntity
  8
0
  6
Continuous
 62
     0
100
AcDbLine
 10
5336.289062
 20
877.201782
 30
0.0
 11
5351.219238
 21
892.13208
 31
0.0
  0
LINE
  5
32C
330
20B
100
AcDbEntity
  8
0
  6
Continuous
 62
     0
100
AcDbLine
 10
5350.55127
 20
892.13208
 30
0.0
 11
5336.432129
 21
878.013062
 31
0.0
  0
LINE
  5
32D
330
20B
100
AcDbEntity
  8
0
  6
Continuous
 62
     0
100
AcDbLine
 10
5336.575195
 20
878.82428
 30
0.0
 11
5349.882812
 21
892.13208
 31
0.0
  0
LINE
  5
32E
330
20B
100
AcDbEntity
  8
0
  6
Continuous
 62
     0
100
AcDbLine
 10
5349.214844
 20
892.13208
 30
0.0
 11
5336.718262
 21
879.635559
 31
0.0
  0
LINE
  5
32F
330
20B
100
AcDbEntity
  8
0
  6
Continuous
 62
     0
100
AcDbLine
 10
5336.861328
 20
880.446838
 30
0.0
 11
5348.546387
 21
892.13208
 31
0.0
  0
LINE
  5
330
330
20B
100
AcDbEntity
  8
0
  6
Continuous
 62
     0
100
AcDbLine
 10
5347.878418
 20
892.13208
 30
0.0
 11
5337.004395
 21
881.258057
 31
0.0
  0
LINE
  5
331
330
20B
100
AcDbEntity
  8
0
  6
Continuous
 62
     0
100
AcDbLine
 10
5337.147461
 20
882.069336
 30
0.0
 11
5347.209961
 21
892.13208
 31
0.0
  0
LINE
  5
332
330
20B
100
AcDbEntity
  8
0
  6
Continuous
 62
     0
100
AcDbLine
 10
5346.541992
 20
892.13208
 30
0.0
 11
5337.290527
 21
882.880615
 31
0.0
  0
LINE
  5
333
330
20B
100
AcDbEntity
  8
0
  6
Continuous
 62
     0
100
AcDbLine
 10
5337.433594
 20
883.691895
 30
0.0
 11
5345.873535
 21
892.13208
 31
0.0
  0
LINE
  5
334
330
20B
100
AcDbEntity
  8
0
  6
Continuous
 62
     0
100
AcDbLine
 10
5345.205566
 20
892.13208
 30
0.0
 11
5337.57666
 21
884.503174
 31
0.0
  0
LINE
  5
335
330
20B
100
AcDbEntity
  8
0
  6
Continuous
 62
     0
100
AcDbLine
 10
5337.719238
 20
885.314392
 30
0.0
 11
5344.537109
 21
892.13208
 31
0.0
  0
LINE
  5
336
330
20B
100
AcDbEntity
  8
0
  6
Continuous
 62
     0
100
AcDbLine
 10
5343.869141
 20
892.13208
 30
0.0
 11
5337.862305
 21
886.125671
 31
0.0
  0
LINE
  5
337
330
20B
100
AcDbEntity
  8
0
  6
Continuous
 62
     0
100
AcDbLine
 10
5338.005371
 20
886.936951
 30
0.0
 11
5343.200684
 21
892.13208
 31
0.0
  0
LINE
  5
338
330
20B
100
AcDbEntity
  8
0
  6
Continuous
 62
     0
100
AcDbLine
 10
5342.532715
 20
892.13208
 30
0.0
 11
5338.148438
 21
887.748169
 31
0.0
  0
LINE
  5
339
330
20B
100
AcDbEntity
  8
0
  6
Continuous
 62
     0
100
AcDbLine
 10
5338.291504
 20
888.559448
 30
0.0
 11
5341.864258
 21
892.13208
 31
0.0
  0
LINE
  5
33A
330
20B
100
AcDbEntity
  8
0
  6
Continuous
 62
     0
100
AcDbLine
 10
5341.196289
 20
892.13208
 30
0.0
 11
5338.43457
 21
889.370728
 31
0.0
  0
LINE
  5
33B
330
20B
100
AcDbEntity
  8
0
  6
Continuous
 62
     0
100
AcDbLine
 10
5338.577637
 20
890.182007
 30
0.0
 11
5340.527832
 21
892.13208
 31
0.0
  0
LINE
  5
33C
330
20B
100
AcDbEntity
  8
0
  6
Continuous
 62
     0
100
AcDbLine
 10
5339.859863
 20
892.13208
 30
0.0
 11
5338.720703
 21
890.993286
 31
0.0
  0
LINE
  5
33D
330
20B
100
AcDbEntity
  8
0
  6
Continuous
 62
     0
100
AcDbLine
 10
5338.86377
 20
891.804504
 30
0.0
 11
5339.191406
 21
892.13208
 31
0.0
  0
ENDBLK
  5
33F
330
20B
100
AcDbEntity
  8
0
100
AcDbBlockEnd
  0
BLOCK
  5
3B4
330
341
100
AcDbEntity
  8
0
100
AcDbBlockBegin
  2
.TD_XHATCH_4
 70
     0
 10
10866.95996
 20
1705.401
 30
0.0
  3
.TD_XHATCH_4
  1

  0
LINE
  5
342
330
341
100
AcDbEntity
  8
0
  6
Continuous
 62
     0
100
AcDbLine
 10
5437.62793
 20
856.257446
 30
0.0
 11
5446.470215
 21
865.099548
 31
0.0
  0
LINE
  5
343
330
341
100
AcDbEntity
  8
0
  6
Continuous
 62
     0
100
AcDbLine
 10
5462.013672
 20
880.642761
 30
0.0
 11
5470.565918
 21
889.195374
 31
0.0
  0
LINE
  5
344
330
341
100
AcDbEntity
  8
0
  6
Continuous
 62
     0
100
AcDbLine
 10
5470.928711
 20
888.890015
 30
0.0
 11
5462.239258
 21
880.200562
 31
0.0
  0
LINE
  5
345
330
341
100
AcDbEntity
  8
0
  6
Continuous
 62
     0
100
AcDbLine
 10
5446.66748
 20
864.628479
 30
0.0
 11
5437.979004
 21
855.940002
 31
0.0
  0
LINE
  5
346
330
341
100
AcDbEntity
  8
0
  6
Continuous
 62
     0
100
AcDbLine
 10
5438.341797
 20
855.634705
 30
0.0
 11
5446.893555
 21
864.186462
 31
0.0
  0
LINE
  5
347
330
341
100
AcDbEntity
  8
0
  6
Continuous
 62
     0
100
AcDbLine
 10
5462.436523
 20
879.729248
 30
0.0
 11
5471.279785
 21
888.57251
 31
0.0
  0
LINE
  5
348
330
341
100
AcDbEntity
  8
0
  6
Continuous
 62
     0
100
AcDbLine
 10
5471.618164
 20
888.242981
 30
0.0
 11
5462.601562
 21
879.225952
 31
0.0
  0
LINE
  5
349
330
341
100
AcDbEntity
  8
0
  6
Continuous
 62
     0
100
AcDbLine
 10
5447.146973
 20
863.771423
 30
0.0
 11
5438.716797
 21
855.341614
 31
0.0
  0
LINE
  5
34A
330
341
100
AcDbEntity
  8
0
  6
Continuous
 62
     0
100
AcDbLine
 10
5439.104492
 20
855.060913
 30
0.0
 11
5447.425781
 21
863.381958
 31
0.0
  0
LINE
  5
34B
330
341
100
AcDbEntity
  8
0
  6
Continuous
 62
     0
100
AcDbLine
 10
5462.739746
 20
878.696106
 30
0.0
 11
5471.945312
 21
887.901489
 31
0.0
  0
LINE
  5
34C
330
341
100
AcDbEntity
  8
0
  6
Continuous
 62
     0
100
AcDbLine
 10
5472.259766
 20
887.547913
 30
0.0
 11
5462.861816
 21
878.150085
 31
0.0
  0
LINE
  5
34D
330
341
100
AcDbEntity
  8
0
  6
Continuous
 62
     0
100
AcDbLine
 10
5447.729004
 20
863.017151
 30
0.0
 11
5439.504395
 21
854.792786
 31
0.0
  0
LINE
  5
34E
330
341
100
AcDbEntity
  8
0
  6
Continuous
 62
     0
100
AcDbLine
 10
5439.91748
 20
854.537537
 30
0.0
 11
5448.056641
 21
862.676514
 31
0.0
  0
LINE
  5
34F
330
341
100
AcDbEntity
  8
0
  6
Continuous
 62
     0
100
AcDbLine
 10
5462.966797
 20
877.586853
 30
0.0
 11
5472.5625
 21
887.18219
 31
0.0
  0
LINE
  5
350
330
341
100
AcDbEntity
  8
0
  6
Continuous
 62
     0
100
AcDbLine
 10
5472.852539
 20
886.80426
 30
0.0
 11
5463.053223
 21
877.005066
 31
0.0
  0
LINE
  5
351
330
341
100
AcDbEntity
  8
0
  6
Continuous
 62
     0
100
AcDbLine
 10
5448.408203
 20
862.359985
 30
0.0
 11
5440.34375
 21
854.295532
 31
0.0
  0
LINE
  5
352
330
341
100
AcDbEntity
  8
0
  6
Continuous
 62
     0
100
AcDbLine
 10
5440.783691
 20
854.067078
 30
0.0
 11
5448.78418
 21
862.067688
 31
0.0
  0
LINE
  5
353
330
341
100
AcDbEntity
  8
0
  6
Continuous
 62
     0
100
AcDbLine
 10
5463.119629
 20
876.403076
 30
0.0
 11
5473.130371
 21
886.41394
 31
0.0
  0
LINE
  5
354
330
341
100
AcDbEntity
  8
0
  6
Continuous
 62
     0
100
AcDbLine
 10
5473.395508
 20
886.010925
 30
0.0
 11
5463.163574
 21
875.778992
 31
0.0
  0
LINE
  5
355
330
341
100
AcDbEntity
  8
0
  6
Continuous
 62
     0
100
AcDbLine
 10
5449.185059
 20
861.800476
 30
0.0
 11
5441.237793
 21
853.853088
 31
0.0
  0
LINE
  5
356
330
341
100
AcDbEntity
  8
0
  6
Continuous
 62
     0
100
AcDbLine
 10
5441.753906
 20
853.700806
 30
0.0
 11
5449.612305
 21
861.559387
 31
0.0
  0
LINE
  5
357
330
341
100
AcDbEntity
  8
0
  6
Continuous
 62
     0
100
AcDbLine
 10
5463.183105
 20
875.130371
 30
0.0
 11
5473.647949
 21
885.594971
 31
0.0
  0
LINE
  5
358
330
341
100
AcDbEntity
  8
0
  6
Continuous
 62
     0
100
AcDbLine
 10
5473.886719
 20
885.16571
 30
0.0
 11
5463.175293
 21
874.454163
 31
0.0
  0
LINE
  5
359
330
341
100
AcDbEntity
  8
0
  6
Continuous
 62
     0
100
AcDbLine
 10
5450.067383
 20
861.34613
 30
0.0
 11
5442.278809
 21
853.557495
 31
0.0
  0
LINE
  5
35A
330
341
100
AcDbEntity
  8
0
  6
Continuous
 62
     0
100
AcDbLine
 10
5442.812988
 20
853.423523
 30
0.0
 11
5450.552734
 21
861.163208
 31
0.0
  0
LINE
  5
35B
330
341
100
AcDbEntity
  8
0
  6
Continuous
 62
     0
100
AcDbLine
 10
5463.135742
 20
873.74646
 30
0.0
 11
5474.112305
 21
884.722717
 31
0.0
  0
LINE
  5
35C
330
341
100
AcDbEntity
  8
0
  6
Continuous
 62
     0
100
AcDbLine
 10
5474.323242
 20
884.265503
 30
0.0
 11
5463.05957
 21
873.002075
 31
0.0
  0
LINE
  5
35D
330
341
100
AcDbEntity
  8
0
  6
Continuous
 62
     0
100
AcDbLine
 10
5451.071289
 20
861.013916
 30
0.0
 11
5443.356934
 21
853.299316
 31
0.0
  0
LINE
  5
35E
330
341
100
AcDbEntity
  8
0
  6
Continuous
 62
     0
100
AcDbLine
 10
5443.911133
 20
853.185181
 30
0.0
 11
5451.629395
 21
860.903442
 31
0.0
  0
LINE
  5
35F
330
341
100
AcDbEntity
  8
0
  6
Continuous
 62
     0
100
AcDbLine
 10
5462.939941
 20
872.213989
 30
0.0
 11
5474.519043
 21
883.793396
 31
0.0
  0
LINE
  5
360
330
341
100
AcDbEntity
  8
0
  6
Continuous
 62
     0
100
AcDbLine
 10
5474.699707
 20
883.305664
 30
0.0
 11
5462.766113
 21
871.37207
 31
0.0
  0
LINE
  5
361
330
341
100
AcDbEntity
  8
0
  6
Continuous
 62
     0
100
AcDbLine
 10
5452.23291
 20
860.83905
 30
0.0
 11
5444.475586
 21
853.081543
 31
0.0
  0
LINE
  5
362
330
341
100
AcDbEntity
  8
0
  6
Continuous
 62
     0
100
AcDbLine
 10
5445.05127
 20
852.988953
 30
0.0
 11
5452.89502
 21
860.832703
 31
0.0
  0
LINE
  5
363
330
341
100
AcDbEntity
  8
0
  6
Continuous
 62
     0
100
AcDbLine
 10
5462.522949
 20
870.460815
 30
0.0
 11
5474.86377
 21
882.801514
 31
0.0
  0
LINE
  5
364
330
341
100
AcDbEntity
  8
0
  6
Continuous
 62
     0
100
AcDbLine
 10
5475.010254
 20
882.279785
 30
0.0
 11
5462.185059
 21
869.454407
 31
0.0
  0
LINE
  5
365
330
341
100
AcDbEntity
  8
0
  6
Continuous
 62
     0
100
AcDbLine
 10
5453.635742
 20
860.905151
 30
0.0
 11
5445.638184
 21
852.907898
 31
0.0
  0
LINE
  5
366
330
341
100
AcDbEntity
  8
0
  6
Continuous
 62
     0
100
AcDbLine
 10
5446.237793
 20
852.83905
 30
0.0
 11
5454.498047
 21
861.099182
 31
0.0
  0
LINE
  5
367
330
341
100
AcDbEntity
  8
0
  6
Continuous
 62
     0
100
AcDbLine
 10
5461.701172
 20
868.302734
 30
0.0
 11
5475.087402
 21
881.688599
 31
0.0
  0
LINE
  5
368
330
341
100
AcDbEntity
  8
0
  6
Continuous
 62
     0
100
AcDbLine
 10
5475.143066
 20
881.076355
 30
0.0
 11
5460.944336
 21
866.877625
 31
0.0
  0
LINE
  5
369
330
341
100
AcDbEntity
  8
0
  6
Continuous
 62
     0
100
AcDbLine
 10
5455.610352
 20
861.543518
 30
0.0
 11
5446.850098
 21
852.78302
 31
0.0
  0
LINE
  5
36A
330
341
100
AcDbEntity
  8
0
  6
Continuous
 62
     0
100
AcDbLine
 10
5447.475586
 20
852.740662
 30
0.0
 11
5458.371094
 21
863.636108
 31
0.0
  0
LINE
  5
36B
330
341
100
AcDbEntity
  8
0
  6
Continuous
 62
     0
100
AcDbLine
 10
5458.753906
 20
864.018982
 30
0.0
 11
5475.185547
 21
880.4505
 31
0.0
  0
LINE
  5
36C
330
341
100
AcDbEntity
  8
0
  6
Continuous
 62
     0
100
AcDbLine
 10
5475.213379
 20
879.81012
 30
0.0
 11
5448.116211
 21
852.71283
 31
0.0
  0
LINE
  5
36D
330
341
100
AcDbEntity
  8
0
  6
Continuous
 62
     0
100
AcDbLine
 10
5448.771973
 20
852.7005
 30
0.0
 11
5475.225586
 21
879.154236
 31
0.0
  0
LINE
  5
36E
330
341
100
AcDbEntity
  8
0
  6
Continuous
 62
     0
100
AcDbLine
 10
5475.221191
 20
878.481689
 30
0.0
 11
5449.444336
 21
852.704834
 31
0.0
  0
LINE
  5
36F
330
341
100
AcDbEntity
  8
0
  6
Continuous
 62
     0
100
AcDbLine
 10
5450.135254
 20
852.727234
 30
0.0
 11
5475.199219
 21
877.791077
 31
0.0
  0
LINE
  5
370
330
341
100
AcDbEntity
  8
0
  6
Continuous
 62
     0
100
AcDbLine
 10
5475.157227
 20
877.080872
 30
0.0
 11
5450.845215
 21
852.769226
 31
0.0
  0
LINE
  5
371
330
341
100
AcDbEntity
  8
0
  6
Continuous
 62
     0
100
AcDbLine
 10
5451.577148
 20
852.832764
 30
0.0
 11
5475.093262
 21
876.349121
 31
0.0
  0
LINE
  5
372
330
341
100
AcDbEntity
  8
0
  6
Continuous
 62
     0
100
AcDbLine
 10
5475.006348
 20
875.593628
 30
0.0
 11
5452.33252
 21
852.920044
 31
0.0
  0
LINE
  5
373
330
341
100
AcDbEntity
  8
0
  6
Continuous
 62
     0
100
AcDbLine
 10
5453.114746
 20
853.033813
 30
0.0
 11
5474.892578
 21
874.811584
 31
0.0
  0
LINE
  5
374
330
341
100
AcDbEntity
  8
0
  6
Continuous
 62
     0
100
AcDbLine
 10
5474.748535
 20
873.999634
 30
0.0
 11
5453.926758
 21
853.177612
 31
0.0
  0
LINE
  5
375
330
341
100
AcDbEntity
  8
0
  6
Continuous
 62
     0
100
AcDbLine
 10
5454.772949
 20
853.355652
 30
0.0
 11
5474.570801
 21
873.153381
 31
0.0
  0
LINE
  5
376
330
341
100
AcDbEntity
  8
0
  6
Continuous
 62
     0
100
AcDbLine
 10
5474.352539
 20
872.267212
 30
0.0
 11
5455.65918
 21
853.573608
 31
0.0
  0
LINE
  5
377
330
341
100
AcDbEntity
  8
0
  6
Continuous
 62
     0
100
AcDbLine
 10
5456.592773
 20
853.83905
 30
0.0
 11
5474.087402
 21
871.333557
 31
0.0
  0
LINE
  5
378
330
341
100
AcDbEntity
  8
0
  6
Continuous
 62
     0
100
AcDbLine
 10
5473.763672
 20
870.341858
 30
0.0
 11
5457.584473
 21
854.162537
 31
0.0
  0
LINE
  5
379
330
341
100
AcDbEntity
  8
0
  6
Continuous
 62
     0
100
AcDbLine
 10
5458.649414
 20
854.55957
 30
0.0
 11
5473.366699
 21
869.276611
 31
0.0
  0
LINE
  5
37A
330
341
100
AcDbEntity
  8
0
  6
Continuous
 62
     0
100
AcDbLine
 10
5472.871582
 20
868.113098
 30
0.0
 11
5459.812988
 21
855.05481
 31
0.0
  0
LINE
  5
37B
330
341
100
AcDbEntity
  8
0
  6
Continuous
 62
     0
100
AcDbLine
 10
5461.118652
 20
855.692139
 30
0.0
 11
5472.233887
 21
866.807617
 31
0.0
  0
LINE
  5
37C
330
341
100
AcDbEntity
  8
0
  6
Continuous
 62
     0
100
AcDbLine
 10
5471.36084
 20
865.26593
 30
0.0
 11
5462.660156
 21
856.565613
 31
0.0
  0
LINE
  5
37D
330
341
100
AcDbEntity
  8
0
  6
Continuous
 62
     0
100
AcDbLine
 10
5464.749023
 20
857.986267
 30
0.0
 11
5469.939941
 21
863.177002
 31
0.0
  0
LINE
  5
37E
330
341
100
AcDbEntity
  8
0
  6
Continuous
 62
     0
100
AcDbLine
 10
5470.190918
 20
889.488525
 30
0.0
 11
5461.760254
 21
881.057983
 31
0.0
  0
LINE
  5
37F
330
341
100
AcDbEntity
  8
0
  6
Continuous
 62
     0
100
AcDbLine
 10
5446.305176
 20
865.6026
 30
0.0
 11
5437.289551
 21
856.586853
 31
0.0
  0
LINE
  5
380
330
341
100
AcDbEntity
  8
0
  6
Continuous
 62
     0
100
AcDbLine
 10
5436.962402
 20
856.928284
 30
0.0
 11
5446.166504
 21
866.132385
 31
0.0
  0
LINE
  5
381
330
341
100
AcDbEntity
  8
0
  6
Continuous
 62
     0
100
AcDbLine
 10
5461.481934
 20
881.447571
 30
0.0
 11
5469.803711
 21
889.769348
 31
0.0
  0
LINE
  5
382
330
341
100
AcDbEntity
  8
0
  6
Continuous
 62
     0
100
AcDbLine
 10
5469.403809
 20
890.037537
 30
0.0
 11
5461.178711
 21
881.812561
 31
0.0
  0
LINE
  5
383
330
341
100
AcDbEntity
  8
0
  6
Continuous
 62
     0
100
AcDbLine
 10
5446.044434
 20
866.678284
 30
0.0
 11
5436.647949
 21
857.281799
 31
0.0
  0
LINE
  5
384
330
341
100
AcDbEntity
  8
0
  6
Continuous
 62
     0
100
AcDbLine
 10
5436.345215
 20
857.6474
 30
0.0
 11
5445.939453
 21
867.241394
 31
0.0
  0
LINE
  5
385
330
341
100
AcDbEntity
  8
0
  6
Continuous
 62
     0
100
AcDbLine
 10
5460.851074
 20
882.15332
 30
0.0
 11
5468.990723
 21
890.292847
 31
0.0
  0
LINE
  5
386
330
341
100
AcDbEntity
  8
0
  6
Continuous
 62
     0
100
AcDbLine
 10
5468.564453
 20
890.534973
 30
0.0
 11
5460.5
 21
882.470093
 31
0.0
  0
LINE
  5
387
330
341
100
AcDbEntity
  8
0
  6
Continuous
 62
     0
100
AcDbLine
 10
5445.852539
 20
867.823059
 30
0.0
 11
5436.054688
 21
858.025269
 31
0.0
  0
LINE
  5
388
330
341
100
AcDbEntity
  8
0
  6
Continuous
 62
     0
100
AcDbLine
 10
5435.776855
 20
858.415527
 30
0.0
 11
5445.786133
 21
868.424927
 31
0.0
  0
LINE
  5
389
330
341
100
AcDbEntity
  8
0
  6
Continuous
 62
     0
100
AcDbLine
 10
5460.124023
 20
882.762512
 30
0.0
 11
5468.125
 21
890.763489
 31
0.0
  0
LINE
  5
38A
330
341
100
AcDbEntity
  8
0
  6
Continuous
 62
     0
100
AcDbLine
 10
5467.670898
 20
890.977905
 30
0.0
 11
5459.723145
 21
883.029907
 31
0.0
  0
LINE
  5
38B
330
341
100
AcDbEntity
  8
0
  6
Continuous
 62
     0
100
AcDbLine
 10
5445.742188
 20
869.048828
 30
0.0
 11
5435.511719
 21
858.81842
 31
0.0
  0
LINE
  5
38C
330
341
100
AcDbEntity
  8
0
  6
Continuous
 62
     0
100
AcDbLine
 10
5435.259277
 20
859.234314
 30
0.0
 11
5445.722168
 21
869.697327
 31
0.0
  0
LINE
  5
38D
330
341
100
AcDbEntity
  8
0
  6
Continuous
 62
     0
100
AcDbLine
 10
5459.296387
 20
883.271118
 30
0.0
 11
5467.202637
 21
891.177551
 31
0.0
  0
LINE
  5
38E
330
341
100
AcDbEntity
  8
0
  6
Continuous
 62
     0
100
AcDbLine
 10
5466.71875
 20
891.361816
 30
0.0
 11
5458.841309
 21
883.484619
 31
0.0
  0
LINE
  5
38F
330
341
100
AcDbEntity
  8
0
  6
Continuous
 62
     0
100
AcDbLine
 10
5445.72998
 20
870.373352
 30
0.0
 11
5435.020508
 21
859.663452
 31
0.0
  0
LINE
  5
390
330
341
100
AcDbEntity
  8
0
  6
Continuous
 62
     0
100
AcDbLine
 10
5434.794922
 20
860.106323
 30
0.0
 11
5445.769531
 21
871.080811
 31
0.0
  0
LINE
  5
391
330
341
100
AcDbEntity
  8
0
  6
Continuous
 62
     0
100
AcDbLine
 10
5458.356445
 20
883.667786
 30
0.0
 11
5466.218262
 21
891.529785
 31
0.0
  0
LINE
  5
392
330
341
100
AcDbEntity
  8
0
  6
Continuous
 62
     0
100
AcDbLine
 10
5465.700684
 20
891.680481
 30
0.0
 11
5457.837402
 21
883.817261
 31
0.0
  0
LINE
  5
393
330
341
100
AcDbEntity
  8
0
  6
Continuous
 62
     0
100
AcDbLine
 10
5445.845215
 20
871.824951
 30
0.0
 11
5434.583984
 21
860.563477
 31
0.0
  0
LINE
  5
394
330
341
100
AcDbEntity
  8
0
  6
Continuous
 62
     0
100
AcDbLine
 10
5434.387695
 20
861.035461
 30
0.0
 11
5445.964844
 21
872.612671
 31
0.0
  0
LINE
  5
395
330
341
100
AcDbEntity
  8
0
  6
Continuous
 62
     0
100
AcDbLine
 10
5457.280273
 20
883.92804
 30
0.0
 11
5465.165039
 21
891.812744
 31
0.0
  0
LINE
  5
396
330
341
100
AcDbEntity
  8
0
  6
Continuous
 62
     0
100
AcDbLine
 10
5464.608887
 20
891.925049
 30
0.0
 11
5456.676758
 21
883.992737
 31
0.0
  0
LINE
  5
397
330
341
100
AcDbEntity
  8
0
  6
Continuous
 62
     0
100
AcDbLine
 10
5446.138184
 20
873.454224
 30
0.0
 11
5434.207031
 21
861.523071
 31
0.0
  0
LINE
  5
398
330
341
100
AcDbEntity
  8
0
  6
Continuous
 62
     0
100
AcDbLine
 10
5434.042969
 20
862.027161
 30
0.0
 11
5446.380859
 21
874.364929
 31
0.0
  0
LINE
  5
399
330
341
100
AcDbEntity
  8
0
  6
Continuous
 62
     0
100
AcDbLine
 10
5456.015137
 20
883.999512
 30
0.0
 11
5464.03125
 21
892.015564
 31
0.0
  0
LINE
  5
39A
330
341
100
AcDbEntity
  8
0
  6
Continuous
 62
     0
100
AcDbLine
 10
5463.429688
 20
892.082153
 30
0.0
 11
5455.275391
 21
883.927734
 31
0.0
  0
LINE
  5
39B
330
341
100
AcDbEntity
  8
0
  6
Continuous
 62
     0
100
AcDbLine
 10
5446.718262
 20
875.370544
 30
0.0
 11
5433.896484
 21
862.548767
 31
0.0
  0
LINE
  5
39C
330
341
100
AcDbEntity
  8
0
  6
Continuous
 62
     0
100
AcDbLine
 10
5433.768555
 20
863.089172
 30
0.0
 11
5447.200195
 21
876.520996
 31
0.0
  0
LINE
  5
39D
330
341
100
AcDbEntity
  8
0
  6
Continuous
 62
     0
100
AcDbLine
 10
5454.414062
 20
883.734741
 30
0.0
 11
5462.80127
 21
892.121948
 31
0.0
  0
LINE
  5
39E
330
341
100
AcDbEntity
  8
0
  6
Continuous
 62
     0
100
AcDbLine
 10
5462.142578
 20
892.131348
 30
0.0
 11
5453.304199
 21
883.293152
 31
0.0
  0
LINE
  5
39F
330
341
100
AcDbEntity
  8
0
  6
Continuous
 62
     0
100
AcDbLine
 10
5447.95459
 20
877.94342
 30
0.0
 11
5433.661133
 21
863.649841
 31
0.0
  0
LINE
  5
3A0
330
341
100
AcDbEntity
  8
0
  6
Continuous
 62
     0
100
AcDbLine
 10
5433.575684
 20
864.232788
 30
0.0
 11
5450.051758
 21
880.709106
 31
0.0
  0
LINE
  5
3A1
330
341
100
AcDbEntity
  8
0
  6
Continuous
 62
     0
100
AcDbLine
 10
5450.638672
 20
881.295532
 30
0.0
 11
5461.448242
 21
892.105469
 31
0.0
  0
LINE
  5
3A2
330
341
100
AcDbEntity
  8
0
  6
Continuous
 62
     0
100
AcDbLine
 10
5460.793945
 20
892.11908
 30
0.0
 11
5433.514648
 21
864.84021
 31
0.0
  0
LINE
  5
3A3
330
341
100
AcDbEntity
  8
0
  6
Continuous
 62
     0
100
AcDbLine
 10
5433.481445
 20
865.47522
 30
0.0
 11
5460.138184
 21
892.131531
 31
0.0
  0
LINE
  5
3A4
330
341
100
AcDbEntity
  8
0
  6
Continuous
 62
     0
100
AcDbLine
 10
5459.465332
 20
892.127319
 30
0.0
 11
5433.47998
 21
866.141663
 31
0.0
  0
LINE
  5
3A5
330
341
100
AcDbEntity
  8
0
  6
Continuous
 62
     0
100
AcDbLine
 10
5433.514648
 20
866.844666
 30
0.0
 11
5458.774902
 21
892.105042
 31
0.0
  0
LINE
  5
3A6
330
341
100
AcDbEntity
  8
0
  6
Continuous
 62
     0
100
AcDbLine
 10
5458.064941
 20
892.063171
 30
0.0
 11
5433.593262
 21
867.59137
 31
0.0
  0
LINE
  5
3A7
330
341
100
AcDbEntity
  8
0
  6
Continuous
 62
     0
100
AcDbLine
 10
5433.726074
 20
868.392334
 30
0.0
 11
5457.333496
 21
891.999817
 31
0.0
  0
LINE
  5
3A8
330
341
100
AcDbEntity
  8
0
  6
Continuous
 62
     0
100
AcDbLine
 10
5456.578125
 20
891.91272
 30
0.0
 11
5433.898438
 21
869.233337
 31
0.0
  0
LINE
  5
3A9
330
341
100
AcDbEntity
  8
0
  6
Continuous
 62
     0
100
AcDbLine
 10
5434.012207
 20
870.015137
 30
0.0
 11
5455.796387
 21
891.799072
 31
0.0
  0
LINE
  5
3AA
330
341
100
AcDbEntity
  8
0
  6
Continuous
 62
     0
100
AcDbLine
 10
5454.984375
 20
891.655518
 30
0.0
 11
5434.155762
 21
870.826904
 31
0.0
  0
LINE
  5
3AB
330
341
100
AcDbEntity
  8
0
  6
Continuous
 62
     0
100
AcDbLine
 10
5434.333496
 20
871.672974
 30
0.0
 11
5454.138184
 21
891.477722
 31
0.0
  0
LINE
  5
3AC
330
341
100
AcDbEntity
  8
0
  6
Continuous
 62
     0
100
AcDbLine
 10
5453.252441
 20
891.26001
 30
0.0
 11
5434.55127
 21
872.558838
 31
0.0
  0
LINE
  5
3AD
330
341
100
AcDbEntity
  8
0
  6
Continuous
 62
     0
100
AcDbLine
 10
5434.816406
 20
873.492188
 30
0.0
 11
5452.319336
 21
890.994934
 31
0.0
  0
LINE
  5
3AE
330
341
100
AcDbEntity
  8
0
  6
Continuous
 62
     0
100
AcDbLine
 10
5451.328125
 20
890.671875
 30
0.0
 11
5435.139648
 21
874.483398
 31
0.0
  0
LINE
  5
3AF
330
341
100
AcDbEntity
  8
0
  6
Continuous
 62
     0
100
AcDbLine
 10
5435.536133
 20
875.548096
 30
0.0
 11
5450.263184
 21
890.275391
 31
0.0
  0
LINE
  5
3B0
330
341
100
AcDbEntity
  8
0
  6
Continuous
 62
     0
100
AcDbLine
 10
5449.100586
 20
889.780884
 30
0.0
 11
5436.030273
 21
876.710815
 31
0.0
  0
LINE
  5
3B1
330
341
100
AcDbEntity
  8
0
  6
Continuous
 62
     0
100
AcDbLine
 10
5436.666504
 20
878.015198
 30
0.0
 11
5447.796387
 21
889.144775
 31
0.0
  0
LINE
  5
3B2
330
341
100
AcDbEntity
  8
0
  6
Continuous
 62
     0
100
AcDbLine
 10
5446.256836
 20
888.273438
 30
0.0
 11
5437.538086
 21
879.554749
 31
0.0
  0
LINE
  5
3B3
330
341
100
AcDbEntity
  8
0
  6
Continuous
 62
     0
100
AcDbLine
 10
5438.952148
 20
881.637146
 30
0.0
 11
5444.174316
 21
886.859253
 31
0.0
  0
ENDBLK
  5
3B5
330
341
100
AcDbEntity
  8
0
100
AcDbBlockEnd
  0
BLOCK
  5
455
330
3B7
100
AcDbEntity
  8
0
100
AcDbBlockBegin
  2
.TD_XHATCH_5
 70
     0
 10
10942.853516
 20
1705.399902
 30
0.0
  3
.TD_XHATCH_5
  1

  0
LINE
  5
3B8
330
3B7
100
AcDbEntity
  8
0
  6
Continuous
 62
     0
100
AcDbLine
 10
5475.922363
 20
857.131287
 30
0.0
 11
5484.634766
 21
865.843994
 31
0.0
  0
LINE
  5
3B9
330
3B7
100
AcDbEntity
  8
0
  6
Continuous
 62
     0
100
AcDbLine
 10
5488.878418
 20
870.087646
 30
0.0
 11
5493.865234
 21
875.074524
 31
0.0
  0
LINE
  5
3BA
330
3B7
100
AcDbEntity
  8
0
  6
Continuous
 62
     0
100
AcDbLine
 10
5499.422852
 20
880.631775
 30
0.0
 11
5507.519531
 21
888.728638
 31
0.0
  0
LINE
  5
3BB
330
3B7
100
AcDbEntity
  8
0
  6
Continuous
 62
     0
100
AcDbLine
 10
5507.887695
 20
888.428406
 30
0.0
 11
5499.650391
 21
880.191406
 31
0.0
  0
LINE
  5
3BC
330
3B7
100
AcDbEntity
  8
0
  6
Continuous
 62
     0
100
AcDbLine
 10
5494.433594
 20
874.974365
 30
0.0
 11
5489.446777
 21
869.987488
 31
0.0
  0
LINE
  5
3BD
330
3B7
100
AcDbEntity
  8
0
  6
Continuous
 62
     0
100
AcDbLine
 10
5484.76416
 20
865.305298
 30
0.0
 11
5476.26709
 21
856.807922
 31
0.0
  0
LINE
  5
3BE
330
3B7
100
AcDbEntity
  8
0
  6
Continuous
 62
     0
100
AcDbLine
 10
5476.621582
 20
856.494568
 30
0.0
 11
5484.90918
 21
864.782043
 31
0.0
  0
LINE
  5
3BF
330
3B7
100
AcDbEntity
  8
0
  6
Continuous
 62
     0
100
AcDbLine
 10
5490.014648
 20
869.887329
 30
0.0
 11
5495.001465
 21
874.874207
 31
0.0
  0
LINE
  5
3C0
330
3B7
100
AcDbEntity
  8
0
  6
Continuous
 62
     0
100
AcDbLine
 10
5499.817383
 20
879.690002
 30
0.0
 11
5508.245117
 21
888.118042
 31
0.0
  0
LINE
  5
3C1
330
3B7
100
AcDbEntity
  8
0
  6
Continuous
 62
     0
100
AcDbLine
 10
5508.593262
 20
887.797607
 30
0.0
 11
5499.898926
 21
879.103455
 31
0.0
  0
LINE
  5
3C2
330
3B7
100
AcDbEntity
  8
0
  6
Continuous
 62
     0
100
AcDbLine
 10
5495.569336
 20
874.774048
 30
0.0
 11
5490.58252
 21
869.78717
 31
0.0
  0
LINE
  5
3C3
330
3B7
100
AcDbEntity
  8
0
  6
Continuous
 62
     0
100
AcDbLine
 10
5485.120605
 20
864.325195
 30
0.0
 11
5476.986816
 21
856.191284
 31
0.0
  0
LINE
  5
3C4
330
3B7
100
AcDbEntity
  8
0
  6
Continuous
 62
     0
100
AcDbLine
 10
5477.361816
 20
855.898193
 30
0.0
 11
5485.383301
 21
863.919861
 31
0.0
  0
LINE
  5
3C5
330
3B7
100
AcDbEntity
  8
0
  6
Continuous
 62
     0
100
AcDbLine
 10
5491.150879
 20
869.687012
 30
0.0
 11
5496.137695
 21
874.673889
 31
0.0
  0
LINE
  5
3C6
330
3B7
100
AcDbEntity
  8
0
  6
Continuous
 62
     0
100
AcDbLine
 10
5500.45166
 20
878.988037
 30
0.0
 11
5508.930664
 21
887.467163
 31
0.0
  0
LINE
  5
3C7
330
3B7
100
AcDbEntity
  8
0
  6
Continuous
 62
     0
100
AcDbLine
 10
5509.258789
 20
887.126648
 30
0.0
 11
5501.120117
 21
878.988037
 31
0.0
  0
LINE
  5
3C8
330
3B7
100
AcDbEntity
  8
0
  6
Continuous
 62
     0
100
AcDbLine
 10
5496.705566
 20
874.57373
 30
0.0
 11
5491.700195
 21
869.568298
 31
0.0
  0
LINE
  5
3C9
330
3B7
100
AcDbEntity
  8
0
  6
Continuous
 62
     0
100
AcDbLine
 10
5485.689453
 20
863.557373
 30
0.0
 11
5477.747559
 21
855.615417
 31
0.0
  0
LINE
  5
3CA
330
3B7
100
AcDbEntity
  8
0
  6
Continuous
 62
     0
100
AcDbLine
 10
5478.143066
 20
855.34314
 30
0.0
 11
5486.033203
 21
863.232849
 31
0.0
  0
LINE
  5
3CB
330
3B7
100
AcDbEntity
  8
0
  6
Continuous
 62
     0
100
AcDbLine
 10
5492.211914
 20
869.411743
 30
0.0
 11
5497.273438
 21
874.473572
 31
0.0
  0
LINE
  5
3CC
330
3B7
100
AcDbEntity
  8
0
  6
Continuous
 62
     0
100
AcDbLine
 10
5501.788086
 20
878.988037
 30
0.0
 11
5509.576172
 21
886.776184
 31
0.0
  0
LINE
  5
3CD
330
3B7
100
AcDbEntity
  8
0
  6
Continuous
 62
     0
100
AcDbLine
 10
5509.883789
 20
886.415588
 30
0.0
 11
5502.456543
 21
878.988037
 31
0.0
  0
LINE
  5
3CE
330
3B7
100
AcDbEntity
  8
0
  6
Continuous
 62
     0
100
AcDbLine
 10
5497.841797
 20
874.373413
 30
0.0
 11
5492.688477
 21
869.220337
 31
0.0
  0
LINE
  5
3CF
330
3B7
100
AcDbEntity
  8
0
  6
Continuous
 62
     0
100
AcDbLine
 10
5486.411621
 20
862.943115
 30
0.0
 11
5478.549805
 21
855.081421
 31
0.0
  0
LINE
  5
3D0
330
3B7
100
AcDbEntity
  8
0
  6
Continuous
 62
     0
100
AcDbLine
 10
5478.967285
 20
854.830505
 30
0.0
 11
5486.823242
 21
862.686584
 31
0.0
  0
LINE
  5
3D1
330
3B7
100
AcDbEntity
  8
0
  6
Continuous
 62
     0
100
AcDbLine
 10
5493.132324
 20
868.995728
 30
0.0
 11
5498.409668
 21
874.273254
 31
0.0
  0
LINE
  5
3D2
330
3B7
100
AcDbEntity
  8
0
  6
Continuous
 62
     0
100
AcDbLine
 10
5503.124512
 20
878.988037
 30
0.0
 11
5510.181641
 21
886.044922
 31
0.0
  0
LINE
  5
3D3
330
3B7
100
AcDbEntity
  8
0
  6
Continuous
 62
     0
100
AcDbLine
 10
5510.46875
 20
885.66394
 30
0.0
 11
5503.792969
 21
878.988037
 31
0.0
  0
LINE
  5
3D4
330
3B7
100
AcDbEntity
  8
0
  6
Continuous
 62
     0
100
AcDbLine
 10
5498.978027
 20
874.173096
 30
0.0
 11
5493.542969
 21
868.738464
 31
0.0
  0
LINE
  5
3D5
330
3B7
100
AcDbEntity
  8
0
  6
Continuous
 62
     0
100
AcDbLine
 10
5487.267578
 20
862.462769
 30
0.0
 11
5479.395508
 21
854.590759
 31
0.0
  0
LINE
  5
3D6
330
3B7
100
AcDbEntity
  8
0
  6
Continuous
 62
     0
100
AcDbLine
 10
5479.835449
 20
854.362366
 30
0.0
 11
5487.745117
 21
862.272217
 31
0.0
  0
LINE
  5
3D7
330
3B7
100
AcDbEntity
  8
0
  6
Continuous
 62
     0
100
AcDbLine
 10
5493.920898
 20
868.447937
 30
0.0
 11
5499.545898
 21
874.072937
 31
0.0
  0
LINE
  5
3D8
330
3B7
100
AcDbEntity
  8
0
  6
Continuous
 62
     0
100
AcDbLine
 10
5504.460938
 20
878.988037
 30
0.0
 11
5510.745605
 21
885.272583
 31
0.0
  0
LINE
  5
3D9
330
3B7
100
AcDbEntity
  8
0
  6
Continuous
 62
     0
100
AcDbLine
 10
5511.011719
 20
884.870728
 30
0.0
 11
5505.129395
 21
878.988037
 31
0.0
  0
LINE
  5
3DA
330
3B7
100
AcDbEntity
  8
0
  6
Continuous
 62
     0
100
AcDbLine
 10
5500.11377
 20
873.972778
 30
0.0
 11
5494.263672
 21
868.122498
 31
0.0
  0
LINE
  5
3DB
330
3B7
100
AcDbEntity
  8
0
  6
Continuous
 62
     0
100
AcDbLine
 10
5488.257812
 20
862.116455
 30
0.0
 11
5480.287109
 21
854.145691
 31
0.0
  0
LINE
  5
3DC
330
3B7
100
AcDbEntity
  8
0
  6
Continuous
 62
     0
100
AcDbLine
 10
5480.750488
 20
853.941162
 30
0.0
 11
5488.808105
 21
861.998718
 31
0.0
  0
LINE
  5
3DD
330
3B7
100
AcDbEntity
  8
0
  6
Continuous
 62
     0
100
AcDbLine
 10
5494.568359
 20
867.759155
 30
0.0
 11
5500.682129
 21
873.872559
 31
0.0
  0
LINE
  5
3DE
330
3B7
100
AcDbEntity
  8
0
  6
Continuous
 62
     0
100
AcDbLine
 10
5505.797363
 20
878.988037
 30
0.0
 11
5511.267578
 21
884.45813
 31
0.0
  0
LINE
  5
3DF
330
3B7
100
AcDbEntity
  8
0
  6
Continuous
 62
     0
100
AcDbLine
 10
5511.512207
 20
884.034546
 30
0.0
 11
5506.46582
 21
878.988037
 31
0.0
  0
LINE
  5
3E0
330
3B7
100
AcDbEntity
  8
0
  6
Continuous
 62
     0
100
AcDbLine
 10
5501.25
 20
873.772461
 30
0.0
 11
5494.830078
 21
867.352661
 31
0.0
  0
LINE
  5
3E1
330
3B7
100
AcDbEntity
  8
0
  6
Continuous
 62
     0
100
AcDbLine
 10
5489.401855
 20
861.924133
 30
0.0
 11
5481.227051
 21
853.749207
 31
0.0
  0
LINE
  5
3E2
330
3B7
100
AcDbEntity
  8
0
  6
Continuous
 62
     0
100
AcDbLine
 10
5481.716309
 20
853.570435
 30
0.0
 11
5490.046875
 21
861.901184
 31
0.0
  0
LINE
  5
3E3
330
3B7
100
AcDbEntity
  8
0
  6
Continuous
 62
     0
100
AcDbLine
 10
5495.040527
 20
866.89447
 30
0.0
 11
5501.818359
 21
873.672241
 31
0.0
  0
LINE
  5
3E4
330
3B7
100
AcDbEntity
  8
0
  6
Continuous
 62
     0
100
AcDbLine
 10
5507.133789
 20
878.988037
 30
0.0
 11
5511.745605
 21
883.59967
 31
0.0
  0
LINE
  5
3E5
330
3B7
100
AcDbEntity
  8
0
  6
Continuous
 62
     0
100
AcDbLine
 10
5511.967285
 20
883.153259
 30
0.0
 11
5507.802246
 21
878.988037
 31
0.0
  0
LINE
  5
3E6
330
3B7
100
AcDbEntity
  8
0
  6
Continuous
 62
     0
100
AcDbLine
 10
5502.38623
 20
873.572083
 30
0.0
 11
5495.183594
 21
866.369385
 31
0.0
  0
LINE
  5
3E7
330
3B7
100
AcDbEntity
  8
0
  6
Continuous
 62
     0
100
AcDbLine
 10
5490.759277
 20
861.94519
 30
0.0
 11
5482.219238
 21
853.405334
 31
0.0
  0
LINE
  5
3E8
330
3B7
100
AcDbEntity
  8
0
  6
Continuous
 62
     0
100
AcDbLine
 10
5482.737305
 20
853.254761
 30
0.0
 11
5491.569336
 21
862.087036
 31
0.0
  0
LINE
  5
3E9
330
3B7
100
AcDbEntity
  8
0
  6
Continuous
 62
     0
100
AcDbLine
 10
5495.228516
 20
865.746399
 30
0.0
 11
5502.954102
 21
873.471802
 31
0.0
  0
LINE
  5
3EA
330
3B7
100
AcDbEntity
  8
0
  6
Continuous
 62
     0
100
AcDbLine
 10
5508.470215
 20
878.988037
 30
0.0
 11
5512.177246
 21
882.694885
 31
0.0
  0
LINE
  5
3EB
330
3B7
100
AcDbEntity
  8
0
  6
Continuous
 62
     0
100
AcDbLine
 10
5512.374512
 20
882.224121
 30
0.0
 11
5509.138672
 21
878.988037
 31
0.0
  0
LINE
  5
3EC
330
3B7
100
AcDbEntity
  8
0
  6
Continuous
 62
     0
100
AcDbLine
 10
5503.501953
 20
873.351624
 30
0.0
 11
5495.090332
 21
864.939697
 31
0.0
  0
LINE
  5
3ED
330
3B7
100
AcDbEntity
  8
0
  6
Continuous
 62
     0
100
AcDbLine
 10
5492.562988
 20
862.412659
 30
0.0
 11
5483.27002
 21
853.119507
 31
0.0
  0
LINE
  5
3EE
330
3B7
100
AcDbEntity
  8
0
  6
Continuous
 62
     0
100
AcDbLine
 10
5483.819336
 20
853.000488
 30
0.0
 11
5504.018555
 21
873.19989
 31
0.0
  0
LINE
  5
3EF
330
3B7
100
AcDbEntity
  8
0
  6
Continuous
 62
     0
100
AcDbLine
 10
5509.806641
 20
878.988037
 30
0.0
 11
5512.559082
 21
881.740479
 31
0.0
  0
LINE
  5
3F0
330
3B7
100
AcDbEntity
  8
0
  6
Continuous
 62
     0
100
AcDbLine
 10
5512.730469
 20
881.243408
 30
0.0
 11
5510.475098
 21
878.988037
 31
0.0
  0
LINE
  5
3F1
330
3B7
100
AcDbEntity
  8
0
  6
Continuous
 62
     0
100
AcDbLine
 10
5504.506836
 20
873.020081
 30
0.0
 11
5484.385742
 21
852.898987
 31
0.0
  0
LINE
  5
3F2
330
3B7
100
AcDbEntity
  8
0
  6
Continuous
 62
     0
100
AcDbLine
 10
5484.97168
 20
852.816284
 30
0.0
 11
5504.969727
 21
872.814575
 31
0.0
  0
LINE
  5
3F3
330
3B7
100
AcDbEntity
  8
0
  6
Continuous
 62
     0
100
AcDbLine
 10
5511.143066
 20
878.988037
 30
0.0
 11
5512.887207
 21
880.732117
 31
0.0
  0
LINE
  5
3F4
330
3B7
100
AcDbEntity
  8
0
  6
Continuous
 62
     0
100
AcDbLine
 10
5513.029297
 20
880.205933
 30
0.0
 11
5511.811523
 21
878.988037
 31
0.0
  0
LINE
  5
3F5
330
3B7
100
AcDbEntity
  8
0
  6
Continuous
 62
     0
100
AcDbLine
 10
5505.408691
 20
872.585266
 30
0.0
 11
5485.577637
 21
852.75415
 31
0.0
  0
LINE
  5
3F6
330
3B7
100
AcDbEntity
  8
0
  6
Continuous
 62
     0
100
AcDbLine
 10
5486.206055
 20
852.714539
 30
0.0
 11
5505.825195
 21
872.333496
 31
0.0
  0
LINE
  5
3F7
330
3B7
100
AcDbEntity
  8
0
  6
Continuous
 62
     0
100
AcDbLine
 10
5512.479492
 20
878.988037
 30
0.0
 11
5513.155273
 21
879.663879
 31
0.0
  0
LINE
  5
3F8
330
3B7
100
AcDbEntity
  8
0
  6
Continuous
 62
     0
100
AcDbLine
 10
5513.264648
 20
879.104919
 30
0.0
 11
5513.147949
 21
878.988037
 31
0.0
  0
LINE
  5
3F9
330
3B7
100
AcDbEntity
  8
0
  6
Continuous
 62
     0
100
AcDbLine
 10
5506.220215
 20
872.060364
 30
0.0
 11
5486.859863
 21
852.699951
 31
0.0
  0
LINE
  5
3FA
330
3B7
100
AcDbEntity
  8
0
  6
Continuous
 62
     0
100
AcDbLine
 10
5487.527832
 20
852.699951
 30
0.0
 11
5506.594238
 21
871.766479
 31
0.0
  0
LINE
  5
3FB
330
3B7
100
AcDbEntity
  8
0
  6
Continuous
 62
     0
100
AcDbLine
 10
5506.948242
 20
871.452271
 30
0.0
 11
5488.196289
 21
852.699951
 31
0.0
  0
LINE
  5
3FC
330
3B7
100
AcDbEntity
  8
0
  6
Continuous
 62
     0
100
AcDbLine
 10
5488.864258
 20
852.699951
 30
0.0
 11
5507.282227
 21
871.118042
 31
0.0
  0
LINE
  5
3FD
330
3B7
100
AcDbEntity
  8
0
  6
Continuous
 62
     0
100
AcDbLine
 10
5507.596191
 20
870.763733
 30
0.0
 11
5489.532715
 21
852.699951
 31
0.0
  0
LINE
  5
3FE
330
3B7
100
AcDbEntity
  8
0
  6
Continuous
 62
     0
100
AcDbLine
 10
5490.200684
 20
852.699951
 30
0.0
 11
5507.890137
 21
870.38916
 31
0.0
  0
LINE
  5
3FF
330
3B7
100
AcDbEntity
  8
0
  6
Continuous
 62
     0
100
AcDbLine
 10
5508.163086
 20
869.993774
 30
0.0
 11
5490.869141
 21
852.699951
 31
0.0
  0
LINE
  5
400
330
3B7
100
AcDbEntity
  8
0
  6
Continuous
 62
     0
100
AcDbLine
 10
5491.541504
 20
852.704102
 30
0.0
 11
5508.414551
 21
869.577026
 31
0.0
  0
LINE
  5
401
330
3B7
100
AcDbEntity
  8
0
  6
Continuous
 62
     0
100
AcDbLine
 10
5508.643555
 20
869.137817
 30
0.0
 11
5492.234863
 21
852.72937
 31
0.0
  0
LINE
  5
402
330
3B7
100
AcDbEntity
  8
0
  6
Continuous
 62
     0
100
AcDbLine
 10
5492.953613
 20
852.779785
 30
0.0
 11
5508.848633
 21
868.674744
 31
0.0
  0
LINE
  5
403
330
3B7
100
AcDbEntity
  8
0
  6
Continuous
 62
     0
100
AcDbLine
 10
5509.027832
 20
868.186035
 30
0.0
 11
5493.700195
 21
852.858459
 31
0.0
  0
LINE
  5
404
330
3B7
100
AcDbEntity
  8
0
  6
Continuous
 62
     0
100
AcDbLine
 10
5494.479492
 20
852.969543
 30
0.0
 11
5509.179199
 21
867.669067
 31
0.0
  0
LINE
  5
405
330
3B7
100
AcDbEntity
  8
0
  6
Continuous
 62
     0
100
AcDbLine
 10
5509.298828
 20
867.120667
 30
0.0
 11
5495.296387
 21
853.118225
 31
0.0
  0
LINE
  5
406
330
3B7
100
AcDbEntity
  8
0
  6
Continuous
 62
     0
100
AcDbLine
 10
5496.158203
 20
853.311584
 30
0.0
 11
5509.382812
 21
866.536011
 31
0.0
  0
LINE
  5
407
330
3B7
100
AcDbEntity
  8
0
  6
Continuous
 62
     0
100
AcDbLine
 10
5509.42334
 20
865.908386
 30
0.0
 11
5497.074219
 21
853.55957
 31
0.0
  0
LINE
  5
408
330
3B7
100
AcDbEntity
  8
0
  6
Continuous
 62
     0
100
AcDbLine
 10
5498.060059
 20
853.876892
 30
0.0
 11
5509.410645
 21
865.2276
 31
0.0
  0
LINE
  5
409
330
3B7
100
AcDbEntity
  8
0
  6
Continuous
 62
     0
100
AcDbLine
 10
5509.328125
 20
864.476807
 30
0.0
 11
5499.138672
 21
854.287354
 31
0.0
  0
LINE
  5
40A
330
3B7
100
AcDbEntity
  8
0
  6
Continuous
 62
     0
100
AcDbLine
 10
5500.353027
 20
854.833618
 30
0.0
 11
5509.144043
 21
863.624451
 31
0.0
  0
LINE
  5
40B
330
3B7
100
AcDbEntity
  8
0
  6
Continuous
 62
     0
100
AcDbLine
 10
5508.783203
 20
862.595398
 30
0.0
 11
5501.798828
 21
855.610901
 31
0.0
  0
LINE
  5
40C
330
3B7
100
AcDbEntity
  8
0
  6
Continuous
 62
     0
100
AcDbLine
 10
5503.824707
 20
856.96875
 30
0.0
 11
5507.880371
 21
861.024292
 31
0.0
  0
LINE
  5
40D
330
3B7
100
AcDbEntity
  8
0
  6
Continuous
 62
     0
100
AcDbLine
 10
5507.141113
 20
889.018677
 30
0.0
 11
5499.146484
 21
881.023804
 31
0.0
  0
LINE
  5
40E
330
3B7
100
AcDbEntity
  8
0
  6
Continuous
 62
     0
100
AcDbLine
 10
5493.298828
 20
875.176025
 30
0.0
 11
5488.310547
 21
870.187805
 31
0.0
  0
LINE
  5
40F
330
3B7
100
AcDbEntity
  8
0
  6
Continuous
 62
     0
100
AcDbLine
 10
5483.966797
 20
865.843994
 30
0.0
 11
5475.587402
 21
857.464722
 31
0.0
  0
LINE
  5
410
330
3B7
100
AcDbEntity
  8
0
  6
Continuous
 62
     0
100
AcDbLine
 10
5475.262695
 20
857.808167
 30
0.0
 11
5483.29834
 21
865.843994
 31
0.0
  0
LINE
  5
411
330
3B7
100
AcDbEntity
  8
0
  6
Continuous
 62
     0
100
AcDbLine
 10
5487.742188
 20
870.287964
 30
0.0
 11
5492.760742
 21
875.306396
 31
0.0
  0
LINE
  5
412
330
3B7
100
AcDbEntity
  8
0
  6
Continuous
 62
     0
100
AcDbLine
 10
5498.829102
 20
881.374573
 30
0.0
 11
5506.75293
 21
889.29834
 31
0.0
  0
LINE
  5
413
330
3B7
100
AcDbEntity
  8
0
  6
Continuous
 62
     0
100
AcDbLine
 10
5506.353516
 20
889.567566
 30
0.0
 11
5498.474609
 21
881.688538
 31
0.0
  0
LINE
  5
414
330
3B7
100
AcDbEntity
  8
0
  6
Continuous
 62
     0
100
AcDbLine
 10
5492.259766
 20
875.473511
 30
0.0
 11
5487.174316
 21
870.388184
 31
0.0
  0
LINE
  5
415
330
3B7
100
AcDbEntity
  8
0
  6
Continuous
 62
     0
100
AcDbLine
 10
5482.630371
 20
865.843994
 30
0.0
 11
5474.947754
 21
858.161621
 31
0.0
  0
LINE
  5
416
330
3B7
100
AcDbEntity
  8
0
  6
Continuous
 62
     0
100
AcDbLine
 10
5474.643066
 20
858.525208
 30
0.0
 11
5481.961914
 21
865.843994
 31
0.0
  0
LINE
  5
417
330
3B7
100
AcDbEntity
  8
0
  6
Continuous
 62
     0
100
AcDbLine
 10
5486.606445
 20
870.488342
 30
0.0
 11
5491.792969
 21
875.674805
 31
0.0
  0
LINE
  5
418
330
3B7
100
AcDbEntity
  8
0
  6
Continuous
 62
     0
100
AcDbLine
 10
5498.086426
 20
881.968323
 30
0.0
 11
5505.943848
 21
889.826111
 31
0.0
  0
LINE
  5
419
330
3B7
100
AcDbEntity
  8
0
  6
Continuous
 62
     0
100
AcDbLine
 10
5505.523438
 20
890.07373
 30
0.0
 11
5497.665039
 21
882.215149
 31
0.0
  0
LINE
  5
41A
330
3B7
100
AcDbEntity
  8
0
  6
Continuous
 62
     0
100
AcDbLine
 10
5491.358887
 20
875.909119
 30
0.0
 11
5486.038086
 21
870.588501
 31
0.0
  0
LINE
  5
41B
330
3B7
100
AcDbEntity
  8
0
  6
Continuous
 62
     0
100
AcDbLine
 10
5481.293945
 20
865.843994
 30
0.0
 11
5474.348633
 21
858.898926
 31
0.0
  0
LINE
  5
41C
330
3B7
100
AcDbEntity
  8
0
  6
Continuous
 62
     0
100
AcDbLine
 10
5474.064453
 20
859.282959
 30
0.0
 11
5480.625488
 21
865.843994
 31
0.0
  0
LINE
  5
41D
330
3B7
100
AcDbEntity
  8
0
  6
Continuous
 62
     0
100
AcDbLine
 10
5485.470215
 20
870.68866
 30
0.0
 11
5490.95752
 21
876.176147
 31
0.0
  0
LINE
  5
41E
330
3B7
100
AcDbEntity
  8
0
  6
Continuous
 62
     0
100
AcDbLine
 10
5497.210938
 20
882.42926
 30
0.0
 11
5505.091797
 21
890.310181
 31
0.0
  0
LINE
  5
41F
330
3B7
100
AcDbEntity
  8
0
  6
Continuous
 62
     0
100
AcDbLine
 10
5504.648438
 20
890.535156
 30
0.0
 11
5496.723145
 21
882.609741
 31
0.0
  0
LINE
  5
420
330
3B7
100
AcDbEntity
  8
0
  6
Continuous
 62
     0
100
AcDbLine
 10
5490.589844
 20
876.476746
 30
0.0
 11
5484.902344
 21
870.788818
 31
0.0
  0
LINE
  5
421
330
3B7
100
AcDbEntity
  8
0
  6
Continuous
 62
     0
100
AcDbLine
 10
5479.95752
 20
865.843994
 30
0.0
 11
5473.790527
 21
859.677368
 31
0.0
  0
LINE
  5
422
330
3B7
100
AcDbEntity
  8
0
  6
Continuous
 62
     0
100
AcDbLine
 10
5473.527344
 20
860.082397
 30
0.0
 11
5479.289062
 21
865.843994
 31
0.0
  0
LINE
  5
423
330
3B7
100
AcDbEntity
  8
0
  6
Continuous
 62
     0
100
AcDbLine
 10
5484.333984
 20
870.888977
 30
0.0
 11
5490.258301
 21
876.813049
 31
0.0
  0
LINE
  5
424
330
3B7
100
AcDbEntity
  8
0
  6
Continuous
 62
     0
100
AcDbLine
 10
5496.199707
 20
882.754578
 30
0.0
 11
5504.193359
 21
890.74823
 31
0.0
  0
LINE
  5
425
330
3B7
100
AcDbEntity
  8
0
  6
Continuous
 62
     0
100
AcDbLine
 10
5503.726074
 20
890.949097
 30
0.0
 11
5495.637207
 21
882.860229
 31
0.0
  0
LINE
  5
426
330
3B7
100
AcDbEntity
  8
0
  6
Continuous
 62
     0
100
AcDbLine
 10
5489.965332
 20
877.188538
 30
0.0
 11
5483.766113
 21
870.989136
 31
0.0
  0
LINE
  5
427
330
3B7
100
AcDbEntity
  8
0
  6
Continuous
 62
     0
100
AcDbLine
 10
5478.621094
 20
865.843994
 30
0.0
 11
5473.275391
 21
860.498291
 31
0.0
  0
LINE
  5
428
330
3B7
100
AcDbEntity
  8
0
  6
Continuous
 62
     0
100
AcDbLine
 10
5473.033691
 20
860.925171
 30
0.0
 11
5477.952637
 21
865.843994
 31
0.0
  0
LINE
  5
429
330
3B7
100
AcDbEntity
  8
0
  6
Continuous
 62
     0
100
AcDbLine
 10
5483.197754
 20
871.089294
 30
0.0
 11
5489.717773
 21
877.609192
 31
0.0
  0
LINE
  5
42A
330
3B7
100
AcDbEntity
  8
0
  6
Continuous
 62
     0
100
AcDbLine
 10
5495.029297
 20
882.920654
 30
0.0
 11
5503.246094
 21
891.137207
 31
0.0
  0
LINE
  5
42B
330
3B7
100
AcDbEntity
  8
0
  6
Continuous
 62
     0
100
AcDbLine
 10
5502.752441
 20
891.312012
 30
0.0
 11
5494.366211
 21
882.925781
 31
0.0
  0
LINE
  5
42C
330
3B7
100
AcDbEntity
  8
0
  6
Continuous
 62
     0
100
AcDbLine
 10
5489.525391
 20
878.085205
 30
0.0
 11
5482.629883
 21
871.189453
 31
0.0
  0
LINE
  5
42D
330
3B7
100
AcDbEntity
  8
0
  6
Continuous
 62
     0
100
AcDbLine
 10
5477.284668
 20
865.843994
 30
0.0
 11
5472.803711
 21
861.363403
 31
0.0
  0
LINE
  5
42E
330
3B7
100
AcDbEntity
  8
0
  6
Continuous
 62
     0
100
AcDbLine
 10
5472.585449
 20
861.813293
 30
0.0
 11
5476.616211
 21
865.843994
 31
0.0
  0
LINE
  5
42F
330
3B7
100
AcDbEntity
  8
0
  6
Continuous
 62
     0
100
AcDbLine
 10
5482.062012
 20
871.289612
 30
0.0
 11
5489.407227
 21
878.634888
 31
0.0
  0
LINE
  5
430
330
3B7
100
AcDbEntity
  8
0
  6
Continuous
 62
     0
100
AcDbLine
 10
5493.629395
 20
882.857178
 30
0.0
 11
5502.245117
 21
891.472839
 31
0.0
  0
LINE
  5
431
330
3B7
100
AcDbEntity
  8
0
  6
Continuous
 62
     0
100
AcDbLine
 10
5501.723145
 20
891.619019
 30
0.0
 11
5492.778809
 21
882.674927
 31
0.0
  0
LINE
  5
432
330
3B7
100
AcDbEntity
  8
0
  6
Continuous
 62
     0
100
AcDbLine
 10
5489.402344
 20
879.298218
 30
0.0
 11
5481.496094
 21
871.392334
 31
0.0
  0
LINE
  5
433
330
3B7
100
AcDbEntity
  8
0
  6
Continuous
 62
     0
100
AcDbLine
 10
5475.948242
 20
865.843994
 30
0.0
 11
5472.379395
 21
862.275269
 31
0.0
  0
LINE
  5
434
330
3B7
100
AcDbEntity
  8
0
  6
Continuous
 62
     0
100
AcDbLine
 10
5472.185547
 20
862.749817
 30
0.0
 11
5475.279785
 21
865.843994
 31
0.0
  0
LINE
  5
435
330
3B7
100
AcDbEntity
  8
0
  6
Continuous
 62
     0
100
AcDbLine
 10
5480.958008
 20
871.522278
 30
0.0
 11
5489.644043
 21
880.208191
 31
0.0
  0
LINE
  5
436
330
3B7
100
AcDbEntity
  8
0
  6
Continuous
 62
     0
100
AcDbLine
 10
5491.682129
 20
882.246094
 30
0.0
 11
5501.185547
 21
891.749573
 31
0.0
  0
LINE
  5
437
330
3B7
100
AcDbEntity
  8
0
  6
Continuous
 62
     0
100
AcDbLine
 10
5500.630859
 20
891.863525
 30
0.0
 11
5480.450195
 21
871.682617
 31
0.0
  0
LINE
  5
438
330
3B7
100
AcDbEntity
  8
0
  6
Continuous
 62
     0
100
AcDbLine
 10
5474.611816
 20
865.843994
 30
0.0
 11
5472.004883
 21
863.237366
 31
0.0
  0
LINE
  5
439
330
3B7
100
AcDbEntity
  8
0
  6
Continuous
 62
     0
100
AcDbLine
 10
5471.837891
 20
863.738586
 30
0.0
 11
5473.943359
 21
865.843994
 31
0.0
  0
LINE
  5
43A
330
3B7
100
AcDbEntity
  8
0
  6
Continuous
 62
     0
100
AcDbLine
 10
5479.969727
 20
871.8703
 30
0.0
 11
5500.059082
 21
891.959595
 31
0.0
  0
LINE
  5
43B
330
3B7
100
AcDbEntity
  8
0
  6
Continuous
 62
     0
100
AcDbLine
 10
5499.467773
 20
892.036377
 30
0.0
 11
5479.51416
 21
872.083008
 31
0.0
  0
LINE
  5
43C
330
3B7
100
AcDbEntity
  8
0
  6
Continuous
 62
     0
100
AcDbLine
 10
5473.275391
 20
865.843994
 30
0.0
 11
5471.685547
 21
864.254211
 31
0.0
  0
LINE
  5
43D
330
3B7
100
AcDbEntity
  8
0
  6
Continuous
 62
     0
100
AcDbLine
 10
5471.547852
 20
864.784973
 30
0.0
 11
5472.606934
 21
865.843994
 31
0.0
  0
LINE
  5
43E
330
3B7
100
AcDbEntity
  8
0
  6
Continuous
 62
     0
100
AcDbLine
 10
5479.082031
 20
872.319092
 30
0.0
 11
5498.85498
 21
892.092102
 31
0.0
  0
LINE
  5
43F
330
3B7
100
AcDbEntity
  8
0
  6
Continuous
 62
     0
100
AcDbLine
 10
5498.219238
 20
892.124573
 30
0.0
 11
5478.671875
 21
872.577271
 31
0.0
  0
LINE
  5
440
330
3B7
100
AcDbEntity
  8
0
  6
Continuous
 62
     0
100
AcDbLine
 10
5471.938965
 20
865.843994
 30
0.0
 11
5471.426758
 21
865.331909
 31
0.0
  0
LINE
  5
441
330
3B7
100
AcDbEntity
  8
0
  6
Continuous
 62
     0
100
AcDbLine
 10
5478.283203
 20
872.856628
 30
0.0
 11
5497.558594
 21
892.13208
 31
0.0
  0
LINE
  5
442
330
3B7
100
AcDbEntity
  8
0
  6
Continuous
 62
     0
100
AcDbLine
 10
5496.890625
 20
892.13208
 30
0.0
 11
5477.915039
 21
873.156555
 31
0.0
  0
LINE
  5
443
330
3B7
100
AcDbEntity
  8
0
  6
Continuous
 62
     0
100
AcDbLine
 10
5477.566895
 20
873.476685
 30
0.0
 11
5496.222168
 21
892.13208
 31
0.0
  0
LINE
  5
444
330
3B7
100
AcDbEntity
  8
0
  6
Continuous
 62
     0
100
AcDbLine
 10
5495.553711
 20
892.13208
 30
0.0
 11
5477.23877
 21
873.816895
 31
0.0
  0
LINE
  5
445
330
3B7
100
AcDbEntity
  8
0
  6
Continuous
 62
     0
100
AcDbLine
 10
5476.930664
 20
874.177185
 30
0.0
 11
5494.885742
 21
892.13208
 31
0.0
  0
LINE
  5
446
330
3B7
100
AcDbEntity
  8
0
  6
Continuous
 62
     0
100
AcDbLine
 10
5494.217773
 20
892.13208
 30
0.0
 11
5476.643066
 21
874.557861
 31
0.0
  0
LINE
  5
447
330
3B7
100
AcDbEntity
  8
0
  6
Continuous
 62
     0
100
AcDbLine
 10
5476.376465
 20
874.959412
 30
0.0
 11
5493.549316
 21
892.13208
 31
0.0
  0
LINE
  5
448
330
3B7
100
AcDbEntity
  8
0
  6
Continuous
 62
     0
100
AcDbLine
 10
5492.87207
 20
892.122925
 30
0.0
 11
5476.131836
 21
875.382751
 31
0.0
  0
LINE
  5
449
330
3B7
100
AcDbEntity
  8
0
  6
Continuous
 62
     0
100
AcDbLine
 10
5475.909668
 20
875.828857
 30
0.0
 11
5492.171387
 21
892.090515
 31
0.0
  0
LINE
  5
44A
330
3B7
100
AcDbEntity
  8
0
  6
Continuous
 62
     0
100
AcDbLine
 10
5491.444824
 20
892.032104
 30
0.0
 11
5475.711914
 21
876.299316
 31
0.0
  0
LINE
  5
44B
330
3B7
100
AcDbEntity
  8
0
  6
Continuous
 62
     0
100
AcDbLine
 10
5475.540527
 20
876.796082
 30
0.0
 11
5490.688477
 21
891.944275
 31
0.0
  0
LINE
  5
44C
330
3B7
100
AcDbEntity
  8
0
  6
Continuous
 62
     0
100
AcDbLine
 10
5489.898926
 20
891.822693
 30
0.0
 11
5475.397949
 21
877.32196
 31
0.0
  0
LINE
  5
44D
330
3B7
100
AcDbEntity
  8
0
  6
Continuous
 62
     0
100
AcDbLine
 10
5475.288574
 20
877.880554
 30
0.0
 11
5489.069336
 21
891.661621
 31
0.0
  0
LINE
  5
44E
330
3B7
100
AcDbEntity
  8
0
  6
Continuous
 62
     0
100
AcDbLine
 10
5488.192871
 20
891.453247
 30
0.0
 11
5475.216797
 21
878.477112
 31
0.0
  0
LINE
  5
44F
330
3B7
100
AcDbEntity
  8
0
  6
Continuous
 62
     0
100
AcDbLine
 10
5475.19043
 20
879.119202
 30
0.0
 11
5487.257812
 21
891.186584
 31
0.0
  0
LINE
  5
450
330
3B7
100
AcDbEntity
  8
0
  6
Continuous
 62
     0
100
AcDbLine
 10
5486.248047
 20
890.844727
 30
0.0
 11
5475.22168
 21
879.818481
 31
0.0
  0
LINE
  5
451
330
3B7
100
AcDbEntity
  8
0
  6
Continuous
 62
     0
100
AcDbLine
 10
5475.330078
 20
880.595032
 30
0.0
 11
5485.134766
 21
890.399841
 31
0.0
  0
LINE
  5
452
330
3B7
100
AcDbEntity
  8
0
  6
Continuous
 62
     0
100
AcDbLine
 10
5483.866211
 20
889.799316
 30
0.0
 11
5475.555176
 21
881.48822
 31
0.0
  0
LINE
  5
453
330
3B7
100
AcDbEntity
  8
0
  6
Continuous
 62
     0
100
AcDbLine
 10
5476.002441
 20
882.604004
 30
0.0
 11
5482.3125
 21
888.913818
 31
0.0
  0
LINE
  5
454
330
3B7
100
AcDbEntity
  8
0
  6
Continuous
 62
     0
100
AcDbLine
 10
5479.756348
 20
887.025757
 30
0.0
 11
5477.568848
 21
884.838501
 31
0.0
  0
ENDBLK
  5
456
330
3B7
100
AcDbEntity
  8
0
100
AcDbBlockEnd
  0
BLOCK
  5
4AD
330
458
100
AcDbEntity
  8
0
100
AcDbBlockBegin
  2
.TD_XHATCH_6
 70
     0
 10
10454.692382
 20
1705.576538
 30
0.0
  3
.TD_XHATCH_6
  1

  0
LINE
  5
459
330
458
100
AcDbEntity
  8
0
  6
Continuous
 62
     0
100
AcDbLine
 10
5241.378906
 20
866.486694
 30
0.0
 11
5269.26123
 21
894.369446
 31
0.0
  0
LINE
  5
45A
330
458
100
AcDbEntity
  8
0
  6
Continuous
 62
     0
100
AcDbLine
 10
5269.595703
 20
894.035339
 30
0.0
 11
5241.712891
 21
866.152588
 31
0.0
  0
LINE
  5
45B
330
458
100
AcDbEntity
  8
0
  6
Continuous
 62
     0
100
AcDbLine
 10
5242.046875
 20
865.818481
 30
0.0
 11
5269.929688
 21
893.701233
 31
0.0
  0
LINE
  5
45C
330
458
100
AcDbEntity
  8
0
  6
Continuous
 62
     0
100
AcDbLine
 10
5270.263672
 20
893.367126
 30
0.0
 11
5242.380859
 21
865.484375
 31
0.0
  0
LINE
  5
45D
330
458
100
AcDbEntity
  8
0
  6
Continuous
 62
     0
100
AcDbLine
 10
5242.715332
 20
865.150269
 30
0.0
 11
5270.597656
 21
893.03302
 31
0.0
  0
LINE
  5
45E
330
458
100
AcDbEntity
  8
0
  6
Continuous
 62
     0
100
AcDbLine
 10
5270.932129
 20
892.698914
 30
0.0
 11
5243.049316
 21
864.816162
 31
0.0
  0
LINE
  5
45F
330
458
100
AcDbEntity
  8
0
  6
Continuous
 62
     0
100
AcDbLine
 10
5243.383301
 20
864.482056
 30
0.0
 11
5271.266113
 21
892.364807
 31
0.0
  0
LINE
  5
460
330
458
100
AcDbEntity
  8
0
  6
Continuous
 62
     0
100
AcDbLine
 10
5271.600098
 20
892.030701
 30
0.0
 11
5243.717285
 21
864.147949
 31
0.0
  0
LINE
  5
461
330
458
100
AcDbEntity
  8
0
  6
Continuous
 62
     0
100
AcDbLine
 10
5244.051758
 20
863.813843
 30
0.0
 11
5271.93457
 21
891.696594
 31
0.0
  0
LINE
  5
462
330
458
100
AcDbEntity
  8
0
  6
Continuous
 62
     0
100
AcDbLine
 10
5272.268555
 20
891.362488
 30
0.0
 11
5244.385742
 21
863.479736
 31
0.0
  0
LINE
  5
463
330
458
100
AcDbEntity
  8
0
  6
Continuous
 62
     0
100
AcDbLine
 10
5244.719727
 20
863.14563
 30
0.0
 11
5272.602539
 21
891.028381
 31
0.0
  0
LINE
  5
464
330
458
100
AcDbEntity
  8
0
  6
Continuous
 62
     0
100
AcDbLine
 10
5272.936523
 20
890.694275
 30
0.0
 11
5245.053711
 21
862.811523
 31
0.0
  0
LINE
  5
465
330
458
100
AcDbEntity
  8
0
  6
Continuous
 62
     0
100
AcDbLine
 10
5245.388184
 20
862.477417
 30
0.0
 11
5273.270996
 21
890.360107
 31
0.0
  0
LINE
  5
466
330
458
100
AcDbEntity
  8
0
  6
Continuous
 62
     0
100
AcDbLine
 10
5273.60498
 20
890.026001
 30
0.0
 11
5245.722168
 21
862.143311
 31
0.0
  0
LINE
  5
467
330
458
100
AcDbEntity
  8
0
  6
Continuous
 62
     0
100
AcDbLine
 10
5246.056152
 20
861.809204
 30
0.0
 11
5273.938965
 21
889.691895
 31
0.0
  0
LINE
  5
468
330
458
100
AcDbEntity
  8
0
  6
Continuous
 62
     0
100
AcDbLine
 10
5274.272949
 20
889.357788
 30
0.0
 11
5246.390137
 21
861.475098
 31
0.0
  0
LINE
  5
469
330
458
100
AcDbEntity
  8
0
  6
Continuous
 62
     0
100
AcDbLine
 10
5246.724609
 20
861.140991
 30
0.0
 11
5274.607422
 21
889.023682
 31
0.0
  0
LINE
  5
46A
330
458
100
AcDbEntity
  8
0
  6
Continuous
 62
     0
100
AcDbLine
 10
5274.941406
 20
888.689575
 30
0.0
 11
5247.058594
 21
860.806885
 31
0.0
  0
LINE
  5
46B
330
458
100
AcDbEntity
  8
0
  6
Continuous
 62
     0
100
AcDbLine
 10
5247.392578
 20
860.472778
 30
0.0
 11
5275.275391
 21
888.355469
 31
0.0
  0
LINE
  5
46C
330
458
100
AcDbEntity
  8
0
  6
Continuous
 62
     0
100
AcDbLine
 10
5275.609375
 20
888.021362
 30
0.0
 11
5247.726562
 21
860.138672
 31
0.0
  0
LINE
  5
46D
330
458
100
AcDbEntity
  8
0
  6
Continuous
 62
     0
100
AcDbLine
 10
5248.061035
 20
859.804565
 30
0.0
 11
5275.943848
 21
887.687256
 31
0.0
  0
LINE
  5
46E
330
458
100
AcDbEntity
  8
0
  6
Continuous
 62
     0
100
AcDbLine
 10
5276.277832
 20
887.353149
 30
0.0
 11
5248.39502
 21
859.470459
 31
0.0
  0
LINE
  5
46F
330
458
100
AcDbEntity
  8
0
  6
Continuous
 62
     0
100
AcDbLine
 10
5248.729004
 20
859.136353
 30
0.0
 11
5276.611816
 21
887.019043
 31
0.0
  0
LINE
  5
470
330
458
100
AcDbEntity
  8
0
  6
Continuous
 62
     0
100
AcDbLine
 10
5276.945801
 20
886.684937
 30
0.0
 11
5249.062988
 21
858.802246
 31
0.0
  0
LINE
  5
471
330
458
100
AcDbEntity
  8
0
  6
Continuous
 62
     0
100
AcDbLine
 10
5249.397461
 20
858.46814
 30
0.0
 11
5277.280273
 21
886.35083
 31
0.0
  0
LINE
  5
472
330
458
100
AcDbEntity
  8
0
  6
Continuous
 62
     0
100
AcDbLine
 10
5277.614258
 20
886.016724
 30
0.0
 11
5249.731445
 21
858.134033
 31
0.0
  0
LINE
  5
473
330
458
100
AcDbEntity
  8
0
  6
Continuous
 62
     0
100
AcDbLine
 10
5250.06543
 20
857.799927
 30
0.0
 11
5277.948242
 21
885.682617
 31
0.0
  0
LINE
  5
474
330
458
100
AcDbEntity
  8
0
  6
Continuous
 62
     0
100
AcDbLine
 10
5278.282227
 20
885.348511
 30
0.0
 11
5250.399414
 21
857.46582
 31
0.0
  0
LINE
  5
475
330
458
100
AcDbEntity
  8
0
  6
Continuous
 62
     0
100
AcDbLine
 10
5250.733887
 20
857.131653
 30
0.0
 11
5278.616699
 21
885.014404
 31
0.0
  0
LINE
  5
476
330
458
100
AcDbEntity
  8
0
  6
Continuous
 62
     0
100
AcDbLine
 10
5278.950684
 20
884.680298
 30
0.0
 11
5251.067871
 21
856.797546
 31
0.0
  0
LINE
  5
477
330
458
100
AcDbEntity
  8
0
  6
Continuous
 62
     0
100
AcDbLine
 10
5251.401855
 20
856.46344
 30
0.0
 11
5279.284668
 21
884.346191
 31
0.0
  0
LINE
  5
478
330
458
100
AcDbEntity
  8
0
  6
Continuous
 62
     0
100
AcDbLine
 10
5279.618652
 20
884.012085
 30
0.0
 11
5251.73584
 21
856.129333
 31
0.0
  0
LINE
  5
479
330
458
100
AcDbEntity
  8
0
  6
Continuous
 62
     0
100
AcDbLine
 10
5252.070312
 20
855.795227
 30
0.0
 11
5279.953125
 21
883.677979
 31
0.0
  0
LINE
  5
47A
330
458
100
AcDbEntity
  8
0
  6
Continuous
 62
     0
100
AcDbLine
 10
5280.287109
 20
883.343872
 30
0.0
 11
5252.404297
 21
855.461121
 31
0.0
  0
LINE
  5
47B
330
458
100
AcDbEntity
  8
0
  6
Continuous
 62
     0
100
AcDbLine
 10
5252.738281
 20
855.127014
 30
0.0
 11
5280.621094
 21
883.009766
 31
0.0
  0
LINE
  5
47C
330
458
100
AcDbEntity
  8
0
  6
Continuous
 62
     0
100
AcDbLine
 10
5280.955078
 20
882.675659
 30
0.0
 11
5253.072266
 21
854.792908
 31
0.0
  0
LINE
  5
47D
330
458
100
AcDbEntity
  8
0
  6
Continuous
 62
     0
100
AcDbLine
 10
5253.406738
 20
854.458801
 30
0.0
 11
5281.289551
 21
882.341553
 31
0.0
  0
LINE
  5
47E
330
458
100
AcDbEntity
  8
0
  6
Continuous
 62
     0
100
AcDbLine
 10
5281.623535
 20
882.007446
 30
0.0
 11
5253.740723
 21
854.124695
 31
0.0
  0
LINE
  5
47F
330
458
100
AcDbEntity
  8
0
  6
Continuous
 62
     0
100
AcDbLine
 10
5254.074707
 20
853.790588
 30
0.0
 11
5281.95752
 21
881.67334
 31
0.0
  0
LINE
  5
480
330
458
100
AcDbEntity
  8
0
  6
Continuous
 62
     0
100
AcDbLine
 10
5282.291504
 20
881.339233
 30
0.0
 11
5254.40918
 21
853.456482
 31
0.0
  0
LINE
  5
481
330
458
100
AcDbEntity
  8
0
  6
Continuous
 62
     0
100
AcDbLine
 10
5254.743164
 20
853.122375
 30
0.0
 11
5282.625977
 21
881.005127
 31
0.0
  0
LINE
  5
482
330
458
100
AcDbEntity
  8
0
  6
Continuous
 62
     0
100
AcDbLine
 10
5282.959961
 20
880.671021
 30
0.0
 11
5255.077148
 21
852.788269
 31
0.0
  0
LINE
  5
483
330
458
100
AcDbEntity
  8
0
  6
Continuous
 62
     0
100
AcDbLine
 10
5241.044434
 20
866.820801
 30
0.0
 11
5268.927246
 21
894.703552
 31
0.0
  0
LINE
  5
484
330
458
100
AcDbEntity
  8
0
  6
Continuous
 62
     0
100
AcDbLine
 10
5268.593262
 20
895.037659
 30
0.0
 11
5240.710449
 21
867.154907
 31
0.0
  0
LINE
  5
485
330
458
100
AcDbEntity
  8
0
  6
Continuous
 62
     0
100
AcDbLine
 10
5240.376465
 20
867.489014
 30
0.0
 11
5268.259277
 21
895.371765
 31
0.0
  0
LINE
  5
486
330
458
100
AcDbEntity
  8
0
  6
Continuous
 62
     0
100
AcDbLine
 10
5267.924805
 20
895.705872
 30
0.0
 11
5240.04248
 21
867.82312
 31
0.0
  0
LINE
  5
487
330
458
100
AcDbEntity
  8
0
  6
Continuous
 62
     0
100
AcDbLine
 10
5239.708008
 20
868.157227
 30
0.0
 11
5267.59082
 21
896.039978
 31
0.0
  0
LINE
  5
488
330
458
100
AcDbEntity
  8
0
  6
Continuous
 62
     0
100
AcDbLine
 10
5267.256836
 20
896.374084
 30
0.0
 11
5239.374023
 21
868.491333
 31
0.0
  0
LINE
  5
489
330
458
100
AcDbEntity
  8
0
  6
Continuous
 62
     0
100
AcDbLine
 10
5239.040039
 20
868.825439
 30
0.0
 11
5266.922852
 21
896.708191
 31
0.0
  0
LINE
  5
48A
330
458
100
AcDbEntity
  8
0
  6
Continuous
 62
     0
100
AcDbLine
 10
5266.588379
 20
897.042297
 30
0.0
 11
5238.706055
 21
869.159546
 31
0.0
  0
LINE
  5
48B
330
458
100
AcDbEntity
  8
0
  6
Continuous
 62
     0
100
AcDbLine
 10
5238.371582
 20
869.493652
 30
0.0
 11
5266.254395
 21
897.376404
 31
0.0
  0
LINE
  5
48C
330
458
100
AcDbEntity
  8
0
  6
Continuous
 62
     0
100
AcDbLine
 10
5265.92041
 20
897.71051
 30
0.0
 11
5238.037598
 21
869.827759
 31
0.0
  0
LINE
  5
48D
330
458
100
AcDbEntity
  8
0
  6
Continuous
 62
     0
100
AcDbLine
 10
5237.703613
 20
870.161865
 30
0.0
 11
5265.586426
 21
898.044617
 31
0.0
  0
LINE
  5
48E
330
458
100
AcDbEntity
  8
0
  6
Continuous
 62
     0
100
AcDbLine
 10
5265.251953
 20
898.378723
 30
0.0
 11
5237.369629
 21
870.495972
 31
0.0
  0
LINE
  5
48F
330
458
100
AcDbEntity
  8
0
  6
Continuous
 62
     0
100
AcDbLine
 10
5237.035156
 20
870.830078
 30
0.0
 11
5264.917969
 21
898.71283
 31
0.0
  0
LINE
  5
490
330
458
100
AcDbEntity
  8
0
  6
Continuous
 62
     0
100
AcDbLine
 10
5264.583984
 20
899.046936
 30
0.0
 11
5236.701172
 21
871.164185
 31
0.0
  0
LINE
  5
491
330
458
100
AcDbEntity
  8
0
  6
Continuous
 62
     0
100
AcDbLine
 10
5236.367188
 20
871.498291
 30
0.0
 11
5264.25
 21
899.381042
 31
0.0
  0
LINE
  5
492
330
458
100
AcDbEntity
  8
0
  6
Continuous
 62
     0
100
AcDbLine
 10
5263.915527
 20
899.715149
 30
0.0
 11
5236.033203
 21
871.832397
 31
0.0
  0
LINE
  5
493
330
458
100
AcDbEntity
  8
0
  6
Continuous
 62
     0
100
AcDbLine
 10
5235.69873
 20
872.166504
 30
0.0
 11
5263.581543
 21
900.049255
 31
0.0
  0
LINE
  5
494
330
458
100
AcDbEntity
  8
0
  6
Continuous
 62
     0
100
AcDbLine
 10
5263.247559
 20
900.383362
 30
0.0
 11
5235.364746
 21
872.500671
 31
0.0
  0
LINE
  5
495
330
458
100
AcDbEntity
  8
0
  6
Continuous
 62
     0
100
AcDbLine
 10
5235.030762
 20
872.834778
 30
0.0
 11
5262.913574
 21
900.717529
 31
0.0
  0
LINE
  5
496
330
458
100
AcDbEntity
  8
0
  6
Continuous
 62
     0
100
AcDbLine
 10
5262.579102
 20
901.051636
 30
0.0
 11
5234.696777
 21
873.168884
 31
0.0
  0
LINE
  5
497
330
458
100
AcDbEntity
  8
0
  6
Continuous
 62
     0
100
AcDbLine
 10
5234.362305
 20
873.502991
 30
0.0
 11
5262.245117
 21
901.385742
 31
0.0
  0
LINE
  5
498
330
458
100
AcDbEntity
  8
0
  6
Continuous
 62
     0
100
AcDbLine
 10
5261.911133
 20
901.719849
 30
0.0
 11
5234.02832
 21
873.837097
 31
0.0
  0
LINE
  5
499
330
458
100
AcDbEntity
  8
0
  6
Continuous
 62
     0
100
AcDbLine
 10
5233.694336
 20
874.171204
 30
0.0
 11
5261.577148
 21
902.053955
 31
0.0
  0
LINE
  5
49A
330
458
100
AcDbEntity
  8
0
  6
Continuous
 62
     0
100
AcDbLine
 10
5261.242676
 20
902.388062
 30
0.0
 11
5233.360352
 21
874.50531
 31
0.0
  0
LINE
  5
49B
330
458
100
AcDbEntity
  8
0
  6
Continuous
 62
     0
100
AcDbLine
 10
5233.025879
 20
874.839417
 30
0.0
 11
5260.908691
 21
902.722168
 31
0.0
  0
LINE
  5
49C
330
458
100
AcDbEntity
  8
0
  6
Continuous
 62
     0
100
AcDbLine
 10
5260.574707
 20
903.056274
 30
0.0
 11
5232.691895
 21
875.173523
 31
0.0
  0
LINE
  5
49D
330
458
100
AcDbEntity
  8
0
  6
Continuous
 62
     0
100
AcDbLine
 10
5232.35791
 20
875.507629
 30
0.0
 11
5260.240723
 21
903.390381
 31
0.0
  0
LINE
  5
49E
330
458
100
AcDbEntity
  8
0
  6
Continuous
 62
     0
100
AcDbLine
 10
5259.90625
 20
903.724487
 30
0.0
 11
5232.023926
 21
875.841736
 31
0.0
  0
LINE
  5
49F
330
458
100
AcDbEntity
  8
0
  6
Continuous
 62
     0
100
AcDbLine
 10
5231.689453
 20
876.175842
 30
0.0
 11
5259.572266
 21
904.058594
 31
0.0
  0
LINE
  5
4A0
330
458
100
AcDbEntity
  8
0
  6
Continuous
 62
     0
100
AcDbLine
 10
5259.238281
 20
904.3927
 30
0.0
 11
5231.355469
 21
876.509949
 31
0.0
  0
LINE
  5
4A1
330
458
100
AcDbEntity
  8
0
  6
Continuous
 62
     0
100
AcDbLine
 10
5231.021484
 20
876.844055
 30
0.0
 11
5258.904297
 21
904.726807
 31
0.0
  0
LINE
  5
4A2
330
458
100
AcDbEntity
  8
0
  6
Continuous
 62
     0
100
AcDbLine
 10
5258.569824
 20
905.060913
 30
0.0
 11
5230.6875
 21
877.178162
 31
0.0
  0
LINE
  5
4A3
330
458
100
AcDbEntity
  8
0
  6
Continuous
 62
     0
100
AcDbLine
 10
5230.353027
 20
877.512268
 30
0.0
 11
5258.23584
 21
905.39502
 31
0.0
  0
LINE
  5
4A4
330
458
100
AcDbEntity
  8
0
  6
Continuous
 62
     0
100
AcDbLine
 10
5257.901855
 20
905.729126
 30
0.0
 11
5230.019043
 21
877.846375
 31
0.0
  0
LINE
  5
4A5
330
458
100
AcDbEntity
  8
0
  6
Continuous
 62
     0
100
AcDbLine
 10
5229.685059
 20
878.180481
 30
0.0
 11
5257.567871
 21
906.063232
 31
0.0
  0
LINE
  5
4A6
330
458
100
AcDbEntity
  8
0
  6
Continuous
 62
     0
100
AcDbLine
 10
5257.233398
 20
906.397339
 30
0.0
 11
5229.351074
 21
878.514587
 31
0.0
  0
LINE
  5
4A7
330
458
100
AcDbEntity
  8
0
  6
Continuous
 62
     0
100
AcDbLine
 10
5229.016602
 20
878.848694
 30
0.0
 11
5256.899414
 21
906.731445
 31
0.0
  0
LINE
  5
4A8
330
458
100
AcDbEntity
  8
0
  6
Continuous
 62
     0
100
AcDbLine
 10
5256.56543
 20
907.065552
 30
0.0
 11
5228.682617
 21
879.1828
 31
0.0
  0
LINE
  5
4A9
330
458
100
AcDbEntity
  8
0
  6
Continuous
 62
     0
100
AcDbLine
 10
5228.348633
 20
879.516907
 30
0.0
 11
5256.231445
 21
907.399658
 31
0.0
  0
LINE
  5
4AA
330
458
100
AcDbEntity
  8
0
  6
Continuous
 62
     0
100
AcDbLine
 10
5255.896973
 20
907.733765
 30
0.0
 11
5228.014648
 21
879.851013
 31
0.0
  0
LINE
  5
4AB
330
458
100
AcDbEntity
  8
0
  6
Continuous
 62
     0
100
AcDbLine
 10
5227.680176
 20
880.18512
 30
0.0
 11
5255.562988
 21
908.067871
 31
0.0
  0
LINE
  5
4AC
330
458
100
AcDbEntity
  8
0
  6
Continuous
 62
     0
100
AcDbLine
 10
5255.229004
 20
908.401978
 30
0.0
 11
5227.346191
 21
880.519226
 31
0.0
  0
ENDBLK
  5
4AE
330
458
100
AcDbEntity
  8
0
100
AcDbBlockEnd
  0
BLOCK
  5
517
330
4B0
100
AcDbEntity
  8
0
100
AcDbBlockBegin
  2
.TD_XHATCH_7
 70
     0
 10
10442.326172
 20
1705.529174
 30
0.0
  3
.TD_XHATCH_7
  1

  0
LINE
  5
4B1
330
4B0
100
AcDbEntity
  8
0
  6
Continuous
 62
     0
100
AcDbLine
 10
5233.87207
 20
864.993835
 30
0.0
 11
5238.371582
 21
869.493652
 31
0.0
  0
LINE
  5
4B2
330
4B0
100
AcDbEntity
  8
0
  6
Continuous
 62
     0
100
AcDbLine
 10
5238.706055
 20
869.159546
 30
0.0
 11
5234.29541
 21
864.749207
 31
0.0
  0
LINE
  5
4B3
330
4B0
100
AcDbEntity
  8
0
  6
Continuous
 62
     0
100
AcDbLine
 10
5234.719238
 20
864.504639
 30
0.0
 11
5239.040039
 21
868.825439
 31
0.0
  0
LINE
  5
4B4
330
4B0
100
AcDbEntity
  8
0
  6
Continuous
 62
     0
100
AcDbLine
 10
5239.374023
 20
868.491333
 30
0.0
 11
5235.142578
 21
864.260071
 31
0.0
  0
LINE
  5
4B5
330
4B0
100
AcDbEntity
  8
0
  6
Continuous
 62
     0
100
AcDbLine
 10
5235.566406
 20
864.015503
 30
0.0
 11
5239.708008
 21
868.157227
 31
0.0
  0
LINE
  5
4B6
330
4B0
100
AcDbEntity
  8
0
  6
Continuous
 62
     0
100
AcDbLine
 10
5240.04248
 20
867.82312
 30
0.0
 11
5235.990234
 21
863.770874
 31
0.0
  0
LINE
  5
4B7
330
4B0
100
AcDbEntity
  8
0
  6
Continuous
 62
     0
100
AcDbLine
 10
5236.413574
 20
863.526306
 30
0.0
 11
5240.376465
 21
867.489014
 31
0.0
  0
LINE
  5
4B8
330
4B0
100
AcDbEntity
  8
0
  6
Continuous
 62
     0
100
AcDbLine
 10
5240.710449
 20
867.154907
 30
0.0
 11
5236.837402
 21
863.281738
 31
0.0
  0
LINE
  5
4B9
330
4B0
100
AcDbEntity
  8
0
  6
Continuous
 62
     0
100
AcDbLine
 10
5237.260742
 20
863.037109
 30
0.0
 11
5241.044434
 21
866.820801
 31
0.0
  0
LINE
  5
4BA
330
4B0
100
AcDbEntity
  8
0
  6
Continuous
 62
     0
100
AcDbLine
 10
5241.378906
 20
866.486694
 30
0.0
 11
5237.68457
 21
862.792542
 31
0.0
  0
LINE
  5
4BB
330
4B0
100
AcDbEntity
  8
0
  6
Continuous
 62
     0
100
AcDbLine
 10
5238.108398
 20
862.547974
 30
0.0
 11
5241.712891
 21
866.152588
 31
0.0
  0
LINE
  5
4BC
330
4B0
100
AcDbEntity
  8
0
  6
Continuous
 62
     0
100
AcDbLine
 10
5242.046875
 20
865.818481
 30
0.0
 11
5238.531738
 21
862.303406
 31
0.0
  0
LINE
  5
4BD
330
4B0
100
AcDbEntity
  8
0
  6
Continuous
 62
     0
100
AcDbLine
 10
5238.955566
 20
862.058838
 30
0.0
 11
5242.380859
 21
865.484375
 31
0.0
  0
LINE
  5
4BE
330
4B0
100
AcDbEntity
  8
0
  6
Continuous
 62
     0
100
AcDbLine
 10
5242.715332
 20
865.150269
 30
0.0
 11
5239.378906
 21
861.814209
 31
0.0
  0
LINE
  5
4BF
330
4B0
100
AcDbEntity
  8
0
  6
Continuous
 62
     0
100
AcDbLine
 10
5239.802734
 20
861.569641
 30
0.0
 11
5243.049316
 21
864.816162
 31
0.0
  0
LINE
  5
4C0
330
4B0
100
AcDbEntity
  8
0
  6
Continuous
 62
     0
100
AcDbLine
 10
5243.383301
 20
864.482056
 30
0.0
 11
5240.226562
 21
861.325073
 31
0.0
  0
LINE
  5
4C1
330
4B0
100
AcDbEntity
  8
0
  6
Continuous
 62
     0
100
AcDbLine
 10
5240.649902
 20
861.080444
 30
0.0
 11
5243.717285
 21
864.147949
 31
0.0
  0
LINE
  5
4C2
330
4B0
100
AcDbEntity
  8
0
  6
Continuous
 62
     0
100
AcDbLine
 10
5244.051758
 20
863.813843
 30
0.0
 11
5241.07373
 21
860.835876
 31
0.0
  0
LINE
  5
4C3
330
4B0
100
AcDbEntity
  8
0
  6
Continuous
 62
     0
100
AcDbLine
 10
5241.49707
 20
860.591309
 30
0.0
 11
5244.385742
 21
863.479736
 31
0.0
  0
LINE
  5
4C4
330
4B0
100
AcDbEntity
  8
0
  6
Continuous
 62
     0
100
AcDbLine
 10
5244.719727
 20
863.14563
 30
0.0
 11
5241.920898
 21
860.346741
 31
0.0
  0
LINE
  5
4C5
330
4B0
100
AcDbEntity
  8
0
  6
Continuous
 62
     0
100
AcDbLine
 10
5242.344727
 20
860.102112
 30
0.0
 11
5245.053711
 21
862.811523
 31
0.0
  0
LINE
  5
4C6
330
4B0
100
AcDbEntity
  8
0
  6
Continuous
 62
     0
100
AcDbLine
 10
5245.388184
 20
862.477417
 30
0.0
 11
5242.768066
 21
859.857544
 31
0.0
  0
LINE
  5
4C7
330
4B0
100
AcDbEntity
  8
0
  6
Continuous
 62
     0
100
AcDbLine
 10
5243.191895
 20
859.612976
 30
0.0
 11
5245.722168
 21
862.143311
 31
0.0
  0
LINE
  5
4C8
330
4B0
100
AcDbEntity
  8
0
  6
Continuous
 62
     0
100
AcDbLine
 10
5246.056152
 20
861.809204
 30
0.0
 11
5243.615234
 21
859.368408
 31
0.0
  0
LINE
  5
4C9
330
4B0
100
AcDbEntity
  8
0
  6
Continuous
 62
     0
100
AcDbLine
 10
5244.039062
 20
859.123779
 30
0.0
 11
5246.390137
 21
861.475098
 31
0.0
  0
LINE
  5
4CA
330
4B0
100
AcDbEntity
  8
0
  6
Continuous
 62
     0
100
AcDbLine
 10
5246.724609
 20
861.140991
 30
0.0
 11
5244.462891
 21
858.879211
 31
0.0
  0
LINE
  5
4CB
330
4B0
100
AcDbEntity
  8
0
  6
Continuous
 62
     0
100
AcDbLine
 10
5244.88623
 20
858.634644
 30
0.0
 11
5247.058594
 21
860.806885
 31
0.0
  0
LINE
  5
4CC
330
4B0
100
AcDbEntity
  8
0
  6
Continuous
 62
     0
100
AcDbLine
 10
5247.392578
 20
860.472778
 30
0.0
 11
5245.310059
 21
858.390015
 31
0.0
  0
LINE
  5
4CD
330
4B0
100
AcDbEntity
  8
0
  6
Continuous
 62
     0
100
AcDbLine
 10
5245.733398
 20
858.145447
 30
0.0
 11
5247.726562
 21
860.138672
 31
0.0
  0
LINE
  5
4CE
330
4B0
100
AcDbEntity
  8
0
  6
Continuous
 62
     0
100
AcDbLine
 10
5248.061035
 20
859.804565
 30
0.0
 11
5246.157227
 21
857.900879
 31
0.0
  0
LINE
  5
4CF
330
4B0
100
AcDbEntity
  8
0
  6
Continuous
 62
     0
100
AcDbLine
 10
5246.581055
 20
857.656311
 30
0.0
 11
5248.39502
 21
859.470459
 31
0.0
  0
LINE
  5
4D0
330
4B0
100
AcDbEntity
  8
0
  6
Continuous
 62
     0
100
AcDbLine
 10
5248.729004
 20
859.136353
 30
0.0
 11
5247.004395
 21
857.411682
 31
0.0
  0
LINE
  5
4D1
330
4B0
100
AcDbEntity
  8
0
  6
Continuous
 62
     0
100
AcDbLine
 10
5247.428223
 20
857.167114
 30
0.0
 11
5249.062988
 21
858.802246
 31
0.0
  0
LINE
  5
4D2
330
4B0
100
AcDbEntity
  8
0
  6
Continuous
 62
     0
100
AcDbLine
 10
5249.397461
 20
858.46814
 30
0.0
 11
5247.851562
 21
856.922546
 31
0.0
  0
LINE
  5
4D3
330
4B0
100
AcDbEntity
  8
0
  6
Continuous
 62
     0
100
AcDbLine
 10
5248.275391
 20
856.677979
 30
0.0
 11
5249.731445
 21
858.134033
 31
0.0
  0
LINE
  5
4D4
330
4B0
100
AcDbEntity
  8
0
  6
Continuous
 62
     0
100
AcDbLine
 10
5250.06543
 20
857.799927
 30
0.0
 11
5248.699219
 21
856.43335
 31
0.0
  0
LINE
  5
4D5
330
4B0
100
AcDbEntity
  8
0
  6
Continuous
 62
     0
100
AcDbLine
 10
5249.122559
 20
856.188782
 30
0.0
 11
5250.399414
 21
857.46582
 31
0.0
  0
LINE
  5
4D6
330
4B0
100
AcDbEntity
  8
0
  6
Continuous
 62
     0
100
AcDbLine
 10
5250.733887
 20
857.131653
 30
0.0
 11
5249.546387
 21
855.944214
 31
0.0
  0
LINE
  5
4D7
330
4B0
100
AcDbEntity
  8
0
  6
Continuous
 62
     0
100
AcDbLine
 10
5249.969727
 20
855.699646
 30
0.0
 11
5251.067871
 21
856.797546
 31
0.0
  0
LINE
  5
4D8
330
4B0
100
AcDbEntity
  8
0
  6
Continuous
 62
     0
100
AcDbLine
 10
5251.401855
 20
856.46344
 30
0.0
 11
5250.393555
 21
855.455017
 31
0.0
  0
LINE
  5
4D9
330
4B0
100
AcDbEntity
  8
0
  6
Continuous
 62
     0
100
AcDbLine
 10
5250.817383
 20
855.210449
 30
0.0
 11
5251.73584
 21
856.129333
 31
0.0
  0
LINE
  5
4DA
330
4B0
100
AcDbEntity
  8
0
  6
Continuous
 62
     0
100
AcDbLine
 10
5252.070312
 20
855.795227
 30
0.0
 11
5251.240723
 21
854.965881
 31
0.0
  0
LINE
  5
4DB
330
4B0
100
AcDbEntity
  8
0
  6
Continuous
 62
     0
100
AcDbLine
 10
5251.664551
 20
854.721313
 30
0.0
 11
5252.404297
 21
855.461121
 31
0.0
  0
LINE
  5
4DC
330
4B0
100
AcDbEntity
  8
0
  6
Continuous
 62
     0
100
AcDbLine
 10
5252.738281
 20
855.127014
 30
0.0
 11
5252.087891
 21
854.476685
 31
0.0
  0
LINE
  5
4DD
330
4B0
100
AcDbEntity
  8
0
  6
Continuous
 62
     0
100
AcDbLine
 10
5252.511719
 20
854.232117
 30
0.0
 11
5253.072266
 21
854.792908
 31
0.0
  0
LINE
  5
4DE
330
4B0
100
AcDbEntity
  8
0
  6
Continuous
 62
     0
100
AcDbLine
 10
5253.406738
 20
854.458801
 30
0.0
 11
5252.935547
 21
853.987549
 31
0.0
  0
LINE
  5
4DF
330
4B0
100
AcDbEntity
  8
0
  6
Continuous
 62
     0
100
AcDbLine
 10
5253.358887
 20
853.74292
 30
0.0
 11
5253.740723
 21
854.124695
 31
0.0
  0
LINE
  5
4E0
330
4B0
100
AcDbEntity
  8
0
  6
Continuous
 62
     0
100
AcDbLine
 10
5254.074707
 20
853.790588
 30
0.0
 11
5253.782715
 21
853.498352
 31
0.0
  0
LINE
  5
4E1
330
4B0
100
AcDbEntity
  8
0
  6
Continuous
 62
     0
100
AcDbLine
 10
5254.206055
 20
853.253784
 30
0.0
 11
5254.40918
 21
853.456482
 31
0.0
  0
LINE
  5
4E2
330
4B0
100
AcDbEntity
  8
0
  6
Continuous
 62
     0
100
AcDbLine
 10
5254.743164
 20
853.122375
 30
0.0
 11
5254.629883
 21
853.009216
 31
0.0
  0
LINE
  5
4E3
330
4B0
100
AcDbEntity
  8
0
  6
Continuous
 62
     0
100
AcDbLine
 10
5255.053711
 20
852.764587
 30
0.0
 11
5255.077148
 21
852.788269
 31
0.0
  0
LINE
  5
4E4
330
4B0
100
AcDbEntity
  8
0
  6
Continuous
 62
     0
100
AcDbLine
 10
5238.037598
 20
869.827759
 30
0.0
 11
5233.448242
 21
865.238403
 31
0.0
  0
LINE
  5
4E5
330
4B0
100
AcDbEntity
  8
0
  6
Continuous
 62
     0
100
AcDbLine
 10
5233.024414
 20
865.482971
 30
0.0
 11
5237.703613
 21
870.161865
 31
0.0
  0
LINE
  5
4E6
330
4B0
100
AcDbEntity
  8
0
  6
Continuous
 62
     0
100
AcDbLine
 10
5237.369629
 20
870.495972
 30
0.0
 11
5232.601074
 21
865.727539
 31
0.0
  0
LINE
  5
4E7
330
4B0
100
AcDbEntity
  8
0
  6
Continuous
 62
     0
100
AcDbLine
 10
5232.177246
 20
865.972168
 30
0.0
 11
5237.035156
 21
870.830078
 31
0.0
  0
LINE
  5
4E8
330
4B0
100
AcDbEntity
  8
0
  6
Continuous
 62
     0
100
AcDbLine
 10
5236.701172
 20
871.164185
 30
0.0
 11
5231.753906
 21
866.216736
 31
0.0
  0
LINE
  5
4E9
330
4B0
100
AcDbEntity
  8
0
  6
Continuous
 62
     0
100
AcDbLine
 10
5231.330078
 20
866.461304
 30
0.0
 11
5236.367188
 21
871.498291
 31
0.0
  0
LINE
  5
4EA
330
4B0
100
AcDbEntity
  8
0
  6
Continuous
 62
     0
100
AcDbLine
 10
5236.033203
 20
871.832397
 30
0.0
 11
5230.90625
 21
866.705933
 31
0.0
  0
LINE
  5
4EB
330
4B0
100
AcDbEntity
  8
0
  6
Continuous
 62
     0
100
AcDbLine
 10
5230.48291
 20
866.9505
 30
0.0
 11
5235.69873
 21
872.166504
 31
0.0
  0
LINE
  5
4EC
330
4B0
100
AcDbEntity
  8
0
  6
Continuous
 62
     0
100
AcDbLine
 10
5235.364746
 20
872.500671
 30
0.0
 11
5230.059082
 21
867.195068
 31
0.0
  0
LINE
  5
4ED
330
4B0
100
AcDbEntity
  8
0
  6
Continuous
 62
     0
100
AcDbLine
 10
5229.635742
 20
867.439636
 30
0.0
 11
5235.030762
 21
872.834778
 31
0.0
  0
LINE
  5
4EE
330
4B0
100
AcDbEntity
  8
0
  6
Continuous
 62
     0
100
AcDbLine
 10
5234.696777
 20
873.168884
 30
0.0
 11
5229.211914
 21
867.684204
 31
0.0
  0
LINE
  5
4EF
330
4B0
100
AcDbEntity
  8
0
  6
Continuous
 62
     0
100
AcDbLine
 10
5228.788086
 20
867.928833
 30
0.0
 11
5234.362305
 21
873.502991
 31
0.0
  0
LINE
  5
4F0
330
4B0
100
AcDbEntity
  8
0
  6
Continuous
 62
     0
100
AcDbLine
 10
5234.02832
 20
873.837097
 30
0.0
 11
5228.364746
 21
868.173401
 31
0.0
  0
LINE
  5
4F1
330
4B0
100
AcDbEntity
  8
0
  6
Continuous
 62
     0
100
AcDbLine
 10
5227.940918
 20
868.417969
 30
0.0
 11
5233.694336
 21
874.171204
 31
0.0
  0
LINE
  5
4F2
330
4B0
100
AcDbEntity
  8
0
  6
Continuous
 62
     0
100
AcDbLine
 10
5233.360352
 20
874.50531
 30
0.0
 11
5227.517578
 21
868.662598
 31
0.0
  0
LINE
  5
4F3
330
4B0
100
AcDbEntity
  8
0
  6
Continuous
 62
     0
100
AcDbLine
 10
5227.09375
 20
868.907166
 30
0.0
 11
5233.025879
 21
874.839417
 31
0.0
  0
LINE
  5
4F4
330
4B0
100
AcDbEntity
  8
0
  6
Continuous
 62
     0
100
AcDbLine
 10
5232.691895
 20
875.173523
 30
0.0
 11
5226.669922
 21
869.151733
 31
0.0
  0
LINE
  5
4F5
330
4B0
100
AcDbEntity
  8
0
  6
Continuous
 62
     0
100
AcDbLine
 10
5226.246582
 20
869.396301
 30
0.0
 11
5232.35791
 21
875.507629
 31
0.0
  0
LINE
  5
4F6
330
4B0
100
AcDbEntity
  8
0
  6
Continuous
 62
     0
100
AcDbLine
 10
5232.023926
 20
875.841736
 30
0.0
 11
5225.822754
 21
869.64093
 31
0.0
  0
LINE
  5
4F7
330
4B0
100
AcDbEntity
  8
0
  6
Continuous
 62
     0
100
AcDbLine
 10
5225.399414
 20
869.885498
 30
0.0
 11
5231.689453
 21
876.175842
 31
0.0
  0
LINE
  5
4F8
330
4B0
100
AcDbEntity
  8
0
  6
Continuous
 62
     0
100
AcDbLine
 10
5231.355469
 20
876.509949
 30
0.0
 11
5224.975586
 21
870.130066
 31
0.0
  0
LINE
  5
4F9
330
4B0
100
AcDbEntity
  8
0
  6
Continuous
 62
     0
100
AcDbLine
 10
5224.551758
 20
870.374634
 30
0.0
 11
5231.021484
 21
876.844055
 31
0.0
  0
LINE
  5
4FA
330
4B0
100
AcDbEntity
  8
0
  6
Continuous
 62
     0
100
AcDbLine
 10
5230.6875
 20
877.178162
 30
0.0
 11
5224.128418
 21
870.619263
 31
0.0
  0
LINE
  5
4FB
330
4B0
100
AcDbEntity
  8
0
  6
Continuous
 62
     0
100
AcDbLine
 10
5223.70459
 20
870.863831
 30
0.0
 11
5230.353027
 21
877.512268
 31
0.0
  0
LINE
  5
4FC
330
4B0
100
AcDbEntity
  8
0
  6
Continuous
 62
     0
100
AcDbLine
 10
5230.019043
 20
877.846375
 30
0.0
 11
5223.28125
 21
871.108398
 31
0.0
  0
LINE
  5
4FD
330
4B0
100
AcDbEntity
  8
0
  6
Continuous
 62
     0
100
AcDbLine
 10
5222.857422
 20
871.353027
 30
0.0
 11
5229.685059
 21
878.180481
 31
0.0
  0
LINE
  5
4FE
330
4B0
100
AcDbEntity
  8
0
  6
Continuous
 62
     0
100
AcDbLine
 10
5229.351074
 20
878.514587
 30
0.0
 11
5222.433594
 21
871.597595
 31
0.0
  0
LINE
  5
4FF
330
4B0
100
AcDbEntity
  8
0
  6
Continuous
 62
     0
100
AcDbLine
 10
5222.010254
 20
871.842163
 30
0.0
 11
5229.016602
 21
878.848694
 31
0.0
  0
LINE
  5
500
330
4B0
100
AcDbEntity
  8
0
  6
Continuous
 62
     0
100
AcDbLine
 10
5228.682617
 20
879.1828
 30
0.0
 11
5221.586426
 21
872.086731
 31
0.0
  0
LINE
  5
501
330
4B0
100
AcDbEntity
  8
0
  6
Continuous
 62
     0
100
AcDbLine
 10
5221.163086
 20
872.331299
 30
0.0
 11
5228.348633
 21
879.516907
 31
0.0
  0
LINE
  5
502
330
4B0
100
AcDbEntity
  8
0
  6
Continuous
 62
     0
100
AcDbLine
 10
5228.014648
 20
879.851013
 30
0.0
 11
5221.612793
 21
873.449524
 31
0.0
  0
LINE
  5
503
330
4B0
100
AcDbEntity
  8
0
  6
Continuous
 62
     0
100
AcDbLine
 10
5222.525879
 20
875.030518
 30
0.0
 11
5227.680176
 21
880.18512
 31
0.0
  0
LINE
  5
504
330
4B0
100
AcDbEntity
  8
0
  6
Continuous
 62
     0
100
AcDbLine
 10
5227.346191
 20
880.519226
 30
0.0
 11
5223.438477
 21
876.611572
 31
0.0
  0
LINE
  5
505
330
4B0
100
AcDbEntity
  8
0
  6
Continuous
 62
     0
100
AcDbLine
 10
5224.351074
 20
878.192566
 30
0.0
 11
5248.334961
 21
902.176025
 31
0.0
  0
LINE
  5
506
330
4B0
100
AcDbEntity
  8
0
  6
Continuous
 62
     0
100
AcDbLine
 10
5247.911133
 20
902.420593
 30
0.0
 11
5225.26416
 21
879.77356
 31
0.0
  0
LINE
  5
507
330
4B0
100
AcDbEntity
  8
0
  6
Continuous
 62
     0
100
AcDbLine
 10
5226.176758
 20
881.354614
 30
0.0
 11
5247.487305
 21
902.665161
 31
0.0
  0
LINE
  5
508
330
4B0
100
AcDbEntity
  8
0
  6
Continuous
 62
     0
100
AcDbLine
 10
5247.063965
 20
902.90979
 30
0.0
 11
5227.089844
 21
882.935608
 31
0.0
  0
LINE
  5
509
330
4B0
100
AcDbEntity
  8
0
  6
Continuous
 62
     0
100
AcDbLine
 10
5228.002441
 20
884.516602
 30
0.0
 11
5246.640137
 21
903.154358
 31
0.0
  0
LINE
  5
50A
330
4B0
100
AcDbEntity
  8
0
  6
Continuous
 62
     0
100
AcDbLine
 10
5246.216797
 20
903.398926
 30
0.0
 11
5228.915527
 21
886.097656
 31
0.0
  0
LINE
  5
50B
330
4B0
100
AcDbEntity
  8
0
  6
Continuous
 62
     0
100
AcDbLine
 10
5229.828125
 20
887.67865
 30
0.0
 11
5245.792969
 21
903.643494
 31
0.0
  0
LINE
  5
50C
330
4B0
100
AcDbEntity
  8
0
  6
Continuous
 62
     0
100
AcDbLine
 10
5245.369141
 20
903.888062
 30
0.0
 11
5230.740723
 21
889.259644
 31
0.0
  0
LINE
  5
50D
330
4B0
100
AcDbEntity
  8
0
  6
Continuous
 62
     0
100
AcDbLine
 10
5231.653809
 20
890.840698
 30
0.0
 11
5244.945801
 21
904.13269
 31
0.0
  0
LINE
  5
50E
330
4B0
100
AcDbEntity
  8
0
  6
Continuous
 62
     0
100
AcDbLine
 10
5244.521973
 20
904.377258
 30
0.0
 11
5232.566406
 21
892.421692
 31
0.0
  0
LINE
  5
50F
330
4B0
100
AcDbEntity
  8
0
  6
Continuous
 62
     0
100
AcDbLine
 10
5233.479492
 20
894.002686
 30
0.0
 11
5244.098633
 21
904.621826
 31
0.0
  0
LINE
  5
510
330
4B0
100
AcDbEntity
  8
0
  6
Continuous
 62
     0
100
AcDbLine
 10
5243.674805
 20
904.866455
 30
0.0
 11
5234.39209
 21
895.58374
 31
0.0
  0
LINE
  5
511
330
4B0
100
AcDbEntity
  8
0
  6
Continuous
 62
     0
100
AcDbLine
 10
5235.304688
 20
897.164734
 30
0.0
 11
5243.250977
 21
905.111023
 31
0.0
  0
LINE
  5
512
330
4B0
100
AcDbEntity
  8
0
  6
Continuous
 62
     0
100
AcDbLine
 10
5242.827637
 20
905.355591
 30
0.0
 11
5236.217773
 21
898.745728
 31
0.0
  0
LINE
  5
513
330
4B0
100
AcDbEntity
  8
0
  6
Continuous
 62
     0
100
AcDbLine
 10
5237.130371
 20
900.326782
 30
0.0
 11
5242.403809
 21
905.600159
 31
0.0
  0
LINE
  5
514
330
4B0
100
AcDbEntity
  8
0
  6
Continuous
 62
     0
100
AcDbLine
 10
5241.980469
 20
905.844727
 30
0.0
 11
5238.043457
 21
901.907776
 31
0.0
  0
LINE
  5
515
330
4B0
100
AcDbEntity
  8
0
  6
Continuous
 62
     0
100
AcDbLine
 10
5238.956055
 20
903.488831
 30
0.0
 11
5241.556641
 21
906.089355
 31
0.0
  0
LINE
  5
516
330
4B0
100
AcDbEntity
  8
0
  6
Continuous
 62
     0
100
AcDbLine
 10
5241.132812
 20
906.333923
 30
0.0
 11
5239.869141
 21
905.069824
 31
0.0
  0
ENDBLK
  5
518
330
4B0
100
AcDbEntity
  8
0
100
AcDbBlockEnd
  0
BLOCK
  5
522
330
51A
100
AcDbEntity
  8
0
100
AcDbBlockBegin
  2
.TD_DIMENSION_1
 70
     0
 10
11259.799804
 20
2906.45044
 30
0.0
  3
.TD_DIMENSION_1
  1

  0
LINE
  5
51B
330
51A
100
AcDbEntity
  8
0
  6
Continuous
 62
     0
100
AcDbLine
 10
5688.937012
 20
1629.413696
 30
0.0
 11
5695.1875
 21
1621.608032
 31
0.0
  0
LINE
  5
51C
330
51A
100
AcDbEntity
  8
0
  6
Continuous
 62
     0
100
AcDbLine
 10
5695.1875
 20
1621.608032
 30
0.0
 11
5830.029297
 21
1453.22522
 31
0.0
  0
MTEXT
  5
51D
330
51A
100
AcDbEntity
  8
0
  6
Continuous
 62
     0
100
AcDbMText
 10
5745.627311
 20
1630.612824
 30
0.0
 40
30.0
 41
0.0
 46
0.0
 71
     1
 72
     1
  1
{\fArial|b0|i0;R}
 11
0.6250781984975193
 21
-0.7805621344666264
 31
0.0
 73
     2
 44
0.99598
  0
MTEXT
  5
51E
330
51A
100
AcDbEntity
  8
0
  6
Continuous
 62
     0
100
AcDbMText
 10
5764.37976
 20
1607.195954
 30
0.0
 40
30.0
 41
0.0
 46
0.0
 71
     1
 72
     1
  1
{\fArial|b0|i0;10 (1/2")}
 11
0.6250781984975193
 21
-0.7805621344666264
 31
0.0
 73
     2
 44
0.99598
  0
LINE
  5
51F
330
51A
100
AcDbEntity
  8
0
  6
Continuous
 62
     0
100
AcDbLine
 10
5705.243652
 20
1615.568481
 30
0.0
 11
5688.937012
 21
1629.413696
 31
0.0
  0
LINE
  5
520
330
51A
100
AcDbEntity
  8
0
  6
Continuous
 62
     0
100
AcDbLine
 10
5688.937012
 20
1629.413696
 30
0.0
 11
5698.883789
 21
1610.475342
 31
0.0
  0
LINE
  5
521
330
51A
100
AcDbEntity
  8
0
  6
Continuous
 62
     0
100
AcDbLine
 10
5698.883789
 20
1610.475342
 30
0.0
 11
5705.243652
 21
1615.568481
 31
0.0
  0
ENDBLK
  5
523
330
51A
100
AcDbEntity
  8
0
100
AcDbBlockEnd
  0
BLOCK
  5
52D
330
525
100
AcDbEntity
  8
0
100
AcDbBlockBegin
  2
.TD_DIMENSION_2
 70
     0
 10
11236.558594
 20
2077.838378
 30
0.0
  3
.TD_DIMENSION_2
  1

  0
LINE
  5
526
330
525
100
AcDbEntity
  8
0
  6
Continuous
 62
     0
100
AcDbLine
 10
5686.594727
 20
1096.492676
 30
0.0
 11
5695.1875
 21
1101.608032
 31
0.0
  0
LINE
  5
527
330
525
100
AcDbEntity
  8
0
  6
Continuous
 62
     0
100
AcDbLine
 10
5695.1875
 20
1101.608032
 30
0.0
 11
5880.547363
 21
1211.956421
 31
0.0
  0
MTEXT
  5
528
330
525
100
AcDbEntity
  8
0
  6
Continuous
 62
     0
100
AcDbMText
 10
5693.220345
 20
1152.807411
 30
0.0
 40
30.0
 41
0.0
 46
0.0
 71
     1
 72
     1
  1
{\fArial|b0|i0;R}
 11
0.8592622290568757
 21
0.5115353572493395
 31
0.0
 73
     2
 44
0.99598
  0
MTEXT
  5
529
330
525
100
AcDbEntity
  8
0
  6
Continuous
 62
     0
100
AcDbMText
 10
5718.998177
 20
1168.153472
 30
0.0
 40
30.0
 41
0.0
 46
0.0
 71
     1
 72
     1
  1
{\fArial|b0|i0;10 (1/2")}
 11
0.8592622290568757
 21
0.5115353572493395
 31
0.0
 73
     2
 44
0.99598
  0
LINE
  5
52A
330
525
100
AcDbEntity
  8
0
  6
Continuous
 62
     0
100
AcDbLine
 10
5702.555176
 20
1110.735596
 30
0.0
 11
5686.594727
 21
1096.492676
 31
0.0
  0
LINE
  5
52B
330
525
100
AcDbEntity
  8
0
  6
Continuous
 62
     0
100
AcDbLine
 10
5686.594727
 20
1096.492676
 30
0.0
 11
5706.723145
 21
1103.734253
 31
0.0
  0
LINE
  5
52C
330
525
100
AcDbEntity
  8
0
  6
Continuous
 62
     0
100
AcDbLine
 10
5706.723145
 20
1103.734253
 30
0.0
 11
5702.555176
 21
1110.735596
 31
0.0
  0
ENDBLK
  5
52E
330
525
100
AcDbEntity
  8
0
100
AcDbBlockEnd
  0
BLOCK
  5
538
330
530
100
AcDbEntity
  8
0
100
AcDbBlockBegin
  2
.TD_DIMENSION_3
 70
     0
 10
12595.10254
 20
2046.096436
 30
0.0
  3
.TD_DIMENSION_3
  1

  0
LINE
  5
531
330
530
100
AcDbEntity
  8
0
  6
Continuous
 62
     0
100
AcDbLine
 10
6495.1875
 20
1101.608032
 30
0.0
 11
6504.349609
 21
1097.600098
 31
0.0
  0
LINE
  5
532
330
530
100
AcDbEntity
  8
0
  6
Continuous
 62
     0
100
AcDbLine
 10
6297.55127
 20
1188.067017
 30
0.0
 11
6495.1875
 21
1101.608032
 31
0.0
  0
MTEXT
  5
533
330
530
100
AcDbEntity
  8
0
  6
Continuous
 62
     0
100
AcDbMText
 10
6318.335278
 20
1228.092255
 30
0.0
 40
30.0
 41
0.0
 46
0.0
 71
     1
 72
     1
  1
{\fArial|b0|i0;R}
 11
0.91616917235179
 21
-0.4007917759039425
 31
0.0
 73
     2
 44
0.99598
  0
MTEXT
  5
534
330
530
100
AcDbEntity
  8
0
  6
Continuous
 62
     0
100
AcDbMText
 10
6345.820141
 20
1216.068451
 30
0.0
 40
30.0
 41
0.0
 46
0.0
 71
     1
 72
     1
  1
{\fArial|b0|i0;10 (1/2")}
 11
0.91616917235179
 21
-0.4007917759039425
 31
0.0
 73
     2
 44
0.99598
  0
LINE
  5
535
330
530
100
AcDbEntity
  8
0
  6
Continuous
 62
     0
100
AcDbLine
 10
6483.477051
 20
1102.284302
 30
0.0
 11
6504.349609
 21
1097.600098
 31
0.0
  0
LINE
  5
536
330
530
100
AcDbEntity
  8
0
  6
Continuous
 62
     0
100
AcDbLine
 10
6504.349609
 20
1097.600098
 30
0.0
 11
6486.742676
 21
1109.749146
 31
0.0
  0
LINE
  5
537
330
530
100
AcDbEntity
  8
0
  6
Continuous
 62
     0
100
AcDbLine
 10
6486.742676
 20
1109.749146
 30
0.0
 11
6483.477051
 21
1102.284302
 31
0.0
  0
ENDBLK
  5
539
330
530
100
AcDbEntity
  8
0
100
AcDbBlockEnd
  0
BLOCK
  5
543
330
53B
100
AcDbEntity
  8
0
100
AcDbBlockBegin
  2
.TD_DIMENSION_4
 70
     0
 10
12618.20996
 20
2935.405762
 30
0.0
  3
.TD_DIMENSION_4
  1

  0
LINE
  5
53C
330
53B
100
AcDbEntity
  8
0
  6
Continuous
 62
     0
100
AcDbLine
 10
6495.1875
 20
1621.608032
 30
0.0
 11
6502.194824
 21
1628.742432
 31
0.0
  0
LINE
  5
53D
330
53B
100
AcDbEntity
  8
0
  6
Continuous
 62
     0
100
AcDbLine
 10
6344.030762
 20
1467.702881
 30
0.0
 11
6495.1875
 21
1621.608032
 31
0.0
  0
MTEXT
  5
53E
330
53B
100
AcDbEntity
  8
0
  6
Continuous
 62
     0
100
AcDbMText
 10
6314.027726
 20
1501.375141
 30
0.0
 40
30.0
 41
0.0
 46
0.0
 71
     1
 72
     1
  1
{\fArial|b0|i0;R}
 11
0.7007086492972804
 21
0.7134475375246458
 31
0.0
 73
     2
 44
0.99598
  0
MTEXT
  5
53F
330
53B
100
AcDbEntity
  8
0
  6
Continuous
 62
     0
100
AcDbMText
 10
6335.049211
 20
1522.778584
 30
0.0
 40
30.0
 41
0.0
 46
0.0
 71
     1
 72
     1
  1
{\fArial|b0|i0;10 (1/2")}
 11
0.7007086492972804
 21
0.7134475375246458
 31
0.0
 73
     2
 44
0.99598
  0
LINE
  5
540
330
53B
100
AcDbEntity
  8
0
  6
Continuous
 62
     0
100
AcDbLine
 10
6490.386719
 20
1610.905396
 30
0.0
 11
6502.194824
 21
1628.742432
 31
0.0
  0
LINE
  5
541
330
53B
100
AcDbEntity
  8
0
  6
Continuous
 62
     0
100
AcDbLine
 10
6502.194824
 20
1628.742432
 30
0.0
 11
6484.573242
 21
1616.614746
 31
0.0
  0
LINE
  5
542
330
53B
100
AcDbEntity
  8
0
  6
Continuous
 62
     0
100
AcDbLine
 10
6484.573242
 20
1616.614746
 30
0.0
 11
6490.386719
 21
1610.905396
 31
0.0
  0
ENDBLK
  5
544
330
53B
100
AcDbEntity
  8
0
100
AcDbBlockEnd
  0
BLOCK
  5
57A
330
571
100
AcDbEntity
  8
0
100
AcDbBlockBegin
  2
.TD_DIMENSION_5
 70
     0
 10
5589.032715
 20
1696.063232
 30
0.0
  3
.TD_DIMENSION_5
  1

  0
LINE
  5
572
330
571
100
AcDbEntity
  8
0
  6
Continuous
 62
     7
420
 16777215
100
AcDbLine
 10
5638.032715
 20
1745.063232
 30
0.0
 11
6552.432617
 21
1745.063232
 31
0.0
  0
LINE
  5
573
330
571
100
AcDbEntity
  8
0
  6
Continuous
 62
     7
420
 16777215
100
AcDbLine
 10
5638.032715
 20
1731.063232
 30
0.0
 11
5638.032715
 21
1814.546265
 31
0.0
  0
LINE
  5
574
330
571
100
AcDbEntity
  8
0
  6
Continuous
 62
     7
420
 16777215
100
AcDbLine
 10
6552.432617
 20
1731.063232
 30
0.0
 11
6552.432617
 21
1751.713257
 31
0.0
  0
LINE
  5
575
330
571
100
AcDbEntity
  8
0
  6
Continuous
 62
     7
420
 16777215
100
AcDbLine
 10
6552.432617
 20
1787.413208
 30
0.0
 11
6552.432617
 21
1814.546265
 31
0.0
  0
MTEXT
  5
576
330
571
100
AcDbEntity
  8
0
  6
Continuous
 62
     7
420
 16777215
100
AcDbMText
 10
6027.157715
 20
1787.063232
 30
0.0
 40
35.0
 41
0.0
 46
0.0
 71
     1
 72
     1
  1
{\fArial|b0|i0|c0|p0;BASE 900 (CABINET 36")}
 73
     1
 44
1.0
  0
LWPOLYLINE
  5
577
330
571
100
AcDbEntity
  8
0
  6
Continuous
 62
     7
420
 16777215
100
AcDbPolyline
 90
        4
 70
     0
 43
0.0
 10
5662.532715
 20
1749.816284
 10
5638.032715
 20
1745.063232
 10
5662.532715
 20
1740.310181
 10
5662.532715
 20
1749.816284
  0
LWPOLYLINE
  5
578
330
571
100
AcDbEntity
  8
0
  6
Continuous
 62
     7
420
 16777215
100
AcDbPolyline
 90
        4
 70
     0
 43
0.0
 10
6527.932617
 20
1749.816284
 10
6552.432617
 20
1745.063232
 10
6527.932617
 20
1740.310181
 10
6527.932617
 20
1749.816284
  0
ENDBLK
  5
57B
330
571
100
AcDbEntity
  8
0
100
AcDbBlockEnd
  0
BLOCK
  5
587
330
57D
100
AcDbEntity
  8
0
100
AcDbBlockBegin
  2
*D14
 70
     1
 10
0.0
 20
0.0
 30
0.0
  3
*D14
  1

  0
LINE
  5
57E
330
57D
100
AcDbEntity
  8
0
  6
Continuous
 62
     7
370
    -2
100
AcDbLine
 10
5676.087744
 20
3036.827609
 30
0.0
 11
5676.087744
 21
3150.187256
 31
0.0
  0
LINE
  5
57F
330
57D
100
AcDbEntity
  8
0
  6
Continuous
 62
     7
370
    -2
100
AcDbLine
 10
6514.287744
 20
3036.827609
 30
0.0
 11
6514.287744
 21
3150.187256
 31
0.0
  0
LINE
  5
580
330
57D
100
AcDbEntity
  8
0
  6
Continuous
 62
     7
370
    -2
100
AcDbLine
 10
5704.087744
 20
3134.187256
 30
0.0
 11
6486.287744
 21
3134.187256
 31
0.0
  0
INSERT
  5
581
330
57D
100
AcDbEntity
  8
0
 62
     7
370
    -2
100
AcDbBlockReference
  2
_CLOSED
 10
5676.087744
 20
3134.187256
 30
0.0
 41
28.0
 42
28.0
 43
28.0
 50
180.0
  0
INSERT
  5
582
330
57D
100
AcDbEntity
  8
0
 62
     7
370
    -2
100
AcDbBlockReference
  2
_CLOSED
 10
6514.287744
 20
3134.187256
 30
0.0
 41
28.0
 42
28.0
 43
28.0
  0
MTEXT
  5
583
330
57D
100
AcDbEntity
  8
0
 62
     2
370
     0
100
AcDbMText
 10
6123.387207
 20
3168.387256
 30
0.0
 40
40.0
 41
0.0
 46
0.0
 71
     5
 72
     1
  1
\fArial|b0|i0|c0|p0;{\fArial|b0|i0;838 (33")}
 73
     1
 44
1.0
  0
POINT
  5
584
330
57D
100
AcDbEntity
  8
DEFPOINTS
 62
     0
100
AcDbPoint
 10
5676.087744
 20
2996.827609
 30
0.0
  0
POINT
  5
585
330
57D
100
AcDbEntity
  8
DEFPOINTS
 62
     0
100
AcDbPoint
 10
6514.287744
 20
2996.827609
 30
0.0
  0
POINT
  5
586
330
57D
100
AcDbEntity
  8
DEFPOINTS
 62
     0
100
AcDbPoint
 10
6514.287744
 20
3134.187256
 30
0.0
  0
ENDBLK
  5
588
330
57D
100
AcDbEntity
  8
0
100
AcDbBlockEnd
  0
BLOCK
  5
594
330
58A
100
AcDbEntity
  8
0
100
AcDbBlockBegin
  2
*D15
 70
     1
 10
0.0
 20
0.0
 30
0.0
  3
*D15
  1

  0
LINE
  5
58B
330
58A
100
AcDbEntity
  8
0
  6
Continuous
 62
     7
370
    -2
100
AcDbLine
 10
6569.287744
 20
3002.827609
 30
0.0
 11
6699.922852
 21
3002.827609
 31
0.0
  0
LINE
  5
58C
330
58A
100
AcDbEntity
  8
0
  6
Continuous
 62
     7
370
    -2
100
AcDbLine
 10
6569.287744
 20
2443.827609
 30
0.0
 11
6699.922852
 21
2443.827609
 31
0.0
  0
LINE
  5
58D
330
58A
100
AcDbEntity
  8
0
  6
Continuous
 62
     7
370
    -2
100
AcDbLine
 10
6683.922852
 20
2974.827609
 30
0.0
 11
6683.922852
 21
2471.827609
 31
0.0
  0
INSERT
  5
58E
330
58A
100
AcDbEntity
  8
0
 62
     7
370
    -2
100
AcDbBlockReference
  2
_CLOSED
 10
6683.922852
 20
3002.827609
 30
0.0
 41
28.0
 42
28.0
 43
28.0
 50
90.0
  0
INSERT
  5
58F
330
58A
100
AcDbEntity
  8
0
 62
     7
370
    -2
100
AcDbBlockReference
  2
_CLOSED
 10
6683.922852
 20
2443.827609
 30
0.0
 41
28.0
 42
28.0
 43
28.0
 50
270.0
  0
MTEXT
  5
590
330
58A
100
AcDbEntity
  8
0
 62
     2
370
     0
100
AcDbMText
 10
6645.722851
 20
2723.327609
 30
0.0
 40
40.0
 41
0.0
 46
0.0
 71
     5
 72
     1
  1
\fArial|b0|i0|c0|p0;{\fArial|b0|i0;559 (22")}
 11
0.0
 21
1.0
 31
0.0
 73
     1
 44
1.0
  0
POINT
  5
591
330
58A
100
AcDbEntity
  8
DEFPOINTS
 62
     0
100
AcDbPoint
 10
6509.287744
 20
3002.827609
 30
0.0
  0
POINT
  5
592
330
58A
100
AcDbEntity
  8
DEFPOINTS
 62
     0
100
AcDbPoint
 10
6509.287744
 20
2443.827609
 30
0.0
  0
POINT
  5
593
330
58A
100
AcDbEntity
  8
DEFPOINTS
 62
     0
100
AcDbPoint
 10
6683.922852
 20
2443.827609
 30
0.0
  0
ENDBLK
  5
595
330
58A
100
AcDbEntity
  8
0
100
AcDbBlockEnd
  0
BLOCK
  5
59E
330
596
100
AcDbEntity
  8
0
100
AcDbBlockBegin
  2
.TD_DIMENSION_6
 70
     0
 10
6069.6875
 20
2988.827637
 30
0.0
  3
.TD_DIMENSION_6
  1

  0
LINE
  5
597
330
596
100
AcDbEntity
  8
0
  6
Continuous
 62
     7
420
 16777215
100
AcDbLine
 10
6097.6875
 20
3064.420654
 30
0.0
 11
6199.287598
 21
3064.420654
 31
0.0
  0
LINE
  5
598
330
596
100
AcDbEntity
  8
0
  6
Continuous
 62
     7
420
 16777215
100
AcDbLine
 10
6097.6875
 20
3072.420654
 30
0.0
 11
6097.6875
 21
2988.827637
 31
0.0
  0
LINE
  5
599
330
596
100
AcDbEntity
  8
0
  6
Continuous
 62
     7
420
 16777215
100
AcDbLine
 10
6199.287598
 20
3072.420654
 30
0.0
 11
6199.287598
 21
2988.827637
 31
0.0
  0
MTEXT
  5
59A
330
596
100
AcDbEntity
  8
0
  6
Continuous
 62
     7
420
 16777215
100
AcDbMText
 10
6114.1875
 20
3088.420654
 30
0.0
 40
20.0
 41
0.0
 46
0.0
 71
     1
 72
     1
  1
{\W1.04;{\fArial|b0|i0;101.6}}
 73
     1
 44
1.0
  0
LWPOLYLINE
  5
59B
330
596
100
AcDbEntity
  8
0
  6
Continuous
 62
     7
420
 16777215
100
AcDbPolyline
 90
        4
 70
     0
 43
0.0
 10
6111.6875
 20
3067.136719
 10
6097.6875
 20
3064.420654
 10
6111.6875
 20
3061.70459
 10
6111.6875
 20
3067.136719
  0
LWPOLYLINE
  5
59C
330
596
100
AcDbEntity
  8
0
  6
Continuous
 62
     7
420
 16777215
100
AcDbPolyline
 90
        4
 70
     0
 43
0.0
 10
6185.287598
 20
3067.136719
 10
6199.287598
 20
3064.420654
 10
6185.287598
 20
3061.70459
 10
6185.287598
 20
3067.136719
  0
ENDBLK
  5
59F
330
596
100
AcDbEntity
  8
0
100
AcDbBlockEnd
  0
BLOCK
  5
5A8
330
5A0
100
AcDbEntity
  8
0
100
AcDbBlockBegin
  2
.TD_DIMENSION_7
 70
     0
 10
6171.287598
 20
2988.827637
 30
0.0
  3
.TD_DIMENSION_7
  1

  0
LINE
  5
5A1
330
5A0
100
AcDbEntity
  8
0
  6
Continuous
 62
     7
420
 16777215
100
AcDbLine
 10
6199.287598
 20
3064.420654
 30
0.0
 11
6300.887695
 21
3064.420654
 31
0.0
  0
LINE
  5
5A2
330
5A0
100
AcDbEntity
  8
0
  6
Continuous
 62
     7
420
 16777215
100
AcDbLine
 10
6199.287598
 20
3072.420654
 30
0.0
 11
6199.287598
 21
2988.827637
 31
0.0
  0
LINE
  5
5A3
330
5A0
100
AcDbEntity
  8
0
  6
Continuous
 62
     7
420
 16777215
100
AcDbLine
 10
6300.887695
 20
3072.420654
 30
0.0
 11
6300.887695
 21
2988.827637
 31
0.0
  0
MTEXT
  5
5A4
330
5A0
100
AcDbEntity
  8
0
  6
Continuous
 62
     7
420
 16777215
100
AcDbMText
 10
6215.787598
 20
3088.420654
 30
0.0
 40
20.0
 41
0.0
 46
0.0
 71
     1
 72
     1
  1
{\W1.04;{\fArial|b0|i0;101.6}}
 73
     1
 44
1.0
  0
LWPOLYLINE
  5
5A5
330
5A0
100
AcDbEntity
  8
0
  6
Continuous
 62
     7
420
 16777215
100
AcDbPolyline
 90
        4
 70
     0
 43
0.0
 10
6213.287598
 20
3067.136719
 10
6199.287598
 20
3064.420654
 10
6213.287598
 20
3061.70459
 10
6213.287598
 20
3067.136719
  0
LWPOLYLINE
  5
5A6
330
5A0
100
AcDbEntity
  8
0
  6
Continuous
 62
     7
420
 16777215
100
AcDbPolyline
 90
        4
 70
     0
 43
0.0
 10
6286.887695
 20
3067.136719
 10
6300.887695
 20
3064.420654
 10
6286.887695
 20
3061.70459
 10
6286.887695
 20
3067.136719
  0
ENDBLK
  5
5A9
330
5A0
100
AcDbEntity
  8
0
100
AcDbBlockEnd
  0
BLOCK
  5
5B2
330
5AA
100
AcDbEntity
  8
0
100
AcDbBlockBegin
  2
.TD_DIMENSION_8
 70
     0
 10
5968.087891
 20
2988.827637
 30
0.0
  3
.TD_DIMENSION_8
  1

  0
LINE
  5
5AB
330
5AA
100
AcDbEntity
  8
0
  6
Continuous
 62
     7
420
 16777215
100
AcDbLine
 10
5996.087891
 20
3064.420654
 30
0.0
 11
6097.687988
 21
3064.420654
 31
0.0
  0
LINE
  5
5AC
330
5AA
100
AcDbEntity
  8
0
  6
Continuous
 62
     7
420
 16777215
100
AcDbLine
 10
5996.087891
 20
3072.420654
 30
0.0
 11
5996.087891
 21
2988.827637
 31
0.0
  0
LINE
  5
5AD
330
5AA
100
AcDbEntity
  8
0
  6
Continuous
 62
     7
420
 16777215
100
AcDbLine
 10
6097.687988
 20
3072.420654
 30
0.0
 11
6097.687988
 21
2988.827637
 31
0.0
  0
MTEXT
  5
5AE
330
5AA
100
AcDbEntity
  8
0
  6
Continuous
 62
     7
420
 16777215
100
AcDbMText
 10
6012.587891
 20
3088.420654
 30
0.0
 40
20.0
 41
0.0
 46
0.0
 71
     1
 72
     1
  1
{\W1.04;{\fArial|b0|i0;101.6}}
 73
     1
 44
1.0
  0
LWPOLYLINE
  5
5AF
330
5AA
100
AcDbEntity
  8
0
  6
Continuous
 62
     7
420
 16777215
100
AcDbPolyline
 90
        4
 70
     0
 43
0.0
 10
6010.087891
 20
3067.136719
 10
5996.087891
 20
3064.420654
 10
6010.087891
 20
3061.70459
 10
6010.087891
 20
3067.136719
  0
LWPOLYLINE
  5
5B0
330
5AA
100
AcDbEntity
  8
0
  6
Continuous
 62
     7
420
 16777215
100
AcDbPolyline
 90
        4
 70
     0
 43
0.0
 10
6083.687988
 20
3067.136719
 10
6097.687988
 20
3064.420654
 10
6083.687988
 20
3061.70459
 10
6083.687988
 20
3067.136719
  0
ENDBLK
  5
5B3
330
5AA
100
AcDbEntity
  8
0
100
AcDbBlockEnd
  0
BLOCK
  5
5BC
330
5B4
100
AcDbEntity
  8
0
100
AcDbBlockBegin
  2
.TD_DIMENSION_9
 70
     0
 10
5866.487793
 20
2988.827637
 30
0.0
  3
.TD_DIMENSION_9
  1

  0
LINE
  5
5B5
330
5B4
100
AcDbEntity
  8
0
  6
Continuous
 62
     7
420
 16777215
100
AcDbLine
 10
5894.487793
 20
3064.420654
 30
0.0
 11
5996.087891
 21
3064.420654
 31
0.0
  0
LINE
  5
5B6
330
5B4
100
AcDbEntity
  8
0
  6
Continuous
 62
     7
420
 16777215
100
AcDbLine
 10
5894.487793
 20
3072.420654
 30
0.0
 11
5894.487793
 21
2988.827637
 31
0.0
  0
LINE
  5
5B7
330
5B4
100
AcDbEntity
  8
0
  6
Continuous
 62
     7
420
 16777215
100
AcDbLine
 10
5996.087891
 20
3072.420654
 30
0.0
 11
5996.087891
 21
2988.827637
 31
0.0
  0
MTEXT
  5
5B8
330
5B4
100
AcDbEntity
  8
0
  6
Continuous
 62
     7
420
 16777215
100
AcDbMText
 10
5910.987793
 20
3088.420654
 30
0.0
 40
20.0
 41
0.0
 46
0.0
 71
     1
 72
     1
  1
{\W1.04;{\fArial|b0|i0;101.6}}
 73
     1
 44
1.0
  0
LWPOLYLINE
  5
5B9
330
5B4
100
AcDbEntity
  8
0
  6
Continuous
 62
     7
420
 16777215
100
AcDbPolyline
 90
        4
 70
     0
 43
0.0
 10
5908.487793
 20
3067.136719
 10
5894.487793
 20
3064.420654
 10
5908.487793
 20
3061.70459
 10
5908.487793
 20
3067.136719
  0
LWPOLYLINE
  5
5BA
330
5B4
100
AcDbEntity
  8
0
  6
Continuous
 62
     7
420
 16777215
100
AcDbPolyline
 90
        4
 70
     0
 43
0.0
 10
5982.087891
 20
3067.136719
 10
5996.087891
 20
3064.420654
 10
5982.087891
 20
3061.70459
 10
5982.087891
 20
3067.136719
  0
ENDBLK
  5
5BD
330
5B4
100
AcDbEntity
  8
0
100
AcDbBlockEnd
  0
BLOCK
  5
5C9
330
5BF
100
AcDbEntity
  8
0
100
AcDbBlockBegin
  2
*D20
 70
     1
 10
0.0
 20
0.0
 30
0.0
  3
*D20
  1

  0
LINE
  5
5C0
330
5BF
100
AcDbEntity
  8
0
  6
Continuous
 62
     7
370
    -2
100
AcDbLine
 10
5664.587744
 20
2912.827609
 30
0.0
 11
5490.12207
 21
2912.827609
 31
0.0
  0
LINE
  5
5C1
330
5BF
100
AcDbEntity
  8
0
  6
Continuous
 62
     7
370
    -2
100
AcDbLine
 10
5664.587744
 20
2478.827609
 30
0.0
 11
5490.12207
 21
2478.827609
 31
0.0
  0
LINE
  5
5C2
330
5BF
100
AcDbEntity
  8
0
  6
Continuous
 62
     7
370
    -2
100
AcDbLine
 10
5504.12207
 20
2888.327609
 30
0.0
 11
5504.12207
 21
2503.327609
 31
0.0
  0
INSERT
  5
5C3
330
5BF
100
AcDbEntity
  8
0
 62
     7
370
    -2
100
AcDbBlockReference
  2
_CLOSED
 10
5504.12207
 20
2912.827609
 30
0.0
 41
24.5
 42
24.5
 43
24.5
 50
90.0
  0
INSERT
  5
5C4
330
5BF
100
AcDbEntity
  8
0
 62
     7
370
    -2
100
AcDbBlockReference
  2
_CLOSED
 10
5504.12207
 20
2478.827609
 30
0.0
 41
24.5
 42
24.5
 43
24.5
 50
270.0
  0
MTEXT
  5
5C5
330
5BF
100
AcDbEntity
  8
0
 62
     2
370
     0
100
AcDbMText
 10
5470.69707
 20
2695.827609
 30
0.0
 40
35.0
 41
0.0
 46
0.0
 71
     5
 72
     1
  1
\fArial|b0|i0|c0|p0;{\fArial|b0|i0;434 (17 1/8")}
 11
0.0
 21
1.0
 31
0.0
 73
     1
 44
1.0
  0
POINT
  5
5C6
330
5BF
100
AcDbEntity
  8
DEFPOINTS
 62
     0
100
AcDbPoint
 10
5717.087744
 20
2912.827609
 30
0.0
  0
POINT
  5
5C7
330
5BF
100
AcDbEntity
  8
DEFPOINTS
 62
     0
100
AcDbPoint
 10
5717.087744
 20
2478.827609
 30
0.0
  0
POINT
  5
5C8
330
5BF
100
AcDbEntity
  8
DEFPOINTS
 62
     0
100
AcDbPoint
 10
5504.12207
 20
2478.827609
 30
0.0
  0
ENDBLK
  5
5CA
330
5BF
100
AcDbEntity
  8
0
100
AcDbBlockEnd
  0
BLOCK
  5
5D6
330
5CC
100
AcDbEntity
  8
0
100
AcDbBlockBegin
  2
*D21
 70
     1
 10
0.0
 20
0.0
 30
0.0
  3
*D21
  1

  0
LINE
  5
5CD
330
5CC
100
AcDbEntity
  8
0
  6
Continuous
 62
     7
370
    -2
100
AcDbLine
 10
5711.087744
 20
2431.327609
 30
0.0
 11
5711.087744
 21
2235.747803
 31
0.0
  0
LINE
  5
5CE
330
5CC
100
AcDbEntity
  8
0
  6
Continuous
 62
     7
370
    -2
100
AcDbLine
 10
6479.287744
 20
2431.327609
 30
0.0
 11
6479.287744
 21
2235.747803
 31
0.0
  0
LINE
  5
5CF
330
5CC
100
AcDbEntity
  8
0
  6
Continuous
 62
     7
370
    -2
100
AcDbLine
 10
5735.587744
 20
2249.747803
 30
0.0
 11
6454.787744
 21
2249.747803
 31
0.0
  0
INSERT
  5
5D0
330
5CC
100
AcDbEntity
  8
0
 62
     7
370
    -2
100
AcDbBlockReference
  2
_CLOSED
 10
5711.087744
 20
2249.747803
 30
0.0
 41
24.5
 42
24.5
 43
24.5
 50
180.0
  0
INSERT
  5
5D1
330
5CC
100
AcDbEntity
  8
0
 62
     7
370
    -2
100
AcDbBlockReference
  2
_CLOSED
 10
6479.287744
 20
2249.747803
 30
0.0
 41
24.5
 42
24.5
 43
24.5
  0
MTEXT
  5
5D2
330
5CC
100
AcDbEntity
  8
0
 62
     2
370
     0
100
AcDbMText
 10
6095.187744
 20
2279.672803
 30
0.0
 40
35.0
 41
0.0
 46
0.0
 71
     5
 72
     1
  1
\fArial|b0|i0|c0|p0;{\fArial|b0|i0;768 (30 1/4")}
 73
     1
 44
1.0
  0
POINT
  5
5D3
330
5CC
100
AcDbEntity
  8
DEFPOINTS
 62
     0
100
AcDbPoint
 10
5711.087744
 20
2483.827609
 30
0.0
  0
POINT
  5
5D4
330
5CC
100
AcDbEntity
  8
DEFPOINTS
 62
     0
100
AcDbPoint
 10
6479.287744
 20
2483.827609
 30
0.0
  0
POINT
  5
5D5
330
5CC
100
AcDbEntity
  8
DEFPOINTS
 62
     0
100
AcDbPoint
 10
6479.287744
 20
2249.747803
 30
0.0
  0
ENDBLK
  5
5D7
330
5CC
100
AcDbEntity
  8
0
100
AcDbBlockEnd
  0
BLOCK
  5
5E3
330
5D9
100
AcDbEntity
  8
0
100
AcDbBlockBegin
  2
*D22
 70
     1
 10
0.0
 20
0.0
 30
0.0
  3
*D22
  1

  0
LINE
  5
5DA
330
5D9
100
AcDbEntity
  8
0
  6
Continuous
 62
     7
370
    -2
100
AcDbLine
 10
5685.187744
 20
1084.108009
 30
0.0
 11
5685.187744
 21
976.723388
 31
0.0
  0
LINE
  5
5DB
330
5D9
100
AcDbEntity
  8
0
  6
Continuous
 62
     7
370
    -2
100
AcDbLine
 10
6505.187744
 20
1084.108009
 30
0.0
 11
6505.187744
 21
976.723388
 31
0.0
  0
LINE
  5
5DC
330
5D9
100
AcDbEntity
  8
0
  6
Continuous
 62
     7
370
    -2
100
AcDbLine
 10
5709.687744
 20
990.723389
 30
0.0
 11
6480.687744
 21
990.723389
 31
0.0
  0
INSERT
  5
5DD
330
5D9
100
AcDbEntity
  8
0
 62
     7
370
    -2
100
AcDbBlockReference
  2
_CLOSED
 10
5685.187744
 20
990.723389
 30
0.0
 41
24.5
 42
24.5
 43
24.5
 50
180.0
  0
INSERT
  5
5DE
330
5D9
100
AcDbEntity
  8
0
 62
     7
370
    -2
100
AcDbBlockReference
  2
_CLOSED
 10
6505.187744
 20
990.723389
 30
0.0
 41
24.5
 42
24.5
 43
24.5
  0
MTEXT
  5
5DF
330
5D9
100
AcDbEntity
  8
0
 62
     2
370
     0
100
AcDbMText
 10
6095.187744
 20
1020.648389
 30
0.0
 40
35.0
 41
0.0
 46
0.0
 71
     5
 72
     1
  1
\fArial|b0|i0|c0|p0;{\fArial|b0|i0;820 (32 1/4")}
 73
     1
 44
1.0
  0
POINT
  5
5E0
330
5D9
100
AcDbEntity
  8
DEFPOINTS
 62
     0
100
AcDbPoint
 10
5685.187744
 20
1101.608009
 30
0.0
  0
POINT
  5
5E1
330
5D9
100
AcDbEntity
  8
DEFPOINTS
 62
     0
100
AcDbPoint
 10
6505.187744
 20
1101.608009
 30
0.0
  0
POINT
  5
5E2
330
5D9
100
AcDbEntity
  8
DEFPOINTS
 62
     0
100
AcDbPoint
 10
6505.187744
 20
990.723389
 30
0.0
  0
ENDBLK
  5
5E4
330
5D9
100
AcDbEntity
  8
0
100
AcDbBlockEnd
  0
BLOCK
  5
5F0
330
5E6
100
AcDbEntity
  8
0
100
AcDbBlockBegin
  2
*D23
 70
     1
 10
0.0
 20
0.0
 30
0.0
  3
*D23
  1

  0
LINE
  5
5E7
330
5E6
100
AcDbEntity
  8
0
  6
Continuous
 62
     7
370
    -2
100
AcDbLine
 10
6512.687744
 20
1091.608009
 30
0.0
 11
6648.981446
 21
1091.608009
 31
0.0
  0
LINE
  5
5E8
330
5E6
100
AcDbEntity
  8
0
  6
Continuous
 62
     7
370
    -2
100
AcDbLine
 10
6512.687744
 20
1631.608009
 30
0.0
 11
6648.981446
 21
1631.608009
 31
0.0
  0
LINE
  5
5E9
330
5E6
100
AcDbEntity
  8
0
  6
Continuous
 62
     7
370
    -2
100
AcDbLine
 10
6634.981445
 20
1116.108009
 30
0.0
 11
6634.981445
 21
1607.108009
 31
0.0
  0
INSERT
  5
5EA
330
5E6
100
AcDbEntity
  8
0
 62
     7
370
    -2
100
AcDbBlockReference
  2
_CLOSED
 10
6634.981445
 20
1091.608009
 30
0.0
 41
24.5
 42
24.5
 43
24.5
 50
270.0
  0
INSERT
  5
5EB
330
5E6
100
AcDbEntity
  8
0
 62
     7
370
    -2
100
AcDbBlockReference
  2
_CLOSED
 10
6634.981445
 20
1631.608009
 30
0.0
 41
24.5
 42
24.5
 43
24.5
 50
90.0
  0
MTEXT
  5
5EC
330
5E6
100
AcDbEntity
  8
0
 62
     2
370
     0
100
AcDbMText
 10
6605.056445
 20
1361.608009
 30
0.0
 40
35.0
 41
0.0
 46
0.0
 71
     5
 72
     1
  1
\fArial|b0|i0|c0|p0;{\fArial|b0|i0;540 (21 1/4")}
 11
0.0
 21
1.0
 31
0.0
 73
     1
 44
1.0
  0
POINT
  5
5ED
330
5E6
100
AcDbEntity
  8
DEFPOINTS
 62
     0
100
AcDbPoint
 10
6495.187744
 20
1091.608009
 30
0.0
  0
POINT
  5
5EE
330
5E6
100
AcDbEntity
  8
DEFPOINTS
 62
     0
100
AcDbPoint
 10
6495.187744
 20
1631.608009
 30
0.0
  0
POINT
  5
5EF
330
5E6
100
AcDbEntity
  8
DEFPOINTS
 62
     0
100
AcDbPoint
 10
6634.981445
 20
1631.608009
 30
0.0
  0
ENDBLK
  5
5F1
330
5E6
100
AcDbEntity
  8
0
100
AcDbBlockEnd
  0
BLOCK
  5
5FD
330
5F3
100
AcDbEntity
  8
0
100
AcDbBlockBegin
  2
*D24
 70
     1
 10
0.0
 20
0.0
 30
0.0
  3
*D24
  1

  0
LINE
  5
5F4
330
5F3
100
AcDbEntity
  8
0
  6
Continuous
 62
     7
370
    -2
100
AcDbLine
 10
5711.087744
 20
2432.327609
 30
0.0
 11
5711.087744
 21
2336.526123
 31
0.0
  0
LINE
  5
5F5
330
5F3
100
AcDbEntity
  8
0
  6
Continuous
 62
     7
370
    -2
100
AcDbLine
 10
6080.187744
 20
2436.327609
 30
0.0
 11
6080.187744
 21
2336.526123
 31
0.0
  0
LINE
  5
5F6
330
5F3
100
AcDbEntity
  8
0
  6
Continuous
 62
     7
370
    -2
100
AcDbLine
 10
5735.587744
 20
2350.526123
 30
0.0
 11
6055.687744
 21
2350.526123
 31
0.0
  0
INSERT
  5
5F7
330
5F3
100
AcDbEntity
  8
0
 62
     7
370
    -2
100
AcDbBlockReference
  2
_CLOSED
 10
5711.087744
 20
2350.526123
 30
0.0
 41
24.5
 42
24.5
 43
24.5
 50
180.0
  0
INSERT
  5
5F8
330
5F3
100
AcDbEntity
  8
0
 62
     7
370
    -2
100
AcDbBlockReference
  2
_CLOSED
 10
6080.187744
 20
2350.526123
 30
0.0
 41
24.5
 42
24.5
 43
24.5
  0
MTEXT
  5
5F9
330
5F3
100
AcDbEntity
  8
0
 62
     2
370
     0
100
AcDbMText
 10
5895.637744
 20
2380.451123
 30
0.0
 40
35.0
 41
0.0
 46
0.0
 71
     5
 72
     1
  1
\fArial|b0|i0|c0|p0;{\fArial|b0|i0;369 (14 3/5")}
 73
     1
 44
1.0
  0
POINT
  5
5FA
330
5F3
100
AcDbEntity
  8
DEFPOINTS
 62
     0
100
AcDbPoint
 10
5711.087744
 20
2484.827609
 30
0.0
  0
POINT
  5
5FB
330
5F3
100
AcDbEntity
  8
DEFPOINTS
 62
     0
100
AcDbPoint
 10
6080.187744
 20
2488.827609
 30
0.0
  0
POINT
  5
5FC
330
5F3
100
AcDbEntity
  8
DEFPOINTS
 62
     0
100
AcDbPoint
 10
6080.187744
 20
2350.526123
 30
0.0
  0
ENDBLK
  5
5FE
330
5F3
100
AcDbEntity
  8
0
100
AcDbBlockEnd
  0
BLOCK
  5
60A
330
600
100
AcDbEntity
  8
0
100
AcDbBlockBegin
  2
*D25
 70
     1
 10
0.0
 20
0.0
 30
0.0
  3
*D25
  1

  0
LINE
  5
601
330
600
100
AcDbEntity
  8
0
  6
Continuous
 62
     7
370
    -2
100
AcDbLine
 10
6110.187744
 20
2436.327609
 30
0.0
 11
6110.187744
 21
2336.526123
 31
0.0
  0
LINE
  5
602
330
600
100
AcDbEntity
  8
0
  6
Continuous
 62
     7
370
    -2
100
AcDbLine
 10
6479.287744
 20
2432.327609
 30
0.0
 11
6479.287744
 21
2336.526123
 31
0.0
  0
LINE
  5
603
330
600
100
AcDbEntity
  8
0
  6
Continuous
 62
     7
370
    -2
100
AcDbLine
 10
6134.687744
 20
2350.526123
 30
0.0
 11
6454.787744
 21
2350.526123
 31
0.0
  0
INSERT
  5
604
330
600
100
AcDbEntity
  8
0
 62
     7
370
    -2
100
AcDbBlockReference
  2
_CLOSED
 10
6110.187744
 20
2350.526123
 30
0.0
 41
24.5
 42
24.5
 43
24.5
 50
180.0
  0
INSERT
  5
605
330
600
100
AcDbEntity
  8
0
 62
     7
370
    -2
100
AcDbBlockReference
  2
_CLOSED
 10
6479.287744
 20
2350.526123
 30
0.0
 41
24.5
 42
24.5
 43
24.5
  0
MTEXT
  5
606
330
600
100
AcDbEntity
  8
0
 62
     2
370
     0
100
AcDbMText
 10
6294.737744
 20
2380.451123
 30
0.0
 40
35.0
 41
0.0
 46
0.0
 71
     5
 72
     1
  1
\fArial|b0|i0|c0|p0;{\fArial|b0|i0;369 (14 3/5")}
 73
     1
 44
1.0
  0
POINT
  5
607
330
600
100
AcDbEntity
  8
DEFPOINTS
 62
     0
100
AcDbPoint
 10
6110.187744
 20
2488.827609
 30
0.0
  0
POINT
  5
608
330
600
100
AcDbEntity
  8
DEFPOINTS
 62
     0
100
AcDbPoint
 10
6479.287744
 20
2484.827609
 30
0.0
  0
POINT
  5
609
330
600
100
AcDbEntity
  8
DEFPOINTS
 62
     0
100
AcDbPoint
 10
6479.287744
 20
2350.526123
 30
0.0
  0
ENDBLK
  5
60B
330
600
100
AcDbEntity
  8
0
100
AcDbBlockEnd
  0
BLOCK
  5
617
330
60D
100
AcDbEntity
  8
0
100
AcDbBlockBegin
  2
*D26
 70
     1
 10
0.0
 20
0.0
 30
0.0
  3
*D26
  1

  0
LINE
  5
60E
330
60D
100
AcDbEntity
  8
0
  6
Continuous
 62
     7
370
    -2
100
AcDbLine
 10
5743.089756
 20
2166.546238
 30
0.0
 11
5930.095703
 21
2166.546238
 31
0.0
  0
LINE
  5
60F
330
60D
100
AcDbEntity
  8
0
  6
Continuous
 62
     7
370
    -2
100
AcDbLine
 10
5905.137744
 20
1926.546238
 30
0.0
 11
5910.095703
 21
1926.546238
 31
0.0
  0
LINE
  5
610
330
60D
100
AcDbEntity
  8
0
  6
Continuous
 62
     7
370
    -2
100
AcDbLine
 10
5920.095703
 20
2149.046238
 30
0.0
 11
5920.095703
 21
1944.046238
 31
0.0
  0
INSERT
  5
611
330
60D
100
AcDbEntity
  8
0
 62
     7
370
    -2
100
AcDbBlockReference
  2
_CLOSED
 10
5920.095703
 20
2166.546238
 30
0.0
 41
17.5
 42
17.5
 43
17.5
 50
90.0
  0
INSERT
  5
612
330
60D
100
AcDbEntity
  8
0
 62
     7
370
    -2
100
AcDbBlockReference
  2
_CLOSED
 10
5920.095703
 20
1926.546238
 30
0.0
 41
17.5
 42
17.5
 43
17.5
 50
270.0
  0
MTEXT
  5
613
330
60D
100
AcDbEntity
  8
0
 62
     2
370
     0
100
AcDbMText
 10
5898.720703
 20
2046.546238
 30
0.0
 40
25.0
 41
0.0
 46
0.0
 71
     5
 72
     1
  1
\fArial|b0|i0|c0|p0;{\fArial|b0|i0;240 (9 7/16")"}
 11
0.0
 21
1.0
 31
0.0
 73
     1
 44
1.0
  0
POINT
  5
614
330
60D
100
AcDbEntity
  8
DEFPOINTS
 62
     0
100
AcDbPoint
 10
5705.589756
 20
2166.546238
 30
0.0
  0
POINT
  5
615
330
60D
100
AcDbEntity
  8
DEFPOINTS
 62
     0
100
AcDbPoint
 10
5942.637744
 20
1926.546238
 30
0.0
  0
POINT
  5
616
330
60D
100
AcDbEntity
  8
DEFPOINTS
 62
     0
100
AcDbPoint
 10
5920.095703
 20
1926.546238
 30
0.0
  0
ENDBLK
  5
618
330
60D
100
AcDbEntity
  8
0
100
AcDbBlockEnd
  0
BLOCK
  5
620
330
619
100
AcDbEntity
  8
0
100
AcDbBlockBegin
  2
.TD_DIMENSION_10
 70
     0
 10
6057.842773
 20
2036.946289
 30
0.0
  3
.TD_DIMENSION_10
  1

  0
LINE
  5
61A
330
619
100
AcDbEntity
  8
0
  6
Continuous
 62
     7
420
 16777215
100
AcDbLine
 10
6099.842773
 20
2064.946289
 30
0.0
 11
6099.842773
 21
2166.546143
 31
0.0
  0
LINE
  5
61B
330
619
100
AcDbEntity
  8
0
  6
Continuous
 62
     7
420
 16777215
100
AcDbLine
 10
6091.842773
 20
2166.546143
 30
0.0
 11
6454.785645
 21
2166.546143
 31
0.0
  0
MTEXT
  5
61C
330
619
100
AcDbEntity
  8
0
  6
Continuous
 62
     7
420
 16777215
100
AcDbMText
 10
6075.842773
 20
2081.446289
 30
0.0
 40
20.0
 41
0.0
 46
0.0
 71
     1
 72
     1
  1
{\W1.04;{\fArial|b0|i0;101.6}}
 11
3.896499959564406E-12
 21
1.0
 31
0.0
 73
     1
 44
1.0
  0
LWPOLYLINE
  5
61D
330
619
100
AcDbEntity
  8
0
  6
Continuous
 62
     7
420
 16777215
100
AcDbPolyline
 90
        4
 70
     0
 43
0.0
 10
6097.126953
 20
2078.946289
 10
6099.842773
 20
2064.946289
 10
6102.558594
 20
2078.946289
 10
6097.126953
 20
2078.946289
  0
LWPOLYLINE
  5
61E
330
619
100
AcDbEntity
  8
0
  6
Continuous
 62
     7
420
 16777215
100
AcDbPolyline
 90
        4
 70
     0
 43
0.0
 10
6097.126953
 20
2152.546143
 10
6099.842773
 20
2166.546143
 10
6102.558594
 20
2152.546143
 10
6097.126953
 20
2152.546143
  0
ENDBLK
  5
621
330
619
100
AcDbEntity
  8
0
100
AcDbBlockEnd
  0
BLOCK
  5
62D
330
623
100
AcDbEntity
  8
0
100
AcDbBlockBegin
  2
*D28
 70
     1
 10
0.0
 20
0.0
 30
0.0
  3
*D28
  1

  0
LINE
  5
624
330
623
100
AcDbEntity
  8
0
  6
Continuous
 62
     7
370
    -2
100
AcDbLine
 10
6166.809772
 20
1936.24685
 30
0.0
 11
6222.077149
 21
1936.24685
 31
0.0
  0
LINE
  5
625
330
623
100
AcDbEntity
  8
0
  6
Continuous
 62
     7
370
    -2
100
AcDbLine
 10
6138.795657
 20
2064.946238
 30
0.0
 11
6222.077149
 21
2064.946238
 31
0.0
  0
LINE
  5
626
330
623
100
AcDbEntity
  8
0
  6
Continuous
 62
    45
370
    -2
100
AcDbLine
 10
6214.077148
 20
1956.24685
 30
0.0
 11
6214.077148
 21
2044.946238
 31
0.0
  0
INSERT
  5
627
330
623
100
AcDbEntity
  8
0
 62
    45
370
    -2
100
AcDbBlockReference
  2
_CLOSED
 10
6214.077148
 20
1936.24685
 30
0.0
 41
20.0
 42
20.0
 43
20.0
 50
270.0
  0
INSERT
  5
628
330
623
100
AcDbEntity
  8
0
 62
    45
370
    -2
100
AcDbBlockReference
  2
_CLOSED
 10
6214.077148
 20
2064.946238
 30
0.0
 41
20.0
 42
20.0
 43
20.0
 50
90.0
  0
MTEXT
  5
629
330
623
100
AcDbEntity
  8
0
 62
     2
370
     0
100
AcDbMText
 10
6197.747148
 20
2000.596544
 30
0.0
 40
20.0
 41
0.0
 46
0.0
 71
     5
 72
     1
  1
\fArial|b0|i0|c0|p0;{\fArial|b0|i0;5 1/8"}
 11
0.0
 21
1.0
 31
0.0
 73
     1
 44
1.0
  0
POINT
  5
62A
330
623
100
AcDbEntity
  8
DEFPOINTS
 62
     0
100
AcDbPoint
 10
6136.809772
 20
1936.24685
 30
0.0
  0
POINT
  5
62B
330
623
100
AcDbEntity
  8
DEFPOINTS
 62
     0
100
AcDbPoint
 10
6108.795657
 20
2064.946238
 30
0.0
  0
POINT
  5
62C
330
623
100
AcDbEntity
  8
DEFPOINTS
 62
     0
100
AcDbPoint
 10
6214.077148
 20
2064.946238
 30
0.0
  0
ENDBLK
  5
62E
330
623
100
AcDbEntity
  8
0
100
AcDbBlockEnd
  0
BLOCK
  5
63A
330
630
100
AcDbEntity
  8
0
100
AcDbBlockBegin
  2
*D29
 70
     1
 10
0.0
 20
0.0
 30
0.0
  3
*D29
  1

  0
ARC
  5
631
330
630
100
AcDbEntity
  8
0
  6
Continuous
 62
    45
370
    -2
100
AcDbCircle
 10
5710.894426
 20
2166.546238
 30
0.0
 40
90.30102107115628
100
AcDbArc
 50
289.716033
 51
347.283967
  0
INSERT
  5
632
330
630
100
AcDbEntity
  8
0
 62
    45
370
    -2
100
AcDbBlockReference
  2
_CLOSED
 10
5721.899352
 20
2076.918307
 30
0.0
 41
20.0
 42
20.0
 43
20.0
 50
193.358017
  0
INSERT
  5
633
330
630
100
AcDbEntity
  8
0
 62
    45
370
    -2
100
AcDbBlockReference
  2
_CLOSED
 10
5801.195447
 20
2166.546238
 30
0.0
 41
20.0
 42
20.0
 43
20.0
 50
83.641983
  0
MTEXT
  5
634
330
630
100
AcDbEntity
  8
0
 62
     2
370
     0
100
AcDbMText
 10
5765.868003
 20
2116.93314
 30
0.0
 40
20.0
 41
0.0
 46
0.0
 71
     5
 72
     1
  1
83%%d
 11
0.6699853368005427
 21
0.7423743317708817
 31
0.0
 73
     1
 44
1.0
  0
POINT
  5
635
330
630
100
AcDbEntity
  8
DEFPOINTS
 62
     0
100
AcDbPoint
 10
5790.870781
 20
2124.617048
 30
0.0
  0
POINT
  5
636
330
630
100
AcDbEntity
  8
DEFPOINTS
 62
     0
100
AcDbPoint
 10
6484.785731
 20
2166.546238
 30
0.0
  0
POINT
  5
637
330
630
100
AcDbEntity
  8
DEFPOINTS
 62
     0
100
AcDbPoint
 10
5738.115381
 20
1944.84935
 30
0.0
  0
POINT
  5
638
330
630
100
AcDbEntity
  8
DEFPOINTS
 62
     0
100
AcDbPoint
 10
5711.541351
 20
2161.277454
 30
0.0
  0
POINT
  5
639
330
630
100
AcDbEntity
  8
DEFPOINTS
 62
     0
100
AcDbPoint
 10
5705.589756
 20
2166.546238
 30
0.0
  0
ENDBLK
  5
63B
330
630
100
AcDbEntity
  8
0
100
AcDbBlockEnd
  0
BLOCK
  5
647
330
63D
100
AcDbEntity
  8
0
100
AcDbBlockBegin
  2
*D30
 70
     1
 10
0.0
 20
0.0
 30
0.0
  3
*D30
  1

  0
ARC
  5
63E
330
63D
100
AcDbEntity
  8
0
  6
Continuous
 62
    45
370
    -2
100
AcDbCircle
 10
6095.51947
 20
2166.546238
 30
0.0
 40
116.3029944470797
100
AcDbArc
 50
189.865028
 51
253.134972
  0
INSERT
  5
63F
330
63D
100
AcDbEntity
  8
0
 62
    45
370
    -2
100
AcDbBlockReference
  2
_CLOSED
 10
5979.216475
 20
2166.546238
 30
0.0
 41
20.0
 42
20.0
 43
20.0
 50
94.932514
  0
INSERT
  5
640
330
63D
100
AcDbEntity
  8
0
 62
    45
370
    -2
100
AcDbBlockReference
  2
_CLOSED
 10
6081.3457
 20
2051.110148
 30
0.0
 41
20.0
 42
20.0
 43
20.0
 50
348.067486
  0
MTEXT
  5
641
330
63D
100
AcDbEntity
  8
0
 62
     2
370
     0
100
AcDbMText
 10
6020.584207
 20
2100.249118
 30
0.0
 40
20.0
 41
0.0
 46
0.0
 71
     5
 72
     1
  1
83%%d
 11
0.6626200482527888
 21
-0.7489557207562221
 31
0.0
 73
     1
 44
1.0
  0
POINT
  5
642
330
63D
100
AcDbEntity
  8
DEFPOINTS
 62
     0
100
AcDbPoint
 10
6008.413677
 20
2089.481542
 30
0.0
  0
POINT
  5
643
330
63D
100
AcDbEntity
  8
DEFPOINTS
 62
     0
100
AcDbPoint
 10
6068.331031
 20
1945.114173
 30
0.0
  0
POINT
  5
644
330
63D
100
AcDbEntity
  8
DEFPOINTS
 62
     0
100
AcDbPoint
 10
5705.589756
 20
2166.546238
 30
0.0
  0
POINT
  5
645
330
63D
100
AcDbEntity
  8
DEFPOINTS
 62
     0
100
AcDbPoint
 10
6484.785731
 20
2166.546238
 30
0.0
  0
POINT
  5
646
330
63D
100
AcDbEntity
  8
DEFPOINTS
 62
     0
100
AcDbPoint
 10
6082.613275
 20
2061.433716
 30
0.0
  0
ENDBLK
  5
648
330
63D
100
AcDbEntity
  8
0
100
AcDbBlockEnd
  0
ENDSEC
  0
SECTION
  2
ENTITIES
  0
MTEXT
  5
88
330
1F
100
AcDbEntity
  8
0
  6
Continuous
 62
     2
420
 16776960
370
     0
100
AcDbMText
 10
-4305.27832
 20
14568.959961
 30
0.0
 40
6.0
 41
0.0
 46
0.0
 71
     1
 72
     1
  1
\p;\P\p;{\fTimes New Roman|b0|i0; }\P\p;\P\p;\P
 73
     2
 44
0.899982
  0
LINE
  5
89
330
1F
100
AcDbEntity
  8
0
  6
Continuous
 62
     4
420
    65535
370
     0
100
AcDbLine
 10
5160.122505
 20
685.099843
 30
0.0
 11
5160.122505
 21
3322.921376
 31
0.0
  0
LINE
  5
8A
330
1F
100
AcDbEntity
  8
0
  6
Continuous
 62
     4
420
    65535
370
     0
100
AcDbLine
 10
5160.122505
 20
3322.921376
 30
0.0
 11
6984.502998
 21
3322.921376
 31
0.0
  0
LINE
  5
8B
330
1F
100
AcDbEntity
  8
0
  6
Continuous
 62
     4
420
    65535
370
     0
100
AcDbLine
 10
6984.502998
 20
3322.921376
 30
0.0
 11
6984.502998
 21
685.099843
 31
0.0
  0
LINE
  5
8C
330
1F
100
AcDbEntity
  8
0
  6
Continuous
 62
     4
420
    65535
370
     0
100
AcDbLine
 10
6984.502998
 20
685.099843
 30
0.0
 11
5160.122505
 21
685.099843
 31
0.0
  0
LINE
  5
8D
330
1F
100
AcDbEntity
  8
0
  6
Continuous
 62
     4
420
    65535
370
     0
100
AcDbLine
 10
6974.502998
 20
3312.921376
 30
0.0
 11
5170.122505
 21
3312.921376
 31
0.0
  0
LINE
  5
8E
330
1F
100
AcDbEntity
  8
0
  6
Continuous
 62
     4
420
    65535
370
     0
100
AcDbLine
 10
5170.122505
 20
3312.921376
 30
0.0
 11
5170.122505
 21
695.099843
 31
0.0
  0
LINE
  5
8F
330
1F
100
AcDbEntity
  8
0
  6
Continuous
 62
     4
420
    65535
370
     0
100
AcDbLine
 10
5170.122505
 20
695.099843
 30
0.0
 11
6974.502998
 21
695.099843
 31
0.0
  0
LINE
  5
90
330
1F
100
AcDbEntity
  8
0
  6
Continuous
 62
     4
420
    65535
370
     0
100
AcDbLine
 10
6974.502998
 20
695.099843
 30
0.0
 11
6974.502998
 21
3312.921376
 31
0.0
  0
LINE
  5
91
330
1F
100
AcDbEntity
  8
0
  6
Continuous
 62
     7
420
 16777215
370
     0
100
AcDbLine
 10
6331.107218
 20
708.25024
 30
0.0
 11
6331.107218
 21
910.75024
 31
0.0
  0
LINE
  5
92
330
1F
100
AcDbEntity
  8
0
  6
Continuous
 62
     7
420
 16777215
370
     0
100
AcDbLine
 10
5183.607218
 20
708.25024
 30
0.0
 11
6331.107218
 21
708.25024
 31
0.0
  0
LINE
  5
93
330
1F
100
AcDbEntity
  8
0
  6
Continuous
 62
     7
420
 16777215
370
     0
100
AcDbLine
 10
5183.607218
 20
708.25024
 30
0.0
 11
5183.607218
 21
910.75024
 31
0.0
  0
LINE
  5
94
330
1F
100
AcDbEntity
  8
0
  6
Continuous
 62
     7
420
 16777215
370
     0
100
AcDbLine
 10
5554.857218
 20
708.25024
 30
0.0
 11
5554.857218
 21
910.75024
 31
0.0
  0
LINE
  5
95
330
1F
100
AcDbEntity
  8
0
  6
Continuous
 62
     7
420
 16777215
370
     0
100
AcDbLine
 10
5926.107218
 20
708.25024
 30
0.0
 11
5926.107218
 21
748.75024
 31
0.0
  0
LINE
  5
96
330
1F
100
AcDbEntity
  8
0
  6
Continuous
 62
     7
420
 16777215
370
     0
100
AcDbLine
 10
5183.607218
 20
748.75024
 30
0.0
 11
6331.107218
 21
748.75024
 31
0.0
  0
LINE
  5
97
330
1F
100
AcDbEntity
  8
0
  6
Continuous
 62
     7
420
 16777215
370
     0
100
AcDbLine
 10
6027.357218
 20
748.75024
 30
0.0
 11
6027.357218
 21
910.75024
 31
0.0
  0
MTEXT
  5
98
330
1F
100
AcDbEntity
  8
0
  6
Continuous
 62
     2
420
 16776960
370
     0
100
AcDbMText
 10
5572.28418
 20
737.492188
 30
0.0
 40
16.875
 41
0.0
 46
0.0
 71
     1
 72
     1
  1
{\W1.03;{\W1.0609;{\fTimes New Roman|b0|i0;{\fTimes New Roman|b0|i1;Codice :}}}}
 73
     2
 44
0.99598
  0
MTEXT
  5
99
330
1F
100
AcDbEntity
  8
0
  6
Continuous
 62
     2
420
 16776960
370
     0
100
AcDbMText
 10
5936.995117
 20
737.66687
 30
0.0
 40
16.875
 41
0.0
 46
0.0
 71
     1
 72
     1
  1
{\fTimes New Roman|b0|i0;{\fTimes New Roman|b0|i1;File :}}
 73
     2
 44
0.99598
  0
MTEXT
  5
9A
330
1F
100
AcDbEntity
  8
0
  6
Continuous
 62
     2
420
 16776960
370
     0
100
AcDbMText
 10
6034.105469
 20
856.749329
 30
0.0
 40
16.875
 41
0.0
 46
0.0
 71
     1
 72
     1
  1
{\fTimes New Roman|b0|i0;{\fTimes New Roman|b0|i1;Data}}
 73
     2
 44
0.99598
  0
MTEXT
  5
9B
330
1F
100
AcDbEntity
  8
0
  6
Continuous
 62
     2
420
 16776960
370
     0
100
AcDbMText
 10
6034.105469
 20
782.499329
 30
0.0
 40
16.875
 41
0.0
 46
0.0
 71
     1
 72
     1
  1
{\fTimes New Roman|b0|i0;{\fTimes New Roman|b0|i1;Controllo}}
 73
     2
 44
0.99598
  0
MTEXT
  5
9C
330
1F
100
AcDbEntity
  8
0
  6
Continuous
 62
     2
420
 16776960
370
     0
100
AcDbMText
 10
6034.105469
 20
819.624329
 30
0.0
 40
16.875
 41
0.0
 46
0.0
 71
     1
 72
     1
  1
{\fTimes New Roman|b0|i0;{\fTimes New Roman|b0|i1;Eseguita da}}
 73
     2
 44
0.99598
  0
MTEXT
  5
9D
330
1F
100
AcDbEntity
  8
0
  6
Continuous
 62
     2
420
 16776960
370
     0
100
AcDbMText
 10
6173.798828
 20
857.557617
 30
0.0
 40
16.875
 41
0.0
 46
0.0
 71
     1
 72
     1
  1
{\fTimes New Roman|b0|i0;29/06/2016}
 73
     2
 44
0.99598
  0
MTEXT
  5
9E
330
1F
100
AcDbEntity
  8
0
  6
Continuous
 62
     2
420
 16776960
370
     0
100
AcDbMText
 10
6175.855469
 20
782.499329
 30
0.0
 40
16.875
 41
0.0
 46
0.0
 71
     1
 72
     1
  1
{\W1.03;{\W1.0609;{\fTimes New Roman|b0|i0;D.D.}}}
 73
     2
 44
0.99598
  0
MTEXT
  5
9F
330
1F
100
AcDbEntity
  8
0
  6
Continuous
 62
     2
420
 16776960
370
     0
100
AcDbMText
 10
6175.855469
 20
819.624329
 30
0.0
 40
16.875
 41
0.0
 46
0.0
 71
     1
 72
     1
  1
{\W1.03;{\W1.0609;{\fTimes New Roman|b0|i0;D.D.}}}
 73
     2
 44
0.99598
  0
MTEXT
  5
A0
330
1F
100
AcDbEntity
  8
0
  6
Continuous
 62
     2
420
 16776960
370
     0
100
AcDbMText
 10
5703.355469
 20
738.625122
 30
0.0
 40
16.875
 41
0.0
 46
0.0
 71
     1
 72
     1
  1
{\fTimes New Roman|b0|i0;ON8420}
 73
     2
 44
0.99598
  0
MTEXT
  5
A1
330
1F
100
AcDbEntity
  8
0
  6
Continuous
 62
     2
420
 16776960
370
     0
100
AcDbMText
 10
6005.12793
 20
735.98761
 30
0.0
 40
16.875
 41
0.0
 46
0.0
 71
     1
 72
     1
  1
{\fTimes New Roman|b0|i0;ON 8420.e2}
 73
     2
 44
0.99598
  0
MTEXT
  5
A2
330
1F
100
AcDbEntity
  8
0
  6
Continuous
 62
     7
420
 16777215
370
     0
100
AcDbMText
 10
5193.557617
 20
744.757507
 30
0.0
 40
8.099999
 41
0.0
 46
0.0
 71
     1
 72
     1
  3
\p;{\W1.58;{\fTimes New Roman|b0|i0;  E' vietata ogni riproduzione non autorizzata}}\P\p;{\W1.58;{\fTimes New Roman|b0|i0; Reproduction not permitted all right reserved}}\P\p;{\W1.58;{\fTimes New Roman|b0|i0; Toute reproduction non autorisee est inte
  1
rdite}}\P\p;{\W1.58;}\P
 73
     2
 44
0.899982
  0
LINE
  5
A3
330
1F
100
AcDbEntity
  8
0
  6
Continuous
 62
     7
420
 16777215
370
     0
100
AcDbLine
 10
5183.607218
 20
910.75024
 30
0.0
 11
6331.107218
 21
910.75024
 31
0.0
  0
LINE
  5
A4
330
1F
100
AcDbEntity
  8
0
  6
Continuous
 62
     7
420
 16777215
370
     0
100
AcDbLine
 10
5858.607218
 20
860.12524
 30
0.0
 11
5858.607218
 21
910.75024
 31
0.0
  0
LINE
  5
A5
330
1F
100
AcDbEntity
  8
0
  6
Continuous
 62
     7
420
 16777215
370
     0
100
AcDbLine
 10
5939.607218
 20
860.12524
 30
0.0
 11
5939.607218
 21
910.75024
 31
0.0
  0
MTEXT
  5
A6
330
1F
100
AcDbEntity
  8
0
  6
Continuous
 62
     2
420
 16776960
370
     0
100
AcDbMText
 10
5871.367188
 20
905.121582
 30
0.0
 40
16.875
 41
0.0
 46
0.0
 71
     1
 72
     1
  1
{\fTimes New Roman|b0|i0;{\fTimes New Roman|b0|i1;Scala}}
 73
     2
 44
0.99598
  0
MTEXT
  5
A7
330
1F
100
AcDbEntity
  8
0
  6
Continuous
 62
     2
420
 16776960
370
     0
100
AcDbMText
 10
5561.631836
 20
905.686829
 30
0.0
 40
16.875
 41
0.0
 46
0.0
 71
     1
 72
     1
  1
{\fTimes New Roman|b0|i0;{\fTimes New Roman|b0|i1;Disegno:}}
 73
     2
 44
0.99598
  0
MTEXT
  5
A8
330
1F
100
AcDbEntity
  8
0
  6
Continuous
 62
     2
420
 16776960
370
     0
100
AcDbMText
 10
5559.351074
 20
881.724854
 30
0.0
 40
16.875
 41
0.0
 46
0.0
 71
     1
 72
     1
  1
{\fTimes New Roman|b0|i0;{\fTimes New Roman|b0|i1;Data:}}
 73
     2
 44
0.99598
  0
MTEXT
  5
A9
330
1F
100
AcDbEntity
  8
0
  6
Continuous
 62
     2
420
 16776960
370
     0
100
AcDbMText
 10
6034.105469
 20
893.874329
 30
0.0
 40
16.875
 41
0.0
 46
0.0
 71
     1
 72
     1
  1
{\fTimes New Roman|b0|i0;{\fTimes New Roman|b0|i1;Modifica N°}}
 73
     2
 44
0.99598
  0
CIRCLE
  5
AA
330
1F
100
AcDbEntity
  8
0
  6
Continuous
 62
     3
420
    65280
370
     0
100
AcDbCircle
 10
6001.478054
 20
884.749702
 30
0.0
 40
18.22500000000026
  0
CIRCLE
  5
AB
330
1F
100
AcDbEntity
  8
0
  6
Continuous
 62
     3
420
    65280
370
     0
100
AcDbCircle
 10
6001.478054
 20
884.749702
 30
0.0
 40
10.125
  0
LINE
  5
AC
330
1F
100
AcDbEntity
  8
0
  6
Continuous
 62
     3
420
    65280
370
     0
100
AcDbLine
 10
5977.178054
 20
866.524702
 30
0.0
 11
5977.178054
 21
902.974702
 31
0.0
  0
LINE
  5
AD
330
1F
100
AcDbEntity
  8
0
  6
Continuous
 62
     3
420
    65280
370
     0
100
AcDbLine
 10
5946.803054
 20
894.874702
 30
0.0
 11
5946.803054
 21
874.624702
 31
0.0
  0
LINE
  5
AF
330
1F
100
AcDbEntity
  8
0
  6
CENTER2
 62
     2
420
 16776960
370
     0
100
AcDbLine
 10
5946.803054
 20
884.749702
 30
0.0
 11
6019.703054
 21
884.749702
 31
0.0
  0
LINE
  5
B0
330
1F
100
AcDbEntity
  8
0
  6
CENTER2
 62
     2
420
 16776960
370
     0
100
AcDbLine
 10
6001.478054
 20
863.562826
 30
0.0
 11
6001.478054
 21
906.070101
 31
0.0
  0
LINE
  5
B1
330
1F
100
AcDbEntity
  8
0
  6
Continuous
 62
     3
420
    65280
370
     0
100
AcDbLine
 10
5946.803054
 20
894.874702
 30
0.0
 11
5977.178054
 21
902.974702
 31
0.0
  0
LINE
  5
B2
330
1F
100
AcDbEntity
  8
0
  6
Continuous
 62
     3
420
    65280
370
     0
100
AcDbLine
 10
5946.803054
 20
874.624702
 30
0.0
 11
5977.178054
 21
866.524702
 31
0.0
  0
MTEXT
  5
B3
330
1F
100
AcDbEntity
  8
0
  6
Continuous
 62
     2
420
 16776960
370
     0
100
AcDbMText
 10
5689.881836
 20
905.124023
 30
0.0
 40
16.875
 41
0.0
 46
0.0
 71
     1
 72
     1
  1
{\W1.03;{\W1.0609;{\fTimes New Roman|b0|i0;D.D.}}}
 73
     2
 44
0.99598
  0
MTEXT
  5
B4
330
1F
100
AcDbEntity
  8
0
  6
Continuous
 62
     2
420
 16776960
370
     0
100
AcDbMText
 10
5687.601074
 20
881.162109
 30
0.0
 40
16.875
 41
0.0
 46
0.0
 71
     1
 72
     1
  1
{\fTimes New Roman|b0|i0;15 - 06 - 2016}
 73
     2
 44
0.99598
  0
MTEXT
  5
B5
330
1F
100
AcDbEntity
  8
0
  6
Continuous
 62
     2
420
 16776960
370
     0
100
AcDbMText
 10
5881.254883
 20
881.210632
 30
0.0
 40
16.875
 41
0.0
 46
0.0
 71
     1
 72
     1
  1
{\W1.13;{\W1.2769;{\fTimes New Roman|b0|i0;1:2}}}
 73
     2
 44
0.99598
  0
MTEXT
  5
B6
330
1F
100
AcDbEntity
  8
0
  6
Continuous
 62
     2
420
 16776960
370
     0
100
AcDbMText
 10
6175.855469
 20
893.874329
 30
0.0
 40
16.875
 41
0.0
 46
0.0
 71
     1
 72
     1
  1
{\fTimes New Roman|b0|i0;2}
 73
     2
 44
0.99598
  0
MTEXT
  5
B7
330
1F
100
AcDbEntity
  8
0
  6
Continuous
 62
     4
420
    65535
370
     0
100
AcDbMText
 10
5210.881836
 20
785.39032
 30
0.0
 40
12.21002
 41
0.0
 46
0.0
 71
     1
 72
     1
  1
{\fTimes New Roman|b0|i0;{\fTimes New Roman|b0|i1;tel. +39 0733 290592 Fax +39 0733 298070}}
 73
     2
 44
0.99598
  0
MTEXT
  5
B8
330
1F
100
AcDbEntity
  8
0
  6
Continuous
 62
     4
420
    65535
370
     0
100
AcDbMText
 10
5232.693359
 20
822.675598
 30
0.0
 40
12.21002
 41
0.0
 46
0.0
 71
     1
 72
     1
  1
\p;{\fTimes New Roman|b0|i0;{\fTimes New Roman|b0|i1;PLADOS Spa - Via Grazia Deledda, 3}}\P\p;{\fTimes New Roman|b0|i0;{\fTimes New Roman|b0|i1;  62010 Montecassiano (MC) - ITALY}}\P
 73
     2
 44
0.899982
  0
MTEXT
  5
B9
330
1F
100
AcDbEntity
  8
0
  6
Continuous
 62
     4
420
    65535
370
     0
100
AcDbMText
 10
5220.395508
 20
767.907227
 30
0.0
 40
12.21002
 41
0.0
 46
0.0
 71
     1
 72
     1
  1
{\fTimes New Roman|b0|i0;{\fTimes New Roman|b0|i1;e-mail: plados@plados.it  www.plados.it}}
 73
     2
 44
0.99598
  0
LINE
  5
BA
330
1F
100
AcDbEntity
  8
0
  6
Continuous
 62
     1
420
 16711680
370
     0
100
AcDbLine
 10
5294.597599
 20
852.699966
 30
0.0
 11
5301.550547
 21
892.132093
 31
0.0
  0
LINE
  5
BB
330
1F
100
AcDbEntity
  8
0
  6
Continuous
 62
     1
420
 16711680
370
     0
100
AcDbLine
 10
5294.597599
 20
852.699966
 30
0.0
 11
5307.741641
 21
852.699966
 31
0.0
  0
LINE
  5
BC
330
1F
100
AcDbEntity
  8
0
  6
Continuous
 62
     1
420
 16711680
370
     0
100
AcDbLine
 10
5301.550547
 20
892.132093
 30
0.0
 11
5323.257157
 21
892.132093
 31
0.0
  0
LINE
  5
BD
330
1F
100
AcDbEntity
  8
0
  6
Continuous
 62
     1
420
 16711680
370
     0
100
AcDbLine
 10
5331.968669
 20
852.699966
 30
0.0
 11
5338.921616
 21
892.132093
 31
0.0
  0
ARC
  5
BE
330
1F
100
AcDbEntity
  8
0
  6
Continuous
 62
     1
420
 16711680
370
     0
100
AcDbCircle
 10
5323.257157
 20
878.988051
 30
0.0
 40
13.14404234968465
100
AcDbArc
 50
270.0
 51
90.0
  0
LINE
  5
BF
330
1F
100
AcDbEntity
  8
0
  6
Continuous
 62
     1
420
 16711680
370
     0
100
AcDbLine
 10
5307.741641
 20
852.699966
 30
0.0
 11
5310.05929
 21
865.844009
 31
0.0
  0
LINE
  5
C0
330
1F
100
AcDbEntity
  8
0
  6
Continuous
 62
     1
420
 16711680
370
     0
100
AcDbLine
 10
5323.257157
 20
865.844009
 30
0.0
 11
5310.05929
 21
865.844009
 31
0.0
  0
LINE
  5
C1
330
1F
100
AcDbEntity
  8
0
  6
Continuous
 62
     1
420
 16711680
370
     0
100
AcDbLine
 10
5347.63313
 20
865.844009
 30
0.0
 11
5352.268428
 21
892.132093
 31
0.0
  0
LINE
  5
C2
330
1F
100
AcDbEntity
  8
0
  6
Continuous
 62
     1
420
 16711680
370
     0
100
AcDbLine
 10
5338.921616
 20
892.132093
 30
0.0
 11
5352.268428
 21
892.132093
 31
0.0
  0
LINE
  5
C3
330
1F
100
AcDbEntity
  8
0
  6
Continuous
 62
     1
420
 16711680
370
     0
100
AcDbLine
 10
5347.63313
 20
865.844009
 30
0.0
 11
5355.641217
 21
865.844009
 31
0.0
  0
LINE
  5
C4
330
1F
100
AcDbEntity
  8
0
  6
Continuous
 62
     1
420
 16711680
370
     0
100
AcDbLine
 10
5331.968669
 20
852.699966
 30
0.0
 11
5361.196548
 21
852.699966
 31
0.0
  0
LINE
  5
C5
330
1F
100
AcDbEntity
  8
0
  6
Continuous
 62
     1
420
 16711680
370
     0
100
AcDbLine
 10
5355.641217
 20
865.844009
 30
0.0
 11
5370.818652
 21
892.132093
 31
0.0
  0
LINE
  5
C6
330
1F
100
AcDbEntity
  8
0
  6
Continuous
 62
     1
420
 16711680
370
     0
100
AcDbLine
 10
5370.818652
 20
892.132093
 30
0.0
 11
5383.962697
 21
892.132093
 31
0.0
  0
LINE
  5
C7
330
1F
100
AcDbEntity
  8
0
  6
Continuous
 62
     1
420
 16711680
370
     0
100
AcDbLine
 10
5383.962697
 20
892.132093
 30
0.0
 11
5390.915648
 21
852.699966
 31
0.0
  0
LINE
  5
C8
330
1F
100
AcDbEntity
  8
0
  6
Continuous
 62
     1
420
 16711680
370
     0
100
AcDbLine
 10
5378.505756
 20
852.699966
 30
0.0
 11
5390.915648
 21
852.699966
 31
0.0
  0
LINE
  5
C9
330
1F
100
AcDbEntity
  8
0
  6
Continuous
 62
     1
420
 16711680
370
     0
100
AcDbLine
 10
5374.45617
 20
875.6663
 30
0.0
 11
5378.505756
 21
852.699966
 31
0.0
  0
LINE
  5
CA
330
1F
100
AcDbEntity
  8
0
  6
Continuous
 62
     1
420
 16711680
370
     0
100
AcDbLine
 10
5361.196548
 20
852.699966
 30
0.0
 11
5374.45617
 21
875.6663
 31
0.0
  0
CIRCLE
  5
CB
330
1F
100
AcDbEntity
  8
0
  6
Continuous
 62
     3
420
    65280
370
     0
100
AcDbCircle
 10
5371.794503
 20
860.571236
 30
0.0
 40
5.242461780635706
  0
LINE
  5
CC
330
1F
100
AcDbEntity
  8
0
  6
Continuous
 62
     1
420
 16711680
370
     0
100
AcDbLine
 10
5390.915647
 20
852.699966
 30
0.0
 11
5397.868595
 21
892.132093
 31
0.0
  0
LINE
  5
CD
330
1F
100
AcDbEntity
  8
0
  6
Continuous
 62
     1
420
 16711680
370
     0
100
AcDbLine
 10
5397.868595
 20
892.132093
 30
0.0
 11
5422.244568
 21
892.132093
 31
0.0
  0
LINE
  5
CE
330
1F
100
AcDbEntity
  8
0
  6
Continuous
 62
     1
420
 16711680
370
     0
100
AcDbLine
 10
5434.020389
 20
870.078532
 30
0.0
 11
5435.188922
 21
876.705612
 31
0.0
  0
ARC
  5
CF
330
1F
100
AcDbEntity
  8
0
  6
Continuous
 62
     1
420
 16711680
370
     0
100
AcDbCircle
 10
5422.244568
 20
878.988051
 30
0.0
 40
13.14404234968465
100
AcDbArc
 50
350.0
 51
90.0
  0
ARC
  5
D0
330
1F
100
AcDbEntity
  8
0
  6
Continuous
 62
     1
420
 16711680
370
     0
100
AcDbCircle
 10
5413.309422
 20
873.730434
 30
0.0
 40
21.03046775949544
100
AcDbArc
 50
270.0
 51
350.0
  0
LINE
  5
D1
330
1F
100
AcDbEntity
  8
0
  6
Continuous
 62
     1
420
 16711680
370
     0
100
AcDbLine
 10
5390.915647
 20
852.699966
 30
0.0
 11
5413.309422
 21
852.699966
 31
0.0
  0
LINE
  5
D2
330
1F
100
AcDbEntity
  8
0
  6
Continuous
 62
     1
420
 16711680
370
     0
100
AcDbLine
 10
5405.653048
 20
860.586392
 30
0.0
 11
5409.824816
 21
884.245668
 31
0.0
  0
LINE
  5
D3
330
1F
100
AcDbEntity
  8
0
  6
Continuous
 62
     1
420
 16711680
370
     0
100
AcDbLine
 10
5422.083585
 20
878.075075
 30
0.0
 11
5420.148975
 21
867.103354
 31
0.0
  0
LINE
  5
D4
330
1F
100
AcDbEntity
  8
0
  6
Continuous
 62
     1
420
 16711680
370
     0
100
AcDbLine
 10
5409.824816
 20
884.245668
 30
0.0
 11
5416.905844
 21
884.245668
 31
0.0
  0
LINE
  5
D5
330
1F
100
AcDbEntity
  8
0
  6
Continuous
 62
     1
420
 16711680
370
     0
100
AcDbLine
 10
5405.653048
 20
860.586392
 30
0.0
 11
5412.382362
 21
860.586392
 31
0.0
  0
ARC
  5
D6
330
1F
100
AcDbEntity
  8
0
  6
Continuous
 62
     1
420
 16711680
370
     0
100
AcDbCircle
 10
5416.905844
 20
878.988051
 30
0.0
 40
5.25761693987386
100
AcDbArc
 50
350.0
 51
90.0
  0
ARC
  5
D7
330
1F
100
AcDbEntity
  8
0
  6
Continuous
 62
     1
420
 16711680
370
     0
100
AcDbCircle
 10
5412.382362
 20
868.472817
 30
0.0
 40
7.886425409810791
100
AcDbArc
 50
270.0
 51
350.0
  0
ARC
  5
D8
330
1F
100
AcDbEntity
  8
0
  6
Continuous
 62
     1
420
 16711680
370
     0
100
AcDbCircle
 10
5462.285001
 20
878.988051
 30
0.0
 40
13.14404234968465
100
AcDbArc
 50
14.187622
 51
94.187625
  0
ARC
  5
D9
330
1F
100
AcDbEntity
  8
0
  6
Continuous
 62
     1
420
 16711680
370
     0
100
AcDbCircle
 10
5446.620539
 20
865.844009
 30
0.0
 40
13.14404234968465
100
AcDbArc
 50
165.812378
 51
245.81236
  0
ARC
  5
DA
330
1F
100
AcDbEntity
  8
0
  6
Continuous
 62
     1
420
 16711680
370
     0
100
AcDbCircle
 10
5448.93819
 20
878.988051
 30
0.0
 40
26.28808469936929
100
AcDbArc
 50
252.960753
 51
7.039234
  0
ARC
  5
DB
330
1F
100
AcDbEntity
  8
0
  6
Continuous
 62
     1
420
 16711680
370
     0
100
AcDbCircle
 10
5459.96735
 20
865.844009
 30
0.0
 40
26.28808469936929
100
AcDbArc
 50
87.039232
 51
172.960766
  0
LINE
  5
DC
330
1F
100
AcDbEntity
  8
0
  6
Continuous
 62
     1
420
 16711680
370
     0
100
AcDbLine
 10
5313.303998
 20
884.245668
 30
0.0
 11
5317.918433
 21
884.245668
 31
0.0
  0
LINE
  5
DD
330
1F
100
AcDbEntity
  8
0
  6
Continuous
 62
     1
420
 16711680
370
     0
100
AcDbLine
 10
5317.918433
 20
873.730434
 30
0.0
 11
5311.449879
 21
873.730434
 31
0.0
  0
ARC
  5
DE
330
1F
100
AcDbEntity
  8
0
  6
Continuous
 62
     1
420
 16711680
370
     0
100
AcDbCircle
 10
5317.918433
 20
878.988051
 30
0.0
 40
5.25761693987386
100
AcDbArc
 50
270.0
 51
90.0
  0
LINE
  5
DF
330
1F
100
AcDbEntity
  8
0
  6
Continuous
 62
     1
420
 16711680
370
     0
100
AcDbLine
 10
5311.449879
 20
873.730434
 30
0.0
 11
5313.303998
 21
884.245668
 31
0.0
  0
ARC
  5
E0
330
1F
100
AcDbEntity
  8
0
  6
Continuous
 62
     1
420
 16711680
370
     0
100
AcDbCircle
 10
5456.278724
 20
877.432788
 30
0.0
 40
6.572021333114824
100
AcDbArc
 50
15.46769
 51
124.53231
  0
ARC
  5
E1
330
1F
100
AcDbEntity
  8
0
  6
Continuous
 62
     1
420
 16711680
370
     0
100
AcDbCircle
 10
5452.626822
 20
867.399269
 30
0.0
 40
6.572021333114861
100
AcDbArc
 50
195.46769
 51
304.53231
  0
ARC
  5
E2
330
1F
100
AcDbEntity
  8
0
  6
Continuous
 62
     1
420
 16711680
370
     0
100
AcDbCircle
 10
5461.494406
 20
869.853084
 30
0.0
 40
15.77285081962158
100
AcDbArc
 50
124.53231
 51
195.46769
  0
ARC
  5
E3
330
1F
100
AcDbEntity
  8
0
  6
Continuous
 62
     1
420
 16711680
370
     0
100
AcDbCircle
 10
5447.411139
 20
874.978974
 30
0.0
 40
15.77285081962158
100
AcDbArc
 50
304.53231
 51
15.46769
  0
LINE
  5
E4
330
1F
100
AcDbEntity
  8
0
  6
Continuous
 62
     1
420
 16711680
370
     0
100
AcDbLine
 10
5471.331339
 20
865.844009
 30
0.0
 11
5484.715075
 21
865.844009
 31
0.0
  0
ELLIPSE
  5
E5
330
1F
100
AcDbEntity
  8
0
  6
Continuous
 62
     1
420
 16711680
370
     0
100
AcDbEllipse
 10
5489.972692
 20
865.844009
 30
0.0
 11
5.25761693987386
 21
0.0
 31
0.0
210
0.0
220
0.0
230
1.0
 40
0.75
 41
3.141592653589794
 42
7.623071325551589
  0
LINE
  5
E6
330
1F
100
AcDbEntity
  8
0
  6
Continuous
 62
     1
420
 16711680
370
     0
100
AcDbLine
 10
5491.17597
 20
869.682563
 30
0.0
 11
5481.707639
 21
871.352085
 31
0.0
  0
LINE
  5
E7
330
1F
100
AcDbEntity
  8
0
  6
Continuous
 62
     1
420
 16711680
370
     0
100
AcDbLine
 10
5513.284949
 20
878.988051
 30
0.0
 11
5499.901212
 21
878.988051
 31
0.0
  0
ELLIPSE
  5
E8
330
1F
100
AcDbEntity
  8
0
  6
Continuous
 62
     1
420
 16711680
370
     0
100
AcDbEllipse
 10
5494.643596
 20
878.988051
 30
0.0
 11
-5.25761693987386
 21
0.0
 31
0.0
210
0.0
220
0.0
230
1.0
 40
0.75
 41
3.141592653589794
 42
7.623071325551589
  0
LINE
  5
E9
330
1F
100
AcDbEntity
  8
0
  6
Continuous
 62
     1
420
 16711680
370
     0
100
AcDbLine
 10
5493.440317
 20
875.149497
 30
0.0
 11
5502.908648
 21
873.479975
 31
0.0
  0
LINE
  5
EA
330
1F
100
AcDbEntity
  8
0
  6
Continuous
 62
     1
420
 16711680
370
     0
100
AcDbLine
 10
5493.493071
 20
892.132093
 30
0.0
 11
5497.732708
 21
892.132093
 31
0.0
  0
ARC
  5
EB
330
1F
100
AcDbEntity
  8
0
  6
Continuous
 62
     1
420
 16711680
370
     0
100
AcDbCircle
 10
5493.493071
 20
871.101625
 30
0.0
 40
21.03046775949544
100
AcDbArc
 50
90.0
 51
142.414862
  0
ARC
  5
EC
330
1F
100
AcDbEntity
  8
0
  6
Continuous
 62
     1
420
 16711680
370
     0
100
AcDbCircle
 10
5497.732708
 20
876.359242
 30
0.0
 40
15.77285081962158
100
AcDbArc
 50
9.594068
 51
90.0
  0
ARC
  5
ED
330
1F
100
AcDbEntity
  8
0
  6
Continuous
 62
     1
420
 16711680
370
     0
100
AcDbCircle
 10
5483.077103
 20
879.118698
 30
0.0
 40
7.886425409810791
100
AcDbArc
 50
142.414862
 51
260.0
  0
ARC
  5
EE
330
1F
100
AcDbEntity
  8
0
  6
Continuous
 62
     1
420
 16711680
370
     0
100
AcDbCircle
 10
5486.883579
 20
868.472817
 30
0.0
 40
15.77285081962158
100
AcDbArc
 50
189.594068
 51
270.0
  0
ARC
  5
EF
330
1F
100
AcDbEntity
  8
0
  6
Continuous
 62
     1
420
 16711680
370
     0
100
AcDbCircle
 10
5491.123216
 20
873.730434
 30
0.0
 40
21.03046775949544
100
AcDbArc
 50
270.0
 51
322.414862
  0
LINE
  5
F0
330
1F
100
AcDbEntity
  8
0
  6
Continuous
 62
     1
420
 16711680
370
     0
100
AcDbLine
 10
5491.123216
 20
852.699966
 30
0.0
 11
5486.883579
 21
852.699966
 31
0.0
  0
ARC
  5
F1
330
1F
100
AcDbEntity
  8
0
  6
Continuous
 62
     1
420
 16711680
370
     0
100
AcDbCircle
 10
5501.539185
 20
865.713362
 30
0.0
 40
7.886425409810791
100
AcDbArc
 50
322.414862
 51
80.0
  0
LINE
  5
F2
330
1F
100
AcDbEntity
  8
0
  6
Continuous
 62
     3
420
    65280
370
     0
100
AcDbLine
 10
5255.165467
 20
852.699961
 30
0.0
 11
5283.048207
 21
880.582701
 31
0.0
  0
LINE
  5
F3
330
1F
100
AcDbEntity
  8
0
  6
Continuous
 62
     3
420
    65280
370
     0
100
AcDbLine
 10
5255.165467
 20
852.699961
 30
0.0
 11
5227.282728
 21
880.582703
 31
0.0
  0
LINE
  5
F4
330
1F
100
AcDbEntity
  8
0
  6
Continuous
 62
     3
420
    65280
370
     0
100
AcDbLine
 10
5255.165467
 20
908.46544
 30
0.0
 11
5227.282728
 21
880.582703
 31
0.0
  0
LINE
  5
F5
330
1F
100
AcDbEntity
  8
0
  6
Continuous
 62
     3
420
    65280
370
     0
100
AcDbLine
 10
5283.048207
 20
880.582701
 30
0.0
 11
5255.165467
 21
908.46544
 31
0.0
  0
LINE
  5
F6
330
1F
100
AcDbEntity
  8
0
  6
Continuous
 62
     1
420
 16711680
370
     0
100
AcDbLine
 10
5240.732299
 20
906.565277
 30
0.0
 11
5221.016225
 21
872.416038
 31
0.0
  0
LINE
  5
F7
330
1F
100
AcDbEntity
  8
0
  6
Continuous
 62
     1
420
 16711680
370
     0
100
AcDbLine
 10
5248.677906
 20
901.977879
 30
0.0
 11
5240.732299
 21
906.565277
 31
0.0
  0
LINE
  5
F8
330
1F
100
AcDbEntity
  8
0
  6
Continuous
 62
     1
420
 16711680
370
     0
100
AcDbLine
 10
5255.165467
 20
852.699962
 30
0.0
 11
5221.016225
 21
872.416038
 31
0.0
  0
MTEXT
  5
F9
330
1F
100
AcDbEntity
  8
0
  6
Continuous
 62
     3
420
    65280
370
     0
100
AcDbMText
 10
5215.773926
 20
847.187805
 30
0.0
 40
14.458447
 41
0.0
 46
0.0
 71
     1
 72
     1
  3
{\W0.84;\W0.7056;{\fFutura Lt BT|b0|i0;\fFutura Lt BT|b1|i0;}{\fTxt|b0|i0;\fTxt|b1|i0;}\fTxt|b1|i0;{\fFutura Lt BT|b1|i0;\fFutura Lt BT|b1|i0;}\fTxt|b1|i0;{\fFutura Lt BT|b1|i0;\fFutura Lt BT|b1|i0;}\fTxt|b1|i0;\fFutura Lt BT|b1|i0;\fFutura Lt BT|b1|
  1
i0;\fFutura Lt BT|b1|i1;Complementi per cucine d'autore}
 73
     2
 44
0.99598
  0
LINE
  5
FA
330
1F
100
AcDbEntity
  8
0
  6
Continuous
 62
     7
420
 16777215
370
     0
100
AcDbLine
 10
6331.107218
 20
860.12524
 30
0.0
 11
5554.857218
 21
860.12524
 31
0.0
  0
MTEXT
  5
FB
330
1F
100
AcDbEntity
  8
0
  6
Continuous
 62
     2
420
 16776960
370
     0
100
AcDbMText
 10
5673.738281
 20
843.049011
 30
0.0
 40
30.375
 41
0.0
 46
0.0
 71
     1
 72
     1
  1
{\fTimes New Roman|b0|i0;Sink for USA}
 73
     2
 44
0.899982
  0
MTEXT
  5
FC
330
1F
100
AcDbEntity
  8
0
  6
Continuous
 62
     2
420
 16776960
370
     0
100
AcDbMText
 10
5634.181641
 20
797.853027
 30
0.0
 40
30.375
 41
0.0
 46
0.0
 71
     1
 72
     1
  1
\p;{\fTimes New Roman|b0|i0;ON8420 (33"x22")}\P\p;\P
 73
     2
 44
0.899982
  0
MTEXT
  5
FD
330
1F
100
AcDbEntity
  8
0
  6
Continuous
 62
     2
420
 16776960
370
     0
100
AcDbMText
 10
5561.631836
 20
855.061829
 30
0.0
 40
16.875
 41
0.0
 46
0.0
 71
     1
 72
     1
  1
{\W1.04;{\W1.0816;{\fTimes New Roman|b0|i0;{\fTimes New Roman|b0|i1;Titolo:}}}}
 73
     2
 44
0.99598
  0
LINE
  5
FE
330
1F
100
AcDbEntity
  8
0
  6
Continuous
 62
     6
420
 16711935
370
     0
100
AcDbLine
 10
6507.287744
 20
2155.546228
 30
0.0
 11
6514.287744
 21
2155.546228
 31
0.0
  0
LINE
  5
FF
330
1F
100
AcDbEntity
  8
0
  6
Continuous
 62
     6
420
 16711935
370
     0
100
AcDbLine
 10
6514.287744
 20
2155.546228
 30
0.0
 11
6514.287744
 21
2161.546228
 31
0.0
  0
LINE
  5
100
330
1F
100
AcDbEntity
  8
0
  6
Continuous
 62
     6
420
 16711935
370
     0
100
AcDbLine
 10
6478.834136
 20
2161.277444
 30
0.0
 11
6452.260108
 21
1944.84935
 31
0.0
  0
LINE
  5
101
330
1F
100
AcDbEntity
  8
0
  6
Continuous
 62
     6
420
 16711935
370
     0
100
AcDbLine
 10
5738.115381
 20
1944.84935
 30
0.0
 11
5711.541351
 21
2161.277454
 31
0.0
  0
LINE
  5
102
330
1F
100
AcDbEntity
  8
0
  6
Continuous
 62
     6
420
 16711935
370
     0
100
AcDbLine
 10
5705.586074
 20
2166.546238
 30
0.0
 11
5681.087744
 21
2166.546238
 31
0.0
  0
LINE
  5
103
330
1F
100
AcDbEntity
  8
0
  6
Continuous
 62
     6
420
 16711935
370
     0
100
AcDbLine
 10
5676.087744
 20
2161.546238
 30
0.0
 11
5676.087744
 21
2155.546238
 31
0.0
  0
LINE
  5
104
330
1F
100
AcDbEntity
  8
0
  6
Continuous
 62
     6
420
 16711935
370
     0
100
AcDbLine
 10
5676.087744
 20
2155.546238
 30
0.0
 11
5683.087744
 21
2155.546238
 31
0.0
  0
LINE
  5
105
330
1F
100
AcDbEntity
  8
0
  6
Continuous
 62
     6
420
 16711935
370
     0
100
AcDbLine
 10
5683.087744
 20
2155.546238
 30
0.0
 11
5683.087744
 21
2156.546238
 31
0.0
  0
LINE
  5
106
330
1F
100
AcDbEntity
  8
0
  6
Continuous
 62
     6
420
 16711935
370
     0
100
AcDbLine
 10
5686.087744
 20
2159.546238
 30
0.0
 11
5701.162448
 21
2159.546238
 31
0.0
  0
LINE
  5
107
330
1F
100
AcDbEntity
  8
0
  6
Continuous
 62
     6
420
 16711935
370
     0
100
AcDbLine
 10
5705.132632
 20
2156.033716
 30
0.0
 11
5731.15554
 21
1944.094142
 31
0.0
  0
LINE
  5
108
330
1F
100
AcDbEntity
  8
0
  6
Continuous
 62
     6
420
 16711935
370
     0
100
AcDbLine
 10
6459.219949
 20
1944.094142
 30
0.0
 11
6485.242855
 21
2156.033705
 31
0.0
  0
LINE
  5
109
330
1F
100
AcDbEntity
  8
0
  6
Continuous
 62
     6
420
 16711935
370
     0
100
AcDbLine
 10
6489.213039
 20
2159.546228
 30
0.0
 11
6504.287744
 21
2159.546228
 31
0.0
  0
LINE
  5
10A
330
1F
100
AcDbEntity
  8
0
  6
Continuous
 62
     6
420
 16711935
370
     0
100
AcDbLine
 10
6507.287744
 20
2156.546228
 30
0.0
 11
6507.287744
 21
2155.546228
 31
0.0
  0
LINE
  5
10B
330
1F
100
AcDbEntity
  8
7
  6
Continuous
 62
     7
420
 16777215
370
     0
100
AcDbLine
 10
6484.785731
 20
2166.546238
 30
0.0
 11
5705.589756
 21
2166.546238
 31
0.0
  0
LINE
  5
10C
330
1F
100
AcDbEntity
  8
0
  6
Continuous
 62
     7
420
 16777215
370
     0
100
AcDbLine
 10
5656.032744
 20
2125.546228
 30
0.0
 11
5656.032744
 21
1849.546228
 31
0.0
  0
LINE
  5
10D
330
1F
100
AcDbEntity
  8
0
  6
Continuous
 62
     7
420
 16777215
370
     0
100
AcDbLine
 10
5638.032744
 20
1849.546228
 30
0.0
 11
5638.032744
 21
2125.546228
 31
0.0
  0
LINE
  5
10E
330
1F
100
AcDbEntity
  8
0
  6
Continuous
 62
     7
420
 16777215
370
     0
100
AcDbLine
 10
5656.032744
 20
1849.546228
 30
0.0
 11
5638.032744
 21
1849.546228
 31
0.0
  0
LINE
  5
10F
330
1F
100
AcDbEntity
  8
0
  6
Continuous
 62
     7
420
 16777215
370
     0
100
AcDbLine
 10
5686.087744
 20
2125.546228
 30
0.0
 11
5600.672022
 21
2125.546228
 31
0.0
  0
SPLINE
  5
110
330
1F
100
AcDbEntity
  8
0
  6
Continuous
 62
     7
420
 16777215
370
     0
100
AcDbSpline
210
0.0
220
0.0
230
1.0
 70
     8
 71
     3
 72
     8
 73
     4
 74
     0
 42
0.0
 43
0.0
 40
0.0
 40
0.0
 40
0.0
 40
0.0
 40
1.0
 40
1.0
 40
1.0
 40
1.0
 10
5600.672022120703
 20
2125.546228016247
 30
0.0
 10
5605.968675999797
 20
2136.579135366731
 30
0.0
 10
5599.27487199313
 20
2148.00484216588
 30
0.0
 10
5597.907583047734
 20
2155.546228016247
 30
0.0
  0
LINE
  5
111
330
1F
100
AcDbEntity
  8
0
  6
Continuous
 62
     7
420
 16777215
370
     0
100
AcDbLine
 10
5686.087744
 20
2155.546228
 30
0.0
 11
5686.087744
 21
2125.546228
 31
0.0
  0
LINE
  5
112
330
1F
100
AcDbEntity
  8
0
  6
Continuous
 62
     7
420
 16777215
370
     0
100
AcDbLine
 10
5656.032744
 20
2125.546227
 30
0.0
 11
5638.032744
 21
2125.546228
 31
0.0
  0
LINE
  5
113
330
1F
100
AcDbEntity
  8
0
  6
Continuous
 62
     7
420
 16777215
370
     0
100
AcDbLine
 10
5597.907583
 20
2155.546228
 30
0.0
 11
5686.087744
 21
2155.546228
 31
0.0
  0
LINE
  5
114
330
1F
100
AcDbEntity
  8
0
  6
Continuous
 62
     7
420
 16777215
370
     0
100
AcDbLine
 10
6534.432744
 20
2125.546218
 30
0.0
 11
6534.432744
 21
1849.546218
 31
0.0
  0
LINE
  5
115
330
1F
100
AcDbEntity
  8
0
  6
Continuous
 62
     7
420
 16777215
370
     0
100
AcDbLine
 10
6552.432744
 20
1849.546218
 30
0.0
 11
6552.432744
 21
2125.546218
 31
0.0
  0
LINE
  5
116
330
1F
100
AcDbEntity
  8
0
  6
Continuous
 62
     7
420
 16777215
370
     0
100
AcDbLine
 10
6534.432744
 20
1849.546218
 30
0.0
 11
6552.432744
 21
1849.546218
 31
0.0
  0
LINE
  5
117
330
1F
100
AcDbEntity
  8
0
  6
Continuous
 62
     7
420
 16777215
370
     0
100
AcDbLine
 10
6504.287744
 20
2125.546218
 30
0.0
 11
6589.703465
 21
2125.546218
 31
0.0
  0
SPLINE
  5
118
330
1F
100
AcDbEntity
  8
0
  6
Continuous
 62
     7
420
 16777215
370
     0
100
AcDbSpline
210
0.0
220
0.0
230
1.0
 70
     8
 71
     3
 72
     8
 73
     4
 74
     0
 42
0.0
 43
0.0
 40
0.0
 40
0.0
 40
0.0
 40
0.0
 40
1.0
 40
1.0
 40
1.0
 40
1.0
 10
6589.70346489628
 20
2125.54621768804
 30
0.0
 10
6584.406811017187
 20
2136.579125038524
 30
0.0
 10
6591.100615023854
 20
2148.004831837673
 30
0.0
 10
6592.467903969242
 20
2155.54621768804
 30
0.0
  0
LINE
  5
119
330
1F
100
AcDbEntity
  8
0
  6
Continuous
 62
     7
420
 16777215
370
     0
100
AcDbLine
 10
6592.467904
 20
2155.546218
 30
0.0
 11
6504.287744
 21
2155.546218
 31
0.0
  0
LINE
  5
11A
330
1F
100
AcDbEntity
  8
0
  6
Continuous
 62
     7
420
 16777215
370
     0
100
AcDbLine
 10
6504.287744
 20
2155.546218
 30
0.0
 11
6504.287744
 21
2125.546218
 31
0.0
  0
LINE
  5
11B
330
1F
100
AcDbEntity
  8
0
  6
Continuous
 62
     7
420
 16777215
370
     0
100
AcDbLine
 10
5661.087744
 20
2125.546228
 30
0.0
 11
5679.087744
 21
2125.546228
 31
0.0
  0
LINE
  5
11C
330
1F
100
AcDbEntity
  8
0
  6
Continuous
 62
     7
420
 16777215
370
     0
100
AcDbLine
 10
6539.832744
 20
2125.546218
 30
0.0
 11
6557.832744
 21
2125.546218
 31
0.0
  0
LINE
  5
11D
330
1F
100
AcDbEntity
  8
0
  6
Continuous
 62
     6
420
 16711935
370
     0
100
AcDbLine
 10
6484.789413
 20
2166.546228
 30
0.0
 11
6509.287744
 21
2166.546228
 31
0.0
  0
ARC
  5
11E
330
1F
100
AcDbEntity
  8
0
  6
Continuous
 62
     6
420
 16711935
370
     0
100
AcDbCircle
 10
5686.087744
 20
2156.546238
 30
0.0
 40
3.0
100
AcDbArc
 50
90.0
 51
180.0
  0
ARC
  5
11F
330
1F
100
AcDbEntity
  8
0
  6
Continuous
 62
     6
420
 16711935
370
     0
100
AcDbCircle
 10
6504.287744
 20
2156.546228
 30
0.0
 40
3.0
100
AcDbArc
 50
0.0
 51
90.0
  0
LINE
  5
120
330
1F
100
AcDbEntity
  8
0
  6
Continuous
 62
     6
420
 16711935
370
     0
100
AcDbLine
 10
5682.087744
 20
2443.827609
 30
0.0
 11
6508.287744
 21
2443.827609
 31
0.0
  0
LINE
  5
121
330
1F
100
AcDbEntity
  8
0
  6
Continuous
 62
     6
420
 16711935
370
     0
100
AcDbLine
 10
6514.287744
 20
2449.827609
 30
0.0
 11
6514.287744
 21
2996.827609
 31
0.0
  0
LINE
  5
122
330
1F
100
AcDbEntity
  8
0
  6
Continuous
 62
     6
420
 16711935
370
     0
100
AcDbLine
 10
5676.087744
 20
2996.827609
 30
0.0
 11
5676.087744
 21
2449.827609
 31
0.0
  0
LINE
  5
123
330
1F
100
AcDbEntity
  8
0
  6
Continuous
 62
     6
420
 16711935
370
     0
100
AcDbLine
 10
6508.287744
 20
3002.827609
 30
0.0
 11
5682.087744
 21
3002.827609
 31
0.0
  0
LINE
  5
124
330
1F
100
AcDbEntity
  8
0
  6
CENTER2
 62
    47
420
  8351551
370
     0
100
AcDbLine
 10
5895.637744
 20
2845.827609
 30
0.0
 11
5895.637744
 21
2725.827609
 31
0.0
  0
LINE
  5
125
330
1F
100
AcDbEntity
  8
0
  6
CENTER2
 62
    47
420
  8351551
370
     0
100
AcDbLine
 10
5955.637744
 20
2785.827609
 30
0.0
 11
5835.637744
 21
2785.827609
 31
0.0
  0
CIRCLE
  5
127
330
1F
100
AcDbEntity
  8
0
  6
HIDDEN2
 62
     7
420
 16777215
370
     0
100
AcDbCircle
 10
6097.687744
 20
2958.827609
 30
0.0
 40
17.0
  0
LINE
  5
128
330
1F
100
AcDbEntity
  8
0
  6
Continuous
 62
     6
420
 16711935
370
     0
100
AcDbLine
 10
5711.087744
 20
2484.827609
 30
0.0
 11
5711.087744
 21
2906.827609
 31
0.0
  0
LINE
  5
129
330
1F
100
AcDbEntity
  8
0
  6
Continuous
 62
     6
420
 16711935
370
     0
100
AcDbLine
 10
5717.087744
 20
2912.827609
 30
0.0
 11
6473.287744
 21
2912.827609
 31
0.0
  0
LINE
  5
12A
330
1F
100
AcDbEntity
  8
0
  6
Continuous
 62
     6
420
 16711935
370
     0
100
AcDbLine
 10
6479.287744
 20
2906.827609
 30
0.0
 11
6479.287744
 21
2484.827609
 31
0.0
  0
LINE
  5
12B
330
1F
100
AcDbEntity
  8
0
  6
Continuous
 62
     6
420
 16711935
370
     0
100
AcDbLine
 10
6473.287744
 20
2478.827609
 30
0.0
 11
5717.087744
 21
2478.827609
 31
0.0
  0
CIRCLE
  5
12C
330
1F
100
AcDbEntity
  8
0
  6
HIDDEN2
 62
     7
420
 16777215
370
     0
100
AcDbCircle
 10
5894.487744
 20
2958.827609
 30
0.0
 40
17.0
  0
CIRCLE
  5
12D
330
1F
100
AcDbEntity
  8
0
  6
HIDDEN2
 62
     7
420
 16777215
370
     0
100
AcDbCircle
 10
5996.087744
 20
2958.827609
 30
0.0
 40
17.0
  0
CIRCLE
  5
12E
330
1F
100
AcDbEntity
  8
0
  6
HIDDEN2
 62
     7
420
 16777215
370
     0
100
AcDbCircle
 10
6300.887744
 20
2958.827609
 30
0.0
 40
17.0
  0
CIRCLE
  5
12F
330
1F
100
AcDbEntity
  8
0
  6
HIDDEN2
 62
     7
420
 16777215
370
     0
100
AcDbCircle
 10
6199.287744
 20
2958.827609
 30
0.0
 40
17.0
  0
CIRCLE
  5
130
330
1F
100
AcDbEntity
  8
0
  6
Continuous
 62
     1
420
 16711680
370
     0
100
AcDbCircle
 10
5895.637744
 20
2785.827609
 30
0.0
 40
47.0
  0
CIRCLE
  5
131
330
1F
100
AcDbEntity
  8
0
  6
Continuous
 62
     7
420
 16777215
370
     0
100
AcDbCircle
 10
5895.637744
 20
2785.827609
 30
0.0
 40
58.5
  0
ARC
  5
132
330
1F
100
AcDbEntity
  8
0
  6
Continuous
 62
     6
420
 16711935
370
     0
100
AcDbCircle
 10
6509.287744
 20
2161.546228
 30
0.0
 40
5.0
100
AcDbArc
 50
0.0
 51
90.0
  0
ARC
  5
133
330
1F
100
AcDbEntity
  8
0
  6
Continuous
 62
     6
420
 16711935
370
     0
100
AcDbCircle
 10
5681.087744
 20
2161.546238
 30
0.0
 40
5.0
100
AcDbArc
 50
90.0
 51
180.0
  0
ARC
  5
134
330
1F
100
AcDbEntity
  8
0
  6
Continuous
 62
     6
420
 16711935
370
     0
100
AcDbCircle
 10
5682.087744
 20
2996.827609
 30
0.0
 40
6.0
100
AcDbArc
 50
90.0
 51
180.0
  0
ARC
  5
135
330
1F
100
AcDbEntity
  8
0
  6
Continuous
 62
     6
420
 16711935
370
     0
100
AcDbCircle
 10
5682.087744
 20
2449.827609
 30
0.0
 40
6.0
100
AcDbArc
 50
180.0
 51
270.0
  0
ARC
  5
136
330
1F
100
AcDbEntity
  8
0
  6
Continuous
 62
     6
420
 16711935
370
     0
100
AcDbCircle
 10
6508.287744
 20
2449.827609
 30
0.0
 40
6.0
100
AcDbArc
 50
270.0
 51
0.0
  0
ARC
  5
137
330
1F
100
AcDbEntity
  8
0
  6
Continuous
 62
     6
420
 16711935
370
     0
100
AcDbCircle
 10
6508.287744
 20
2996.827609
 30
0.0
 40
6.0
100
AcDbArc
 50
0.0
 51
90.0
  0
ARC
  5
138
330
1F
100
AcDbEntity
  8
0
  6
Continuous
 62
     6
420
 16711935
370
     0
100
AcDbCircle
 10
5717.087744
 20
2906.827609
 30
0.0
 40
6.0
100
AcDbArc
 50
90.0
 51
180.0
  0
ARC
  5
139
330
1F
100
AcDbEntity
  8
0
  6
Continuous
 62
     6
420
 16711935
370
     0
100
AcDbCircle
 10
5717.087744
 20
2484.827609
 30
0.0
 40
6.0
100
AcDbArc
 50
180.0
 51
270.0
  0
ARC
  5
13A
330
1F
100
AcDbEntity
  8
0
  6
Continuous
 62
     6
420
 16711935
370
     0
100
AcDbCircle
 10
6473.287744
 20
2484.827609
 30
0.0
 40
6.0
100
AcDbArc
 50
270.0
 51
0.0
  0
ARC
  5
13B
330
1F
100
AcDbEntity
  8
0
  6
Continuous
 62
     6
420
 16711935
370
     0
100
AcDbCircle
 10
6473.287744
 20
2906.827609
 30
0.0
 40
6.0
100
AcDbArc
 50
0.0
 51
90.0
  0
LINE
  5
13C
330
1F
100
AcDbEntity
  8
0
  6
Continuous
 62
     7
420
 16777215
370
     0
100
AcDbLine
 10
5768.587744
 20
2957.827609
 30
0.0
 11
5768.587744
 21
2966.827609
 31
0.0
  0
LINE
  5
13D
330
1F
100
AcDbEntity
  8
0
  6
Continuous
 62
     7
420
 16777215
370
     0
100
AcDbLine
 10
5729.087744
 20
2966.827609
 30
0.0
 11
5729.087744
 21
2957.827609
 31
0.0
  0
LINE
  5
13E
330
1F
100
AcDbEntity
  8
0
  6
Continuous
 62
     7
420
 16777215
370
     0
100
AcDbLine
 10
5768.587744
 20
2966.827609
 30
0.0
 11
5729.087744
 21
2966.827609
 31
0.0
  0
LINE
  5
13F
330
1F
100
AcDbEntity
  8
0
  6
Continuous
 62
     7
420
 16777215
370
     0
100
AcDbLine
 10
5729.087744
 20
2957.827609
 30
0.0
 11
5768.587744
 21
2957.827609
 31
0.0
  0
LINE
  5
140
330
1F
100
AcDbEntity
  8
0
  6
Continuous
 62
     6
420
 16711935
370
     0
100
AcDbLine
 10
6080.187744
 20
2902.827609
 30
0.0
 11
6080.187744
 21
2488.827609
 31
0.0
  0
LINE
  5
141
330
1F
100
AcDbEntity
  8
0
  6
Continuous
 62
     6
420
 16711935
370
     0
100
AcDbLine
 10
6110.187744
 20
2488.827609
 30
0.0
 11
6110.187744
 21
2902.827609
 31
0.0
  0
ARC
  5
142
330
1F
100
AcDbEntity
  8
0
  6
Continuous
 62
     6
420
 16711935
370
     0
100
AcDbCircle
 10
6120.187744
 20
2488.827609
 30
0.0
 40
10.0
100
AcDbArc
 50
180.0
 51
270.0
  0
ARC
  5
143
330
1F
100
AcDbEntity
  8
0
  6
Continuous
 62
     6
420
 16711935
370
     0
100
AcDbCircle
 10
6070.187744
 20
2488.827609
 30
0.0
 40
10.0
100
AcDbArc
 50
270.0
 51
0.0
  0
ARC
  5
144
330
1F
100
AcDbEntity
  8
0
  6
Continuous
 62
     6
420
 16711935
370
     0
100
AcDbCircle
 10
6120.187744
 20
2902.827609
 30
0.0
 40
10.0
100
AcDbArc
 50
90.0
 51
180.0
  0
ARC
  5
145
330
1F
100
AcDbEntity
  8
0
  6
Continuous
 62
     6
420
 16711935
370
     0
100
AcDbCircle
 10
6070.187744
 20
2902.827609
 30
0.0
 40
10.0
100
AcDbArc
 50
0.0
 51
90.0
  0
LINE
  5
146
330
1F
100
AcDbEntity
  8
0
  6
CENTER2
 62
    47
420
  8351551
370
     0
100
AcDbLine
 10
6294.737744
 20
2845.827609
 30
0.0
 11
6294.737744
 21
2725.827609
 31
0.0
  0
LINE
  5
147
330
1F
100
AcDbEntity
  8
0
  6
CENTER2
 62
    47
420
  8351551
370
     0
100
AcDbLine
 10
6234.737744
 20
2785.827609
 30
0.0
 11
6354.737744
 21
2785.827609
 31
0.0
  0
CIRCLE
  5
148
330
1F
100
AcDbEntity
  8
0
  6
Continuous
 62
     1
420
 16711680
370
     0
100
AcDbCircle
 10
6294.737744
 20
2785.827609
 30
0.0
 40
47.0
  0
CIRCLE
  5
149
330
1F
100
AcDbEntity
  8
0
  6
Continuous
 62
     7
420
 16777215
370
     0
100
AcDbCircle
 10
6294.737744
 20
2785.827609
 30
0.0
 40
58.5
  0
LINE
  5
14A
330
1F
100
AcDbEntity
  8
0
  6
Continuous
 62
     6
420
 16711935
370
     0
100
AcDbLine
 10
6082.613275
 20
2061.433716
 30
0.0
 11
6068.331031
 21
1945.114173
 31
0.0
  0
LINE
  5
14B
330
1F
100
AcDbEntity
  8
0
  6
Continuous
 62
     6
420
 16711935
370
     0
100
AcDbLine
 10
6088.683567
 20
2053.433716
 30
0.0
 11
6075.29087
 21
1944.358952
 31
0.0
  0
LINE
  5
14C
330
1F
100
AcDbEntity
  8
0
  6
Continuous
 62
     6
420
 16711935
370
     0
100
AcDbLine
 10
6112.765842
 20
2061.433716
 30
0.0
 11
6127.058835
 21
1945.026633
 31
0.0
  0
LINE
  5
14D
330
1F
100
AcDbEntity
  8
0
  6
Continuous
 62
     6
420
 16711935
370
     0
100
AcDbLine
 10
6106.69555
 20
2053.433716
 30
0.0
 11
6120.098994
 21
1944.271425
 31
0.0
  0
LINE
  5
14E
330
1F
100
AcDbEntity
  8
0
  6
Continuous
 62
     6
420
 16711935
370
     0
100
AcDbLine
 10
6108.795657
 20
2064.946238
 30
0.0
 11
6086.58346
 21
2064.946238
 31
0.0
  0
LINE
  5
14F
330
1F
100
AcDbEntity
  8
0
  6
Continuous
 62
     6
420
 16711935
370
     0
100
AcDbLine
 10
6102.725365
 20
2056.946238
 30
0.0
 11
6092.653752
 21
2056.946238
 31
0.0
  0
ARC
  5
150
330
1F
100
AcDbEntity
  8
0
  6
Continuous
 62
     6
420
 16711935
370
     0
100
AcDbCircle
 10
6086.58346
 20
2060.946238
 30
0.0
 40
4.0
100
AcDbArc
 50
90.0
 51
173.0
  0
ARC
  5
151
330
1F
100
AcDbEntity
  8
0
  6
Continuous
 62
     6
420
 16711935
370
     0
100
AcDbCircle
 10
6108.795657
 20
2060.946238
 30
0.0
 40
4.0
100
AcDbArc
 50
7.0
 51
90.0
  0
ARC
  5
152
330
1F
100
AcDbEntity
  8
0
  6
Continuous
 62
     6
420
 16711935
370
     0
100
AcDbCircle
 10
6092.653752
 20
2052.946238
 30
0.0
 40
4.0
100
AcDbArc
 50
90.0
 51
173.0
  0
ARC
  5
153
330
1F
100
AcDbEntity
  8
0
  6
Continuous
 62
     6
420
 16711935
370
     0
100
AcDbCircle
 10
6102.725365
 20
2052.946238
 30
0.0
 40
4.0
100
AcDbArc
 50
7.0
 51
90.0
  0
ARC
  5
154
330
1F
100
AcDbEntity
  8
0
  6
Continuous
 62
     6
420
 16711935
370
     0
100
AcDbCircle
 10
5701.162448
 20
2155.546238
 30
0.0
 40
4.0
100
AcDbArc
 50
7.0
 51
90.0
  0
ARC
  5
155
330
1F
100
AcDbEntity
  8
0
  6
Continuous
 62
     6
420
 16711935
370
     0
100
AcDbCircle
 10
5705.586074
 20
2160.546238
 30
0.0
 40
6.0
100
AcDbArc
 50
7.0
 51
90.0
  0
ARC
  5
156
330
1F
100
AcDbEntity
  8
0
  6
Continuous
 62
     6
420
 16711935
370
     0
100
AcDbCircle
 10
6484.789413
 20
2160.546228
 30
0.0
 40
6.0
100
AcDbArc
 50
90.0
 51
173.0
  0
ARC
  5
157
330
1F
100
AcDbEntity
  8
0
  6
Continuous
 62
     6
420
 16711935
370
     0
100
AcDbCircle
 10
6489.213039
 20
2155.546228
 30
0.0
 40
4.0
100
AcDbArc
 50
90.0
 51
173.0
  0
LINE
  5
158
330
1F
100
AcDbEntity
  8
0
  6
Continuous
 62
     1
420
 16711680
370
     0
100
AcDbLine
 10
5746.635835
 20
2529.377609
 30
0.0
 11
5746.635835
 21
2862.277609
 31
0.0
  0
LINE
  5
159
330
1F
100
AcDbEntity
  8
0
  6
Continuous
 62
     1
420
 16711680
370
     0
100
AcDbLine
 10
6059.810576
 20
2529.377609
 30
0.0
 11
6059.810576
 21
2862.277609
 31
0.0
  0
LINE
  5
15A
330
1F
100
AcDbEntity
  8
0
  6
Continuous
 62
     1
420
 16711680
370
     0
100
AcDbLine
 10
6044.810576
 20
2877.277609
 30
0.0
 11
5761.635835
 21
2877.277609
 31
0.0
  0
ARC
  5
15B
330
1F
100
AcDbEntity
  8
0
  6
Continuous
 62
     1
420
 16711680
370
     0
100
AcDbCircle
 10
5761.635835
 20
2862.277609
 30
0.0
 40
15.0
100
AcDbArc
 50
90.0
 51
180.0
  0
ARC
  5
15C
330
1F
100
AcDbEntity
  8
0
  6
Continuous
 62
     1
420
 16711680
370
     0
100
AcDbCircle
 10
6044.810576
 20
2862.277609
 30
0.0
 40
15.0
100
AcDbArc
 50
0.0
 51
90.0
  0
LINE
  5
15D
330
1F
100
AcDbEntity
  8
0
  6
Continuous
 62
     1
420
 16711680
370
     0
100
AcDbLine
 10
5761.635835
 20
2514.377609
 30
0.0
 11
6044.810576
 21
2514.377609
 31
0.0
  0
ARC
  5
15E
330
1F
100
AcDbEntity
  8
0
  6
Continuous
 62
     1
420
 16711680
370
     0
100
AcDbCircle
 10
5761.635835
 20
2529.377609
 30
0.0
 40
15.0
100
AcDbArc
 50
180.0
 51
270.0
  0
ARC
  5
15F
330
1F
100
AcDbEntity
  8
0
  6
Continuous
 62
     1
420
 16711680
370
     0
100
AcDbCircle
 10
6044.810576
 20
2529.377609
 30
0.0
 40
15.0
100
AcDbArc
 50
270.0
 51
0.0
  0
LINE
  5
160
330
1F
100
AcDbEntity
  8
0
  6
Continuous
 62
     1
420
 16711680
370
     0
100
AcDbLine
 10
6130.564911
 20
2529.377609
 30
0.0
 11
6130.564911
 21
2862.277609
 31
0.0
  0
LINE
  5
161
330
1F
100
AcDbEntity
  8
0
  6
Continuous
 62
     1
420
 16711680
370
     0
100
AcDbLine
 10
6145.564911
 20
2877.277609
 30
0.0
 11
6428.739652
 21
2877.277609
 31
0.0
  0
ARC
  5
162
330
1F
100
AcDbEntity
  8
0
  6
Continuous
 62
     1
420
 16711680
370
     0
100
AcDbCircle
 10
6145.564911
 20
2862.277609
 30
0.0
 40
15.0
100
AcDbArc
 50
90.0
 51
180.0
  0
LINE
  5
163
330
1F
100
AcDbEntity
  8
0
  6
Continuous
 62
     1
420
 16711680
370
     0
100
AcDbLine
 10
6428.739652
 20
2514.377609
 30
0.0
 11
6145.564911
 21
2514.377609
 31
0.0
  0
ARC
  5
164
330
1F
100
AcDbEntity
  8
0
  6
Continuous
 62
     1
420
 16711680
370
     0
100
AcDbCircle
 10
6145.564911
 20
2529.377609
 30
0.0
 40
15.0
100
AcDbArc
 50
180.0
 51
270.0
  0
LINE
  5
165
330
1F
100
AcDbEntity
  8
0
  6
Continuous
 62
     1
420
 16711680
370
     0
100
AcDbLine
 10
6443.739652
 20
2529.377609
 30
0.0
 11
6443.739652
 21
2862.277609
 31
0.0
  0
ARC
  5
166
330
1F
100
AcDbEntity
  8
0
  6
Continuous
 62
     1
420
 16711680
370
     0
100
AcDbCircle
 10
6428.739652
 20
2862.277609
 30
0.0
 40
15.0
100
AcDbArc
 50
0.0
 51
90.0
  0
ARC
  5
167
330
1F
100
AcDbEntity
  8
0
  6
Continuous
 62
     1
420
 16711680
370
     0
100
AcDbCircle
 10
6428.739652
 20
2529.377609
 30
0.0
 40
15.0
100
AcDbArc
 50
270.0
 51
0.0
  0
MTEXT
  5
168
330
1F
100
AcDbEntity
  8
0
  6
Continuous
 62
     7
420
 16777215
370
     0
100
AcDbMText
 10
6943.725586
 20
769.917847
 30
0.0
 40
42.239998
 41
0.0
 46
0.0
 71
     3
 72
     1
  1
{\fArial|b0|i0;Soluzione A (mm/inch)}
  7
ANSI
 73
     2
 44
0.99598
  0
LINE
  5
169
330
1F
100
AcDbEntity
  8
0
  6
Continuous
 62
     6
420
 16711935
370
     0
100
AcDbLine
 10
5695.187744
 20
1631.608009
 30
0.0
 11
6495.187744
 21
1631.608009
 31
0.0
  0
LINE
  5
16A
330
1F
100
AcDbEntity
  8
0
  6
Continuous
 62
     6
420
 16711935
370
     0
100
AcDbLine
 10
6505.187744
 20
1621.608009
 30
0.0
 11
6505.187744
 21
1101.608009
 31
0.0
  0
LINE
  5
16B
330
1F
100
AcDbEntity
  8
0
  6
Continuous
 62
     6
420
 16711935
370
     0
100
AcDbLine
 10
6495.187744
 20
1091.608009
 30
0.0
 11
5695.187744
 21
1091.608009
 31
0.0
  0
LINE
  5
16C
330
1F
100
AcDbEntity
  8
0
  6
Continuous
 62
     6
420
 16711935
370
     0
100
AcDbLine
 10
5685.187744
 20
1101.608009
 30
0.0
 11
5685.187744
 21
1621.608009
 31
0.0
  0
ARC
  5
16D
330
1F
100
AcDbEntity
  8
0
  6
Continuous
 62
     6
420
 16711935
370
     0
100
AcDbCircle
 10
5695.187744
 20
1621.608009
 30
0.0
 40
10.0
100
AcDbArc
 50
90.0
 51
180.0
  0
ARC
  5
16E
330
1F
100
AcDbEntity
  8
0
  6
Continuous
 62
     6
420
 16711935
370
     0
100
AcDbCircle
 10
6495.187744
 20
1621.608009
 30
0.0
 40
10.0
100
AcDbArc
 50
0.0
 51
90.0
  0
ARC
  5
16F
330
1F
100
AcDbEntity
  8
0
  6
Continuous
 62
     6
420
 16711935
370
     0
100
AcDbCircle
 10
6495.187744
 20
1101.608009
 30
0.0
 40
10.0
100
AcDbArc
 50
270.0
 51
0.0
  0
ARC
  5
170
330
1F
100
AcDbEntity
  8
0
  6
Continuous
 62
     6
420
 16711935
370
     0
100
AcDbCircle
 10
5695.187744
 20
1101.608009
 30
0.0
 40
10.0
100
AcDbArc
 50
180.0
 51
270.0
  0
MTEXT
  5
171
330
1F
100
AcDbEntity
  8
0
  6
Continuous
 62
     7
420
 16777215
370
     0
100
AcDbMText
 10
6353.020996
 20
1377.643677
 30
0.0
 40
52.799999
 41
0.0
 46
0.0
 71
     3
 72
     1
  1
{\fArial|b0|i0;Countertop Hole}
  7
ANSI
 73
     2
 44
0.99598
  0
MTEXT
  5
172
330
1F
100
AcDbEntity
  8
0
  6
Continuous
 62
     7
420
 16777215
370
     0
100
AcDbMText
 10
5513.296875
 20
3269.905762
 30
0.0
 40
52.799999
 41
0.0
 46
0.0
 71
     3
 72
     1
  1
{\fArial|b0|i0;ON8420}
  7
ANSI
 73
     2
 44
0.99598
  0
INSERT
  5
1EF
330
1F
100
AcDbEntity
  8
0
  6
Continuous
 62
     7
420
 16777215
370
     0
100
AcDbBlockReference
  2
.TD_XHATCH_1
 10
10589.274414
 20
1705.399902
 30
0.0
  0
INSERT
  5
20A
330
1F
100
AcDbEntity
  8
0
  6
Continuous
 62
     3
420
    65280
370
     0
100
AcDbBlockReference
  2
.TD_XHATCH_2
 10
10733.106446
 20
1710.659058
 30
0.0
  0
INSERT
  5
340
330
1F
100
AcDbEntity
  8
0
  6
Continuous
 62
     7
420
 16777215
370
     0
100
AcDbBlockReference
  2
.TD_XHATCH_3
 10
10663.995118
 20
1705.399902
 30
0.0
  0
INSERT
  5
3B6
330
1F
100
AcDbEntity
  8
0
  6
Continuous
 62
     7
420
 16777215
370
     0
100
AcDbBlockReference
  2
.TD_XHATCH_4
 10
10866.95996
 20
1705.401
 30
0.0
  0
INSERT
  5
457
330
1F
100
AcDbEntity
  8
0
  6
Continuous
 62
     7
420
 16777215
370
     0
100
AcDbBlockReference
  2
.TD_XHATCH_5
 10
10942.853516
 20
1705.399902
 30
0.0
  0
INSERT
  5
4AF
330
1F
100
AcDbEntity
  8
0
  6
Continuous
 62
     7
420
 16777215
370
     0
100
AcDbBlockReference
  2
.TD_XHATCH_6
 10
10454.692382
 20
1705.576538
 30
0.0
  0
INSERT
  5
519
330
1F
100
AcDbEntity
  8
0
  6
Continuous
 62
     3
420
    65280
370
     0
100
AcDbBlockReference
  2
.TD_XHATCH_7
 10
10442.326172
 20
1705.529174
 30
0.0
  0
INSERT
  5
524
330
1F
100
AcDbEntity
  8
0
  6
Continuous
 62
     7
420
 16777215
370
     0
100
AcDbBlockReference
  2
.TD_DIMENSION_1
 10
11259.799804
 20
2906.45044
 30
0.0
  0
INSERT
  5
52F
330
1F
100
AcDbEntity
  8
0
  6
Continuous
 62
     7
420
 16777215
370
     0
100
AcDbBlockReference
  2
.TD_DIMENSION_2
 10
11236.558594
 20
2077.838378
 30
0.0
  0
INSERT
  5
53A
330
1F
100
AcDbEntity
  8
0
  6
Continuous
 62
     7
420
 16777215
370
     0
100
AcDbBlockReference
  2
.TD_DIMENSION_3
 10
12595.10254
 20
2046.096436
 30
0.0
  0
INSERT
  5
545
330
1F
100
AcDbEntity
  8
0
  6
Continuous
 62
     7
420
 16777215
370
     0
100
AcDbBlockReference
  2
.TD_DIMENSION_4
 10
12618.20996
 20
2935.405762
 30
0.0
  0
LINE
  5
546
330
1F
100
AcDbEntity
  8
0
  6
Continuous
 62
     6
420
 16711935
370
     0
100
AcDbLine
 10
6341.737744
 20
1926.546238
 30
0.0
 11
6441.668261
 21
1928.290532
 31
0.0
  0
LINE
  5
547
330
1F
100
AcDbEntity
  8
0
  6
Continuous
 62
     6
420
 16711935
370
     0
100
AcDbLine
 10
5835.137744
 20
1934.546238
 30
0.0
 11
5747.866318
 21
1936.069567
 31
0.0
  0
LINE
  5
548
330
1F
100
AcDbEntity
  8
0
  6
Continuous
 62
     6
420
 16711935
370
     0
100
AcDbLine
 10
6234.237744
 20
1934.546238
 30
0.0
 11
6136.809772
 21
1936.24685
 31
0.0
  0
LINE
  5
549
330
1F
100
AcDbEntity
  8
0
  6
Continuous
 62
     6
420
 16711935
370
     0
100
AcDbLine
 10
5942.637744
 20
1926.546238
 30
0.0
 11
6057.739183
 21
1928.555341
 31
0.0
  0
LINE
  5
54A
330
1F
100
AcDbEntity
  8
0
  6
Continuous
 62
     6
420
 16711935
370
     0
100
AcDbLine
 10
5848.637744
 20
1931.546238
 30
0.0
 11
5848.637744
 21
1926.546238
 31
0.0
  0
LINE
  5
54B
330
1F
100
AcDbEntity
  8
0
  6
Continuous
 62
     6
420
 16711935
370
     0
100
AcDbLine
 10
5837.137744
 20
1932.546238
 30
0.0
 11
5847.637744
 21
1932.546238
 31
0.0
  0
ARC
  5
54C
330
1F
100
AcDbEntity
  8
0
  6
Continuous
 62
     6
420
 16711935
370
     0
100
AcDbCircle
 10
5835.137744
 20
1932.546238
 30
0.0
 40
2.0
100
AcDbArc
 50
0.0
 51
90.0
  0
LINE
  5
54D
330
1F
100
AcDbEntity
  8
0
  6
Continuous
 62
     6
420
 16711935
370
     0
100
AcDbLine
 10
5942.637744
 20
1931.546238
 30
0.0
 11
5942.637744
 21
1926.546238
 31
0.0
  0
LINE
  5
54E
330
1F
100
AcDbEntity
  8
0
  6
Continuous
 62
     6
420
 16711935
370
     0
100
AcDbLine
 10
5954.137744
 20
1932.546238
 30
0.0
 11
5943.637744
 21
1932.546238
 31
0.0
  0
ARC
  5
54F
330
1F
100
AcDbEntity
  8
0
  6
Continuous
 62
     6
420
 16711935
370
     0
100
AcDbCircle
 10
5956.137744
 20
1932.546238
 30
0.0
 40
2.0
100
AcDbArc
 50
90.0
 51
180.0
  0
LINE
  5
550
330
1F
100
AcDbEntity
  8
0
  6
Continuous
 62
     7
420
 16777215
370
     0
100
AcDbLine
 10
5848.637744
 20
1926.546238
 30
0.0
 11
5942.637744
 21
1926.546238
 31
0.0
  0
LINE
  5
551
330
1F
100
AcDbEntity
  8
0
  6
Continuous
 62
     7
420
 16777215
370
     0
100
AcDbLine
 10
5846.637744
 20
1932.546238
 30
0.0
 11
5944.637744
 21
1932.546238
 31
0.0
  0
ARC
  5
552
330
1F
100
AcDbEntity
  8
0
  6
Continuous
 62
     6
420
 16711935
370
     0
100
AcDbCircle
 10
5847.637744
 20
1931.546238
 30
0.0
 40
1.0
100
AcDbArc
 50
0.0
 51
90.0
  0
ARC
  5
553
330
1F
100
AcDbEntity
  8
0
  6
Continuous
 62
     6
420
 16711935
370
     0
100
AcDbCircle
 10
5943.637744
 20
1931.546238
 30
0.0
 40
1.0
100
AcDbArc
 50
90.0
 51
180.0
  0
ARC
  5
554
330
1F
100
AcDbEntity
  8
0
  6
Continuous
 62
     6
420
 16711935
370
     0
100
AcDbCircle
 10
6342.737744
 20
1931.546238
 30
0.0
 40
1.0
100
AcDbArc
 50
90.0
 51
180.0
  0
ARC
  5
555
330
1F
100
AcDbEntity
  8
0
  6
Continuous
 62
     6
420
 16711935
370
     0
100
AcDbCircle
 10
6246.737744
 20
1931.546238
 30
0.0
 40
1.0
100
AcDbArc
 50
0.0
 51
90.0
  0
LINE
  5
556
330
1F
100
AcDbEntity
  8
0
  6
Continuous
 62
     6
420
 16711935
370
     0
100
AcDbLine
 10
6341.737744
 20
1931.546238
 30
0.0
 11
6341.737744
 21
1926.546238
 31
0.0
  0
LINE
  5
557
330
1F
100
AcDbEntity
  8
0
  6
Continuous
 62
     6
420
 16711935
370
     0
100
AcDbLine
 10
6353.237744
 20
1932.546238
 30
0.0
 11
6342.737744
 21
1932.546238
 31
0.0
  0
ARC
  5
558
330
1F
100
AcDbEntity
  8
0
  6
Continuous
 62
     6
420
 16711935
370
     0
100
AcDbCircle
 10
6355.237744
 20
1932.546238
 30
0.0
 40
2.0
100
AcDbArc
 50
90.0
 51
180.0
  0
LINE
  5
559
330
1F
100
AcDbEntity
  8
0
  6
Continuous
 62
     6
420
 16711935
370
     0
100
AcDbLine
 10
6247.737744
 20
1931.546238
 30
0.0
 11
6247.737744
 21
1926.546238
 31
0.0
  0
LINE
  5
55A
330
1F
100
AcDbEntity
  8
0
  6
Continuous
 62
     6
420
 16711935
370
     0
100
AcDbLine
 10
6236.237744
 20
1932.546238
 30
0.0
 11
6246.737744
 21
1932.546238
 31
0.0
  0
ARC
  5
55B
330
1F
100
AcDbEntity
  8
0
  6
Continuous
 62
     6
420
 16711935
370
     0
100
AcDbCircle
 10
6234.237744
 20
1932.546238
 30
0.0
 40
2.0
100
AcDbArc
 50
0.0
 51
90.0
  0
LINE
  5
55C
330
1F
100
AcDbEntity
  8
0
  6
Continuous
 62
     7
420
 16777215
370
     0
100
AcDbLine
 10
6341.737744
 20
1926.546238
 30
0.0
 11
6247.737744
 21
1926.546238
 31
0.0
  0
LINE
  5
55D
330
1F
100
AcDbEntity
  8
0
  6
Continuous
 62
     7
420
 16777215
370
     0
100
AcDbLine
 10
6343.737744
 20
1932.546238
 30
0.0
 11
6245.737744
 21
1932.546238
 31
0.0
  0
LINE
  5
55E
330
1F
100
AcDbEntity
  8
0
  6
Continuous
 62
     6
420
 16711935
370
     0
100
AcDbLine
 10
6058.580094
 20
1936.33439
 30
0.0
 11
5956.137746
 21
1934.546252
 31
0.0
  0
LINE
  5
55F
330
1F
100
AcDbEntity
  8
0
  6
Continuous
 62
     7
420
 16777215
370
     0
100
AcDbLine
 10
5835.137744
 20
1934.546238
 30
0.0
 11
5956.137744
 21
1934.546238
 31
0.0
  0
LINE
  5
560
330
1F
100
AcDbEntity
  8
0
  6
Continuous
 62
     6
420
 16711935
370
     0
100
AcDbLine
 10
6442.50917
 20
1936.069567
 30
0.0
 11
6355.237744
 21
1934.546238
 31
0.0
  0
LINE
  5
561
330
1F
100
AcDbEntity
  8
0
  6
Continuous
 62
     7
420
 16777215
370
     0
100
AcDbLine
 10
6234.237744
 20
1934.546238
 30
0.0
 11
6355.237744
 21
1934.546238
 31
0.0
  0
LINE
  5
562
330
1F
100
AcDbEntity
  8
0
  6
Continuous
 62
     6
420
 16711935
370
     0
100
AcDbLine
 10
5748.707227
 20
1928.290532
 30
0.0
 11
5848.637744
 21
1926.546238
 31
0.0
  0
LINE
  5
563
330
1F
100
AcDbEntity
  8
0
  6
Continuous
 62
     6
420
 16711935
370
     0
100
AcDbLine
 10
6137.650681
 20
1928.467815
 30
0.0
 11
6247.737744
 21
1926.546238
 31
0.0
  0
ARC
  5
564
330
1F
100
AcDbEntity
  8
0
  6
Continuous
 62
     6
420
 16711935
370
     0
100
AcDbCircle
 10
6136.984296
 20
1946.245327
 30
0.0
 40
10.0
100
AcDbArc
 50
187.0
 51
269.0
  0
ARC
  5
565
330
1F
100
AcDbEntity
  8
0
  6
Continuous
 62
     6
420
 16711935
370
     0
100
AcDbCircle
 10
6442.334646
 20
1946.068044
 30
0.0
 40
10.0
100
AcDbArc
 50
271.0
 51
353.0
  0
ARC
  5
566
330
1F
100
AcDbEntity
  8
0
  6
Continuous
 62
     6
420
 16711935
370
     0
100
AcDbCircle
 10
6058.405569
 20
1946.332867
 30
0.0
 40
10.0
100
AcDbArc
 50
271.0
 51
353.0
  0
ARC
  5
567
330
1F
100
AcDbEntity
  8
0
  6
Continuous
 62
     6
420
 16711935
370
     0
100
AcDbCircle
 10
5748.040842
 20
1946.068044
 30
0.0
 40
10.0
100
AcDbArc
 50
187.0
 51
269.0
  0
ARC
  5
568
330
1F
100
AcDbEntity
  8
0
  6
Continuous
 62
     6
420
 16711935
370
     0
100
AcDbCircle
 10
5749.02137
 20
1946.287791
 30
0.0
 40
18.0
100
AcDbArc
 50
187.0
 51
269.0
  0
ARC
  5
569
330
1F
100
AcDbEntity
  8
0
  6
Continuous
 62
     6
420
 16711935
370
     0
100
AcDbCircle
 10
6057.42504
 20
1946.5526
 30
0.0
 40
18.0
100
AcDbArc
 50
271.0
 51
353.0
  0
ARC
  5
56A
330
1F
100
AcDbEntity
  8
0
  6
Continuous
 62
     6
420
 16711935
370
     0
100
AcDbCircle
 10
6137.964824
 20
1946.465074
 30
0.0
 40
18.0
100
AcDbArc
 50
187.0
 51
269.0
  0
ARC
  5
56B
330
1F
100
AcDbEntity
  8
0
  6
Continuous
 62
     6
420
 16711935
370
     0
100
AcDbCircle
 10
6441.354118
 20
1946.287791
 30
0.0
 40
18.0
100
AcDbArc
 50
271.0
 51
353.0
  0
MTEXT
  5
56C
330
1F
100
AcDbEntity
  8
0
  6
Continuous
 62
     7
420
 16777215
370
     0
100
AcDbMText
 10
5970.858887
 20
3050.239502
 30
0.0
 40
26.4
 41
0.0
 46
0.0
 71
     3
 72
     1
  1
{\W1.06;{\W1.113;{\fArial|b0|i0;(4")}}}
  7
ANSI
 73
     2
 44
0.99598
  0
MTEXT
  5
56D
330
1F
100
AcDbEntity
  8
0
  6
Continuous
 62
     7
420
 16777215
370
     0
100
AcDbMText
 10
6072.458984
 20
3050.239502
 30
0.0
 40
26.4
 41
0.0
 46
0.0
 71
     3
 72
     1
  1
{\W1.06;{\W1.113;{\fArial|b0|i0;(4")}}}
  7
ANSI
 73
     2
 44
0.99598
  0
MTEXT
  5
56E
330
1F
100
AcDbEntity
  8
0
  6
Continuous
 62
     7
420
 16777215
370
     0
100
AcDbMText
 10
6174.059082
 20
3050.239502
 30
0.0
 40
26.4
 41
0.0
 46
0.0
 71
     3
 72
     1
  1
{\W1.06;{\W1.113;{\fArial|b0|i0;(4")}}}
  7
ANSI
 73
     2
 44
0.99598
  0
MTEXT
  5
56F
330
1F
100
AcDbEntity
  8
0
  6
Continuous
 62
     7
420
 16777215
370
     0
100
AcDbMText
 10
6275.658691
 20
3050.239502
 30
0.0
 40
26.4
 41
0.0
 46
0.0
 71
     3
 72
     1
  1
{\W1.06;{\W1.113;{\fArial|b0|i0;(4")}}}
  7
ANSI
 73
     2
 44
0.99598
  0
MTEXT
  5
570
330
1F
100
AcDbEntity
  8
0
  6
Continuous
 62
     7
420
 16777215
370
     0
100
AcDbMText
 10
6106.13623
 20
2145.400635
 30
0.0
 40
26.4
 41
0.0
 46
0.0
 71
     3
 72
     1
  1
{\W1.06;{\W1.113;{\fArial|b0|i0;(4")}}}
  7
ANSI
 11
3.896499959564406E-12
 21
1.0
 31
0.0
 73
     2
 44
0.99598
  0
INSERT
  5
579
330
1F
100
AcDbEntity
  8
0
  6
Continuous
 62
     7
420
 16777215
370
     0
100
AcDbBlockReference
  2
.TD_DIMENSION_5
 10
5589.032715
 20
1696.063232
 30
0.0
  0
DIMENSION
  5
57C
330
1F
100
AcDbEntity
  8
0
  6
Continuous
 62
     7
420
 16777215
370
     0
100
AcDbDimension
280
     0
  2
*D14
 10
6514.287744
 20
3134.187256
 30
0.0
 11
6123.387207
 21
3134.187256
 31
0.0
 70
   161
  1
\fArial|b0|i0|c0|p0;{\fArial|b0|i0;838 (33")}
 71
     5
 42
838.2
 73
     0
 74
     0
 75
     0
  3
ISO-25
100
AcDbAlignedDimension
 13
5676.087744
 23
2996.827609
 33
0.0
 14
6514.287744
 24
2996.827609
 34
0.0
1001
ACAD
1000
DSTYLE
1002
{
1070
   279
1070
     0
1070
    41
1040
28.0
1070
   342
1005
5A
1070
   176
1070
     7
1070
   177
1070
     7
1070
   178
1070
     2
1070
   278
1070
    46
1070
    44
1040
16.0
1070
    42
1040
40.0
1070
   147
1040
8.0
1070
   272
1070
     3
1070
   146
1040
0.4
1070
   140
1040
40.0
1002
}
  0
DIMENSION
  5
589
330
1F
100
AcDbEntity
  8
0
  6
Continuous
 62
     7
420
 16777215
370
     0
100
AcDbDimension
280
     0
  2
*D15
 10
6683.922852
 20
2443.827609
 30
0.0
 11
6645.722851
 21
2723.327609
 31
0.0
 70
    33
  1
\fArial|b0|i0|c0|p0;{\fArial|b0|i0;559 (22")}
 71
     5
 42
559.0
 73
     0
 74
     0
 75
     0
  3
ISO-25
100
AcDbAlignedDimension
 13
6509.287744
 23
3002.827609
 33
0.0
 14
6509.287744
 24
2443.827609
 34
0.0
1001
ACAD
1000
DSTYLE
1002
{
1070
   280
1070
     0
1070
   344
1005
0
1070
   343
1005
0
1070
    76
1070
     0
1070
    75
1070
     0
1070
    41
1040
28.0
1070
   342
1005
5A
1070
   176
1070
     7
1070
   177
1070
     7
1070
   178
1070
     2
1070
   278
1070
    46
1070
    44
1040
16.0
1070
    42
1040
60.0
1070
   147
1040
12.0
1070
   272
1070
     3
1070
   146
1040
0.4
1070
   140
1040
40.0
1002
}
  0
INSERT
  5
59D
330
1F
100
AcDbEntity
  8
0
  6
Continuous
 62
     7
420
 16777215
370
     0
100
AcDbBlockReference
  2
.TD_DIMENSION_6
 10
6069.6875
 20
2988.827637
 30
0.0
  0
INSERT
  5
5A7
330
1F
100
AcDbEntity
  8
0
  6
Continuous
 62
     7
420
 16777215
370
     0
100
AcDbBlockReference
  2
.TD_DIMENSION_7
 10
6171.287598
 20
2988.827637
 30
0.0
  0
INSERT
  5
5B1
330
1F
100
AcDbEntity
  8
0
  6
Continuous
 62
     7
420
 16777215
370
     0
100
AcDbBlockReference
  2
.TD_DIMENSION_8
 10
5968.087891
 20
2988.827637
 30
0.0
  0
INSERT
  5
5BB
330
1F
100
AcDbEntity
  8
0
  6
Continuous
 62
     7
420
 16777215
370
     0
100
AcDbBlockReference
  2
.TD_DIMENSION_9
 10
5866.487793
 20
2988.827637
 30
0.0
  0
DIMENSION
  5
5BE
330
1F
100
AcDbEntity
  8
0
  6
Continuous
 62
     7
420
 16777215
370
     0
100
AcDbDimension
280
     0
  2
*D20
 10
5504.12207
 20
2478.827609
 30
0.0
 11
5470.69707
 21
2695.827609
 31
0.0
 70
    33
  1
\fArial|b0|i0|c0|p0;{\fArial|b0|i0;434 (17 1/8")}
 71
     5
 42
434.0
 73
     0
 74
     0
 75
     0
  3
ISO-25
100
AcDbAlignedDimension
 13
5717.087744
 23
2912.827609
 33
0.0
 14
5717.087744
 24
2478.827609
 34
0.0
1001
ACAD
1000
DSTYLE
1002
{
1070
   280
1070
     0
1070
   344
1005
0
1070
   343
1005
0
1070
    76
1070
     0
1070
    75
1070
     0
1070
    41
1040
24.5
1070
   342
1005
5A
1070
   176
1070
     7
1070
   177
1070
     7
1070
   178
1070
     2
1070
   278
1070
    46
1070
    44
1040
14.0
1070
    42
1040
52.5
1070
   147
1040
10.5
1070
   272
1070
     3
1070
   146
1040
0.4
1070
   140
1040
35.0
1002
}
  0
DIMENSION
  5
5CB
330
1F
100
AcDbEntity
  8
0
  6
Continuous
 62
     7
420
 16777215
370
     0
100
AcDbDimension
280
     0
  2
*D21
 10
6479.287744
 20
2249.747803
 30
0.0
 11
6095.187744
 21
2279.672803
 31
0.0
 70
    33
  1
\fArial|b0|i0|c0|p0;{\fArial|b0|i0;768 (30 1/4")}
 71
     5
 42
768.2
 73
     0
 74
     0
 75
     0
  3
ISO-25
100
AcDbAlignedDimension
 13
5711.087744
 23
2483.827609
 33
0.0
 14
6479.287744
 24
2483.827609
 34
0.0
1001
ACAD
1000
DSTYLE
1002
{
1070
    41
1040
24.5
1070
   342
1005
5A
1070
   176
1070
     7
1070
   177
1070
     7
1070
   178
1070
     2
1070
   278
1070
    46
1070
    44
1040
14.0
1070
    42
1040
52.5
1070
   147
1040
7.0
1070
   272
1070
     3
1070
   146
1040
0.4
1070
   140
1040
35.0
1002
}
  0
DIMENSION
  5
5D8
330
1F
100
AcDbEntity
  8
0
  6
Continuous
 62
     7
420
 16777215
370
     0
100
AcDbDimension
280
     0
  2
*D22
 10
6505.187744
 20
990.723389
 30
0.0
 11
6095.187744
 21
1020.648389
 31
0.0
 70
    33
  1
\fArial|b0|i0|c0|p0;{\fArial|b0|i0;820 (32 1/4")}
 71
     5
 42
820.0
 73
     0
 74
     0
 75
     0
  3
ISO-25
100
AcDbAlignedDimension
 13
5685.187744
 23
1101.608009
 33
0.0
 14
6505.187744
 24
1101.608009
 34
0.0
1001
ACAD
1000
DSTYLE
1002
{
1070
    41
1040
24.5
1070
   342
1005
5A
1070
   176
1070
     7
1070
   177
1070
     7
1070
   178
1070
     2
1070
   278
1070
    46
1070
    44
1040
14.0
1070
    42
1040
17.5
1070
   147
1040
7.0
1070
   272
1070
     3
1070
   146
1040
0.4
1070
   140
1040
35.0
1002
}
  0
DIMENSION
  5
5E5
330
1F
100
AcDbEntity
  8
0
  6
Continuous
 62
     7
420
 16777215
370
     0
100
AcDbDimension
280
     0
  2
*D23
 10
6634.981445
 20
1631.608009
 30
0.0
 11
6605.056445
 21
1361.608009
 31
0.0
 70
    33
  1
\fArial|b0|i0|c0|p0;{\fArial|b0|i0;540 (21 1/4")}
 71
     5
 42
540.0
 73
     0
 74
     0
 75
     0
  3
ISO-25
100
AcDbAlignedDimension
 13
6495.187744
 23
1091.608009
 33
0.0
 14
6495.187744
 24
1631.608009
 34
0.0
1001
ACAD
1000
DSTYLE
1002
{
1070
    41
1040
24.5
1070
   342
1005
5A
1070
   176
1070
     7
1070
   177
1070
     7
1070
   178
1070
     2
1070
   278
1070
    46
1070
    44
1040
14.0
1070
    42
1040
17.5
1070
   147
1040
7.0
1070
   272
1070
     3
1070
   146
1040
0.4
1070
   140
1040
35.0
1002
}
  0
DIMENSION
  5
5F2
330
1F
100
AcDbEntity
  8
0
  6
Continuous
 62
     7
420
 16777215
370
     0
100
AcDbDimension
280
     0
  2
*D24
 10
6080.187744
 20
2350.526123
 30
0.0
 11
5895.637744
 21
2380.451123
 31
0.0
 70
    32
  1
\fArial|b0|i0|c0|p0;{\fArial|b0|i0;369 (14 3/5")}
 71
     5
 42
369.1
 73
     0
 74
     0
 75
     0
  3
ISO-25
100
AcDbAlignedDimension
 13
5711.087744
 23
2484.827609
 33
0.0
 14
6080.187744
 24
2488.827609
 34
0.0
100
AcDbRotatedDimension
1001
ACAD
1000
DSTYLE
1002
{
1070
    41
1040
24.5
1070
   342
1005
5A
1070
   176
1070
     7
1070
   177
1070
     7
1070
   178
1070
     2
1070
   278
1070
    46
1070
    44
1040
14.0
1070
    42
1040
52.5
1070
   147
1040
7.0
1070
   272
1070
     3
1070
   146
1040
0.4
1070
   140
1040
35.0
1002
}
  0
DIMENSION
  5
5FF
330
1F
100
AcDbEntity
  8
0
  6
Continuous
 62
     7
420
 16777215
370
     0
100
AcDbDimension
280
     0
  2
*D25
 10
6479.287744
 20
2350.526123
 30
0.0
 11
6294.737744
 21
2380.451123
 31
0.0
 70
    32
  1
\fArial|b0|i0|c0|p0;{\fArial|b0|i0;369 (14 3/5")}
 71
     5
 42
369.1
 73
     0
 74
     0
 75
     0
  3
ISO-25
100
AcDbAlignedDimension
 13
6110.187744
 23
2488.827609
 33
0.0
 14
6479.287744
 24
2484.827609
 34
0.0
100
AcDbRotatedDimension
1001
ACAD
1000
DSTYLE
1002
{
1070
    41
1040
24.5
1070
   342
1005
5A
1070
   176
1070
     7
1070
   177
1070
     7
1070
   178
1070
     2
1070
   278
1070
    46
1070
    44
1040
14.0
1070
    42
1040
52.5
1070
   147
1040
7.0
1070
   272
1070
     3
1070
   146
1040
0.4
1070
   140
1040
35.0
1002
}
  0
DIMENSION
  5
60C
330
1F
100
AcDbEntity
  8
0
  6
Continuous
 62
     7
420
 16777215
370
     0
100
AcDbDimension
280
     0
  2
*D26
 10
5920.095703
 20
1926.546238
 30
0.0
 11
5898.720703
 21
2046.546238
 31
0.0
 70
    32
  1
\fArial|b0|i0|c0|p0;{\fArial|b0|i0;240 (9 7/16")"}
 71
     5
 42
240.0
 73
     0
 74
     0
 75
     0
  3
ISO-25
100
AcDbAlignedDimension
 13
5705.589756
 23
2166.546238
 33
0.0
 14
5942.637744
 24
1926.546238
 34
0.0
 50
90.0
100
AcDbRotatedDimension
1001
ACAD
1000
DSTYLE
1002
{
1070
   280
1070
     0
1070
   344
1005
0
1070
   343
1005
0
1070
    76
1070
     0
1070
    75
1070
     0
1070
    41
1040
17.5
1070
   342
1005
5A
1070
   176
1070
     7
1070
   177
1070
     7
1070
   178
1070
     2
1070
   278
1070
    46
1070
    44
1040
10.0
1070
    42
1040
37.5
1070
   147
1040
5.0
1070
   272
1070
     3
1070
   146
1040
0.4
1070
   140
1040
25.0
1002
}
  0
INSERT
  5
61F
330
1F
100
AcDbEntity
  8
0
  6
Continuous
 62
     7
420
 16777215
370
     0
100
AcDbBlockReference
  2
.TD_DIMENSION_10
 10
6057.842773
 20
2036.946289
 30
0.0
  0
DIMENSION
  5
622
330
1F
100
AcDbEntity
  8
0
  6
Continuous
 62
     7
420
 16777215
370
     0
100
AcDbDimension
280
     0
  2
*D28
 10
6214.077148
 20
2064.946238
 30
0.0
 11
6197.747148
 21
2000.596544
 31
0.0
 70
    32
  1
\fArial|b0|i0|c0|p0;{\fArial|b0|i0;5 1/8"}
 71
     5
 42
128.699388
 73
     0
 74
     0
 75
     0
  3
ISO-25
100
AcDbAlignedDimension
 13
6136.809772
 23
1936.24685
 33
0.0
 14
6108.795657
 24
2064.946238
 34
0.0
 50
90.0
100
AcDbRotatedDimension
1001
ACAD
1000
DSTYLE
1002
{
1070
    41
1040
20.0
1070
   342
1005
5A
1070
   176
1070
    45
1070
   177
1070
     7
1070
   178
1070
     2
1070
   278
1070
    46
1070
    44
1040
8.0
1070
    42
1040
30.0
1070
   147
1040
6.0
1070
   272
1070
     3
1070
   146
1040
0.4
1070
   140
1040
20.0
1070
   284
1070
    12
1002
}
  0
DIMENSION
  5
62F
330
1F
100
AcDbEntity
  8
0
  6
Continuous
 62
     7
420
 16777215
370
     0
100
AcDbDimension
280
     0
  2
*D29
 10
5705.589756
 20
2166.546238
 30
0.0
 11
5777.931586
 21
2106.045878
 31
0.0
 70
   162
  1
<>
 71
     5
 42
1.448623
 73
     0
 74
     0
 75
     0
  3
ISO-25
100
AcDb2LineAngularDimension
 13
5738.115381
 23
1944.84935
 33
0.0
 14
5711.541351
 24
2161.277454
 34
0.0
 15
6484.785731
 25
2166.546238
 35
0.0
 16
5790.870781
 26
2124.617048
 36
0.0
1001
ACAD
1000
DSTYLE
1002
{
1070
   279
1070
     0
1070
   179
1070
     1
1070
    41
1040
20.0
1070
    79
1070
     3
1070
   342
1005
5A
1070
   176
1070
    45
1070
   177
1070
     7
1070
   178
1070
     2
1070
    44
1040
8.0
1070
    42
1040
30.0
1070
   147
1040
6.0
1070
   146
1040
0.4
1070
   140
1040
20.0
1070
   284
1070
    12
1002
}
  0
DIMENSION
  5
63C
330
1F
100
AcDbEntity
  8
0
  6
Continuous
 62
     7
420
 16777215
370
     0
100
AcDbDimension
280
     0
  2
*D30
 10
6082.613275
 20
2061.433716
 30
0.0
 11
6020.584207
 21
2100.249118
 31
0.0
 70
    34
  1
<>
 71
     5
 42
1.448623
 73
     0
 74
     0
 75
     0
  3
ISO-25
100
AcDb2LineAngularDimension
 13
5705.589756
 23
2166.546238
 33
0.0
 14
6484.785731
 24
2166.546238
 34
0.0
 15
6068.331031
 25
1945.114173
 35
0.0
 16
6008.413677
 26
2089.481542
 36
0.0
1001
ACAD
1000
DSTYLE
1002
{
1070
   179
1070
     1
1070
    41
1040
20.0
1070
    79
1070
     3
1070
   342
1005
5A
1070
   176
1070
    45
1070
   177
1070
     7
1070
   178
1070
     2
1070
    44
1040
8.0
1070
    42
1040
30.0
1070
   147
1040
6.0
1070
   146
1040
0.4
1070
   140
1040
20.0
1070
   284
1070
    12
1002
}
  0
ENDSEC
  0
SECTION
  2
OBJECTS
  0
DICTIONARY
  5
C
330
0
100
AcDbDictionary
281
     1
  3
ACAD_GROUP
350
D
  3
ACAD_LAYOUT
350
1A
  3
ACAD_MATERIAL
350
3B
  3
ACAD_MLEADERSTYLE
350
64C
  3
ACAD_MLINESTYLE
350
17
  3
ACAD_PLOTSETTINGS
350
19
  3
ACAD_PLOTSTYLENAME
350
E
  3
ACAD_SCALELIST
350
66
  3
ACAD_TABLESTYLE
350
64B
  3
ACAD_VISUALSTYLE
350
2A
  3
AcDbVariableDictionary
350
649
  0
DICTIONARY
  5
D
102
{ACAD_REACTORS
330
C
102
}
330
C
100
AcDbDictionary
281
     1
  0
DICTIONARY
  5
1A
102
{ACAD_REACTORS
330
C
102
}
330
C
100
AcDbDictionary
281
     1
  3
Layout1
350
1E
  3
Layout2
350
26
  3
Model
350
22
  0
DICTIONARY
  5
3B
102
{ACAD_REACTORS
330
C
102
}
330
C
100
AcDbDictionary
281
     1
  3
ByBlock
350
3D
  3
ByLayer
350
3C
  3
Global
350
3E
  0
DICTIONARY
  5
64C
102
{ACAD_REACTORS
330
C
102
}
330
C
100
AcDbDictionary
281
     1
  0
DICTIONARY
  5
17
102
{ACAD_REACTORS
330
C
102
}
330
C
100
AcDbDictionary
281
     1
  3
Standard
350
18
  0
DICTIONARY
  5
19
102
{ACAD_REACTORS
330
C
102
}
330
C
100
AcDbDictionary
281
     1
  0
ACDBDICTIONARYWDFLT
  5
E
102
{ACAD_REACTORS
330
C
102
}
330
C
100
AcDbDictionary
281
     1
  3
Normal
350
F
100
AcDbDictionaryWithDefault
340
F
  0
DICTIONARY
  5
66
102
{ACAD_REACTORS
330
C
102
}
330
C
100
AcDbDictionary
281
     1
  3
A0
350
67
  3
A1
350
68
  3
A2
350
69
  3
A3
350
6A
  3
A4
350
6B
  3
A5
350
6C
  3
A6
350
6D
  3
A7
350
6E
  3
A8
350
6F
  3
A9
350
70
  3
B0
350
71
  3
B1
350
72
  3
B2
350
73
  3
B3
350
74
  3
B4
350
75
  3
B5
350
76
  3
B6
350
77
  3
B7
350
78
  3
B8
350
79
  3
B9
350
7A
  3
C0
350
7B
  3
C1
350
7C
  3
C2
350
7D
  3
C3
350
7E
  3
C4
350
7F
  3
C5
350
80
  3
C6
350
81
  3
C7
350
82
  3
C8
350
83
  3
C9
350
84
  3
D0
350
85
  3
D1
350
86
  3
D2
350
87
  0
DICTIONARY
  5
64B
102
{ACAD_REACTORS
330
C
102
}
330
C
100
AcDbDictionary
281
     1
  0
DICTIONARY
  5
2A
102
{ACAD_REACTORS
330
C
102
}
330
C
100
AcDbDictionary
281
     1
  3
2dWireframe
350
2F
  3
3D Hidden
350
31
  3
3dWireframe
350
30
  3
Basic
350
32
  3
Brighten
350
36
  3
ColorChange
350
3A
  3
Conceptual
350
34
  3
Dim
350
35
  3
Facepattern
350
39
  3
Flat
350
2B
  3
FlatWithEdges
350
2C
  3
Gouraud
350
2D
  3
GouraudWithEdges
350
2E
  3
Linepattern
350
38
  3
Realistic
350
33
  3
Thicken
350
37
  0
DICTIONARY
  5
649
102
{ACAD_REACTORS
330
C
102
}
330
C
100
AcDbDictionary
281
     1
  3
CANNOSCALE
350
64A
  0
LAYOUT
  5
1E
102
{ACAD_REACTORS
330
1A
102
}
330
1A
100
AcDbPlotSettings
  1

  2
none_device
  4

  6

 40
0.0
 41
0.0
 42
0.0
 43
0.0
 44
0.0
 45
0.0
 46
0.0
 47
0.0
 48
0.0
 49
0.0
140
0.0
141
0.0
142
1.0
143
1.0
 70
   688
 72
     0
 73
     0
 74
     5
  7

 75
    16
 76
     0
 77
     2
 78
   300
147
1.0
148
0.0
149
0.0
100
AcDbLayout
  1
Layout1
 70
     1
 71
     1
 10
0.0
 20
0.0
 11
420.0
 21
297.0
 12
0.0
 22
0.0
 32
0.0
 14
1.000000E+20
 24
1.000000E+20
 34
1.000000E+20
 15
-1.000000E+20
 25
-1.000000E+20
 35
-1.000000E+20
146
0.0
 13
0.0
 23
0.0
 33
0.0
 16
1.0
 26
0.0
 36
0.0
 17
0.0
 27
1.0
 37
0.0
 76
     0
330
1B
  0
LAYOUT
  5
26
102
{ACAD_REACTORS
330
1A
102
}
330
1A
100
AcDbPlotSettings
  1

  2
none_device
  4

  6

 40
0.0
 41
0.0
 42
0.0
 43
0.0
 44
0.0
 45
0.0
 46
0.0
 47
0.0
 48
0.0
 49
0.0
140
0.0
141
0.0
142
1.0
143
1.0
 70
   688
 72
     0
 73
     0
 74
     5
  7

 75
    16
 76
     0
 77
     2
 78
   300
147
1.0
148
0.0
149
0.0
100
AcDbLayout
  1
Layout2
 70
     1
 71
     2
 10
0.0
 20
0.0
 11
0.0
 21
0.0
 12
0.0
 22
0.0
 32
0.0
 14
0.0
 24
0.0
 34
0.0
 15
0.0
 25
0.0
 35
0.0
146
0.0
 13
0.0
 23
0.0
 33
0.0
 16
1.0
 26
0.0
 36
0.0
 17
0.0
 27
1.0
 37
0.0
 76
     0
330
23
  0
LAYOUT
  5
22
102
{ACAD_REACTORS
330
1A
102
}
330
1A
100
AcDbPlotSettings
  1

  2
none_device
  4

  6

 40
0.0
 41
0.0
 42
0.0
 43
0.0
 44
0.0
 45
0.0
 46
0.0
 47
0.0
 48
0.0
 49
0.0
140
0.0
141
0.0
142
1.0
143
1.0
 70
  1712
 72
     0
 73
     0
 74
     0
  7

 75
     0
 76
     0
 77
     2
 78
   300
147
1.0
148
0.0
149
0.0
100
AcDbLayout
  1
Model
 70
     1
 71
     0
 10
0.0
 20
0.0
 11
420.0
 21
297.0
 12
0.0
 22
0.0
 32
0.0
 14
1.000000E+20
 24
1.000000E+20
 34
1.000000E+20
 15
-1.000000E+20
 25
-1.000000E+20
 35
-1.000000E+20
146
0.0
 13
0.0
 23
0.0
 33
0.0
 16
1.0
 26
0.0
 36
0.0
 17
0.0
 27
1.0
 37
0.0
 76
     0
330
1F
331
29
  0
MATERIAL
  5
3D
102
{ACAD_REACTORS
330
3B
102
}
330
3B
100
AcDbMaterial
  1
ByBlock
 72
     1
 94
      127
  0
MATERIAL
  5
3C
102
{ACAD_REACTORS
330
3B
102
}
330
3B
100
AcDbMaterial
  1
ByLayer
 72
     1
 94
      127
  0
MATERIAL
  5
3E
102
{ACAD_REACTORS
330
3B
102
}
330
3B
100
AcDbMaterial
  1
Global
 72
     1
 94
      127
  0
MLINESTYLE
  5
18
102
{ACAD_REACTORS
330
17
102
}
330
17
100
AcDbMlineStyle
  2
Standard
 70
     0
  3

 62
   256
 51
90.0
 52
90.0
 71
     2
 49
0.5
 62
   256
  6
BYLAYER
 49
-0.5
 62
   256
  6
BYLAYER
  0
ACDBPLACEHOLDER
  5
F
102
{ACAD_REACTORS
330
E
102
}
330
E
  0
SCALE
  5
67
102
{ACAD_REACTORS
330
66
102
}
330
66
100
AcDbScale
 70
     0
300
1:1
140
1.0
141
1.0
290
     1
  0
SCALE
  5
68
102
{ACAD_REACTORS
330
66
102
}
330
66
100
AcDbScale
 70
     0
300
1:2
140
1.0
141
2.0
290
     0
  0
SCALE
  5
69
102
{ACAD_REACTORS
330
66
102
}
330
66
100
AcDbScale
 70
     0
300
1:4
140
1.0
141
4.0
290
     0
  0
SCALE
  5
6A
102
{ACAD_REACTORS
330
66
102
}
330
66
100
AcDbScale
 70
     0
300
1:5
140
1.0
141
5.0
290
     0
  0
SCALE
  5
6B
102
{ACAD_REACTORS
330
66
102
}
330
66
100
AcDbScale
 70
     0
300
1:8
140
1.0
141
8.0
290
     0
  0
SCALE
  5
6C
102
{ACAD_REACTORS
330
66
102
}
330
66
100
AcDbScale
 70
     0
300
1:10
140
1.0
141
10.0
290
     0
  0
SCALE
  5
6D
102
{ACAD_REACTORS
330
66
102
}
330
66
100
AcDbScale
 70
     0
300
1:16
140
1.0
141
16.0
290
     0
  0
SCALE
  5
6E
102
{ACAD_REACTORS
330
66
102
}
330
66
100
AcDbScale
 70
     0
300
1:20
140
1.0
141
20.0
290
     0
  0
SCALE
  5
6F
102
{ACAD_REACTORS
330
66
102
}
330
66
100
AcDbScale
 70
     0
300
1:30
140
1.0
141
30.0
290
     0
  0
SCALE
  5
70
102
{ACAD_REACTORS
330
66
102
}
330
66
100
AcDbScale
 70
     0
300
1:40
140
1.0
141
40.0
290
     0
  0
SCALE
  5
71
102
{ACAD_REACTORS
330
66
102
}
330
66
100
AcDbScale
 70
     0
300
1:50
140
1.0
141
50.0
290
     0
  0
SCALE
  5
72
102
{ACAD_REACTORS
330
66
102
}
330
66
100
AcDbScale
 70
     0
300
1:100
140
1.0
141
100.0
290
     0
  0
SCALE
  5
73
102
{ACAD_REACTORS
330
66
102
}
330
66
100
AcDbScale
 70
     0
300
2:1
140
2.0
141
1.0
290
     0
  0
SCALE
  5
74
102
{ACAD_REACTORS
330
66
102
}
330
66
100
AcDbScale
 70
     0
300
4:1
140
4.0
141
1.0
290
     0
  0
SCALE
  5
75
102
{ACAD_REACTORS
330
66
102
}
330
66
100
AcDbScale
 70
     0
300
8:1
140
8.0
141
1.0
290
     0
  0
SCALE
  5
76
102
{ACAD_REACTORS
330
66
102
}
330
66
100
AcDbScale
 70
     0
300
10:1
140
10.0
141
1.0
290
     0
  0
SCALE
  5
77
102
{ACAD_REACTORS
330
66
102
}
330
66
100
AcDbScale
 70
     0
300
100:1
140
100.0
141
1.0
290
     0
  0
SCALE
  5
78
102
{ACAD_REACTORS
330
66
102
}
330
66
100
AcDbScale
 70
     0
300
1/128" = 1'-0"
140
0.007812
141
12.0
290
     0
  0
SCALE
  5
79
102
{ACAD_REACTORS
330
66
102
}
330
66
100
AcDbScale
 70
     0
300
1/64" = 1'-0"
140
0.015625
141
12.0
290
     0
  0
SCALE
  5
7A
102
{ACAD_REACTORS
330
66
102
}
330
66
100
AcDbScale
 70
     0
300
1/32" = 1'-0"
140
0.03125
141
12.0
290
     0
  0
SCALE
  5
7B
102
{ACAD_REACTORS
330
66
102
}
330
66
100
AcDbScale
 70
     0
300
1/16" = 1'-0"
140
0.0625
141
12.0
290
     0
  0
SCALE
  5
7C
102
{ACAD_REACTORS
330
66
102
}
330
66
100
AcDbScale
 70
     0
300
3/32" = 1'-0"
140
0.09375
141
12.0
290
     0
  0
SCALE
  5
7D
102
{ACAD_REACTORS
330
66
102
}
330
66
100
AcDbScale
 70
     0
300
1/8" = 1'-0"
140
0.125
141
12.0
290
     0
  0
SCALE
  5
7E
102
{ACAD_REACTORS
330
66
102
}
330
66
100
AcDbScale
 70
     0
300
3/16" = 1'-0"
140
0.1875
141
12.0
290
     0
  0
SCALE
  5
7F
102
{ACAD_REACTORS
330
66
102
}
330
66
100
AcDbScale
 70
     0
300
1/4" = 1'-0"
140
0.25
141
12.0
290
     0
  0
SCALE
  5
80
102
{ACAD_REACTORS
330
66
102
}
330
66
100
AcDbScale
 70
     0
300
3/8" = 1'-0"
140
0.375
141
12.0
290
     0
  0
SCALE
  5
81
102
{ACAD_REACTORS
330
66
102
}
330
66
100
AcDbScale
 70
     0
300
1/2" = 1'-0"
140
0.5
141
12.0
290
     0
  0
SCALE
  5
82
102
{ACAD_REACTORS
330
66
102
}
330
66
100
AcDbScale
 70
     0
300
3/4" = 1'-0"
140
0.75
141
12.0
290
     0
  0
SCALE
  5
83
102
{ACAD_REACTORS
330
66
102
}
330
66
100
AcDbScale
 70
     0
300
1" = 1'-0"
140
1.0
141
12.0
290
     0
  0
SCALE
  5
84
102
{ACAD_REACTORS
330
66
102
}
330
66
100
AcDbScale
 70
     0
300
1-1/2" = 1'-0"
140
1.5
141
12.0
290
     0
  0
SCALE
  5
85
102
{ACAD_REACTORS
330
66
102
}
330
66
100
AcDbScale
 70
     0
300
3" = 1'-0"
140
3.0
141
12.0
290
     0
  0
SCALE
  5
86
102
{ACAD_REACTORS
330
66
102
}
330
66
100
AcDbScale
 70
     0
300
6" = 1'-0"
140
6.0
141
12.0
290
     0
  0
SCALE
  5
87
102
{ACAD_REACTORS
330
66
102
}
330
66
100
AcDbScale
 70
     0
300
1'-0" = 1'-0"
140
12.0
141
12.0
290
     0
  0
VISUALSTYLE
  5
2F
102
{ACAD_REACTORS
330
2A
102
}
330
2A
100
AcDbVisualStyle
  2
2dWireframe
 70
     4
177
     2
291
     0
 71
     0
176
     1
 72
     2
176
     1
 73
     0
176
     1
 90
        0
176
     1
 40
-0.6
176
     1
 41
-30.0
176
     1
 62
     5
 63
     7
421
 16777215
176
     1
 74
     1
176
     1
 91
        4
176
     1
 64
     7
176
     1
 65
   257
176
     1
 75
     1
176
     1
175
     1
176
     1
 42
1.0
176
     1
 92
        0
176
     1
 66
   257
176
     1
 43
1.0
176
     1
 76
     1
176
     1
 77
     6
176
     1
 78
     2
176
     1
 67
     7
176
     1
 79
     5
176
     1
170
     0
176
     1
171
     0
176
     1
290
     0
176
     1
 93
        1
176
     1
 44
0.0
176
     1
173
     0
176
     1
  0
VISUALSTYLE
  5
31
102
{ACAD_REACTORS
330
2A
102
}
330
2A
100
AcDbVisualStyle
  2
3D Hidden
 70
     6
177
     2
291
     0
 71
     1
176
     1
 72
     2
176
     1
 73
     2
176
     1
 90
        0
176
     1
 40
-0.6
176
     1
 41
-30.0
176
     1
 62
     5
 63
     7
421
 16777215
176
     1
 74
     2
176
     1
 91
        2
176
     1
 64
     7
176
     1
 65
   257
176
     1
 75
     2
176
     1
175
     1
176
     1
 42
40.0
176
     1
 92
        0
176
     1
 66
   257
176
     1
 43
1.0
176
     1
 76
     1
176
     1
 77
     6
176
     1
 78
     2
176
     1
 67
     7
176
     1
 79
     3
176
     1
170
     0
176
     1
171
     0
176
     1
290
     0
176
     1
 93
        1
176
     1
 44
0.0
176
     1
173
     0
176
     1
  0
VISUALSTYLE
  5
30
102
{ACAD_REACTORS
330
2A
102
}
330
2A
100
AcDbVisualStyle
  2
3dWireframe
 70
     5
177
     2
291
     0
 71
     0
176
     1
 72
     2
176
     1
 73
     0
176
     1
 90
        0
176
     1
 40
-0.6
176
     1
 41
-30.0
176
     1
 62
     5
 63
     7
421
 16777215
176
     1
 74
     1
176
     1
 91
        4
176
     1
 64
     7
176
     1
 65
   257
176
     1
 75
     1
176
     1
175
     1
176
     1
 42
1.0
176
     1
 92
        0
176
     1
 66
   257
176
     1
 43
1.0
176
     1
 76
     1
176
     1
 77
     6
176
     1
 78
     2
176
     1
 67
     7
176
     1
 79
     5
176
     1
170
     0
176
     1
171
     0
176
     1
290
     0
176
     1
 93
        1
176
     1
 44
0.0
176
     1
173
     0
176
     1
  0
VISUALSTYLE
  5
32
102
{ACAD_REACTORS
330
2A
102
}
330
2A
100
AcDbVisualStyle
  2
Basic
 70
     7
177
     2
291
     1
 71
     1
176
     1
 72
     0
176
     1
 73
     1
176
     1
 90
        0
176
     1
 40
-0.6
176
     1
 41
-30.0
176
     1
 62
     5
 63
     7
421
 16777215
176
     1
 74
     0
176
     1
 91
        4
176
     1
 64
     7
176
     1
 65
   257
176
     1
 75
     1
176
     1
175
     1
176
     1
 42
1.0
176
     1
 92
        8
176
     1
 66
     7
176
     1
 43
1.0
176
     1
 76
     1
176
     1
 77
     6
176
     1
 78
     2
176
     1
 67
     7
176
     1
 79
     5
176
     1
170
     0
176
     1
171
     0
176
     1
290
     0
176
     1
 93
        1
176
     1
 44
0.0
176
     1
173
     0
176
     1
  0
VISUALSTYLE
  5
36
102
{ACAD_REACTORS
330
2A
102
}
330
2A
100
AcDbVisualStyle
  2
Brighten
 70
    12
177
     2
291
     1
 71
     2
176
     1
 72
     2
176
     1
 73
     0
176
     1
 90
        0
176
     1
 40
-0.6
176
     1
 41
-30.0
176
     1
 62
     5
 63
     7
421
 16777215
176
     1
 74
     1
176
     1
 91
        4
176
     1
 64
     7
176
     1
 65
   257
176
     1
 75
     1
176
     1
175
     1
176
     1
 42
1.0
176
     1
 92
        8
176
     1
 66
     7
176
     1
 43
1.0
176
     1
 76
     1
176
     1
 77
     6
176
     1
 78
     2
176
     1
 67
     7
176
     1
 79
     5
176
     1
170
     0
176
     1
171
     0
176
     1
290
     0
176
     1
 93
        1
176
     1
 44
50.0
176
     1
173
     0
176
     1
  0
VISUALSTYLE
  5
3A
102
{ACAD_REACTORS
330
2A
102
}
330
2A
100
AcDbVisualStyle
  2
ColorChange
 70
    16
177
     2
291
     1
 71
     2
176
     1
 72
     2
176
     1
 73
     3
176
     1
 90
        0
176
     1
 40
-0.6
176
     1
 41
-30.0
176
     1
 62
     5
 63
     8
421
  8421504
176
     1
 74
     1
176
     1
 91
        4
176
     1
 64
     7
176
     1
 65
   257
176
     1
 75
     1
176
     1
175
     1
176
     1
 42
1.0
176
     1
 92
        8
176
     1
 66
     8
424
  8421504
176
     1
 43
1.0
176
     1
 76
     1
176
     1
 77
     6
176
     1
 78
     2
176
     1
 67
     7
176
     1
 79
     5
176
     1
170
     0
176
     1
171
     0
176
     1
290
     0
176
     1
 93
        1
176
     1
 44
0.0
176
     1
173
     0
176
     1
  0
VISUALSTYLE
  5
34
102
{ACAD_REACTORS
330
2A
102
}
330
2A
100
AcDbVisualStyle
  2
Conceptual
 70
     9
177
     2
291
     0
 71
     3
176
     1
 72
     2
176
     1
 73
     0
176
     1
 90
        0
176
     1
 40
-0.6
176
     1
 41
-30.0
176
     1
 62
     5
 63
     7
421
 16777215
176
     1
 74
     2
176
     1
 91
        2
176
     1
 64
     7
176
     1
 65
   257
176
     1
 75
     1
176
     1
175
     1
176
     1
 42
40.0
176
     1
 92
        8
176
     1
 66
     7
176
     1
 43
1.0
176
     1
 76
     1
176
     1
 77
     6
176
     1
 78
     2
176
     1
 67
     7
176
     1
 79
     3
176
     1
170
     0
176
     1
171
     0
176
     1
290
     0
176
     1
 93
        1
176
     1
 44
0.0
176
     1
173
     0
176
     1
  0
VISUALSTYLE
  5
35
102
{ACAD_REACTORS
330
2A
102
}
330
2A
100
AcDbVisualStyle
  2
Dim
 70
    11
177
     2
291
     1
 71
     2
176
     1
 72
     2
176
     1
 73
     0
176
     1
 90
        0
176
     1
 40
-0.6
176
     1
 41
-30.0
176
     1
 62
     5
 63
     7
421
 16777215
176
     1
 74
     1
176
     1
 91
        4
176
     1
 64
     7
176
     1
 65
   257
176
     1
 75
     1
176
     1
175
     1
176
     1
 42
1.0
176
     1
 92
        8
176
     1
 66
     7
176
     1
 43
1.0
176
     1
 76
     1
176
     1
 77
     6
176
     1
 78
     2
176
     1
 67
     7
176
     1
 79
     5
176
     1
170
     0
176
     1
171
     0
176
     1
290
     0
176
     1
 93
        1
176
     1
 44
-50.0
176
     1
173
     0
176
     1
  0
VISUALSTYLE
  5
39
102
{ACAD_REACTORS
330
2A
102
}
330
2A
100
AcDbVisualStyle
  2
Facepattern
 70
    15
177
     2
291
     1
 71
     2
176
     1
 72
     2
176
     1
 73
     0
176
     1
 90
        0
176
     1
 40
-0.6
176
     1
 41
-30.0
176
     1
 62
     5
 63
     7
421
 16777215
176
     1
 74
     1
176
     1
 91
        4
176
     1
 64
     7
176
     1
 65
   257
176
     1
 75
     1
176
     1
175
     1
176
     1
 42
1.0
176
     1
 92
        8
176
     1
 66
     7
176
     1
 43
1.0
176
     1
 76
     1
176
     1
 77
     6
176
     1
 78
     2
176
     1
 67
     7
176
     1
 79
     5
176
     1
170
     0
176
     1
171
     0
176
     1
290
     0
176
     1
 93
        1
176
     1
 44
0.0
176
     1
173
     0
176
     1
  0
VISUALSTYLE
  5
2B
102
{ACAD_REACTORS
330
2A
102
}
330
2A
100
AcDbVisualStyle
  2
Flat
 70
     0
177
     2
291
     1
 71
     2
176
     1
 72
     1
176
     1
 73
     1
176
     1
 90
        2
176
     1
 40
-0.6
176
     1
 41
30.0
176
     1
 62
     5
 63
     7
421
 16777215
176
     1
 74
     0
176
     1
 91
        4
176
     1
 64
     7
176
     1
 65
   257
176
     1
 75
     1
176
     1
175
     1
176
     1
 42
1.0
176
     1
 92
        8
176
     1
 66
     7
176
     1
 43
1.0
176
     1
 76
     1
176
     1
 77
     6
176
     1
 78
     2
176
     1
 67
     7
176
     1
 79
     5
176
     1
170
     0
176
     1
171
     0
176
     1
290
     0
176
     1
 93
       13
176
     1
 44
0.0
176
     1
173
     0
176
     1
  0
VISUALSTYLE
  5
2C
102
{ACAD_REACTORS
330
2A
102
}
330
2A
100
AcDbVisualStyle
  2
FlatWithEdges
 70
     1
177
     2
291
     1
 71
     2
176
     1
 72
     1
176
     1
 73
     1
176
     1
 90
        2
176
     1
 40
-0.6
176
     1
 41
30.0
176
     1
 62
     5
 63
     7
421
 16777215
176
     1
 74
     1
176
     1
 91
        4
176
     1
 64
     7
176
     1
 65
   257
176
     1
 75
     1
176
     1
175
     1
176
     1
 42
1.0
176
     1
 92
        0
176
     1
 66
   257
176
     1
 43
1.0
176
     1
 76
     1
176
     1
 77
     6
176
     1
 78
     2
176
     1
 67
     7
176
     1
 79
     5
176
     1
170
     0
176
     1
171
     0
176
     1
290
     0
176
     1
 93
       13
176
     1
 44
0.0
176
     1
173
     0
176
     1
  0
VISUALSTYLE
  5
2D
102
{ACAD_REACTORS
330
2A
102
}
330
2A
100
AcDbVisualStyle
  2
Gouraud
 70
     2
177
     2
291
     1
 71
     2
176
     1
 72
     2
176
     1
 73
     1
176
     1
 90
        2
176
     1
 40
-0.6
176
     1
 41
30.0
176
     1
 62
     5
 63
     7
421
 16777215
176
     1
 74
     0
176
     1
 91
        4
176
     1
 64
     7
176
     1
 65
   257
176
     1
 75
     1
176
     1
175
     1
176
     1
 42
1.0
176
     1
 92
        0
176
     1
 66
     7
176
     1
 43
1.0
176
     1
 76
     1
176
     1
 77
     6
176
     1
 78
     2
176
     1
 67
     7
176
     1
 79
     5
176
     1
170
     0
176
     1
171
     0
176
     1
290
     0
176
     1
 93
       13
176
     1
 44
0.0
176
     1
173
     0
176
     1
  0
VISUALSTYLE
  5
2E
102
{ACAD_REACTORS
330
2A
102
}
330
2A
100
AcDbVisualStyle
  2
GouraudWithEdges
 70
     3
177
     2
291
     1
 71
     2
176
     1
 72
     2
176
     1
 73
     1
176
     1
 90
        2
176
     1
 40
-0.6
176
     1
 41
30.0
176
     1
 62
     5
 63
     7
421
 16777215
176
     1
 74
     1
176
     1
 91
        4
176
     1
 64
     7
176
     1
 65
   257
176
     1
 75
     1
176
     1
175
     1
176
     1
 42
1.0
176
     1
 92
        0
176
     1
 66
   257
176
     1
 43
1.0
176
     1
 76
     1
176
     1
 77
     6
176
     1
 78
     2
176
     1
 67
     7
176
     1
 79
     5
176
     1
170
     0
176
     1
171
     0
176
     1
290
     0
176
     1
 93
       13
176
     1
 44
0.0
176
     1
173
     0
176
     1
  0
VISUALSTYLE
  5
38
102
{ACAD_REACTORS
330
2A
102
}
330
2A
100
AcDbVisualStyle
  2
Linepattern
 70
    14
177
     2
291
     1
 71
     2
176
     1
 72
     2
176
     1
 73
     0
176
     1
 90
        0
176
     1
 40
-0.6
176
     1
 41
-30.0
176
     1
 62
     5
 63
     7
421
 16777215
176
     1
 74
     1
176
     1
 91
        4
176
     1
 64
     7
176
     1
 65
   257
176
     1
 75
     7
176
     1
175
     7
176
     1
 42
1.0
176
     1
 92
        8
176
     1
 66
     7
176
     1
 43
1.0
176
     1
 76
     1
176
     1
 77
     6
176
     1
 78
     2
176
     1
 67
     7
176
     1
 79
     5
176
     1
170
     0
176
     1
171
     0
176
     1
290
     0
176
     1
 93
        1
176
     1
 44
0.0
176
     1
173
     0
176
     1
  0
VISUALSTYLE
  5
33
102
{ACAD_REACTORS
330
2A
102
}
330
2A
100
AcDbVisualStyle
  2
Realistic
 70
     8
177
     2
291
     0
 71
     2
176
     1
 72
     2
176
     1
 73
     0
176
     1
 90
        0
176
     1
 40
-0.6
176
     1
 41
-30.0
176
     1
 62
     5
 63
     7
421
 16777215
176
     1
 74
     1
176
     1
 91
        0
176
     1
 64
     7
176
     1
 65
   257
176
     1
 75
     1
176
     1
175
     1
176
     1
 42
1.0
176
     1
 92
        8
176
     1
 66
     8
424
  7895160
176
     1
 43
1.0
176
     1
 76
     1
176
     1
 77
     6
176
     1
 78
     2
176
     1
 67
     7
176
     1
 79
     5
176
     1
170
     0
176
     1
171
     0
176
     1
290
     0
176
     1
 93
       13
176
     1
 44
0.0
176
     1
173
     0
176
     1
  0
VISUALSTYLE
  5
37
102
{ACAD_REACTORS
330
2A
102
}
330
2A
100
AcDbVisualStyle
  2
Thicken
 70
    13
177
     2
291
     1
 71
     2
176
     1
 72
     2
176
     1
 73
     0
176
     1
 90
        0
176
     1
 40
-0.6
176
     1
 41
-30.0
176
     1
 62
     5
 63
     7
421
 16777215
176
     1
 74
     1
176
     1
 91
        4
176
     1
 64
     7
176
     1
 65
   257
176
     1
 75
     1
176
     1
175
     1
176
     1
 42
1.0
176
     1
 92
       12
176
     1
 66
     7
176
     1
 43
1.0
176
     1
 76
     1
176
     1
 77
     6
176
     1
 78
     2
176
     1
 67
     7
176
     1
 79
     5
176
     1
170
     0
176
     1
171
     0
176
     1
290
     0
176
     1
 93
        1
176
     1
 44
0.0
176
     1
173
     0
176
     1
  0
DICTIONARYVAR
  5
64A
102
{ACAD_REACTORS
330
649
102
}
330
649
100
DictionaryVariables
280
     0
  1
1:1
  0
ENDSEC
  0
EOF
