  0
SECTION
  2
HEADER
  9
$ACADVER
  1
AC1015
  9
$ACADMAINTVER
 70
    20
  9
$DWGCODEPAGE
  3
ANSI_936
  9
$INSBASE
 10
0.0
 20
0.0
 30
0.0
  9
$EXTMIN
 10
351.2864542624082
 20
192.9667718132505
 30
0.0
  9
$EXTMAX
 10
991.818746524574
 20
1097.868644120208
 30
0.0
  9
$LIMMIN
 10
0.0
 20
0.0
  9
$LIMMAX
 10
420.0
 20
297.0
  9
$ORTHOMODE
 70
     0
  9
$REGENMODE
 70
     1
  9
$FILLMODE
 70
     1
  9
$QTEXTMODE
 70
     0
  9
$MIRRTEXT
 70
     0
  9
$LTSCALE
 40
1.0
  9
$ATTMODE
 70
     1
  9
$TEXTSIZE
 40
2.5
  9
$TRACEWID
 40
1.0
  9
$TEXTSTYLE
  7
Standard
  9
$CLAYER
  8
标注
  9
$CELTYPE
  6
ByLayer
  9
$CECOLOR
 62
   256
  9
$CELTSCALE
 40
1.0
  9
$DISPSILH
 70
     0
  9
$DIMSCALE
 40
1.0
  9
$DIMASZ
 40
2.5
  9
$DIMEXO
 40
0.625
  9
$DIMDLI
 40
3.75
  9
$DIMRND
 40
0.0
  9
$DIMDLE
 40
0.0
  9
$DIMEXE
 40
1.25
  9
$DIMTP
 40
0.0
  9
$DIMTM
 40
0.0
  9
$DIMTXT
 40
2.5
  9
$DIMCEN
 40
2.5
  9
$DIMTSZ
 40
0.0
  9
$DIMTOL
 70
     0
  9
$DIMLIM
 70
     0
  9
$DIMTIH
 70
     0
  9
$DIMTOH
 70
     0
  9
$DIMSE1
 70
     0
  9
$DIMSE2
 70
     0
  9
$DIMTAD
 70
     1
  9
$DIMZIN
 70
     8
  9
$DIMBLK
  1

  9
$DIMASO
 70
     1
  9
$DIMSHO
 70
     1
  9
$DIMPOST
  1

  9
$DIMAPOST
  1

  9
$DIMALT
 70
     0
  9
$DIMALTD
 70
     3
  9
$DIMALTF
 40
0.03937007874016
  9
$DIMLFAC
 40
1.0
  9
$DIMTOFL
 70
     1
  9
$DIMTVP
 40
0.0
  9
$DIMTIX
 70
     0
  9
$DIMSOXD
 70
     0
  9
$DIMSAH
 70
     0
  9
$DIMBLK1
  1

  9
$DIMBLK2
  1

  9
$DIMSTYLE
  2
ISO-25
  9
$DIMCLRD
 70
     0
  9
$DIMCLRE
 70
     0
  9
$DIMCLRT
 70
     0
  9
$DIMTFAC
 40
1.0
  9
$DIMGAP
 40
0.625
  9
$DIMJUST
 70
     0
  9
$DIMSD1
 70
     0
  9
$DIMSD2
 70
     0
  9
$DIMTOLJ
 70
     0
  9
$DIMTZIN
 70
     8
  9
$DIMALTZ
 70
     0
  9
$DIMALTTZ
 70
     0
  9
$DIMUPT
 70
     0
  9
$DIMDEC
 70
     2
  9
$DIMTDEC
 70
     2
  9
$DIMALTU
 70
     2
  9
$DIMALTTD
 70
     3
  9
$DIMTXSTY
  7
Standard
  9
$DIMAUNIT
 70
     0
  9
$DIMADEC
 70
     0
  9
$DIMALTRND
 40
0.0
  9
$DIMAZIN
 70
     0
  9
$DIMDSEP
 70
    44
  9
$DIMATFIT
 70
     3
  9
$DIMFRAC
 70
     0
  9
$DIMLDRBLK
  1

  9
$DIMLUNIT
 70
     2
  9
$DIMLWD
 70
    -2
  9
$DIMLWE
 70
    -2
  9
$DIMTMOVE
 70
     0
  9
$LUNITS
 70
     2
  9
$LUPREC
 70
     4
  9
$SKETCHINC
 40
1.0
  9
$FILLETRAD
 40
0.0
  9
$AUNITS
 70
     0
  9
$AUPREC
 70
     0
  9
$MENU
  1
.
  9
$ELEVATION
 40
0.0
  9
$PELEVATION
 40
0.0
  9
$THICKNESS
 40
0.0
  9
$LIMCHECK
 70
     0
  9
$CHAMFERA
 40
0.0
  9
$CHAMFERB
 40
0.0
  9
$CHAMFERC
 40
0.0
  9
$CHAMFERD
 40
0.0
  9
$SKPOLY
 70
     0
  9
$TDCREATE
 40
2458468.689462570
  9
$TDUCREATE
 40
2458468.356129236
  9
$TDUPDATE
 40
2458710.646769097
  9
$TDUUPDATE
 40
2458710.313435764
  9
$TDINDWG
 40
0.2715761111
  9
$TDUSRTIMER
 40
0.2715760301
  9
$USRTIMER
 70
     1
  9
$ANGBASE
 50
0.0
  9
$ANGDIR
 70
     0
  9
$PDMODE
 70
     0
  9
$PDSIZE
 40
0.0
  9
$PLINEWID
 40
0.0
  9
$SPLFRAME
 70
     0
  9
$SPLINETYPE
 70
     6
  9
$SPLINESEGS
 70
     8
  9
$HANDSEED
  5
F40
  9
$SURFTAB1
 70
     6
  9
$SURFTAB2
 70
     6
  9
$SURFTYPE
 70
     6
  9
$SURFU
 70
     6
  9
$SURFV
 70
     6
  9
$UCSBASE
  2

  9
$UCSNAME
  2

  9
$UCSORG
 10
0.0
 20
0.0
 30
0.0
  9
$UCSXDIR
 10
1.0
 20
0.0
 30
0.0
  9
$UCSYDIR
 10
0.0
 20
1.0
 30
0.0
  9
$UCSORTHOREF
  2

  9
$UCSORTHOVIEW
 70
     0
  9
$UCSORGTOP
 10
0.0
 20
0.0
 30
0.0
  9
$UCSORGBOTTOM
 10
0.0
 20
0.0
 30
0.0
  9
$UCSORGLEFT
 10
0.0
 20
0.0
 30
0.0
  9
$UCSORGRIGHT
 10
0.0
 20
0.0
 30
0.0
  9
$UCSORGFRONT
 10
0.0
 20
0.0
 30
0.0
  9
$UCSORGBACK
 10
0.0
 20
0.0
 30
0.0
  9
$PUCSBASE
  2

  9
$PUCSNAME
  2

  9
$PUCSORG
 10
0.0
 20
0.0
 30
0.0
  9
$PUCSXDIR
 10
1.0
 20
0.0
 30
0.0
  9
$PUCSYDIR
 10
0.0
 20
1.0
 30
0.0
  9
$PUCSORTHOREF
  2

  9
$PUCSORTHOVIEW
 70
     0
  9
$PUCSORGTOP
 10
0.0
 20
0.0
 30
0.0
  9
$PUCSORGBOTTOM
 10
0.0
 20
0.0
 30
0.0
  9
$PUCSORGLEFT
 10
0.0
 20
0.0
 30
0.0
  9
$PUCSORGRIGHT
 10
0.0
 20
0.0
 30
0.0
  9
$PUCSORGFRONT
 10
0.0
 20
0.0
 30
0.0
  9
$PUCSORGBACK
 10
0.0
 20
0.0
 30
0.0
  9
$USERI1
 70
     0
  9
$USERI2
 70
     0
  9
$USERI3
 70
     0
  9
$USERI4
 70
     0
  9
$USERI5
 70
     0
  9
$USERR1
 40
0.0
  9
$USERR2
 40
0.0
  9
$USERR3
 40
0.0
  9
$USERR4
 40
0.0
  9
$USERR5
 40
0.0
  9
$WORLDVIEW
 70
     1
  9
$SHADEDGE
 70
     3
  9
$SHADEDIF
 70
    70
  9
$TILEMODE
 70
     1
  9
$MAXACTVP
 70
    64
  9
$PINSBASE
 10
0.0
 20
0.0
 30
0.0
  9
$PLIMCHECK
 70
     0
  9
$PEXTMIN
 10
0.0
 20
0.0
 30
0.0
  9
$PEXTMAX
 10
0.0
 20
0.0
 30
0.0
  9
$PLIMMIN
 10
0.0
 20
0.0
  9
$PLIMMAX
 10
12.0
 20
9.0
  9
$UNITMODE
 70
     0
  9
$VISRETAIN
 70
     1
  9
$PLINEGEN
 70
     0
  9
$PSLTSCALE
 70
     1
  9
$TREEDEPTH
 70
  3020
  9
$CMLSTYLE
  2
Standard
  9
$CMLJUST
 70
     0
  9
$CMLSCALE
 40
20.0
  9
$PROXYGRAPHICS
 70
     1
  9
$MEASUREMENT
 70
     1
  9
$CELWEIGHT
370
    -1
  9
$ENDCAPS
280
     0
  9
$JOINSTYLE
280
     0
  9
$LWDISPLAY
290
     0
  9
$INSUNITS
 70
     4
  9
$HYPERLINKBASE
  1

  9
$STYLESHEET
  1

  9
$XEDIT
290
     1
  9
$CEPSNTYPE
380
     0
  9
$PSTYLEMODE
290
     1
  9
$FINGERPRINTGUID
  2
{4130A7D9-F165-45DE-8646-EDBC420656B0}
  9
$VERSIONGUID
  2
{57FA991E-6FBB-430B-8407-5B5019426C30}
  9
$EXTNAMES
290
     1
  9
$PSVPSCALE
 40
0.0
  9
$OLESTARTUP
290
     0
  0
ENDSEC
  0
SECTION
  2
CLASSES
  0
CLASS
  1
ACDBDICTIONARYWDFLT
  2
AcDbDictionaryWithDefault
  3
ObjectDBX Classes
 90
        0
280
     0
281
     0
  0
CLASS
  1
DICTIONARYVAR
  2
AcDbDictionaryVar
  3
ObjectDBX Classes
 90
        0
280
     0
281
     0
  0
CLASS
  1
TABLESTYLE
  2
AcDbTableStyle
  3
ObjectDBX Classes
 90
     4095
280
     0
281
     0
  0
CLASS
  1
MATERIAL
  2
AcDbMaterial
  3
ObjectDBX Classes
 90
     1153
280
     0
281
     0
  0
CLASS
  1
VISUALSTYLE
  2
AcDbVisualStyle
  3
ObjectDBX Classes
 90
     4095
280
     0
281
     0
  0
CLASS
  1
SCALE
  2
AcDbScale
  3
ObjectDBX Classes
 90
     1153
280
     0
281
     0
  0
CLASS
  1
MLEADERSTYLE
  2
AcDbMLeaderStyle
  3
ACDB_MLEADERSTYLE_CLASS
 90
     4095
280
     0
281
     0
  0
CLASS
  1
CELLSTYLEMAP
  2
AcDbCellStyleMap
  3
ObjectDBX Classes
 90
     1152
280
     0
281
     0
  0
CLASS
  1
EXACXREFPANELOBJECT
  2
ExAcXREFPanelObject
  3
EXAC_ESW
 90
     1025
280
     0
281
     0
  0
CLASS
  1
NPOCOLLECTION
  2
AcDbImpNonPersistentObjectsCollection
  3
ObjectDBX Classes
 90
     1153
280
     0
281
     0
  0
CLASS
  1
LAYER_INDEX
  2
AcDbLayerIndex
  3
ObjectDBX Classes
 90
    32768
280
     0
281
     0
  0
CLASS
  1
SPATIAL_INDEX
  2
AcDbSpatialIndex
  3
ObjectDBX Classes
 90
    32768
280
     0
281
     0
  0
CLASS
  1
IDBUFFER
  2
AcDbIdBuffer
  3
ObjectDBX Classes
 90
    32768
280
     0
281
     0
  0
CLASS
  1
ACDBSECTIONVIEWSTYLE
  2
AcDbSectionViewStyle
  3
ObjectDBX Classes
 90
     1025
280
     0
281
     0
  0
CLASS
  1
ACDBDETAILVIEWSTYLE
  2
AcDbDetailViewStyle
  3
ObjectDBX Classes
 90
     1025
280
     0
281
     0
  0
CLASS
  1
DIMASSOC
  2
AcDbDimAssoc
  3
"AcDbDimAssoc|Product Desc:     AcDim ARX App For Dimension|Company:          Autodesk, Inc.|WEB Address:      www.autodesk.com"
 90
        0
280
     0
281
     0
  0
CLASS
  1
SORTENTSTABLE
  2
AcDbSortentsTable
  3
ObjectDBX Classes
 90
        0
280
     0
281
     0
  0
CLASS
  1
ACDBPLACEHOLDER
  2
AcDbPlaceHolder
  3
ObjectDBX Classes
 90
        0
280
     0
281
     0
  0
CLASS
  1
LAYOUT
  2
AcDbLayout
  3
ObjectDBX Classes
 90
        0
280
     0
281
     0
  0
ENDSEC
  0
SECTION
  2
TABLES
  0
TABLE
  2
VPORT
  5
8
330
0
100
AcDbSymbolTable
 70
     1
  0
VPORT
  5
EA
330
8
100
AcDbSymbolTableRecord
100
AcDbViewportTableRecord
  2
*Active
 70
     0
 10
0.0
 20
0.0
 11
1.0
 21
1.0
 12
1100.22524220613
 22
572.0315937862185
 13
0.0
 23
0.0
 14
10.0
 24
10.0
 15
10.0
 25
10.0
 16
0.0
 26
0.0
 36
1.0
 17
0.0
 27
0.0
 37
0.0
 40
1190.506204180947
 41
2.192129629629629
 42
50.0
 43
0.0
 44
0.0
 50
0.0
 51
0.0
 71
     0
 72
  1000
 73
     1
 74
     3
 75
     0
 76
     1
 77
     0
 78
     0
281
     0
 65
     1
110
0.0
120
0.0
130
0.0
111
1.0
121
0.0
131
0.0
112
0.0
122
1.0
132
0.0
 79
     0
146
0.0
1001
ACAD_NAV_VCDISPLAY
1070
     3
  0
ENDTAB
  0
TABLE
  2
LTYPE
  5
5
330
0
100
AcDbSymbolTable
 70
     2
  0
LTYPE
  5
14
330
5
100
AcDbSymbolTableRecord
100
AcDbLinetypeTableRecord
  2
ByBlock
 70
     0
  3

 72
    65
 73
     0
 40
0.0
  0
LTYPE
  5
15
330
5
100
AcDbSymbolTableRecord
100
AcDbLinetypeTableRecord
  2
ByLayer
 70
     0
  3

 72
    65
 73
     0
 40
0.0
  0
LTYPE
  5
16
330
5
100
AcDbSymbolTableRecord
100
AcDbLinetypeTableRecord
  2
Continuous
 70
     0
  3
Solid line
 72
    65
 73
     0
 40
0.0
  0
ENDTAB
  0
TABLE
  2
LAYER
  5
2
102
{ACAD_XDICTIONARY
360
1FF
102
}
330
0
100
AcDbSymbolTable
 70
     8
  0
LAYER
  5
10
102
{ACAD_XDICTIONARY
360
13C
102
}
330
2
100
AcDbSymbolTableRecord
100
AcDbLayerTableRecord
  2
0
 70
     0
 62
     7
  6
Continuous
370
    -3
390
F
  0
LAYER
  5
2AF
330
2
100
AcDbSymbolTableRecord
100
AcDbLayerTableRecord
  2
Defpoints
 70
     0
 62
     7
  6
Continuous
290
     0
370
    -3
390
F
  0
LAYER
  5
2B0
330
2
100
AcDbSymbolTableRecord
100
AcDbLayerTableRecord
  2
外框线1
 70
     0
 62
     3
  6
Continuous
370
    -3
390
F
1001
AcAecLayerStandard
1000

1000

  0
LAYER
  5
2B1
330
2
100
AcDbSymbolTableRecord
100
AcDbLayerTableRecord
  2
标注
 70
     0
 62
     1
  6
Continuous
370
     9
390
F
1001
AcAecLayerStandard
1000

1000

  0
LAYER
  5
2B2
330
2
100
AcDbSymbolTableRecord
100
AcDbLayerTableRecord
  2
注释
 70
     0
 62
     7
  6
Continuous
370
    15
390
F
1001
AcAecLayerStandard
1000

1000

  0
LAYER
  5
2B3
330
2
100
AcDbSymbolTableRecord
100
AcDbLayerTableRecord
  2
视口
 70
     0
 62
    17
  6
Continuous
290
     0
370
    -3
390
F
1001
AcAecLayerStandard
1000

1000

  0
LAYER
  5
45C
330
2
100
AcDbSymbolTableRecord
100
AcDbLayerTableRecord
  2
标注尺寸线
 70
     0
 62
     6
  6
Continuous
370
     0
390
F
  0
LAYER
  5
62A
102
{ACAD_XDICTIONARY
360
62B
102
}
330
2
100
AcDbSymbolTableRecord
100
AcDbLayerTableRecord
  2
Layer 1
 70
     0
 62
     7
  6
Continuous
370
    -3
390
F
  0
ENDTAB
  0
TABLE
  2
STYLE
  5
3
330
0
100
AcDbSymbolTable
 70
     4
  0
STYLE
  5
11
330
3
100
AcDbSymbolTableRecord
100
AcDbTextStyleTableRecord
  2
Standard
 70
     0
 40
0.0
 41
1.0
 50
0.0
 71
     0
 42
2.5
  3
arial.ttf
  4

1001
ACAD
1000
Arial
1071
       34
  0
STYLE
  5
132
330
3
100
AcDbSymbolTableRecord
100
AcDbTextStyleTableRecord
  2
Annotative
 70
     0
 40
0.0
 41
1.0
 50
0.0
 71
     0
 42
2.5
  3
arial.ttf
  4

1001
AcadAnnotative
1000
AnnotativeData
1002
{
1070
     1
1070
     1
1002
}
1001
ACAD
1000
Arial
1071
       34
  0
STYLE
  5
2B4
330
3
100
AcDbSymbolTableRecord
100
AcDbTextStyleTableRecord
  2
样式 1
 70
     0
 40
0.0
 41
1.0
 50
0.0
 71
     0
 42
3.0
  3

  4

1001
ACAD
1000
NSimSun
1071
    34353
  0
STYLE
  5
45D
330
3
100
AcDbSymbolTableRecord
100
AcDbTextStyleTableRecord
  2
新宋体
 70
     0
 40
0.0
 41
1.0
 50
0.0
 71
     0
 42
3.0
  3

  4

1001
ACAD
1000
NSimSun
1071
    34353
  0
ENDTAB
  0
TABLE
  2
VIEW
  5
6
330
0
100
AcDbSymbolTable
 70
     0
  0
ENDTAB
  0
TABLE
  2
UCS
  5
7
330
0
100
AcDbSymbolTable
 70
     0
  0
ENDTAB
  0
TABLE
  2
APPID
  5
9
330
0
100
AcDbSymbolTable
 70
    14
  0
APPID
  5
12
330
9
100
AcDbSymbolTableRecord
100
AcDbRegAppTableRecord
  2
ACAD
 70
     0
  0
APPID
  5
9E
330
9
100
AcDbSymbolTableRecord
100
AcDbRegAppTableRecord
  2
ACAD_PSEXT
 70
     0
  0
APPID
  5
133
330
9
100
AcDbSymbolTableRecord
100
AcDbRegAppTableRecord
  2
AcadAnnoPO
 70
     0
  0
APPID
  5
134
330
9
100
AcDbSymbolTableRecord
100
AcDbRegAppTableRecord
  2
AcadAnnotative
 70
     0
  0
APPID
  5
135
330
9
100
AcDbSymbolTableRecord
100
AcDbRegAppTableRecord
  2
ACAD_DSTYLE_DIMJAG
 70
     0
  0
APPID
  5
136
330
9
100
AcDbSymbolTableRecord
100
AcDbRegAppTableRecord
  2
ACAD_DSTYLE_DIMTALN
 70
     0
  0
APPID
  5
165
330
9
100
AcDbSymbolTableRecord
100
AcDbRegAppTableRecord
  2
ACAD_MLEADERVER
 70
     0
  0
APPID
  5
217
330
9
100
AcDbSymbolTableRecord
100
AcDbRegAppTableRecord
  2
ACAD_NAV_VCDISPLAY
 70
     0
  0
APPID
  5
2BA
330
9
100
AcDbSymbolTableRecord
100
AcDbRegAppTableRecord
  2
ACAD_DSTYLE_DIMBREAK
 70
     0
  0
APPID
  5
2BB
330
9
100
AcDbSymbolTableRecord
100
AcDbRegAppTableRecord
  2
AcAecLayerStandard
 70
     0
  0
APPID
  5
2BC
330
9
100
AcDbSymbolTableRecord
100
AcDbRegAppTableRecord
  2
ACAD_DSTYLE_DIMRADIAL_EXTENSION
 70
     0
  0
APPID
  5
3F3
330
9
100
AcDbSymbolTableRecord
100
AcDbRegAppTableRecord
  2
ACAD_EXEMPT_FROM_CAD_STANDARDS
 70
     0
  0
APPID
  5
463
330
9
100
AcDbSymbolTableRecord
100
AcDbRegAppTableRecord
  2
ACAD_DSTYLE_DIMJOGGED_JOGANGLE_SYMBOL
 70
     0
  0
APPID
  5
621
330
9
100
AcDbSymbolTableRecord
100
AcDbRegAppTableRecord
  2
ACAD_DSTYLE_DIMEXT_LENGTH
 70
     0
  0
ENDTAB
  0
TABLE
  2
DIMSTYLE
  5
A
330
0
100
AcDbSymbolTable
 70
    13
100
AcDbDimStyleTable
 71
     3
340
2B8
340
27
340
137
  0
DIMSTYLE
105
1B0
330
A
100
AcDbSymbolTableRecord
100
AcDbDimStyleTableRecord
  2
Standard
 70
     0
340
11
  0
DIMSTYLE
105
137
330
A
100
AcDbSymbolTableRecord
100
AcDbDimStyleTableRecord
  2
Annotative
 70
     0
 40
0.0
 41
2.5
 42
0.625
 43
3.75
 44
1.25
 73
     0
 74
     0
 77
     1
 78
     8
140
2.5
141
2.5
143
0.03937007874016
147
0.625
171
     3
172
     1
271
     2
272
     2
274
     3
278
    44
283
     0
284
     8
340
11
1001
AcadAnnotative
1000
AnnotativeData
1002
{
1070
     1
1070
     1
1002
}
1001
ACAD_DSTYLE_DIMJAG
1070
   388
1040
1.5
1001
ACAD_DSTYLE_DIMTALN
1070
   392
1070
     0
  0
DIMSTYLE
105
27
330
A
100
AcDbSymbolTableRecord
100
AcDbDimStyleTableRecord
  2
ISO-25
 70
     0
 41
2.5
 42
0.625
 43
3.75
 44
1.25
 73
     0
 74
     0
 77
     1
 78
     8
140
2.5
141
2.5
143
0.03937007874016
147
0.625
171
     3
172
     1
271
     2
272
     2
274
     3
278
    44
283
     0
284
     8
340
11
  0
DIMSTYLE
105
2B5
330
A
100
AcDbSymbolTableRecord
100
AcDbDimStyleTableRecord
  2
1-10-L
 70
     0
 40
10.0
 41
1.5
 42
0.625
 43
3.75
 44
1.25
 73
     0
 74
     0
 77
     1
 78
     8
140
2.299999999999998
141
2.5
143
0.03937007874016
147
0.625
171
     8
172
     1
271
     2
272
     2
273
     7
274
     8
283
     0
284
     8
340
11
1001
ACAD_DSTYLE_DIMBREAK
1070
   391
1040
3.75
1001
ACAD_DSTYLE_DIMJAG
1070
   388
1040
1.5
1001
ACAD_DSTYLE_DIMTALN
1070
   392
1070
     0
  0
DIMSTYLE
105
2B6
330
A
100
AcDbSymbolTableRecord
100
AcDbDimStyleTableRecord
  2
1-10-c
 70
     0
 40
10.0
 41
1.5
 42
0.625
 43
3.75
 44
1.25
 47
0.5
 48
0.5
 71
     1
 73
     0
 74
     0
 77
     1
 78
     8
140
2.299999999999998
141
2.5
143
0.03937007874016
147
0.625
171
     8
172
     1
271
     2
272
     2
273
     7
274
     8
284
     8
340
11
1001
ACAD_DSTYLE_DIMBREAK
1070
   391
1040
3.75
1001
ACAD_DSTYLE_DIMJAG
1070
   388
1040
1.5
1001
ACAD_DSTYLE_DIMTALN
1070
   392
1070
     0
  0
DIMSTYLE
105
2B7
330
A
100
AcDbSymbolTableRecord
100
AcDbDimStyleTableRecord
  2
1-4-L
 70
     0
 40
4.0
 41
1.5
 42
0.625
 43
3.75
 44
1.25
 73
     0
 74
     0
 77
     1
 78
     8
140
2.299999999999998
141
2.5
143
0.03937007874016
147
0.625
171
     8
172
     1
271
     2
272
     2
273
     7
274
     8
283
     0
284
     8
340
11
1001
ACAD_DSTYLE_DIMBREAK
1070
   391
1040
3.75
1001
ACAD_DSTYLE_DIMJAG
1070
   388
1040
1.5
1001
ACAD_DSTYLE_DIMTALN
1070
   392
1070
     0
  0
DIMSTYLE
105
2B8
102
{ACAD_REACTORS
330
E05
330
E1D
102
}
330
A
100
AcDbSymbolTableRecord
100
AcDbDimStyleTableRecord
  2
1-10
 70
     0
  4
"
 40
8.0
 41
1.5
 42
0.625
 43
3.75
 44
1.25
 73
     0
 74
     0
 77
     1
 78
     8
140
2.299999999999998
141
2.5
143
0.03937007874016
147
0.625
170
     1
171
     3
172
     1
271
     1
272
     1
273
     7
274
     3
283
     0
284
     8
340
11
1001
ACAD_DSTYLE_DIMBREAK
1070
   391
1040
3.75
1001
ACAD_DSTYLE_DIMJAG
1070
   388
1040
1.5
1001
ACAD_DSTYLE_DIMTALN
1070
   392
1070
     0
  0
DIMSTYLE
105
2B9
330
A
100
AcDbSymbolTableRecord
100
AcDbDimStyleTableRecord
  2
1-6
 70
     0
  4
"
 40
6.0
 41
1.5
 42
0.625
 43
3.75
 44
1.25
 73
     0
 74
     0
 77
     1
 78
     8
140
2.299999999999998
141
2.5
143
0.03937007874016
147
0.625
170
     1
171
     3
172
     1
271
     1
272
     1
273
     7
274
     3
283
     0
284
     8
340
11
1001
ACAD_DSTYLE_DIMBREAK
1070
   391
1040
3.75
1001
ACAD_DSTYLE_DIMJAG
1070
   388
1040
1.5
1001
ACAD_DSTYLE_DIMTALN
1070
   392
1070
     0
  0
DIMSTYLE
105
45E
102
{ACAD_REACTORS
330
5B4
330
5B7
102
}
330
A
100
AcDbSymbolTableRecord
100
AcDbDimStyleTableRecord
  2
1-8-L
 70
     0
 40
8.0
 41
1.5
 42
0.625
 43
3.75
 44
1.25
 73
     0
 74
     0
 77
     1
 78
     8
140
2.299999999999998
141
2.5
143
0.03937007874016
147
0.625
171
     8
172
     1
271
     2
272
     2
273
     7
274
     8
283
     0
284
     8
340
11
1001
ACAD_DSTYLE_DIMBREAK
1070
   391
1040
3.75
1001
ACAD_DSTYLE_DIMJAG
1070
   388
1040
1.5
1001
ACAD_DSTYLE_DIMTALN
1070
   392
1070
     0
  0
DIMSTYLE
105
45F
330
A
100
AcDbSymbolTableRecord
100
AcDbDimStyleTableRecord
  2
副本 1-10-d
 70
     0
 40
10.0
 41
1.5
 42
0.625
 43
3.75
 44
1.25
 47
0.2
 48
0.2
 71
     1
 73
     0
 74
     0
 77
     1
 78
     8
140
1.8
141
2.5
143
0.03937007874016
147
0.625
171
     8
172
     1
271
     2
272
     2
273
     7
274
     8
284
     8
340
11
1001
ACAD_DSTYLE_DIMBREAK
1070
   391
1040
3.75
1001
ACAD_DSTYLE_DIMJAG
1070
   388
1040
1.5
1001
ACAD_DSTYLE_DIMTALN
1070
   392
1070
     0
  0
DIMSTYLE
105
460
330
A
100
AcDbSymbolTableRecord
100
AcDbDimStyleTableRecord
  2
副本 20
 70
     0
  4
"
 41
2.0
140
3.0
141
0.0
143
0.0394
171
     1
172
     1
176
     3
177
     3
271
     1
272
     1
273
     5
274
     1
340
11
1001
ACAD_DSTYLE_DIMEXT_LENGTH
1070
   378
1040
0.18
1001
ACAD_DSTYLE_DIMJOGGED_JOGANGLE_SYMBOL
1070
   384
1040
1.570796326794896
  0
DIMSTYLE
105
461
330
A
100
AcDbSymbolTableRecord
100
AcDbDimStyleTableRecord
  2
副本 ISO-25
 70
     0
 41
14.0
 42
3.0
 43
3.75
 44
1.25
 45
0.001
 73
     0
 74
     0
 77
     1
 78
     8
140
20.0
141
0.0
143
0.03937007874016
147
6.0
171
     3
172
     1
176
   256
177
   256
178
   256
179
     1
271
     2
272
     2
274
     3
283
     0
284
     8
340
11
  0
DIMSTYLE
105
462
330
A
100
AcDbSymbolTableRecord
100
AcDbDimStyleTableRecord
  2
副本ISO-25
 70
     0
 41
10.0
 42
3.0
 43
3.75
 44
1.25
 73
     0
 77
     1
 78
     8
140
25.0
141
70.0
143
0.03937007874016
147
4.0
170
     1
171
     3
172
     1
179
     1
271
     2
272
     2
273
     7
274
     3
283
     0
284
     8
340
11
  0
ENDTAB
  0
TABLE
  2
BLOCK_RECORD
  5
1
330
0
100
AcDbSymbolTable
 70
    66
  0
BLOCK_RECORD
  5
1F
102
{ACAD_XDICTIONARY
360
1CE
102
}
330
1
100
AcDbSymbolTableRecord
100
AcDbBlockTableRecord
  2
*Model_Space
340
22
  0
BLOCK_RECORD
  5
D2
330
1
100
AcDbSymbolTableRecord
100
AcDbBlockTableRecord
  2
*Paper_Space
340
D3
  0
BLOCK_RECORD
  5
D6
330
1
100
AcDbSymbolTableRecord
100
AcDbBlockTableRecord
  2
*Paper_Space0
340
D7
  0
BLOCK_RECORD
  5
242
330
1
100
AcDbSymbolTableRecord
100
AcDbBlockTableRecord
  2
*D1
340
0
  0
BLOCK_RECORD
  5
24E
330
1
100
AcDbSymbolTableRecord
100
AcDbBlockTableRecord
  2
*D2
340
0
  0
BLOCK_RECORD
  5
25B
330
1
100
AcDbSymbolTableRecord
100
AcDbBlockTableRecord
  2
*D3
340
0
  0
BLOCK_RECORD
  5
269
330
1
100
AcDbSymbolTableRecord
100
AcDbBlockTableRecord
  2
*D4
340
0
  0
BLOCK_RECORD
  5
275
330
1
100
AcDbSymbolTableRecord
100
AcDbBlockTableRecord
  2
*D5
340
0
  0
BLOCK_RECORD
  5
281
330
1
100
AcDbSymbolTableRecord
100
AcDbBlockTableRecord
  2
*D6
340
0
  0
BLOCK_RECORD
  5
28D
330
1
100
AcDbSymbolTableRecord
100
AcDbBlockTableRecord
  2
*D7
340
0
  0
BLOCK_RECORD
  5
299
330
1
100
AcDbSymbolTableRecord
100
AcDbBlockTableRecord
  2
*D8
340
0
  0
BLOCK_RECORD
  5
2A5
330
1
100
AcDbSymbolTableRecord
100
AcDbBlockTableRecord
  2
*D9
340
0
  0
BLOCK_RECORD
  5
33D
330
1
100
AcDbSymbolTableRecord
100
AcDbBlockTableRecord
  2
*D10
340
0
  0
BLOCK_RECORD
  5
349
330
1
100
AcDbSymbolTableRecord
100
AcDbBlockTableRecord
  2
*D11
340
0
  0
BLOCK_RECORD
  5
356
330
1
100
AcDbSymbolTableRecord
100
AcDbBlockTableRecord
  2
*D12
340
0
  0
BLOCK_RECORD
  5
360
330
1
100
AcDbSymbolTableRecord
100
AcDbBlockTableRecord
  2
*D13
340
0
  0
BLOCK_RECORD
  5
36E
330
1
100
AcDbSymbolTableRecord
100
AcDbBlockTableRecord
  2
*D14
340
0
  0
BLOCK_RECORD
  5
37A
330
1
100
AcDbSymbolTableRecord
100
AcDbBlockTableRecord
  2
*D15
340
0
  0
BLOCK_RECORD
  5
38F
330
1
100
AcDbSymbolTableRecord
100
AcDbBlockTableRecord
  2
*D16
340
0
  0
BLOCK_RECORD
  5
3A5
330
1
100
AcDbSymbolTableRecord
100
AcDbBlockTableRecord
  2
*D17
340
0
  0
BLOCK_RECORD
  5
3B1
330
1
100
AcDbSymbolTableRecord
100
AcDbBlockTableRecord
  2
*D18
340
0
  0
BLOCK_RECORD
  5
444
330
1
100
AcDbSymbolTableRecord
100
AcDbBlockTableRecord
  2
*D19
340
0
  0
BLOCK_RECORD
  5
450
330
1
100
AcDbSymbolTableRecord
100
AcDbBlockTableRecord
  2
*D20
340
0
  0
BLOCK_RECORD
  5
481
330
1
100
AcDbSymbolTableRecord
100
AcDbBlockTableRecord
  2
*D21
340
0
  0
BLOCK_RECORD
  5
48D
330
1
100
AcDbSymbolTableRecord
100
AcDbBlockTableRecord
  2
*D22
340
0
  0
BLOCK_RECORD
  5
54A
330
1
100
AcDbSymbolTableRecord
100
AcDbBlockTableRecord
  2
*D23
340
0
  0
BLOCK_RECORD
  5
556
330
1
100
AcDbSymbolTableRecord
100
AcDbBlockTableRecord
  2
*D24
340
0
  0
BLOCK_RECORD
  5
57E
330
1
100
AcDbSymbolTableRecord
100
AcDbBlockTableRecord
  2
*D25
340
0
  0
BLOCK_RECORD
  5
58A
330
1
100
AcDbSymbolTableRecord
100
AcDbBlockTableRecord
  2
*D26
340
0
  0
BLOCK_RECORD
  5
596
330
1
100
AcDbSymbolTableRecord
100
AcDbBlockTableRecord
  2
*D27
340
0
  0
BLOCK_RECORD
  5
5A2
330
1
100
AcDbSymbolTableRecord
100
AcDbBlockTableRecord
  2
*D28
340
0
  0
BLOCK_RECORD
  5
5AE
102
{ACAD_XDICTIONARY
360
5BA
102
}
330
1
100
AcDbSymbolTableRecord
100
AcDbBlockTableRecord
  2
A$C5D3217D4
340
0
1001
ACAD
1000
DesignCenter Data
1002
{
1070
     1
1070
     4
1002
}
  0
BLOCK_RECORD
  5
63B
330
1
100
AcDbSymbolTableRecord
100
AcDbBlockTableRecord
  2
*D30
340
0
  0
BLOCK_RECORD
  5
653
330
1
100
AcDbSymbolTableRecord
100
AcDbBlockTableRecord
  2
*D31
340
0
  0
BLOCK_RECORD
  5
6E1
330
1
100
AcDbSymbolTableRecord
100
AcDbBlockTableRecord
  2
*D32
340
0
  0
BLOCK_RECORD
  5
6F9
330
1
100
AcDbSymbolTableRecord
100
AcDbBlockTableRecord
  2
*D33
340
0
  0
BLOCK_RECORD
  5
722
330
1
100
AcDbSymbolTableRecord
100
AcDbBlockTableRecord
  2
*D34
340
0
  0
BLOCK_RECORD
  5
72E
330
1
100
AcDbSymbolTableRecord
100
AcDbBlockTableRecord
  2
*D35
340
0
  0
BLOCK_RECORD
  5
74D
330
1
100
AcDbSymbolTableRecord
100
AcDbBlockTableRecord
  2
*D36
340
0
  0
BLOCK_RECORD
  5
759
330
1
100
AcDbSymbolTableRecord
100
AcDbBlockTableRecord
  2
*D37
340
0
  0
BLOCK_RECORD
  5
7B3
330
1
100
AcDbSymbolTableRecord
100
AcDbBlockTableRecord
  2
*D38
340
0
  0
BLOCK_RECORD
  5
7CB
330
1
100
AcDbSymbolTableRecord
100
AcDbBlockTableRecord
  2
*D39
340
0
  0
BLOCK_RECORD
  5
7F4
330
1
100
AcDbSymbolTableRecord
100
AcDbBlockTableRecord
  2
*D40
340
0
  0
BLOCK_RECORD
  5
800
330
1
100
AcDbSymbolTableRecord
100
AcDbBlockTableRecord
  2
*D41
340
0
  0
BLOCK_RECORD
  5
81F
330
1
100
AcDbSymbolTableRecord
100
AcDbBlockTableRecord
  2
*D42
340
0
  0
BLOCK_RECORD
  5
82B
330
1
100
AcDbSymbolTableRecord
100
AcDbBlockTableRecord
  2
*D43
340
0
  0
BLOCK_RECORD
  5
885
330
1
100
AcDbSymbolTableRecord
100
AcDbBlockTableRecord
  2
*D44
340
0
  0
BLOCK_RECORD
  5
89D
330
1
100
AcDbSymbolTableRecord
100
AcDbBlockTableRecord
  2
*D45
340
0
  0
BLOCK_RECORD
  5
8C6
330
1
100
AcDbSymbolTableRecord
100
AcDbBlockTableRecord
  2
*D46
340
0
  0
BLOCK_RECORD
  5
8D2
330
1
100
AcDbSymbolTableRecord
100
AcDbBlockTableRecord
  2
*D47
340
0
  0
BLOCK_RECORD
  5
8F1
330
1
100
AcDbSymbolTableRecord
100
AcDbBlockTableRecord
  2
*D48
340
0
  0
BLOCK_RECORD
  5
8FD
330
1
100
AcDbSymbolTableRecord
100
AcDbBlockTableRecord
  2
*D49
340
0
  0
BLOCK_RECORD
  5
960
330
1
100
AcDbSymbolTableRecord
100
AcDbBlockTableRecord
  2
*D50
340
0
  0
BLOCK_RECORD
  5
978
330
1
100
AcDbSymbolTableRecord
100
AcDbBlockTableRecord
  2
*D51
340
0
  0
BLOCK_RECORD
  5
A01
330
1
100
AcDbSymbolTableRecord
100
AcDbBlockTableRecord
  2
*D52
340
0
  0
BLOCK_RECORD
  5
A19
330
1
100
AcDbSymbolTableRecord
100
AcDbBlockTableRecord
  2
*D53
340
0
  0
BLOCK_RECORD
  5
AA2
330
1
100
AcDbSymbolTableRecord
100
AcDbBlockTableRecord
  2
*D54
340
0
  0
BLOCK_RECORD
  5
ABA
330
1
100
AcDbSymbolTableRecord
100
AcDbBlockTableRecord
  2
*D55
340
0
  0
BLOCK_RECORD
  5
B79
330
1
100
AcDbSymbolTableRecord
100
AcDbBlockTableRecord
  2
*D56
340
0
  0
BLOCK_RECORD
  5
B91
330
1
100
AcDbSymbolTableRecord
100
AcDbBlockTableRecord
  2
*D57
340
0
  0
BLOCK_RECORD
  5
C1A
330
1
100
AcDbSymbolTableRecord
100
AcDbBlockTableRecord
  2
*D58
340
0
  0
BLOCK_RECORD
  5
C32
330
1
100
AcDbSymbolTableRecord
100
AcDbBlockTableRecord
  2
*D59
340
0
  0
BLOCK_RECORD
  5
CBB
330
1
100
AcDbSymbolTableRecord
100
AcDbBlockTableRecord
  2
*D60
340
0
  0
BLOCK_RECORD
  5
CD3
330
1
100
AcDbSymbolTableRecord
100
AcDbBlockTableRecord
  2
*D61
340
0
  0
BLOCK_RECORD
  5
D5C
330
1
100
AcDbSymbolTableRecord
100
AcDbBlockTableRecord
  2
*D62
340
0
  0
BLOCK_RECORD
  5
D74
330
1
100
AcDbSymbolTableRecord
100
AcDbBlockTableRecord
  2
*D63
340
0
  0
BLOCK_RECORD
  5
E06
330
1
100
AcDbSymbolTableRecord
100
AcDbBlockTableRecord
  2
*D64
340
0
  0
BLOCK_RECORD
  5
E1E
330
1
100
AcDbSymbolTableRecord
100
AcDbBlockTableRecord
  2
*D65
340
0
  0
ENDTAB
  0
ENDSEC
  0
SECTION
  2
BLOCKS
  0
BLOCK
  5
20
330
1F
100
AcDbEntity
  8
0
100
AcDbBlockBegin
  2
*Model_Space
 70
     0
 10
0.0
 20
0.0
 30
0.0
  3
*Model_Space
  1

  0
ENDBLK
  5
21
330
1F
100
AcDbEntity
  8
0
100
AcDbBlockEnd
  0
BLOCK
  5
D4
330
D2
100
AcDbEntity
 67
     1
  8
0
100
AcDbBlockBegin
  2
*Paper_Space
 70
     0
 10
0.0
 20
0.0
 30
0.0
  3
*Paper_Space
  1

  0
ENDBLK
  5
D5
330
D2
100
AcDbEntity
 67
     1
  8
0
100
AcDbBlockEnd
  0
BLOCK
  5
D8
330
D6
100
AcDbEntity
 67
     1
  8
0
100
AcDbBlockBegin
  2
*Paper_Space0
 70
     0
 10
0.0
 20
0.0
 30
0.0
  3
*Paper_Space0
  1

  0
ENDBLK
  5
D9
330
D6
100
AcDbEntity
 67
     1
  8
0
100
AcDbBlockEnd
  0
BLOCK
  5
243
330
242
100
AcDbEntity
  8
0
100
AcDbBlockBegin
  2
*D1
 70
     1
 10
0.0
 20
0.0
 30
0.0
  3
*D1
  1

  0
LINE
  5
244
330
242
100
AcDbEntity
  8
标注
 62
     0
370
    -2
100
AcDbLine
 10
111035.3921429668
 20
4267.577382038597
 30
0.0
 11
111035.3921429668
 21
4212.981556065783
 31
0.0
  0
LINE
  5
245
330
242
100
AcDbEntity
  8
标注
 62
     0
370
    -2
100
AcDbLine
 10
111416.3921429668
 20
4267.577382038594
 30
0.0
 11
111416.3921429668
 21
4212.981556065783
 31
0.0
  0
LINE
  5
246
330
242
100
AcDbEntity
  8
标注
 62
     0
370
    -2
100
AcDbLine
 10
111047.3921429668
 20
4222.981556065783
 30
0.0
 11
111404.3921429668
 21
4222.981556065783
 31
0.0
  0
SOLID
  5
247
330
242
100
AcDbEntity
  8
标注
 62
     0
100
AcDbTrace
 10
111047.3921429668
 20
4224.981556065784
 30
0.0
 11
111047.3921429668
 21
4220.981556065783
 31
0.0
 12
111035.3921429668
 22
4222.981556065783
 32
0.0
 13
111035.3921429668
 23
4222.981556065783
 33
0.0
  0
SOLID
  5
248
330
242
100
AcDbEntity
  8
标注
 62
     0
100
AcDbTrace
 10
111404.3921429668
 20
4224.981556065784
 30
0.0
 11
111404.3921429668
 21
4220.981556065783
 31
0.0
 12
111416.3921429668
 22
4222.981556065783
 32
0.0
 13
111416.3921429668
 23
4222.981556065783
 33
0.0
  0
MTEXT
  5
249
330
242
100
AcDbEntity
  8
标注
 62
     0
100
AcDbMText
 10
111225.8921429668
 20
4242.000603684831
 30
0.0
 40
18.4
 41
0.0
 71
     5
 72
     1
  1
381 [15"]
 73
     1
 44
1.0
1001
ACAD
1000
MTEXTBEGIN
1070
    73
1070
     1
1070
    44
1040
1.0
1070
    74
1070
     0
1000
MTEXTEND
  0
POINT
  5
24A
330
242
100
AcDbEntity
  8
Defpoints
 62
     0
100
AcDbPoint
 10
111035.3921429668
 20
4272.577382038597
 30
0.0
  0
POINT
  5
24B
330
242
100
AcDbEntity
  8
Defpoints
 62
     0
100
AcDbPoint
 10
111416.3921429668
 20
4272.577382038593
 30
0.0
  0
POINT
  5
24C
330
242
100
AcDbEntity
  8
Defpoints
 62
     0
100
AcDbPoint
 10
111416.3921429668
 20
4222.981556065783
 30
0.0
  0
ENDBLK
  5
24D
330
242
100
AcDbEntity
  8
0
100
AcDbBlockEnd
  0
BLOCK
  5
24F
330
24E
100
AcDbEntity
  8
0
100
AcDbBlockBegin
  2
*D2
 70
     1
 10
0.0
 20
0.0
 30
0.0
  3
*D2
  1

  0
LINE
  5
250
330
24E
100
AcDbEntity
  8
标注
 62
     0
370
    -2
100
AcDbLine
 10
111416.3921429668
 20
4508.877382038597
 30
0.0
 11
111416.3921429668
 21
4474.553065240485
 31
0.0
  0
LINE
  5
251
330
24E
100
AcDbEntity
  8
标注
 62
     0
370
    -2
100
AcDbLine
 10
111452.5921429668
 20
4508.852382038597
 30
0.0
 11
111452.5921429668
 21
4474.553065240485
 31
0.0
  0
LINE
  5
252
330
24E
100
AcDbEntity
  8
标注
 62
     0
370
    -2
100
AcDbLine
 10
111428.3921429668
 20
4484.553065240485
 30
0.0
 11
111440.5921429668
 21
4484.553065240485
 31
0.0
  0
LINE
  5
253
330
24E
100
AcDbEntity
  8
标注
 62
     0
370
    -2
100
AcDbLine
 10
111452.5921429668
 20
4484.553065240485
 30
0.0
 11
111674.3635715383
 21
4484.553065240485
 31
0.0
  0
SOLID
  5
254
330
24E
100
AcDbEntity
  8
标注
 62
     0
100
AcDbTrace
 10
111428.3921429668
 20
4486.553065240484
 30
0.0
 11
111428.3921429668
 21
4482.553065240485
 31
0.0
 12
111416.3921429668
 22
4484.553065240485
 32
0.0
 13
111416.3921429668
 23
4484.553065240485
 33
0.0
  0
SOLID
  5
255
330
24E
100
AcDbEntity
  8
标注
 62
     0
100
AcDbTrace
 10
111440.5921429668
 20
4486.553065240484
 30
0.0
 11
111440.5921429668
 21
4482.553065240485
 31
0.0
 12
111452.5921429668
 22
4484.553065240485
 32
0.0
 13
111452.5921429668
 23
4484.553065240485
 33
0.0
  0
MTEXT
  5
256
330
24E
100
AcDbEntity
  8
标注
 62
     0
100
AcDbMText
 10
111569.4778572525
 20
4503.572112859531
 30
0.0
 40
18.4
 41
0.0
 71
     5
 72
     1
  1
36.2 [1 3/8"]
 73
     1
 44
1.0
1001
ACAD
1000
MTEXTBEGIN
1070
    73
1070
     1
1070
    44
1040
1.0
1070
    74
1070
     0
1000
MTEXTEND
  0
POINT
  5
257
330
24E
100
AcDbEntity
  8
Defpoints
 62
     0
100
AcDbPoint
 10
111416.3921429668
 20
4513.877382038597
 30
0.0
  0
POINT
  5
258
330
24E
100
AcDbEntity
  8
Defpoints
 62
     0
100
AcDbPoint
 10
111452.5921429668
 20
4513.852382038597
 30
0.0
  0
POINT
  5
259
330
24E
100
AcDbEntity
  8
Defpoints
 62
     0
100
AcDbPoint
 10
111452.5921429668
 20
4484.553065240485
 30
0.0
  0
ENDBLK
  5
25A
330
24E
100
AcDbEntity
  8
0
100
AcDbBlockEnd
  0
BLOCK
  5
25C
330
25B
100
AcDbEntity
  8
0
100
AcDbBlockBegin
  2
*D3
 70
     1
 10
0.0
 20
0.0
 30
0.0
  3
*D3
  1

  0
LINE
  5
25D
330
25B
100
AcDbEntity
  8
标注
 62
     0
370
    -2
100
AcDbLine
 10
111015.3921429668
 20
4508.852382038597
 30
0.0
 11
111015.3921429668
 21
4478.423719242215
 31
0.0
  0
LINE
  5
25E
330
25B
100
AcDbEntity
  8
标注
 62
     0
370
    -2
100
AcDbLine
 10
111035.3921429668
 20
4508.852382038597
 30
0.0
 11
111035.3921429668
 21
4478.423719242215
 31
0.0
  0
LINE
  5
25F
330
25B
100
AcDbEntity
  8
标注
 62
     0
370
    -2
100
AcDbLine
 10
111003.3921429668
 20
4488.423719242216
 30
0.0
 11
110991.3921429668
 21
4488.423719242216
 31
0.0
  0
LINE
  5
260
330
25B
100
AcDbEntity
  8
标注
 62
     0
370
    -2
100
AcDbLine
 10
111047.3921429668
 20
4488.423719242216
 30
0.0
 11
111206.9540477287
 21
4488.423719242216
 31
0.0
  0
LINE
  5
261
330
25B
100
AcDbEntity
  8
标注
 62
     0
370
    -2
100
AcDbLine
 10
111015.3921429668
 20
4488.423719242216
 30
0.0
 11
111035.3921429668
 21
4488.423719242216
 31
0.0
  0
SOLID
  5
262
330
25B
100
AcDbEntity
  8
标注
 62
     0
100
AcDbTrace
 10
111003.3921429668
 20
4490.423719242214
 30
0.0
 11
111003.3921429668
 21
4486.423719242215
 31
0.0
 12
111015.3921429668
 22
4488.423719242216
 32
0.0
 13
111015.3921429668
 23
4488.423719242216
 33
0.0
  0
SOLID
  5
263
330
25B
100
AcDbEntity
  8
标注
 62
     0
100
AcDbTrace
 10
111047.3921429668
 20
4490.423719242214
 30
0.0
 11
111047.3921429668
 21
4486.423719242215
 31
0.0
 12
111035.3921429668
 22
4488.423719242216
 32
0.0
 13
111035.3921429668
 23
4488.423719242216
 33
0.0
  0
MTEXT
  5
264
330
25B
100
AcDbEntity
  8
标注
 62
     0
100
AcDbMText
 10
111133.1730953478
 20
4507.442766861262
 30
0.0
 40
18.4
 41
0.0
 71
     5
 72
     1
  1
20 [3/4"]
 73
     1
 44
1.0
1001
ACAD
1000
MTEXTBEGIN
1070
    73
1070
     1
1070
    44
1040
1.0
1070
    74
1070
     0
1000
MTEXTEND
  0
POINT
  5
265
330
25B
100
AcDbEntity
  8
Defpoints
 62
     0
100
AcDbPoint
 10
111015.3921429668
 20
4513.852382038597
 30
0.0
  0
POINT
  5
266
330
25B
100
AcDbEntity
  8
Defpoints
 62
     0
100
AcDbPoint
 10
111035.3921429668
 20
4513.852382038597
 30
0.0
  0
POINT
  5
267
330
25B
100
AcDbEntity
  8
Defpoints
 62
     0
100
AcDbPoint
 10
111035.3921429668
 20
4488.423719242216
 30
0.0
  0
ENDBLK
  5
268
330
25B
100
AcDbEntity
  8
0
100
AcDbBlockEnd
  0
BLOCK
  5
26A
330
269
100
AcDbEntity
  8
0
100
AcDbBlockBegin
  2
*D4
 70
     1
 10
0.0
 20
0.0
 30
0.0
  3
*D4
  1

  0
LINE
  5
26B
330
269
100
AcDbEntity
  8
标注
 62
     0
370
    -2
100
AcDbLine
 10
111858.5921429668
 20
4717.027382038597
 30
0.0
 11
111926.1193230643
 21
4717.027382038597
 31
0.0
  0
LINE
  5
26C
330
269
100
AcDbEntity
  8
标注
 62
     0
370
    -2
100
AcDbLine
 10
111858.5921429668
 20
4310.677382038597
 30
0.0
 11
111926.1193230643
 21
4310.677382038597
 31
0.0
  0
LINE
  5
26D
330
269
100
AcDbEntity
  8
标注
 62
     0
370
    -2
100
AcDbLine
 10
111916.1193230643
 20
4705.027382038596
 30
0.0
 11
111916.1193230643
 21
4322.677382038597
 31
0.0
  0
SOLID
  5
26E
330
269
100
AcDbEntity
  8
标注
 62
     0
100
AcDbTrace
 10
111914.1193230643
 20
4705.027382038596
 30
0.0
 11
111918.1193230643
 21
4705.027382038596
 31
0.0
 12
111916.1193230643
 22
4717.027382038597
 32
0.0
 13
111916.1193230643
 23
4717.027382038597
 33
0.0
  0
SOLID
  5
26F
330
269
100
AcDbEntity
  8
标注
 62
     0
100
AcDbTrace
 10
111914.1193230643
 20
4322.677382038597
 30
0.0
 11
111918.1193230643
 21
4322.677382038597
 31
0.0
 12
111916.1193230643
 22
4310.677382038597
 32
0.0
 13
111916.1193230643
 23
4310.677382038597
 33
0.0
  0
MTEXT
  5
270
330
269
100
AcDbEntity
  8
标注
 62
     0
100
AcDbMText
 10
111897.1002754453
 20
4513.852382038613
 30
0.0
 40
18.4
 41
0.0
 71
     5
 72
     1
  1
406.4 [16"]
 11
0.0000000000000001
 21
1.0
 31
0.0
 73
     1
 44
1.0
1001
ACAD
1000
MTEXTBEGIN
1070
    73
1070
     1
1070
    44
1040
1.0
1070
    74
1070
     0
1000
MTEXTEND
  0
POINT
  5
271
330
269
100
AcDbEntity
  8
Defpoints
 62
     0
100
AcDbPoint
 10
111853.5921429668
 20
4717.027382038597
 30
0.0
  0
POINT
  5
272
330
269
100
AcDbEntity
  8
Defpoints
 62
     0
100
AcDbPoint
 10
111853.5921429668
 20
4310.677382038597
 30
0.0
  0
POINT
  5
273
330
269
100
AcDbEntity
  8
Defpoints
 62
     0
100
AcDbPoint
 10
111916.1193230643
 20
4310.677382038597
 30
0.0
  0
ENDBLK
  5
274
330
269
100
AcDbEntity
  8
0
100
AcDbBlockEnd
  0
BLOCK
  5
276
330
275
100
AcDbEntity
  8
0
100
AcDbBlockBegin
  2
*D5
 70
     1
 10
0.0
 20
0.0
 30
0.0
  3
*D5
  1

  0
LINE
  5
277
330
275
100
AcDbEntity
  8
标注
 62
     0
370
    -2
100
AcDbLine
 10
111858.5921429668
 20
4755.127382038597
 30
0.0
 11
111974.0241153426
 21
4755.127382038597
 31
0.0
  0
LINE
  5
278
330
275
100
AcDbEntity
  8
标注
 62
     0
370
    -2
100
AcDbLine
 10
111858.5921429668
 20
4272.577382038597
 30
0.0
 11
111974.0241153426
 21
4272.577382038597
 31
0.0
  0
LINE
  5
279
330
275
100
AcDbEntity
  8
标注
 62
     0
370
    -2
100
AcDbLine
 10
111964.0241153426
 20
4743.127382038596
 30
0.0
 11
111964.0241153426
 21
4284.577382038596
 31
0.0
  0
SOLID
  5
27A
330
275
100
AcDbEntity
  8
标注
 62
     0
100
AcDbTrace
 10
111962.0241153426
 20
4743.127382038596
 30
0.0
 11
111966.0241153426
 21
4743.127382038596
 31
0.0
 12
111964.0241153426
 22
4755.127382038597
 32
0.0
 13
111964.0241153426
 23
4755.127382038597
 33
0.0
  0
SOLID
  5
27B
330
275
100
AcDbEntity
  8
标注
 62
     0
100
AcDbTrace
 10
111962.0241153426
 20
4284.577382038596
 30
0.0
 11
111966.0241153426
 21
4284.577382038596
 31
0.0
 12
111964.0241153426
 22
4272.577382038597
 32
0.0
 13
111964.0241153426
 23
4272.577382038597
 33
0.0
  0
MTEXT
  5
27C
330
275
100
AcDbEntity
  8
标注
 62
     0
100
AcDbMText
 10
111945.0050677236
 20
4513.852382038613
 30
0.0
 40
18.4
 41
0.0
 71
     5
 72
     1
  1
482.6 [19"]
 11
0.0000000000000001
 21
1.0
 31
0.0
 73
     1
 44
1.0
1001
ACAD
1000
MTEXTBEGIN
1070
    73
1070
     1
1070
    44
1040
1.0
1070
    74
1070
     0
1000
MTEXTEND
  0
POINT
  5
27D
330
275
100
AcDbEntity
  8
Defpoints
 62
     0
100
AcDbPoint
 10
111853.5921429668
 20
4755.127382038597
 30
0.0
  0
POINT
  5
27E
330
275
100
AcDbEntity
  8
Defpoints
 62
     0
100
AcDbPoint
 10
111853.5921429668
 20
4272.577382038597
 30
0.0
  0
POINT
  5
27F
330
275
100
AcDbEntity
  8
Defpoints
 62
     0
100
AcDbPoint
 10
111964.0241153426
 20
4272.577382038597
 30
0.0
  0
ENDBLK
  5
280
330
275
100
AcDbEntity
  8
0
100
AcDbBlockEnd
  0
BLOCK
  5
282
330
281
100
AcDbEntity
  8
0
100
AcDbBlockBegin
  2
*D6
 70
     1
 10
0.0
 20
0.0
 30
0.0
  3
*D6
  1

  0
LINE
  5
283
330
281
100
AcDbEntity
  8
标注
 62
     0
370
    -2
100
AcDbLine
 10
111015.3921429668
 20
4267.577382038597
 30
0.0
 11
111015.3921429668
 21
4163.412581377992
 31
0.0
  0
LINE
  5
284
330
281
100
AcDbEntity
  8
标注
 62
     0
370
    -2
100
AcDbLine
 10
111853.5921429668
 20
4267.577382038597
 30
0.0
 11
111853.5921429668
 21
4163.412581377992
 31
0.0
  0
LINE
  5
285
330
281
100
AcDbEntity
  8
标注
 62
     0
370
    -2
100
AcDbLine
 10
111027.3921429668
 20
4173.412581377993
 30
0.0
 11
111841.5921429668
 21
4173.412581377993
 31
0.0
  0
SOLID
  5
286
330
281
100
AcDbEntity
  8
标注
 62
     0
100
AcDbTrace
 10
111027.3921429668
 20
4175.412581377993
 30
0.0
 11
111027.3921429668
 21
4171.412581377992
 31
0.0
 12
111015.3921429668
 22
4173.412581377993
 32
0.0
 13
111015.3921429668
 23
4173.412581377993
 33
0.0
  0
SOLID
  5
287
330
281
100
AcDbEntity
  8
标注
 62
     0
100
AcDbTrace
 10
111841.5921429668
 20
4175.412581377993
 30
0.0
 11
111841.5921429668
 21
4171.412581377992
 31
0.0
 12
111853.5921429668
 22
4173.412581377993
 32
0.0
 13
111853.5921429668
 23
4173.412581377993
 33
0.0
  0
MTEXT
  5
288
330
281
100
AcDbEntity
  8
标注
 62
     0
100
AcDbMText
 10
111434.4921429668
 20
4192.431628997041
 30
0.0
 40
18.4
 41
0.0
 71
     5
 72
     1
  1
838.2 [33"]
 73
     1
 44
1.0
1001
ACAD
1000
MTEXTBEGIN
1070
    73
1070
     1
1070
    44
1040
1.0
1070
    74
1070
     0
1000
MTEXTEND
  0
POINT
  5
289
330
281
100
AcDbEntity
  8
Defpoints
 62
     0
100
AcDbPoint
 10
111015.3921429668
 20
4272.577382038597
 30
0.0
  0
POINT
  5
28A
330
281
100
AcDbEntity
  8
Defpoints
 62
     0
100
AcDbPoint
 10
111853.5921429668
 20
4272.577382038597
 30
0.0
  0
POINT
  5
28B
330
281
100
AcDbEntity
  8
Defpoints
 62
     0
100
AcDbPoint
 10
111853.5921429668
 20
4173.412581377993
 30
0.0
  0
ENDBLK
  5
28C
330
281
100
AcDbEntity
  8
0
100
AcDbBlockEnd
  0
BLOCK
  5
28E
330
28D
100
AcDbEntity
  8
0
100
AcDbBlockBegin
  2
*D7
 70
     1
 10
0.0
 20
0.0
 30
0.0
  3
*D7
  1

  0
LINE
  5
28F
330
28D
100
AcDbEntity
  8
标注
 62
     0
370
    -2
100
AcDbLine
 10
111452.5921429668
 20
4267.577382038597
 30
0.0
 11
111452.5921429668
 21
4212.981556065788
 31
0.0
  0
LINE
  5
290
330
28D
100
AcDbEntity
  8
标注
 62
     0
370
    -2
100
AcDbLine
 10
111833.5921429668
 20
4267.577382038597
 30
0.0
 11
111833.5921429668
 21
4212.981556065788
 31
0.0
  0
LINE
  5
291
330
28D
100
AcDbEntity
  8
标注
 62
     0
370
    -2
100
AcDbLine
 10
111464.5921429668
 20
4222.981556065788
 30
0.0
 11
111821.5921429668
 21
4222.981556065788
 31
0.0
  0
SOLID
  5
292
330
28D
100
AcDbEntity
  8
标注
 62
     0
100
AcDbTrace
 10
111464.5921429668
 20
4224.981556065787
 30
0.0
 11
111464.5921429668
 21
4220.981556065788
 31
0.0
 12
111452.5921429668
 22
4222.981556065788
 32
0.0
 13
111452.5921429668
 23
4222.981556065788
 33
0.0
  0
SOLID
  5
293
330
28D
100
AcDbEntity
  8
标注
 62
     0
100
AcDbTrace
 10
111821.5921429668
 20
4224.981556065787
 30
0.0
 11
111821.5921429668
 21
4220.981556065788
 31
0.0
 12
111833.5921429668
 22
4222.981556065788
 32
0.0
 13
111833.5921429668
 23
4222.981556065788
 33
0.0
  0
MTEXT
  5
294
330
28D
100
AcDbEntity
  8
标注
 62
     0
100
AcDbMText
 10
111643.0921429668
 20
4242.000603684835
 30
0.0
 40
18.4
 41
0.0
 71
     5
 72
     1
  1
381 [15"]
 73
     1
 44
1.0
1001
ACAD
1000
MTEXTBEGIN
1070
    73
1070
     1
1070
    44
1040
1.0
1070
    74
1070
     0
1000
MTEXTEND
  0
POINT
  5
295
330
28D
100
AcDbEntity
  8
Defpoints
 62
     0
100
AcDbPoint
 10
111452.5921429668
 20
4272.577382038597
 30
0.0
  0
POINT
  5
296
330
28D
100
AcDbEntity
  8
Defpoints
 62
     0
100
AcDbPoint
 10
111833.5921429668
 20
4272.577382038597
 30
0.0
  0
POINT
  5
297
330
28D
100
AcDbEntity
  8
Defpoints
 62
     0
100
AcDbPoint
 10
111833.5921429668
 20
4222.981556065788
 30
0.0
  0
ENDBLK
  5
298
330
28D
100
AcDbEntity
  8
0
100
AcDbBlockEnd
  0
BLOCK
  5
29A
330
299
100
AcDbEntity
  8
0
100
AcDbBlockBegin
  2
*D8
 70
     1
 10
0.0
 20
0.0
 30
0.0
  3
*D8
  1

  0
LINE
  5
29B
330
299
100
AcDbEntity
  8
标注
 62
     0
370
    -2
100
AcDbLine
 10
111010.3921429668
 20
4735.127382038597
 30
0.0
 11
110956.5236709416
 21
4735.127382038597
 31
0.0
  0
LINE
  5
29C
330
299
100
AcDbEntity
  8
标注
 62
     0
370
    -2
100
AcDbLine
 10
111010.3921429668
 20
4272.577382038597
 30
0.0
 11
110956.5236709416
 21
4272.577382038597
 31
0.0
  0
LINE
  5
29D
330
299
100
AcDbEntity
  8
标注
 62
     0
370
    -2
100
AcDbLine
 10
110966.5236709416
 20
4723.127382038597
 30
0.0
 11
110966.5236709416
 21
4284.577382038596
 31
0.0
  0
SOLID
  5
29E
330
299
100
AcDbEntity
  8
标注
 62
     0
100
AcDbTrace
 10
110964.5236709416
 20
4723.127382038597
 30
0.0
 11
110968.5236709416
 21
4723.127382038597
 31
0.0
 12
110966.5236709416
 22
4735.127382038597
 32
0.0
 13
110966.5236709416
 23
4735.127382038597
 33
0.0
  0
SOLID
  5
29F
330
299
100
AcDbEntity
  8
标注
 62
     0
100
AcDbTrace
 10
110964.5236709416
 20
4284.577382038596
 30
0.0
 11
110968.5236709416
 21
4284.577382038596
 31
0.0
 12
110966.5236709416
 22
4272.577382038597
 32
0.0
 13
110966.5236709416
 23
4272.577382038597
 33
0.0
  0
MTEXT
  5
2A0
330
299
100
AcDbEntity
  8
标注
 62
     0
100
AcDbMText
 10
110947.5046233225
 20
4503.852382038615
 30
0.0
 40
18.4
 41
0.0
 71
     5
 72
     1
  1
462.6 [18 1/4"]
 11
0.0000000000000001
 21
1.0
 31
0.0
 73
     1
 44
1.0
1001
ACAD
1000
MTEXTBEGIN
1070
    73
1070
     1
1070
    44
1040
1.0
1070
    74
1070
     0
1000
MTEXTEND
  0
POINT
  5
2A1
330
299
100
AcDbEntity
  8
Defpoints
 62
     0
100
AcDbPoint
 10
111015.3921429668
 20
4735.127382038597
 30
0.0
  0
POINT
  5
2A2
330
299
100
AcDbEntity
  8
Defpoints
 62
     0
100
AcDbPoint
 10
111015.3921429668
 20
4272.577382038597
 30
0.0
  0
POINT
  5
2A3
330
299
100
AcDbEntity
  8
Defpoints
 62
     0
100
AcDbPoint
 10
110966.5236709416
 20
4272.577382038597
 30
0.0
  0
ENDBLK
  5
2A4
330
299
100
AcDbEntity
  8
0
100
AcDbBlockEnd
  0
BLOCK
  5
2A6
330
2A5
100
AcDbEntity
  8
0
100
AcDbBlockBegin
  2
*D9
 70
     1
 10
0.0
 20
0.0
 30
0.0
  3
*D9
  1

  0
LINE
  5
2A7
330
2A5
100
AcDbEntity
  8
标注
 62
     0
370
    -2
100
AcDbLine
 10
111152.9591806695
 20
4350.568182477863
 30
0.0
 11
111069.4794514735
 21
4327.370779449817
 31
0.0
  0
MTEXT
  5
2A8
330
2A5
100
AcDbEntity
  8
标注
 62
     0
100
AcDbMText
 10
111113.6931964615
 20
4358.079489226946
 30
0.0
 40
23.0
 41
0.0
 71
     5
 72
     1
  1
R10
 11
0.9634923402667308
 21
0.2677358964489791
 31
0.0
 73
     1
 44
1.0
1001
ACAD
1000
MTEXTBEGIN
1070
    73
1070
     1
1070
    44
1040
1.0
1070
    74
1070
     0
1000
MTEXTEND
  0
LINE
  5
2A9
330
2A5
100
AcDbEntity
  8
标注
 62
     0
370
    -2
100
AcDbLine
 10
111045.3921429668
 20
4320.677382038598
 30
0.0
 11
111055.0270663695
 21
4323.354741003084
 31
0.0
  0
SOLID
  5
2AA
330
2A5
100
AcDbEntity
  8
标注
 62
     0
100
AcDbTrace
 10
111068.8101117323
 20
4329.779510300485
 30
0.0
 11
111070.1487912146
 21
4324.962048599156
 31
0.0
 12
111055.0270663695
 22
4323.354741003084
 32
0.0
 13
111055.0270663695
 23
4323.354741003084
 33
0.0
  0
ARC
  5
2AB
330
2A5
100
AcDbEntity
  8
标注
 62
     0
370
    -2
100
AcDbCircle
 10
111045.3921429668
 20
4320.677382038598
 30
0.0
 40
10.0
100
AcDbArc
 50
305.8098621956765
 51
87.14930820084203
  0
POINT
  5
2AC
330
2A5
100
AcDbEntity
  8
Defpoints
 62
     0
100
AcDbPoint
 10
111055.0270663695
 20
4323.354741003084
 30
0.0
  0
POINT
  5
2AD
330
2A5
100
AcDbEntity
  8
Defpoints
 62
     0
100
AcDbPoint
 10
111045.3921429668
 20
4320.677382038598
 30
0.0
  0
ENDBLK
  5
2AE
330
2A5
100
AcDbEntity
  8
0
100
AcDbBlockEnd
  0
BLOCK
  5
33E
330
33D
100
AcDbEntity
  8
0
100
AcDbBlockBegin
  2
*D10
 70
     1
 10
0.0
 20
0.0
 30
0.0
  3
*D10
  1

  0
LINE
  5
3EA
330
33D
100
AcDbEntity
  8
标注
 62
     0
370
    -2
100
AcDbLine
 10
301.6116918495118
 20
264.3845694531456
 30
0.0
 11
301.6116918495118
 21
209.7887434803324
 31
0.0
  0
LINE
  5
3EB
330
33D
100
AcDbEntity
  8
标注
 62
     0
370
    -2
100
AcDbLine
 10
1099.811691849509
 20
264.3845694531428
 30
0.0
 11
1099.811691849509
 21
209.7887434803324
 31
0.0
  0
LINE
  5
3EC
330
33D
100
AcDbEntity
  8
标注
 62
     0
370
    -2
100
AcDbLine
 10
313.6116918495118
 20
219.7887434803324
 30
0.0
 11
1087.811691849509
 21
219.7887434803324
 31
0.0
  0
SOLID
  5
3ED
330
33D
100
AcDbEntity
  8
标注
 62
     0
100
AcDbTrace
 10
313.6116918495118
 20
221.7887434803324
 30
0.0
 11
313.6116918495118
 21
217.7887434803324
 31
0.0
 12
301.6116918495118
 22
219.7887434803324
 32
0.0
 13
301.6116918495118
 23
219.7887434803324
 33
0.0
  0
SOLID
  5
3EE
330
33D
100
AcDbEntity
  8
标注
 62
     0
100
AcDbTrace
 10
1087.811691849509
 20
221.7887434803324
 30
0.0
 11
1087.811691849509
 21
217.7887434803324
 31
0.0
 12
1099.811691849509
 22
219.7887434803324
 32
0.0
 13
1099.811691849509
 23
219.7887434803324
 33
0.0
  0
MTEXT
  5
3EF
330
33D
100
AcDbEntity
  8
标注
 62
     0
100
AcDbMText
 10
700.7116918495102
 20
236.6997939578222
 30
0.0
 40
18.4
 41
0.0
 71
     5
 72
     1
  1
798.2 [31 3/8"]
 73
     1
 44
1.0
1001
ACAD
1000
MTEXTBEGIN
1070
    73
1070
     1
1070
    44
1040
1.0
1070
    74
1070
     0
1000
MTEXTEND
  0
POINT
  5
3F0
330
33D
100
AcDbEntity
  8
Defpoints
 62
     0
100
AcDbPoint
 10
301.6116918495118
 20
269.3845694531455
 30
0.0
  0
POINT
  5
3F1
330
33D
100
AcDbEntity
  8
Defpoints
 62
     0
100
AcDbPoint
 10
1099.811691849509
 20
269.3845694531428
 30
0.0
  0
POINT
  5
3F2
330
33D
100
AcDbEntity
  8
Defpoints
 62
     0
100
AcDbPoint
 10
1099.811691849509
 20
219.7887434803324
 30
0.0
  0
ENDBLK
  5
33F
330
33D
100
AcDbEntity
  8
0
100
AcDbBlockEnd
  0
BLOCK
  5
34A
330
349
100
AcDbEntity
  8
0
100
AcDbBlockBegin
  2
*D11
 70
     1
 10
0.0
 20
0.0
 30
0.0
  3
*D11
  1

  0
LINE
  5
39B
330
349
100
AcDbEntity
  8
标注
 62
     0
370
    -2
100
AcDbLine
 10
682.6116918495118
 20
505.6845694531457
 30
0.0
 11
682.6116918495118
 21
471.3602526550339
 31
0.0
  0
LINE
  5
39C
330
349
100
AcDbEntity
  8
标注
 62
     0
370
    -2
100
AcDbLine
 10
718.8116918495088
 20
505.6595694531461
 30
0.0
 11
718.8116918495088
 21
471.3602526550339
 31
0.0
  0
LINE
  5
39D
330
349
100
AcDbEntity
  8
标注
 62
     0
370
    -2
100
AcDbLine
 10
694.6116918495118
 20
481.3602526550337
 30
0.0
 11
706.8116918495088
 21
481.3602526550337
 31
0.0
  0
LINE
  5
39E
330
349
100
AcDbEntity
  8
标注
 62
     0
370
    -2
100
AcDbLine
 10
718.8116918495088
 20
481.3602526550337
 30
0.0
 11
908.1975425608728
 21
481.3602526550337
 31
0.0
  0
SOLID
  5
39F
330
349
100
AcDbEntity
  8
标注
 62
     0
100
AcDbTrace
 10
694.6116918495118
 20
483.3602526550339
 30
0.0
 11
694.6116918495118
 21
479.3602526550339
 31
0.0
 12
682.6116918495118
 22
481.3602526550337
 32
0.0
 13
682.6116918495118
 23
481.3602526550337
 33
0.0
  0
SOLID
  5
3A0
330
349
100
AcDbEntity
  8
标注
 62
     0
100
AcDbTrace
 10
706.8116918495088
 20
483.3602526550339
 30
0.0
 11
706.8116918495088
 21
479.3602526550339
 31
0.0
 12
718.8116918495088
 22
481.3602526550337
 32
0.0
 13
718.8116918495088
 23
481.3602526550337
 33
0.0
  0
MTEXT
  5
3A1
330
349
100
AcDbEntity
  8
标注
 62
     0
100
AcDbMText
 10
835.6974061352248
 20
498.2713031325237
 30
0.0
 40
18.4
 41
0.0
 71
     5
 72
     1
  1
36.2 [1 3/8"]
 73
     1
 44
1.0
1001
ACAD
1000
MTEXTBEGIN
1070
    73
1070
     1
1070
    44
1040
1.0
1070
    74
1070
     0
1000
MTEXTEND
  0
POINT
  5
3A2
330
349
100
AcDbEntity
  8
Defpoints
 62
     0
100
AcDbPoint
 10
682.6116918495118
 20
510.6845694531457
 30
0.0
  0
POINT
  5
3A3
330
349
100
AcDbEntity
  8
Defpoints
 62
     0
100
AcDbPoint
 10
718.8116918495088
 20
510.6595694531462
 30
0.0
  0
POINT
  5
3A4
330
349
100
AcDbEntity
  8
Defpoints
 62
     0
100
AcDbPoint
 10
718.8116918495088
 20
481.3602526550337
 30
0.0
  0
ENDBLK
  5
34B
330
349
100
AcDbEntity
  8
0
100
AcDbBlockEnd
  0
BLOCK
  5
357
330
356
100
AcDbEntity
  8
0
100
AcDbBlockBegin
  2
*D12
 70
     1
 10
0.0
 20
0.0
 30
0.0
  3
*D12
  1

  0
LINE
  5
3BD
330
356
100
AcDbEntity
  8
标注
 62
     0
370
    -2
100
AcDbLine
 10
415.0714467693486
 20
346.2340354033518
 30
0.0
 11
335.6990003561867
 21
324.1779668643578
 31
0.0
  0
MTEXT
  5
3BE
330
356
100
AcDbEntity
  8
标注
 62
     0
100
AcDbMText
 10
377.7939962808587
 20
354.5503102286773
 30
0.0
 40
23.0
 41
0.0
 71
     5
 72
     1
  1
R10
 11
0.9634923402669183
 21
0.2677358964483039
 31
0.0
 73
     1
 44
1.0
1001
ACAD
1000
MTEXTBEGIN
1070
    73
1070
     1
1070
    44
1040
1.0
1070
    74
1070
     0
1000
MTEXTEND
  0
LINE
  5
3BF
330
356
100
AcDbEntity
  8
标注
 62
     0
370
    -2
100
AcDbLine
 10
311.6116918495118
 20
317.4845694531496
 30
0.0
 11
321.2466152521829
 21
320.1619284176332
 31
0.0
  0
SOLID
  5
3C0
330
356
100
AcDbEntity
  8
标注
 62
     0
100
AcDbTrace
 10
335.0296606150659
 20
326.5866977150249
 30
0.0
 11
336.3683400973075
 21
321.7692360136905
 31
0.0
 12
321.2466152521829
 22
320.1619284176332
 32
0.0
 13
321.2466152521829
 23
320.1619284176332
 33
0.0
  0
ARC
  5
3C1
330
356
100
AcDbEntity
  8
标注
 62
     0
370
    -2
100
AcDbCircle
 10
311.6116918495118
 20
317.4845694531496
 30
0.0
 40
10.00000000000199
100
AcDbArc
 50
305.8098621956693
 51
87.14930820082784
  0
POINT
  5
3C2
330
356
100
AcDbEntity
  8
Defpoints
 62
     0
100
AcDbPoint
 10
321.2466152521829
 20
320.1619284176332
 30
0.0
  0
POINT
  5
3C3
330
356
100
AcDbEntity
  8
Defpoints
 62
     0
100
AcDbPoint
 10
311.6116918495118
 20
317.4845694531496
 30
0.0
  0
ENDBLK
  5
358
330
356
100
AcDbEntity
  8
0
100
AcDbBlockEnd
  0
BLOCK
  5
361
330
360
100
AcDbEntity
  8
0
100
AcDbBlockBegin
  2
*D13
 70
     1
 10
0.0
 20
0.0
 30
0.0
  3
*D13
  1

  0
LINE
  5
3C4
330
360
100
AcDbEntity
  8
标注
 62
     0
370
    -2
100
AcDbLine
 10
281.6116918495118
 20
505.6595694531461
 30
0.0
 11
281.6116918495118
 21
475.2309066567638
 31
0.0
  0
LINE
  5
3C5
330
360
100
AcDbEntity
  8
标注
 62
     0
370
    -2
100
AcDbLine
 10
301.6116918495118
 20
505.6595694531461
 30
0.0
 11
301.6116918495118
 21
475.2309066567638
 31
0.0
  0
LINE
  5
3C6
330
360
100
AcDbEntity
  8
标注
 62
     0
370
    -2
100
AcDbLine
 10
269.6116918495118
 20
485.2309066567641
 30
0.0
 11
257.6116918495118
 21
485.2309066567641
 31
0.0
  0
LINE
  5
3C7
330
360
100
AcDbEntity
  8
标注
 62
     0
370
    -2
100
AcDbLine
 10
313.6116918495118
 20
485.2309066567641
 30
0.0
 11
450.6185651035913
 21
485.2309066567641
 31
0.0
  0
LINE
  5
3C8
330
360
100
AcDbEntity
  8
标注
 62
     0
370
    -2
100
AcDbLine
 10
281.6116918495118
 20
485.2309066567641
 30
0.0
 11
301.6116918495118
 21
485.2309066567641
 31
0.0
  0
SOLID
  5
3C9
330
360
100
AcDbEntity
  8
标注
 62
     0
100
AcDbTrace
 10
269.6116918495118
 20
487.2309066567638
 30
0.0
 11
269.6116918495118
 21
483.2309066567638
 31
0.0
 12
281.6116918495118
 22
485.2309066567641
 32
0.0
 13
281.6116918495118
 23
485.2309066567641
 33
0.0
  0
SOLID
  5
3CA
330
360
100
AcDbEntity
  8
标注
 62
     0
100
AcDbTrace
 10
313.6116918495118
 20
487.2309066567638
 30
0.0
 11
313.6116918495118
 21
483.2309066567638
 31
0.0
 12
301.6116918495118
 22
485.2309066567641
 32
0.0
 13
301.6116918495118
 23
485.2309066567641
 33
0.0
  0
MTEXT
  5
3CB
330
360
100
AcDbEntity
  8
标注
 62
     0
100
AcDbMText
 10
399.3926442304673
 20
502.1419571342538
 30
0.0
 40
18.4
 41
0.0
 71
     5
 72
     1
  1
20 [3/4"]
 73
     1
 44
1.0
1001
ACAD
1000
MTEXTBEGIN
1070
    73
1070
     1
1070
    44
1040
1.0
1070
    74
1070
     0
1000
MTEXTEND
  0
POINT
  5
3CC
330
360
100
AcDbEntity
  8
Defpoints
 62
     0
100
AcDbPoint
 10
281.6116918495118
 20
510.6595694531462
 30
0.0
  0
POINT
  5
3CD
330
360
100
AcDbEntity
  8
Defpoints
 62
     0
100
AcDbPoint
 10
301.6116918495118
 20
510.6595694531462
 30
0.0
  0
POINT
  5
3CE
330
360
100
AcDbEntity
  8
Defpoints
 62
     0
100
AcDbPoint
 10
301.6116918495118
 20
485.2309066567641
 30
0.0
  0
ENDBLK
  5
362
330
360
100
AcDbEntity
  8
0
100
AcDbBlockEnd
  0
BLOCK
  5
36F
330
36E
100
AcDbEntity
  8
0
100
AcDbBlockBegin
  2
*D14
 70
     1
 10
0.0
 20
0.0
 30
0.0
  3
*D14
  1

  0
LINE
  5
3CF
330
36E
100
AcDbEntity
  8
标注
 62
     0
370
    -2
100
AcDbLine
 10
1124.811691849509
 20
713.834569453146
 30
0.0
 11
1192.338871947026
 21
713.834569453146
 31
0.0
  0
LINE
  5
3D0
330
36E
100
AcDbEntity
  8
标注
 62
     0
370
    -2
100
AcDbLine
 10
1124.811691849509
 20
307.4845694531459
 30
0.0
 11
1192.338871947026
 21
307.4845694531459
 31
0.0
  0
LINE
  5
3D1
330
36E
100
AcDbEntity
  8
标注
 62
     0
370
    -2
100
AcDbLine
 10
1182.338871947026
 20
701.834569453146
 30
0.0
 11
1182.338871947026
 21
319.4845694531459
 31
0.0
  0
SOLID
  5
3D2
330
36E
100
AcDbEntity
  8
标注
 62
     0
100
AcDbTrace
 10
1180.338871947026
 20
701.834569453146
 30
0.0
 11
1184.338871947026
 21
701.834569453146
 31
0.0
 12
1182.338871947026
 22
713.834569453146
 32
0.0
 13
1182.338871947026
 23
713.834569453146
 33
0.0
  0
SOLID
  5
3D3
330
36E
100
AcDbEntity
  8
标注
 62
     0
100
AcDbTrace
 10
1180.338871947026
 20
319.4845694531459
 30
0.0
 11
1184.338871947026
 21
319.4845694531459
 31
0.0
 12
1182.338871947026
 22
307.4845694531459
 32
0.0
 13
1182.338871947026
 23
307.4845694531459
 33
0.0
  0
MTEXT
  5
3D4
330
36E
100
AcDbEntity
  8
标注
 62
     0
100
AcDbMText
 10
1165.547057485907
 20
510.6595694531463
 30
0.0
 40
18.4
 41
0.0
 71
     5
 72
     1
  1
406.4 [16"]
 11
0.0000000000000001
 21
1.0
 31
0.0
 73
     1
 44
1.0
1001
ACAD
1000
MTEXTBEGIN
1070
    73
1070
     1
1070
    44
1040
1.0
1070
    74
1070
     0
1000
MTEXTEND
  0
POINT
  5
3D5
330
36E
100
AcDbEntity
  8
Defpoints
 62
     0
100
AcDbPoint
 10
1119.811691849509
 20
713.834569453146
 30
0.0
  0
POINT
  5
3D6
330
36E
100
AcDbEntity
  8
Defpoints
 62
     0
100
AcDbPoint
 10
1119.811691849509
 20
307.4845694531459
 30
0.0
  0
POINT
  5
3D7
330
36E
100
AcDbEntity
  8
Defpoints
 62
     0
100
AcDbPoint
 10
1182.338871947026
 20
307.4845694531459
 30
0.0
  0
ENDBLK
  5
370
330
36E
100
AcDbEntity
  8
0
100
AcDbBlockEnd
  0
BLOCK
  5
37B
330
37A
100
AcDbEntity
  8
0
100
AcDbBlockBegin
  2
*D15
 70
     1
 10
0.0
 20
0.0
 30
0.0
  3
*D15
  1

  0
LINE
  5
37D
330
37A
100
AcDbEntity
  8
标注
 62
     0
370
    -2
100
AcDbLine
 10
1124.811691849509
 20
751.9345694531466
 30
0.0
 11
1240.243664225332
 21
751.9345694531466
 31
0.0
  0
LINE
  5
37E
330
37A
100
AcDbEntity
  8
标注
 62
     0
370
    -2
100
AcDbLine
 10
1124.811691849509
 20
269.3845694531455
 30
0.0
 11
1240.243664225332
 21
269.3845694531455
 31
0.0
  0
LINE
  5
37F
330
37A
100
AcDbEntity
  8
标注
 62
     0
370
    -2
100
AcDbLine
 10
1230.243664225332
 20
739.9345694531466
 30
0.0
 11
1230.243664225332
 21
281.3845694531455
 31
0.0
  0
SOLID
  5
380
330
37A
100
AcDbEntity
  8
标注
 62
     0
100
AcDbTrace
 10
1228.243664225332
 20
739.9345694531466
 30
0.0
 11
1232.243664225332
 21
739.9345694531466
 31
0.0
 12
1230.243664225332
 22
751.9345694531466
 32
0.0
 13
1230.243664225332
 23
751.9345694531466
 33
0.0
  0
SOLID
  5
381
330
37A
100
AcDbEntity
  8
标注
 62
     0
100
AcDbTrace
 10
1228.243664225332
 20
281.3845694531455
 30
0.0
 11
1232.243664225332
 21
281.3845694531455
 31
0.0
 12
1230.243664225332
 22
269.3845694531455
 32
0.0
 13
1230.243664225332
 23
269.3845694531455
 33
0.0
  0
MTEXT
  5
382
330
37A
100
AcDbEntity
  8
标注
 62
     0
100
AcDbMText
 10
1213.451849764213
 20
510.6595694531463
 30
0.0
 40
18.4
 41
0.0
 71
     5
 72
     1
  1
482.6 [19"]
 11
0.0000000000000001
 21
1.0
 31
0.0
 73
     1
 44
1.0
1001
ACAD
1000
MTEXTBEGIN
1070
    73
1070
     1
1070
    44
1040
1.0
1070
    74
1070
     0
1000
MTEXTEND
  0
POINT
  5
383
330
37A
100
AcDbEntity
  8
Defpoints
 62
     0
100
AcDbPoint
 10
1119.811691849509
 20
751.9345694531466
 30
0.0
  0
POINT
  5
384
330
37A
100
AcDbEntity
  8
Defpoints
 62
     0
100
AcDbPoint
 10
1119.811691849509
 20
269.3845694531455
 30
0.0
  0
POINT
  5
385
330
37A
100
AcDbEntity
  8
Defpoints
 62
     0
100
AcDbPoint
 10
1230.243664225332
 20
269.3845694531455
 30
0.0
  0
ENDBLK
  5
37C
330
37A
100
AcDbEntity
  8
0
100
AcDbBlockEnd
  0
BLOCK
  5
390
330
38F
100
AcDbEntity
  8
0
100
AcDbBlockBegin
  2
*D16
 70
     1
 10
0.0
 20
0.0
 30
0.0
  3
*D16
  1

  0
LINE
  5
392
330
38F
100
AcDbEntity
  8
标注
 62
     0
370
    -2
100
AcDbLine
 10
281.6116918495118
 20
264.3845694531456
 30
0.0
 11
281.6116918495118
 21
160.2197687925418
 31
0.0
  0
LINE
  5
393
330
38F
100
AcDbEntity
  8
标注
 62
     0
370
    -2
100
AcDbLine
 10
1119.811691849509
 20
264.3845694531456
 30
0.0
 11
1119.811691849509
 21
160.2197687925418
 31
0.0
  0
LINE
  5
394
330
38F
100
AcDbEntity
  8
标注
 62
     0
370
    -2
100
AcDbLine
 10
293.6116918495118
 20
170.2197687925418
 30
0.0
 11
1107.811691849509
 21
170.2197687925418
 31
0.0
  0
SOLID
  5
395
330
38F
100
AcDbEntity
  8
标注
 62
     0
100
AcDbTrace
 10
293.6116918495118
 20
172.2197687925418
 30
0.0
 11
293.6116918495118
 21
168.2197687925418
 31
0.0
 12
281.6116918495118
 22
170.2197687925418
 32
0.0
 13
281.6116918495118
 23
170.2197687925418
 33
0.0
  0
SOLID
  5
396
330
38F
100
AcDbEntity
  8
标注
 62
     0
100
AcDbTrace
 10
1107.811691849509
 20
172.2197687925418
 30
0.0
 11
1107.811691849509
 21
168.2197687925418
 31
0.0
 12
1119.811691849509
 22
170.2197687925418
 32
0.0
 13
1119.811691849509
 23
170.2197687925418
 33
0.0
  0
MTEXT
  5
397
330
38F
100
AcDbEntity
  8
标注
 62
     0
100
AcDbMText
 10
700.7116918495102
 20
187.0115832536605
 30
0.0
 40
18.4
 41
0.0
 71
     5
 72
     1
  1
838.2 [33"]
 73
     1
 44
1.0
1001
ACAD
1000
MTEXTBEGIN
1070
    73
1070
     1
1070
    44
1040
1.0
1070
    74
1070
     0
1000
MTEXTEND
  0
POINT
  5
398
330
38F
100
AcDbEntity
  8
Defpoints
 62
     0
100
AcDbPoint
 10
281.6116918495118
 20
269.3845694531455
 30
0.0
  0
POINT
  5
399
330
38F
100
AcDbEntity
  8
Defpoints
 62
     0
100
AcDbPoint
 10
1119.811691849509
 20
269.3845694531455
 30
0.0
  0
POINT
  5
39A
330
38F
100
AcDbEntity
  8
Defpoints
 62
     0
100
AcDbPoint
 10
1119.811691849509
 20
170.2197687925418
 30
0.0
  0
ENDBLK
  5
391
330
38F
100
AcDbEntity
  8
0
100
AcDbBlockEnd
  0
BLOCK
  5
3A6
330
3A5
100
AcDbEntity
  8
0
100
AcDbBlockBegin
  2
*D17
 70
     1
 10
0.0
 20
0.0
 30
0.0
  3
*D17
  1

  0
LINE
  5
3A8
330
3A5
100
AcDbEntity
  8
标注
 62
     0
370
    -2
100
AcDbLine
 10
718.8116918495088
 20
264.3845694531456
 30
0.0
 11
718.8116918495088
 21
209.788743480337
 31
0.0
  0
LINE
  5
3A9
330
3A5
100
AcDbEntity
  8
标注
 62
     0
370
    -2
100
AcDbLine
 10
1099.811691849509
 20
264.3845694531456
 30
0.0
 11
1099.811691849509
 21
209.788743480337
 31
0.0
  0
LINE
  5
3AA
330
3A5
100
AcDbEntity
  8
标注
 62
     0
370
    -2
100
AcDbLine
 10
730.8116918495088
 20
219.7887434803369
 30
0.0
 11
1087.811691849509
 21
219.7887434803369
 31
0.0
  0
SOLID
  5
3AB
330
3A5
100
AcDbEntity
  8
标注
 62
     0
100
AcDbTrace
 10
730.8116918495088
 20
221.7887434803369
 30
0.0
 11
730.8116918495088
 21
217.788743480337
 31
0.0
 12
718.8116918495088
 22
219.7887434803369
 32
0.0
 13
718.8116918495088
 23
219.7887434803369
 33
0.0
  0
SOLID
  5
3AC
330
3A5
100
AcDbEntity
  8
标注
 62
     0
100
AcDbTrace
 10
1087.811691849509
 20
221.7887434803369
 30
0.0
 11
1087.811691849509
 21
217.788743480337
 31
0.0
 12
1099.811691849509
 22
219.7887434803369
 32
0.0
 13
1099.811691849509
 23
219.7887434803369
 33
0.0
  0
MTEXT
  5
3AD
330
3A5
100
AcDbEntity
  8
标注
 62
     0
100
AcDbMText
 10
909.3116918495088
 20
236.5805579414557
 30
0.0
 40
18.4
 41
0.0
 71
     5
 72
     1
  1
381 [15"]
 73
     1
 44
1.0
1001
ACAD
1000
MTEXTBEGIN
1070
    73
1070
     1
1070
    44
1040
1.0
1070
    74
1070
     0
1000
MTEXTEND
  0
POINT
  5
3AE
330
3A5
100
AcDbEntity
  8
Defpoints
 62
     0
100
AcDbPoint
 10
718.8116918495088
 20
269.3845694531455
 30
0.0
  0
POINT
  5
3AF
330
3A5
100
AcDbEntity
  8
Defpoints
 62
     0
100
AcDbPoint
 10
1099.811691849509
 20
269.3845694531455
 30
0.0
  0
POINT
  5
3B0
330
3A5
100
AcDbEntity
  8
Defpoints
 62
     0
100
AcDbPoint
 10
1099.811691849509
 20
219.7887434803369
 30
0.0
  0
ENDBLK
  5
3A7
330
3A5
100
AcDbEntity
  8
0
100
AcDbBlockEnd
  0
BLOCK
  5
3B2
330
3B1
100
AcDbEntity
  8
0
100
AcDbBlockBegin
  2
*D18
 70
     1
 10
0.0
 20
0.0
 30
0.0
  3
*D18
  1

  0
LINE
  5
3E1
330
3B1
100
AcDbEntity
  8
标注
 62
     0
370
    -2
100
AcDbLine
 10
276.6116918495118
 20
731.9345694531466
 30
0.0
 11
222.7432198242915
 21
731.9345694531468
 31
0.0
  0
LINE
  5
3E2
330
3B1
100
AcDbEntity
  8
标注
 62
     0
370
    -2
100
AcDbLine
 10
276.6116918495118
 20
289.3845694531455
 30
0.0
 11
222.7432198242914
 21
289.3845694531455
 31
0.0
  0
LINE
  5
3E3
330
3B1
100
AcDbEntity
  8
标注
 62
     0
370
    -2
100
AcDbLine
 10
232.7432198242915
 20
719.9345694531467
 30
0.0
 11
232.7432198242914
 21
301.3845694531455
 31
0.0
  0
SOLID
  5
3E4
330
3B1
100
AcDbEntity
  8
标注
 62
     0
100
AcDbTrace
 10
230.7432198242915
 20
719.9345694531467
 30
0.0
 11
234.7432198242915
 21
719.9345694531467
 31
0.0
 12
232.7432198242915
 22
731.9345694531468
 32
0.0
 13
232.7432198242915
 23
731.9345694531468
 33
0.0
  0
SOLID
  5
3E5
330
3B1
100
AcDbEntity
  8
标注
 62
     0
100
AcDbTrace
 10
230.7432198242914
 20
301.3845694531455
 30
0.0
 11
234.7432198242914
 21
301.3845694531455
 31
0.0
 12
232.7432198242914
 22
289.3845694531455
 32
0.0
 13
232.7432198242914
 23
289.3845694531455
 33
0.0
  0
MTEXT
  5
3E6
330
3B1
100
AcDbEntity
  8
标注
 62
     0
100
AcDbMText
 10
215.8321693468016
 20
510.6595694531462
 30
0.0
 40
18.4
 41
0.0
 71
     5
 72
     1
  1
442.6 [17 3/8"]
 11
0.0000000000000001
 21
1.0
 31
0.0
 73
     1
 44
1.0
1001
ACAD
1000
MTEXTBEGIN
1070
    73
1070
     1
1070
    44
1040
1.0
1070
    74
1070
     0
1000
MTEXTEND
  0
POINT
  5
3E7
330
3B1
100
AcDbEntity
  8
Defpoints
 62
     0
100
AcDbPoint
 10
281.6116918495118
 20
731.9345694531466
 30
0.0
  0
POINT
  5
3E8
330
3B1
100
AcDbEntity
  8
Defpoints
 62
     0
100
AcDbPoint
 10
281.6116918495118
 20
289.3845694531455
 30
0.0
  0
POINT
  5
3E9
330
3B1
100
AcDbEntity
  8
Defpoints
 62
     0
100
AcDbPoint
 10
232.7432198242914
 20
289.3845694531455
 30
0.0
  0
ENDBLK
  5
3B3
330
3B1
100
AcDbEntity
  8
0
100
AcDbBlockEnd
  0
BLOCK
  5
445
330
444
100
AcDbEntity
  8
0
100
AcDbBlockBegin
  2
*D19
 70
     1
 10
0.0
 20
0.0
 30
0.0
  3
*D19
  1

  0
LINE
  5
446
330
444
100
AcDbEntity
  8
标注尺寸线
 62
     0
370
    -2
100
AcDbLine
 10
38788.18020285624
 20
-53570.97950727233
 30
0.0
 11
38788.18020285624
 21
-53513.35359140517
 31
0.0
  0
LINE
  5
447
330
444
100
AcDbEntity
  8
标注尺寸线
 62
     0
370
    -2
100
AcDbLine
 10
39606.18020285624
 20
-53570.97950727233
 30
0.0
 11
39606.18020285624
 21
-53513.35359140517
 31
0.0
  0
LINE
  5
448
330
444
100
AcDbEntity
  8
标注尺寸线
 62
     0
370
    -2
100
AcDbLine
 10
38800.18020285625
 20
-53523.35359140517
 30
0.0
 11
39594.18020285625
 21
-53523.35359140517
 31
0.0
  0
SOLID
  5
449
330
444
100
AcDbEntity
  8
标注尺寸线
 62
     0
100
AcDbTrace
 10
38800.18020285625
 20
-53521.35359140516
 30
0.0
 11
38800.18020285625
 21
-53525.35359140516
 31
0.0
 12
38788.18020285624
 22
-53523.35359140517
 32
0.0
 13
38788.18020285624
 23
-53523.35359140517
 33
0.0
  0
SOLID
  5
44A
330
444
100
AcDbEntity
  8
标注尺寸线
 62
     0
100
AcDbTrace
 10
39594.18020285625
 20
-53521.35359140516
 30
0.0
 11
39594.18020285625
 21
-53525.35359140516
 31
0.0
 12
39606.18020285624
 22
-53523.35359140517
 32
0.0
 13
39606.18020285624
 23
-53523.35359140517
 33
0.0
  0
MTEXT
  5
44B
330
444
100
AcDbEntity
  8
标注尺寸线
 62
     0
100
AcDbMText
 10
39197.18020285625
 20
-53509.15359140516
 30
0.0
 40
18.39999999999998
 41
0.0
 71
     5
 72
     1
  1
818
 73
     1
 44
1.0
1001
ACAD
1000
MTEXTBEGIN
1070
    73
1070
     1
1070
    44
1040
1.0
1070
    74
1070
     0
1000
MTEXTEND
  0
POINT
  5
44C
330
444
100
AcDbEntity
  8
Defpoints
 62
     0
100
AcDbPoint
 10
38788.18020285624
 20
-53575.97950727233
 30
0.0
  0
POINT
  5
44D
330
444
100
AcDbEntity
  8
Defpoints
 62
     0
100
AcDbPoint
 10
39606.18020285624
 20
-53575.97950727233
 30
0.0
  0
POINT
  5
44E
330
444
100
AcDbEntity
  8
Defpoints
 62
     0
100
AcDbPoint
 10
39606.18020285624
 20
-53523.35359140517
 30
0.0
  0
ENDBLK
  5
44F
330
444
100
AcDbEntity
  8
0
100
AcDbBlockEnd
  0
BLOCK
  5
451
330
450
100
AcDbEntity
  8
0
100
AcDbBlockBegin
  2
*D20
 70
     1
 10
0.0
 20
0.0
 30
0.0
  3
*D20
  1

  0
LINE
  5
452
330
450
100
AcDbEntity
  8
标注尺寸线
 62
     0
370
    -2
100
AcDbLine
 10
38783.18020285625
 20
-53575.97950727233
 30
0.0
 11
38695.2296750908
 21
-53575.97950727233
 31
0.0
  0
LINE
  5
453
330
450
100
AcDbEntity
  8
标注尺寸线
 62
     0
370
    -2
100
AcDbLine
 10
38783.18020285625
 20
-54113.97950727233
 30
0.0
 11
38695.2296750908
 21
-54113.97950727233
 31
0.0
  0
LINE
  5
454
330
450
100
AcDbEntity
  8
标注尺寸线
 62
     0
370
    -2
100
AcDbLine
 10
38705.2296750908
 20
-53587.97950727233
 30
0.0
 11
38705.2296750908
 21
-54101.97950727233
 31
0.0
  0
SOLID
  5
455
330
450
100
AcDbEntity
  8
标注尺寸线
 62
     0
100
AcDbTrace
 10
38703.2296750908
 20
-53587.97950727233
 30
0.0
 11
38707.2296750908
 21
-53587.97950727233
 31
0.0
 12
38705.2296750908
 22
-53575.97950727233
 32
0.0
 13
38705.2296750908
 23
-53575.97950727233
 33
0.0
  0
SOLID
  5
456
330
450
100
AcDbEntity
  8
标注尺寸线
 62
     0
100
AcDbTrace
 10
38703.2296750908
 20
-54101.97950727233
 30
0.0
 11
38707.2296750908
 21
-54101.97950727233
 31
0.0
 12
38705.2296750908
 22
-54113.97950727233
 32
0.0
 13
38705.2296750908
 23
-54113.97950727233
 33
0.0
  0
MTEXT
  5
457
330
450
100
AcDbEntity
  8
标注尺寸线
 62
     0
100
AcDbMText
 10
38691.02967509082
 20
-53844.97950727233
 30
0.0
 40
18.39999999999998
 41
0.0
 71
     5
 72
     1
  1
538
 11
0.0000000000000001
 21
1.0
 31
0.0
 73
     1
 44
1.0
1001
ACAD
1000
MTEXTBEGIN
1070
    73
1070
     1
1070
    44
1040
1.0
1070
    74
1070
     0
1000
MTEXTEND
  0
POINT
  5
458
330
450
100
AcDbEntity
  8
Defpoints
 62
     0
100
AcDbPoint
 10
38788.18020285624
 20
-53575.97950727233
 30
0.0
  0
POINT
  5
459
330
450
100
AcDbEntity
  8
Defpoints
 62
     0
100
AcDbPoint
 10
38788.18020285624
 20
-54113.97950727233
 30
0.0
  0
POINT
  5
45A
330
450
100
AcDbEntity
  8
Defpoints
 62
     0
100
AcDbPoint
 10
38705.2296750908
 20
-54113.97950727233
 30
0.0
  0
ENDBLK
  5
45B
330
450
100
AcDbEntity
  8
0
100
AcDbBlockEnd
  0
BLOCK
  5
482
330
481
100
AcDbEntity
  8
0
100
AcDbBlockBegin
  2
*D21
 70
     1
 10
0.0
 20
0.0
 30
0.0
  3
*D21
  1

  0
LINE
  5
4AB
330
481
100
AcDbEntity
  8
标注
 62
     0
370
    -2
100
AcDbLine
 10
302.0492916339408
 20
756.4742970285878
 30
0.0
 11
302.0492916339408
 21
814.1002128957627
 31
0.0
  0
LINE
  5
4AC
330
481
100
AcDbEntity
  8
标注
 62
     0
370
    -2
100
AcDbLine
 10
1120.049291633941
 20
756.4742970285878
 30
0.0
 11
1120.049291633941
 21
814.1002128957627
 31
0.0
  0
LINE
  5
4AD
330
481
100
AcDbEntity
  8
标注
 62
     0
370
    -2
100
AcDbLine
 10
314.0492916339408
 20
804.1002128957625
 30
0.0
 11
1108.049291633941
 21
804.1002128957625
 31
0.0
  0
SOLID
  5
4AE
330
481
100
AcDbEntity
  8
标注
 62
     0
100
AcDbTrace
 10
314.0492916339408
 20
806.1002128957627
 30
0.0
 11
314.0492916339408
 21
802.1002128957626
 31
0.0
 12
302.0492916339408
 22
804.1002128957625
 32
0.0
 13
302.0492916339408
 23
804.1002128957625
 33
0.0
  0
SOLID
  5
4AF
330
481
100
AcDbEntity
  8
标注
 62
     0
100
AcDbTrace
 10
1108.049291633941
 20
806.1002128957627
 30
0.0
 11
1108.049291633941
 21
802.1002128957626
 31
0.0
 12
1120.049291633941
 22
804.1002128957625
 32
0.0
 13
1120.049291633941
 23
804.1002128957625
 33
0.0
  0
MTEXT
  5
4B0
330
481
100
AcDbEntity
  8
标注
 62
     0
100
AcDbMText
 10
711.0492916339405
 20
821.0112633732524
 30
0.0
 40
18.39999999999999
 41
0.0
 71
     5
 72
     1
  1
818 [32 1/4"]
 73
     1
 44
1.0
1001
ACAD
1000
MTEXTBEGIN
1070
    73
1070
     1
1070
    44
1040
1.0
1070
    74
1070
     0
1000
MTEXTEND
  0
POINT
  5
4B1
330
481
100
AcDbEntity
  8
Defpoints
 62
     0
100
AcDbPoint
 10
302.0492916339408
 20
751.4742970285878
 30
0.0
  0
POINT
  5
4B2
330
481
100
AcDbEntity
  8
Defpoints
 62
     0
100
AcDbPoint
 10
1120.049291633941
 20
751.4742970285878
 30
0.0
  0
POINT
  5
4B3
330
481
100
AcDbEntity
  8
Defpoints
 62
     0
100
AcDbPoint
 10
1120.049291633941
 20
804.1002128957625
 30
0.0
  0
ENDBLK
  5
483
330
481
100
AcDbEntity
  8
0
100
AcDbBlockEnd
  0
BLOCK
  5
48E
330
48D
100
AcDbEntity
  8
0
100
AcDbBlockBegin
  2
*D22
 70
     1
 10
0.0
 20
0.0
 30
0.0
  3
*D22
  1

  0
LINE
  5
4B4
330
48D
100
AcDbEntity
  8
标注
 62
     0
370
    -2
100
AcDbLine
 10
297.0492916339408
 20
751.4742970285878
 30
0.0
 11
209.0987638684948
 21
751.4742970285881
 31
0.0
  0
LINE
  5
4B5
330
48D
100
AcDbEntity
  8
标注
 62
     0
370
    -2
100
AcDbLine
 10
297.0492916339408
 20
213.4742970285881
 30
0.0
 11
209.0987638684946
 21
213.4742970285881
 31
0.0
  0
LINE
  5
4B6
330
48D
100
AcDbEntity
  8
标注
 62
     0
370
    -2
100
AcDbLine
 10
219.0987638684948
 20
739.4742970285881
 30
0.0
 11
219.0987638684946
 21
225.474297028588
 31
0.0
  0
SOLID
  5
4B7
330
48D
100
AcDbEntity
  8
标注
 62
     0
100
AcDbTrace
 10
217.0987638684948
 20
739.4742970285881
 30
0.0
 11
221.0987638684947
 21
739.4742970285881
 31
0.0
 12
219.0987638684948
 22
751.4742970285881
 32
0.0
 13
219.0987638684948
 23
751.4742970285881
 33
0.0
  0
SOLID
  5
4B8
330
48D
100
AcDbEntity
  8
标注
 62
     0
100
AcDbTrace
 10
217.0987638684946
 20
225.474297028588
 30
0.0
 11
221.0987638684946
 21
225.474297028588
 31
0.0
 12
219.0987638684946
 22
213.4742970285881
 32
0.0
 13
219.0987638684946
 23
213.4742970285881
 33
0.0
  0
MTEXT
  5
4B9
330
48D
100
AcDbEntity
  8
标注
 62
     0
100
AcDbMText
 10
202.1877133910048
 20
482.4742970285881
 30
0.0
 40
18.39999999999999
 41
0.0
 71
     5
 72
     1
  1
538 [21 1/8"]
 11
0.0000000000000001
 21
1.0
 31
0.0
 73
     1
 44
1.0
1001
ACAD
1000
MTEXTBEGIN
1070
    73
1070
     1
1070
    44
1040
1.0
1070
    74
1070
     0
1000
MTEXTEND
  0
POINT
  5
4BA
330
48D
100
AcDbEntity
  8
Defpoints
 62
     0
100
AcDbPoint
 10
302.0492916339408
 20
751.4742970285878
 30
0.0
  0
POINT
  5
4BB
330
48D
100
AcDbEntity
  8
Defpoints
 62
     0
100
AcDbPoint
 10
302.0492916339408
 20
213.4742970285881
 30
0.0
  0
POINT
  5
4BC
330
48D
100
AcDbEntity
  8
Defpoints
 62
     0
100
AcDbPoint
 10
219.0987638684946
 20
213.4742970285881
 30
0.0
  0
ENDBLK
  5
48F
330
48D
100
AcDbEntity
  8
0
100
AcDbBlockEnd
  0
BLOCK
  5
54B
330
54A
100
AcDbEntity
  8
0
100
AcDbBlockBegin
  2
*D23
 70
     1
 10
0.0
 20
0.0
 30
0.0
  3
*D23
  1

  0
LINE
  5
54C
330
54A
100
AcDbEntity
  8
标注尺寸线
 62
     0
370
    -2
100
AcDbLine
 10
39961.49076904851
 20
-53570.97950727233
 30
0.0
 11
39961.49076904851
 21
-53513.35359140517
 31
0.0
  0
LINE
  5
54D
330
54A
100
AcDbEntity
  8
标注尺寸线
 62
     0
370
    -2
100
AcDbLine
 10
40779.49076904848
 20
-53570.97950727233
 30
0.0
 11
40779.49076904848
 21
-53513.35359140517
 31
0.0
  0
LINE
  5
54E
330
54A
100
AcDbEntity
  8
标注尺寸线
 62
     0
370
    -2
100
AcDbLine
 10
39973.49076904852
 20
-53523.35359140517
 30
0.0
 11
40767.49076904848
 21
-53523.35359140517
 31
0.0
  0
SOLID
  5
54F
330
54A
100
AcDbEntity
  8
标注尺寸线
 62
     0
100
AcDbTrace
 10
39973.49076904852
 20
-53521.35359140516
 30
0.0
 11
39973.49076904852
 21
-53525.35359140516
 31
0.0
 12
39961.49076904851
 22
-53523.35359140517
 32
0.0
 13
39961.49076904851
 23
-53523.35359140517
 33
0.0
  0
SOLID
  5
550
330
54A
100
AcDbEntity
  8
标注尺寸线
 62
     0
100
AcDbTrace
 10
40767.49076904848
 20
-53521.35359140516
 30
0.0
 11
40767.49076904848
 21
-53525.35359140516
 31
0.0
 12
40779.49076904848
 22
-53523.35359140517
 32
0.0
 13
40779.49076904848
 23
-53523.35359140517
 33
0.0
  0
MTEXT
  5
551
330
54A
100
AcDbEntity
  8
标注尺寸线
 62
     0
100
AcDbMText
 10
40370.49076904851
 20
-53509.15359140516
 30
0.0
 40
18.39999999999998
 41
0.0
 71
     5
 72
     1
  1
818
 73
     1
 44
1.0
1001
ACAD
1000
MTEXTBEGIN
1070
    73
1070
     1
1070
    44
1040
1.0
1070
    74
1070
     0
1000
MTEXTEND
  0
POINT
  5
552
330
54A
100
AcDbEntity
  8
Defpoints
 62
     0
100
AcDbPoint
 10
39961.49076904851
 20
-53575.97950727233
 30
0.0
  0
POINT
  5
553
330
54A
100
AcDbEntity
  8
Defpoints
 62
     0
100
AcDbPoint
 10
40779.49076904848
 20
-53575.97950727233
 30
0.0
  0
POINT
  5
554
330
54A
100
AcDbEntity
  8
Defpoints
 62
     0
100
AcDbPoint
 10
40779.49076904848
 20
-53523.35359140517
 30
0.0
  0
ENDBLK
  5
555
330
54A
100
AcDbEntity
  8
0
100
AcDbBlockEnd
  0
BLOCK
  5
557
330
556
100
AcDbEntity
  8
0
100
AcDbBlockBegin
  2
*D24
 70
     1
 10
0.0
 20
0.0
 30
0.0
  3
*D24
  1

  0
LINE
  5
558
330
556
100
AcDbEntity
  8
标注尺寸线
 62
     0
370
    -2
100
AcDbLine
 10
39956.49076904852
 20
-53575.97950727233
 30
0.0
 11
39868.54024128306
 21
-53575.97950727233
 31
0.0
  0
LINE
  5
559
330
556
100
AcDbEntity
  8
标注尺寸线
 62
     0
370
    -2
100
AcDbLine
 10
39956.49076904852
 20
-54113.97950727233
 30
0.0
 11
39868.54024128306
 21
-54113.97950727233
 31
0.0
  0
LINE
  5
55A
330
556
100
AcDbEntity
  8
标注尺寸线
 62
     0
370
    -2
100
AcDbLine
 10
39878.54024128306
 20
-53587.97950727233
 30
0.0
 11
39878.54024128306
 21
-54101.97950727233
 31
0.0
  0
SOLID
  5
55B
330
556
100
AcDbEntity
  8
标注尺寸线
 62
     0
100
AcDbTrace
 10
39876.54024128306
 20
-53587.97950727233
 30
0.0
 11
39880.54024128306
 21
-53587.97950727233
 31
0.0
 12
39878.54024128306
 22
-53575.97950727233
 32
0.0
 13
39878.54024128306
 23
-53575.97950727233
 33
0.0
  0
SOLID
  5
55C
330
556
100
AcDbEntity
  8
标注尺寸线
 62
     0
100
AcDbTrace
 10
39876.54024128306
 20
-54101.97950727233
 30
0.0
 11
39880.54024128306
 21
-54101.97950727233
 31
0.0
 12
39878.54024128306
 22
-54113.97950727233
 32
0.0
 13
39878.54024128306
 23
-54113.97950727233
 33
0.0
  0
MTEXT
  5
55D
330
556
100
AcDbEntity
  8
标注尺寸线
 62
     0
100
AcDbMText
 10
39864.34024128309
 20
-53844.97950727233
 30
0.0
 40
18.39999999999998
 41
0.0
 71
     5
 72
     1
  1
538
 11
0.0000000000000001
 21
1.0
 31
0.0
 73
     1
 44
1.0
1001
ACAD
1000
MTEXTBEGIN
1070
    73
1070
     1
1070
    44
1040
1.0
1070
    74
1070
     0
1000
MTEXTEND
  0
POINT
  5
55E
330
556
100
AcDbEntity
  8
Defpoints
 62
     0
100
AcDbPoint
 10
39961.49076904851
 20
-53575.97950727233
 30
0.0
  0
POINT
  5
55F
330
556
100
AcDbEntity
  8
Defpoints
 62
     0
100
AcDbPoint
 10
39961.49076904851
 20
-54113.97950727233
 30
0.0
  0
POINT
  5
560
330
556
100
AcDbEntity
  8
Defpoints
 62
     0
100
AcDbPoint
 10
39878.54024128306
 20
-54113.97950727233
 30
0.0
  0
ENDBLK
  5
561
330
556
100
AcDbEntity
  8
0
100
AcDbBlockEnd
  0
BLOCK
  5
57F
330
57E
100
AcDbEntity
  8
0
100
AcDbBlockBegin
  2
*D25
 70
     1
 10
0.0
 20
0.0
 30
0.0
  3
*D25
  1

  0
LINE
  5
5D0
330
57E
100
AcDbEntity
  8
标注
 62
     0
370
    -2
100
AcDbLine
 10
290.2658383036868
 20
756.4742725762628
 30
0.0
 11
290.2658383036868
 21
814.1001884434372
 31
0.0
  0
LINE
  5
5D1
330
57E
100
AcDbEntity
  8
标注
 62
     0
370
    -2
100
AcDbLine
 10
1108.265838303687
 20
756.4742725762628
 30
0.0
 11
1108.265838303687
 21
814.1001884434372
 31
0.0
  0
LINE
  5
5D2
330
57E
100
AcDbEntity
  8
标注
 62
     0
370
    -2
100
AcDbLine
 10
302.2658383036869
 20
804.1001884434374
 30
0.0
 11
1096.265838303687
 21
804.1001884434374
 31
0.0
  0
SOLID
  5
5D3
330
57E
100
AcDbEntity
  8
标注
 62
     0
100
AcDbTrace
 10
302.2658383036869
 20
806.1001884434372
 30
0.0
 11
302.2658383036869
 21
802.1001884434372
 31
0.0
 12
290.2658383036868
 22
804.1001884434374
 32
0.0
 13
290.2658383036868
 23
804.1001884434374
 33
0.0
  0
SOLID
  5
5D4
330
57E
100
AcDbEntity
  8
标注
 62
     0
100
AcDbTrace
 10
1096.265838303687
 20
806.1001884434372
 30
0.0
 11
1096.265838303687
 21
802.1001884434372
 31
0.0
 12
1108.265838303687
 22
804.1001884434374
 32
0.0
 13
1108.265838303687
 23
804.1001884434374
 33
0.0
  0
MTEXT
  5
5D5
330
57E
100
AcDbEntity
  8
标注
 62
     0
100
AcDbMText
 10
699.2658383036866
 20
821.0112389209271
 30
0.0
 40
18.39999999999999
 41
0.0
 71
     5
 72
     1
  1
818 [32 1/4"]
 73
     1
 44
1.0
1001
ACAD
1000
MTEXTBEGIN
1070
    73
1070
     1
1070
    44
1040
1.0
1070
    74
1070
     0
1000
MTEXTEND
  0
POINT
  5
5D6
330
57E
100
AcDbEntity
  8
Defpoints
 62
     0
100
AcDbPoint
 10
290.2658383036868
 20
751.4742725762628
 30
0.0
  0
POINT
  5
5D7
330
57E
100
AcDbEntity
  8
Defpoints
 62
     0
100
AcDbPoint
 10
1108.265838303687
 20
751.4742725762628
 30
0.0
  0
POINT
  5
5D8
330
57E
100
AcDbEntity
  8
Defpoints
 62
     0
100
AcDbPoint
 10
1108.265838303687
 20
804.1001884434374
 30
0.0
  0
ENDBLK
  5
580
330
57E
100
AcDbEntity
  8
0
100
AcDbBlockEnd
  0
BLOCK
  5
58B
330
58A
100
AcDbEntity
  8
0
100
AcDbBlockBegin
  2
*D26
 70
     1
 10
0.0
 20
0.0
 30
0.0
  3
*D26
  1

  0
LINE
  5
5D9
330
58A
100
AcDbEntity
  8
标注
 62
     0
370
    -2
100
AcDbLine
 10
285.2658383036868
 20
751.4742725762628
 30
0.0
 11
197.3153105382408
 21
751.4742725762628
 31
0.0
  0
LINE
  5
5DA
330
58A
100
AcDbEntity
  8
标注
 62
     0
370
    -2
100
AcDbLine
 10
285.2658383036868
 20
213.4742725762628
 30
0.0
 11
197.3153105382407
 21
213.4742725762628
 31
0.0
  0
LINE
  5
5DB
330
58A
100
AcDbEntity
  8
标注
 62
     0
370
    -2
100
AcDbLine
 10
207.3153105382409
 20
739.4742725762628
 30
0.0
 11
207.3153105382407
 21
225.4742725762628
 31
0.0
  0
SOLID
  5
5DC
330
58A
100
AcDbEntity
  8
标注
 62
     0
100
AcDbTrace
 10
205.3153105382409
 20
739.4742725762628
 30
0.0
 11
209.3153105382409
 21
739.4742725762628
 31
0.0
 12
207.3153105382409
 22
751.4742725762628
 32
0.0
 13
207.3153105382409
 23
751.4742725762628
 33
0.0
  0
SOLID
  5
5DD
330
58A
100
AcDbEntity
  8
标注
 62
     0
100
AcDbTrace
 10
205.3153105382407
 20
225.4742725762628
 30
0.0
 11
209.3153105382407
 21
225.4742725762628
 31
0.0
 12
207.3153105382407
 22
213.4742725762628
 32
0.0
 13
207.3153105382407
 23
213.4742725762628
 33
0.0
  0
MTEXT
  5
5DE
330
58A
100
AcDbEntity
  8
标注
 62
     0
100
AcDbMText
 10
190.4042600607509
 20
482.4742725762629
 30
0.0
 40
18.39999999999999
 41
0.0
 71
     5
 72
     1
  1
538 [21 1/8"]
 11
0.0000000000000001
 21
1.0
 31
0.0
 73
     1
 44
1.0
1001
ACAD
1000
MTEXTBEGIN
1070
    73
1070
     1
1070
    44
1040
1.0
1070
    74
1070
     0
1000
MTEXTEND
  0
POINT
  5
5DF
330
58A
100
AcDbEntity
  8
Defpoints
 62
     0
100
AcDbPoint
 10
290.2658383036868
 20
751.4742725762628
 30
0.0
  0
POINT
  5
5E0
330
58A
100
AcDbEntity
  8
Defpoints
 62
     0
100
AcDbPoint
 10
290.2658383036868
 20
213.4742725762628
 30
0.0
  0
POINT
  5
5E1
330
58A
100
AcDbEntity
  8
Defpoints
 62
     0
100
AcDbPoint
 10
207.3153105382407
 20
213.4742725762628
 30
0.0
  0
ENDBLK
  5
58C
330
58A
100
AcDbEntity
  8
0
100
AcDbBlockEnd
  0
BLOCK
  5
597
330
596
100
AcDbEntity
  8
0
100
AcDbBlockBegin
  2
*D27
 70
     1
 10
0.0
 20
0.0
 30
0.0
  3
*D27
  1

  0
LINE
  5
598
330
596
100
AcDbEntity
  8
标注尺寸线
 62
     0
370
    -2
100
AcDbLine
 10
39961.49076904851
 20
-53570.97950727233
 30
0.0
 11
39961.49076904851
 21
-53513.35359140517
 31
0.0
  0
LINE
  5
599
330
596
100
AcDbEntity
  8
标注尺寸线
 62
     0
370
    -2
100
AcDbLine
 10
40779.49076904848
 20
-53570.97950727233
 30
0.0
 11
40779.49076904848
 21
-53513.35359140517
 31
0.0
  0
LINE
  5
59A
330
596
100
AcDbEntity
  8
标注尺寸线
 62
     0
370
    -2
100
AcDbLine
 10
39973.49076904852
 20
-53523.35359140517
 30
0.0
 11
40767.49076904848
 21
-53523.35359140517
 31
0.0
  0
SOLID
  5
59B
330
596
100
AcDbEntity
  8
标注尺寸线
 62
     0
100
AcDbTrace
 10
39973.49076904852
 20
-53521.35359140516
 30
0.0
 11
39973.49076904852
 21
-53525.35359140516
 31
0.0
 12
39961.49076904851
 22
-53523.35359140517
 32
0.0
 13
39961.49076904851
 23
-53523.35359140517
 33
0.0
  0
SOLID
  5
59C
330
596
100
AcDbEntity
  8
标注尺寸线
 62
     0
100
AcDbTrace
 10
40767.49076904848
 20
-53521.35359140516
 30
0.0
 11
40767.49076904848
 21
-53525.35359140516
 31
0.0
 12
40779.49076904848
 22
-53523.35359140517
 32
0.0
 13
40779.49076904848
 23
-53523.35359140517
 33
0.0
  0
MTEXT
  5
59D
330
596
100
AcDbEntity
  8
标注尺寸线
 62
     0
100
AcDbMText
 10
40370.49076904851
 20
-53509.15359140516
 30
0.0
 40
18.39999999999998
 41
0.0
 71
     5
 72
     1
  1
818
 73
     1
 44
1.0
1001
ACAD
1000
MTEXTBEGIN
1070
    73
1070
     1
1070
    44
1040
1.0
1070
    74
1070
     0
1000
MTEXTEND
  0
POINT
  5
59E
330
596
100
AcDbEntity
  8
Defpoints
 62
     0
100
AcDbPoint
 10
39961.49076904851
 20
-53575.97950727233
 30
0.0
  0
POINT
  5
59F
330
596
100
AcDbEntity
  8
Defpoints
 62
     0
100
AcDbPoint
 10
40779.49076904848
 20
-53575.97950727233
 30
0.0
  0
POINT
  5
5A0
330
596
100
AcDbEntity
  8
Defpoints
 62
     0
100
AcDbPoint
 10
40779.49076904848
 20
-53523.35359140517
 30
0.0
  0
ENDBLK
  5
5A1
330
596
100
AcDbEntity
  8
0
100
AcDbBlockEnd
  0
BLOCK
  5
5A3
330
5A2
100
AcDbEntity
  8
0
100
AcDbBlockBegin
  2
*D28
 70
     1
 10
0.0
 20
0.0
 30
0.0
  3
*D28
  1

  0
LINE
  5
5A4
330
5A2
100
AcDbEntity
  8
标注尺寸线
 62
     0
370
    -2
100
AcDbLine
 10
39956.49076904852
 20
-53575.97950727233
 30
0.0
 11
39868.54024128306
 21
-53575.97950727233
 31
0.0
  0
LINE
  5
5A5
330
5A2
100
AcDbEntity
  8
标注尺寸线
 62
     0
370
    -2
100
AcDbLine
 10
39956.49076904852
 20
-54113.97950727233
 30
0.0
 11
39868.54024128306
 21
-54113.97950727233
 31
0.0
  0
LINE
  5
5A6
330
5A2
100
AcDbEntity
  8
标注尺寸线
 62
     0
370
    -2
100
AcDbLine
 10
39878.54024128306
 20
-53587.97950727233
 30
0.0
 11
39878.54024128306
 21
-54101.97950727233
 31
0.0
  0
SOLID
  5
5A7
330
5A2
100
AcDbEntity
  8
标注尺寸线
 62
     0
100
AcDbTrace
 10
39876.54024128306
 20
-53587.97950727233
 30
0.0
 11
39880.54024128306
 21
-53587.97950727233
 31
0.0
 12
39878.54024128306
 22
-53575.97950727233
 32
0.0
 13
39878.54024128306
 23
-53575.97950727233
 33
0.0
  0
SOLID
  5
5A8
330
5A2
100
AcDbEntity
  8
标注尺寸线
 62
     0
100
AcDbTrace
 10
39876.54024128306
 20
-54101.97950727233
 30
0.0
 11
39880.54024128306
 21
-54101.97950727233
 31
0.0
 12
39878.54024128306
 22
-54113.97950727233
 32
0.0
 13
39878.54024128306
 23
-54113.97950727233
 33
0.0
  0
MTEXT
  5
5A9
330
5A2
100
AcDbEntity
  8
标注尺寸线
 62
     0
100
AcDbMText
 10
39864.34024128309
 20
-53844.97950727233
 30
0.0
 40
18.39999999999998
 41
0.0
 71
     5
 72
     1
  1
538
 11
0.0000000000000001
 21
1.0
 31
0.0
 73
     1
 44
1.0
1001
ACAD
1000
MTEXTBEGIN
1070
    73
1070
     1
1070
    44
1040
1.0
1070
    74
1070
     0
1000
MTEXTEND
  0
POINT
  5
5AA
330
5A2
100
AcDbEntity
  8
Defpoints
 62
     0
100
AcDbPoint
 10
39961.49076904851
 20
-53575.97950727233
 30
0.0
  0
POINT
  5
5AB
330
5A2
100
AcDbEntity
  8
Defpoints
 62
     0
100
AcDbPoint
 10
39961.49076904851
 20
-54113.97950727233
 30
0.0
  0
POINT
  5
5AC
330
5A2
100
AcDbEntity
  8
Defpoints
 62
     0
100
AcDbPoint
 10
39878.54024128306
 20
-54113.97950727233
 30
0.0
  0
ENDBLK
  5
5AD
330
5A2
100
AcDbEntity
  8
0
100
AcDbBlockEnd
  0
BLOCK
  5
5BC
330
5AE
100
AcDbEntity
  8
0
100
AcDbBlockBegin
  2
A$C5D3217D4
 70
     0
 10
0.0
 20
0.0
 30
0.0
  3
A$C5D3217D4
  1

  0
LINE
  5
5AF
330
5AE
100
AcDbEntity
  8
外框线1
100
AcDbLine
 10
924.3505597804253
 20
537.9999755476744
 30
0.0
 11
924.3505597804253
 21
-0.0000244523253059
 31
0.0
  0
LINE
  5
5B0
330
5AE
100
AcDbEntity
  8
外框线1
100
AcDbLine
 10
106.3505597804251
 20
537.9999755476744
 30
0.0
 11
106.3505597804251
 21
-0.0000244523253059
 31
0.0
  0
LINE
  5
5B1
102
{ACAD_REACTORS
330
5B9
102
}
330
5AE
100
AcDbEntity
  8
外框线1
100
AcDbLine
 10
924.3505597804253
 20
-0.0000244523253059
 30
0.0
 11
106.3505597804251
 21
-0.0000244523253059
 31
0.0
  0
LINE
  5
5B2
102
{ACAD_REACTORS
330
5B6
102
}
330
5AE
100
AcDbEntity
  8
外框线1
100
AcDbLine
 10
924.3505597804253
 20
537.9999755476744
 30
0.0
 11
106.3505597804251
 21
537.9999755476744
 31
0.0
  0
MTEXT
  5
5B3
330
5AE
100
AcDbEntity
  8
注释
100
AcDbMText
 10
308.6746120300959
 20
310.3624688467462
 30
0.0
 40
25.0
 41
20147.90821066172
 71
     1
 72
     5
  1
{\fArial|b0|i0|c0|p34;Model # RVM5001}
  7
新宋体
 73
     1
 44
1.0
1001
ACAD
1000
MTEXTBEGIN
1070
    73
1070
     1
1070
    44
1040
1.0
1070
    74
1070
     0
1000
MTEXTEND
  0
DIMENSION
  5
5B4
102
{ACAD_XDICTIONARY
360
5B5
102
}
102
{ACAD_REACTORS
330
5B6
102
}
330
5AE
100
AcDbEntity
  8
标注尺寸线
100
AcDbDimension
  2
*D27
 10
924.3505597804253
 20
590.6258914148492
 30
0.0
 11
515.3505597804251
 21
604.8258914148463
 31
0.0
 12
-39855.14020926808
 22
54113.97948282001
 32
0.0
 71
     5
 42
818.0
  3
1-8-L
100
AcDbAlignedDimension
 13
106.3505597804251
 23
537.9999755476744
 33
0.0
 14
924.3505597804253
 24
537.9999755476744
 34
0.0
100
AcDbRotatedDimension
  0
DIMENSION
  5
5B7
102
{ACAD_XDICTIONARY
360
5B8
102
}
102
{ACAD_REACTORS
330
5B9
102
}
330
5AE
100
AcDbEntity
  8
标注尺寸线
100
AcDbDimension
  2
*D28
 10
23.40003201497893
 20
-0.0000244523253059
 30
0.0
 11
9.200032014996395
 21
268.999975547682
 31
0.0
 12
-39855.14020926808
 22
54113.97948282001
 32
0.0
 71
     5
 42
538.0
  3
1-8-L
100
AcDbAlignedDimension
 13
106.3505597804251
 23
537.9999755476744
 33
0.0
 14
106.3505597804251
 24
-0.0000244523253059
 34
0.0
 50
90.0
100
AcDbRotatedDimension
  0
ENDBLK
  5
5BD
330
5AE
100
AcDbEntity
  8
0
100
AcDbBlockEnd
  0
BLOCK
  5
63C
330
63B
100
AcDbEntity
  8
0
100
AcDbBlockBegin
  2
*D30
 70
     1
 10
0.0
 20
0.0
 30
0.0
  3
*D30
  1

  0
LINE
  5
67C
330
63B
100
AcDbEntity
  8
标注
 62
     0
370
    -2
100
AcDbLine
 10
529.9548271315651
 20
695.5960809372445
 30
0.0
 11
529.9548271315651
 21
745.5701879392989
 31
0.0
  0
LINE
  5
67D
330
63B
100
AcDbEntity
  8
标注
 62
     0
370
    -2
100
AcDbLine
 10
890.9548271315671
 20
695.5960809372445
 30
0.0
 11
890.9548271315671
 21
745.5701879392989
 31
0.0
  0
LINE
  5
67E
330
63B
100
AcDbEntity
  8
标注
 62
     0
370
    -2
100
AcDbLine
 10
541.9548271315651
 20
735.5701879392992
 30
0.0
 11
878.954827131567
 21
735.5701879392992
 31
0.0
  0
SOLID
  5
67F
330
63B
100
AcDbEntity
  8
标注
 62
     0
100
AcDbTrace
 10
541.9548271315651
 20
737.5701879392992
 30
0.0
 11
541.9548271315651
 21
733.5701879392992
 31
0.0
 12
529.9548271315651
 22
735.5701879392992
 32
0.0
 13
529.9548271315651
 23
735.5701879392992
 33
0.0
  0
SOLID
  5
680
330
63B
100
AcDbEntity
  8
标注
 62
     0
100
AcDbTrace
 10
878.954827131567
 20
737.5701879392992
 30
0.0
 11
878.954827131567
 21
733.5701879392992
 31
0.0
 12
890.9548271315671
 22
735.5701879392992
 32
0.0
 13
890.9548271315671
 23
735.5701879392992
 33
0.0
  0
MTEXT
  5
681
330
63B
100
AcDbEntity
  8
标注
 62
     0
100
AcDbMText
 10
710.4548271315661
 20
752.4812384167887
 30
0.0
 40
18.39999999999998
 41
0.0
 71
     5
 72
     1
  1
361 [14 1/4"]
 73
     1
 44
1.0
1001
ACAD
1000
MTEXTBEGIN
1070
    73
1070
     1
1070
    44
1040
1.0
1070
    74
1070
     0
1000
MTEXTEND
  0
POINT
  5
682
330
63B
100
AcDbEntity
  8
Defpoints
 62
     0
100
AcDbPoint
 10
529.9548271315651
 20
690.5960809372445
 30
0.0
  0
POINT
  5
683
330
63B
100
AcDbEntity
  8
Defpoints
 62
     0
100
AcDbPoint
 10
890.9548271315671
 20
690.5960809372445
 30
0.0
  0
POINT
  5
684
330
63B
100
AcDbEntity
  8
Defpoints
 62
     0
100
AcDbPoint
 10
890.9548271315671
 20
735.5701879392992
 30
0.0
  0
ENDBLK
  5
63D
330
63B
100
AcDbEntity
  8
0
100
AcDbBlockEnd
  0
BLOCK
  5
654
330
653
100
AcDbEntity
  8
0
100
AcDbBlockBegin
  2
*D31
 70
     1
 10
0.0
 20
0.0
 30
0.0
  3
*D31
  1

  0
LINE
  5
685
330
653
100
AcDbEntity
  8
标注
 62
     0
370
    -2
100
AcDbLine
 10
524.9548271315651
 20
690.5960809372445
 30
0.0
 11
467.2562761089156
 21
690.5960809372445
 31
0.0
  0
LINE
  5
686
330
653
100
AcDbEntity
  8
标注
 62
     0
370
    -2
100
AcDbLine
 10
524.9548271315651
 20
202.5960809372437
 30
0.0
 11
467.2562761089154
 21
202.5960809372437
 31
0.0
  0
LINE
  5
687
330
653
100
AcDbEntity
  8
标注
 62
     0
370
    -2
100
AcDbLine
 10
477.2562761089155
 20
678.5960809372444
 30
0.0
 11
477.2562761089155
 21
214.5960809372436
 31
0.0
  0
SOLID
  5
688
330
653
100
AcDbEntity
  8
标注
 62
     0
100
AcDbTrace
 10
475.2562761089156
 20
678.5960809372444
 30
0.0
 11
479.2562761089156
 21
678.5960809372444
 31
0.0
 12
477.2562761089155
 22
690.5960809372445
 32
0.0
 13
477.2562761089155
 23
690.5960809372445
 33
0.0
  0
SOLID
  5
689
330
653
100
AcDbEntity
  8
标注
 62
     0
100
AcDbTrace
 10
475.2562761089154
 20
214.5960809372436
 30
0.0
 11
479.2562761089154
 21
214.5960809372436
 31
0.0
 12
477.2562761089155
 22
202.5960809372437
 32
0.0
 13
477.2562761089155
 23
202.5960809372437
 33
0.0
  0
MTEXT
  5
68A
330
653
100
AcDbEntity
  8
标注
 62
     0
100
AcDbMText
 10
460.3452256314256
 20
446.596080937244
 30
0.0
 40
18.39999999999998
 41
0.0
 71
     5
 72
     1
  1
488 [19 1/4"]
 11
0.0000000000000001
 21
1.0
 31
0.0
 73
     1
 44
1.0
1001
ACAD
1000
MTEXTBEGIN
1070
    73
1070
     1
1070
    44
1040
1.0
1070
    74
1070
     0
1000
MTEXTEND
  0
POINT
  5
68B
330
653
100
AcDbEntity
  8
Defpoints
 62
     0
100
AcDbPoint
 10
529.9548271315651
 20
690.5960809372445
 30
0.0
  0
POINT
  5
68C
330
653
100
AcDbEntity
  8
Defpoints
 62
     0
100
AcDbPoint
 10
529.9548271315651
 20
202.5960809372437
 30
0.0
  0
POINT
  5
68D
330
653
100
AcDbEntity
  8
Defpoints
 62
     0
100
AcDbPoint
 10
477.2562761089155
 20
202.5960809372437
 30
0.0
  0
ENDBLK
  5
655
330
653
100
AcDbEntity
  8
0
100
AcDbBlockEnd
  0
BLOCK
  5
6E2
330
6E1
100
AcDbEntity
  8
0
100
AcDbBlockBegin
  2
*D32
 70
     1
 10
0.0
 20
0.0
 30
0.0
  3
*D32
  1

  0
LINE
  5
710
330
6E1
100
AcDbEntity
  8
标注
 62
     0
370
    -2
100
AcDbLine
 10
1241.408550468662
 20
750.7215768151436
 30
0.0
 11
1187.867368266803
 21
750.7215768151436
 31
0.0
  0
LINE
  5
711
330
6E1
100
AcDbEntity
  8
标注
 62
     0
370
    -2
100
AcDbLine
 10
1241.408550468662
 20
389.7215768151436
 30
0.0
 11
1187.867368266803
 21
389.7215768151436
 31
0.0
  0
LINE
  5
712
330
6E1
100
AcDbEntity
  8
标注
 62
     0
370
    -2
100
AcDbLine
 10
1197.867368266803
 20
738.7215768151436
 30
0.0
 11
1197.867368266803
 21
401.7215768151435
 31
0.0
  0
SOLID
  5
713
330
6E1
100
AcDbEntity
  8
标注
 62
     0
100
AcDbTrace
 10
1195.867368266803
 20
738.7215768151436
 30
0.0
 11
1199.867368266803
 21
738.7215768151436
 31
0.0
 12
1197.867368266803
 22
750.7215768151436
 32
0.0
 13
1197.867368266803
 23
750.7215768151436
 33
0.0
  0
SOLID
  5
714
330
6E1
100
AcDbEntity
  8
标注
 62
     0
100
AcDbTrace
 10
1195.867368266803
 20
401.7215768151435
 30
0.0
 11
1199.867368266803
 21
401.7215768151435
 31
0.0
 12
1197.867368266803
 22
389.7215768151436
 32
0.0
 13
1197.867368266803
 23
389.7215768151436
 33
0.0
  0
MTEXT
  5
715
330
6E1
100
AcDbEntity
  8
标注
 62
     0
100
AcDbMText
 10
1180.956317789313
 20
570.2215768151437
 30
0.0
 40
18.39999999999998
 41
0.0
 71
     5
 72
     1
  1
361 [14 1/4"]
 11
0.0000000000000001
 21
1.0
 31
0.0
 73
     1
 44
1.0
1001
ACAD
1000
MTEXTBEGIN
1070
    73
1070
     1
1070
    44
1040
1.0
1070
    74
1070
     0
1000
MTEXTEND
  0
POINT
  5
716
330
6E1
100
AcDbEntity
  8
Defpoints
 62
     0
100
AcDbPoint
 10
1246.408550468663
 20
750.7215768151436
 30
0.0
  0
POINT
  5
717
330
6E1
100
AcDbEntity
  8
Defpoints
 62
     0
100
AcDbPoint
 10
1246.408550468663
 20
389.7215768151436
 30
0.0
  0
POINT
  5
718
330
6E1
100
AcDbEntity
  8
Defpoints
 62
     0
100
AcDbPoint
 10
1197.867368266803
 20
389.7215768151436
 30
0.0
  0
ENDBLK
  5
6E3
330
6E1
100
AcDbEntity
  8
0
100
AcDbBlockEnd
  0
BLOCK
  5
6FA
330
6F9
100
AcDbEntity
  8
0
100
AcDbBlockBegin
  2
*D33
 70
     1
 10
0.0
 20
0.0
 30
0.0
  3
*D33
  1

  0
LINE
  5
719
330
6F9
100
AcDbEntity
  8
标注
 62
     0
370
    -2
100
AcDbLine
 10
1246.408550468663
 20
755.7215768151436
 30
0.0
 11
1246.408550468663
 21
813.1166300729089
 31
0.0
  0
LINE
  5
71A
330
6F9
100
AcDbEntity
  8
标注
 62
     0
370
    -2
100
AcDbLine
 10
1607.408550468664
 20
755.7215768151436
 30
0.0
 11
1607.408550468664
 21
813.1166300729089
 31
0.0
  0
LINE
  5
71B
330
6F9
100
AcDbEntity
  8
标注
 62
     0
370
    -2
100
AcDbLine
 10
1258.408550468663
 20
803.1166300729093
 30
0.0
 11
1595.408550468664
 21
803.1166300729093
 31
0.0
  0
SOLID
  5
71C
330
6F9
100
AcDbEntity
  8
标注
 62
     0
100
AcDbTrace
 10
1258.408550468663
 20
805.1166300729089
 30
0.0
 11
1258.408550468663
 21
801.1166300729092
 31
0.0
 12
1246.408550468663
 22
803.1166300729093
 32
0.0
 13
1246.408550468663
 23
803.1166300729093
 33
0.0
  0
SOLID
  5
71D
330
6F9
100
AcDbEntity
  8
标注
 62
     0
100
AcDbTrace
 10
1595.408550468664
 20
805.1166300729089
 30
0.0
 11
1595.408550468664
 21
801.1166300729092
 31
0.0
 12
1607.408550468664
 22
803.1166300729093
 32
0.0
 13
1607.408550468664
 23
803.1166300729093
 33
0.0
  0
MTEXT
  5
71E
330
6F9
100
AcDbEntity
  8
标注
 62
     0
100
AcDbMText
 10
1426.908550468663
 20
820.0276805503987
 30
0.0
 40
18.39999999999998
 41
0.0
 71
     5
 72
     1
  1
361 [14 1/4"]
 73
     1
 44
1.0
1001
ACAD
1000
MTEXTBEGIN
1070
    73
1070
     1
1070
    44
1040
1.0
1070
    74
1070
     0
1000
MTEXTEND
  0
POINT
  5
71F
330
6F9
100
AcDbEntity
  8
Defpoints
 62
     0
100
AcDbPoint
 10
1246.408550468663
 20
750.7215768151436
 30
0.0
  0
POINT
  5
720
330
6F9
100
AcDbEntity
  8
Defpoints
 62
     0
100
AcDbPoint
 10
1607.408550468664
 20
750.7215768151436
 30
0.0
  0
POINT
  5
721
330
6F9
100
AcDbEntity
  8
Defpoints
 62
     0
100
AcDbPoint
 10
1607.408550468664
 20
803.1166300729093
 30
0.0
  0
ENDBLK
  5
6FB
330
6F9
100
AcDbEntity
  8
0
100
AcDbBlockEnd
  0
BLOCK
  5
723
330
722
100
AcDbEntity
  8
0
100
AcDbBlockBegin
  2
*D34
 70
     1
 10
0.0
 20
0.0
 30
0.0
  3
*D34
  1

  0
LINE
  5
724
330
722
100
AcDbEntity
  8
标注
 62
     0
370
    -2
100
AcDbLine
 10
1241.408550468662
 20
750.7215768151436
 30
0.0
 11
1187.867368266803
 21
750.7215768151436
 31
0.0
  0
LINE
  5
725
330
722
100
AcDbEntity
  8
标注
 62
     0
370
    -2
100
AcDbLine
 10
1241.408550468662
 20
389.7215768151436
 30
0.0
 11
1187.867368266803
 21
389.7215768151436
 31
0.0
  0
LINE
  5
726
330
722
100
AcDbEntity
  8
标注
 62
     0
370
    -2
100
AcDbLine
 10
1197.867368266803
 20
738.7215768151436
 30
0.0
 11
1197.867368266803
 21
401.7215768151435
 31
0.0
  0
SOLID
  5
727
330
722
100
AcDbEntity
  8
标注
 62
     0
100
AcDbTrace
 10
1195.867368266803
 20
738.7215768151436
 30
0.0
 11
1199.867368266803
 21
738.7215768151436
 31
0.0
 12
1197.867368266803
 22
750.7215768151436
 32
0.0
 13
1197.867368266803
 23
750.7215768151436
 33
0.0
  0
SOLID
  5
728
330
722
100
AcDbEntity
  8
标注
 62
     0
100
AcDbTrace
 10
1195.867368266803
 20
401.7215768151435
 30
0.0
 11
1199.867368266803
 21
401.7215768151435
 31
0.0
 12
1197.867368266803
 22
389.7215768151436
 32
0.0
 13
1197.867368266803
 23
389.7215768151436
 33
0.0
  0
MTEXT
  5
729
330
722
100
AcDbEntity
  8
标注
 62
     0
100
AcDbMText
 10
1180.956317789313
 20
570.2215768151437
 30
0.0
 40
18.39999999999998
 41
0.0
 71
     5
 72
     1
  1
361 [14 1/4"]
 11
0.0000000000000001
 21
1.0
 31
0.0
 73
     1
 44
1.0
1001
ACAD
1000
MTEXTBEGIN
1070
    73
1070
     1
1070
    44
1040
1.0
1070
    74
1070
     0
1000
MTEXTEND
  0
POINT
  5
72A
330
722
100
AcDbEntity
  8
Defpoints
 62
     0
100
AcDbPoint
 10
1246.408550468663
 20
750.7215768151436
 30
0.0
  0
POINT
  5
72B
330
722
100
AcDbEntity
  8
Defpoints
 62
     0
100
AcDbPoint
 10
1246.408550468663
 20
389.7215768151436
 30
0.0
  0
POINT
  5
72C
330
722
100
AcDbEntity
  8
Defpoints
 62
     0
100
AcDbPoint
 10
1197.867368266803
 20
389.7215768151436
 30
0.0
  0
ENDBLK
  5
72D
330
722
100
AcDbEntity
  8
0
100
AcDbBlockEnd
  0
BLOCK
  5
72F
330
72E
100
AcDbEntity
  8
0
100
AcDbBlockBegin
  2
*D35
 70
     1
 10
0.0
 20
0.0
 30
0.0
  3
*D35
  1

  0
LINE
  5
730
330
72E
100
AcDbEntity
  8
标注
 62
     0
370
    -2
100
AcDbLine
 10
1246.408550468663
 20
755.7215768151436
 30
0.0
 11
1246.408550468663
 21
813.1166300729089
 31
0.0
  0
LINE
  5
731
330
72E
100
AcDbEntity
  8
标注
 62
     0
370
    -2
100
AcDbLine
 10
1607.408550468664
 20
755.7215768151436
 30
0.0
 11
1607.408550468664
 21
813.1166300729089
 31
0.0
  0
LINE
  5
732
330
72E
100
AcDbEntity
  8
标注
 62
     0
370
    -2
100
AcDbLine
 10
1258.408550468663
 20
803.1166300729093
 30
0.0
 11
1595.408550468664
 21
803.1166300729093
 31
0.0
  0
SOLID
  5
733
330
72E
100
AcDbEntity
  8
标注
 62
     0
100
AcDbTrace
 10
1258.408550468663
 20
805.1166300729089
 30
0.0
 11
1258.408550468663
 21
801.1166300729092
 31
0.0
 12
1246.408550468663
 22
803.1166300729093
 32
0.0
 13
1246.408550468663
 23
803.1166300729093
 33
0.0
  0
SOLID
  5
734
330
72E
100
AcDbEntity
  8
标注
 62
     0
100
AcDbTrace
 10
1595.408550468664
 20
805.1166300729089
 30
0.0
 11
1595.408550468664
 21
801.1166300729092
 31
0.0
 12
1607.408550468664
 22
803.1166300729093
 32
0.0
 13
1607.408550468664
 23
803.1166300729093
 33
0.0
  0
MTEXT
  5
735
330
72E
100
AcDbEntity
  8
标注
 62
     0
100
AcDbMText
 10
1426.908550468663
 20
820.0276805503987
 30
0.0
 40
18.39999999999998
 41
0.0
 71
     5
 72
     1
  1
361 [14 1/4"]
 73
     1
 44
1.0
1001
ACAD
1000
MTEXTBEGIN
1070
    73
1070
     1
1070
    44
1040
1.0
1070
    74
1070
     0
1000
MTEXTEND
  0
POINT
  5
736
330
72E
100
AcDbEntity
  8
Defpoints
 62
     0
100
AcDbPoint
 10
1246.408550468663
 20
750.7215768151436
 30
0.0
  0
POINT
  5
737
330
72E
100
AcDbEntity
  8
Defpoints
 62
     0
100
AcDbPoint
 10
1607.408550468664
 20
750.7215768151436
 30
0.0
  0
POINT
  5
738
330
72E
100
AcDbEntity
  8
Defpoints
 62
     0
100
AcDbPoint
 10
1607.408550468664
 20
803.1166300729093
 30
0.0
  0
ENDBLK
  5
739
330
72E
100
AcDbEntity
  8
0
100
AcDbBlockEnd
  0
BLOCK
  5
74E
330
74D
100
AcDbEntity
  8
0
100
AcDbBlockBegin
  2
*D36
 70
     1
 10
0.0
 20
0.0
 30
0.0
  3
*D36
  1

  0
LINE
  5
750
330
74D
100
AcDbEntity
  8
标注
 62
     0
370
    -2
100
AcDbLine
 10
531.8695451134043
 20
659.7911959082977
 30
0.0
 11
478.328362911545
 21
659.7911959082977
 31
0.0
  0
LINE
  5
751
330
74D
100
AcDbEntity
  8
标注
 62
     0
370
    -2
100
AcDbLine
 10
531.8695451134043
 20
298.7911959082976
 30
0.0
 11
478.3283629115449
 21
298.7911959082976
 31
0.0
  0
LINE
  5
752
330
74D
100
AcDbEntity
  8
标注
 62
     0
370
    -2
100
AcDbLine
 10
488.3283629115449
 20
647.7911959082977
 30
0.0
 11
488.3283629115449
 21
310.7911959082976
 31
0.0
  0
SOLID
  5
753
330
74D
100
AcDbEntity
  8
标注
 62
     0
100
AcDbTrace
 10
486.328362911545
 20
647.7911959082977
 30
0.0
 11
490.328362911545
 21
647.7911959082977
 31
0.0
 12
488.3283629115449
 22
659.7911959082977
 32
0.0
 13
488.3283629115449
 23
659.7911959082977
 33
0.0
  0
SOLID
  5
754
330
74D
100
AcDbEntity
  8
标注
 62
     0
100
AcDbTrace
 10
486.3283629115449
 20
310.7911959082976
 30
0.0
 11
490.3283629115447
 21
310.7911959082976
 31
0.0
 12
488.3283629115449
 22
298.7911959082976
 32
0.0
 13
488.3283629115449
 23
298.7911959082976
 33
0.0
  0
MTEXT
  5
755
330
74D
100
AcDbEntity
  8
标注
 62
     0
100
AcDbMText
 10
471.417312434055
 20
479.2911959082976
 30
0.0
 40
18.39999999999998
 41
0.0
 71
     5
 72
     1
  1
361 [14 1/4"]
 11
0.0000000000000001
 21
1.0
 31
0.0
 73
     1
 44
1.0
1001
ACAD
1000
MTEXTBEGIN
1070
    73
1070
     1
1070
    44
1040
1.0
1070
    74
1070
     0
1000
MTEXTEND
  0
POINT
  5
756
330
74D
100
AcDbEntity
  8
Defpoints
 62
     0
100
AcDbPoint
 10
536.8695451134043
 20
659.7911959082977
 30
0.0
  0
POINT
  5
757
330
74D
100
AcDbEntity
  8
Defpoints
 62
     0
100
AcDbPoint
 10
536.8695451134043
 20
298.7911959082976
 30
0.0
  0
POINT
  5
758
330
74D
100
AcDbEntity
  8
Defpoints
 62
     0
100
AcDbPoint
 10
488.3283629115449
 20
298.7911959082976
 30
0.0
  0
ENDBLK
  5
74F
330
74D
100
AcDbEntity
  8
0
100
AcDbBlockEnd
  0
BLOCK
  5
75A
330
759
100
AcDbEntity
  8
0
100
AcDbBlockBegin
  2
*D37
 70
     1
 10
0.0
 20
0.0
 30
0.0
  3
*D37
  1

  0
LINE
  5
75C
330
759
100
AcDbEntity
  8
标注
 62
     0
370
    -2
100
AcDbLine
 10
536.8695451134043
 20
664.7911959082977
 30
0.0
 11
536.8695451134043
 21
722.1862491660631
 31
0.0
  0
LINE
  5
75D
330
759
100
AcDbEntity
  8
标注
 62
     0
370
    -2
100
AcDbLine
 10
897.8695451134063
 20
664.7911959082977
 30
0.0
 11
897.8695451134063
 21
722.1862491660631
 31
0.0
  0
LINE
  5
75E
330
759
100
AcDbEntity
  8
标注
 62
     0
370
    -2
100
AcDbLine
 10
548.8695451134043
 20
712.1862491660631
 30
0.0
 11
885.8695451134062
 21
712.1862491660631
 31
0.0
  0
SOLID
  5
75F
330
759
100
AcDbEntity
  8
标注
 62
     0
100
AcDbTrace
 10
548.8695451134043
 20
714.1862491660631
 30
0.0
 11
548.8695451134043
 21
710.1862491660631
 31
0.0
 12
536.8695451134043
 22
712.1862491660631
 32
0.0
 13
536.8695451134043
 23
712.1862491660631
 33
0.0
  0
SOLID
  5
760
330
759
100
AcDbEntity
  8
标注
 62
     0
100
AcDbTrace
 10
885.8695451134062
 20
714.1862491660631
 30
0.0
 11
885.8695451134062
 21
710.1862491660631
 31
0.0
 12
897.8695451134063
 22
712.1862491660631
 32
0.0
 13
897.8695451134063
 23
712.1862491660631
 33
0.0
  0
MTEXT
  5
761
330
759
100
AcDbEntity
  8
标注
 62
     0
100
AcDbMText
 10
717.3695451134052
 20
729.0972996435526
 30
0.0
 40
18.39999999999998
 41
0.0
 71
     5
 72
     1
  1
361 [14 1/4"]
 73
     1
 44
1.0
1001
ACAD
1000
MTEXTBEGIN
1070
    73
1070
     1
1070
    44
1040
1.0
1070
    74
1070
     0
1000
MTEXTEND
  0
POINT
  5
762
330
759
100
AcDbEntity
  8
Defpoints
 62
     0
100
AcDbPoint
 10
536.8695451134043
 20
659.7911959082977
 30
0.0
  0
POINT
  5
763
330
759
100
AcDbEntity
  8
Defpoints
 62
     0
100
AcDbPoint
 10
897.8695451134063
 20
659.7911959082977
 30
0.0
  0
POINT
  5
764
330
759
100
AcDbEntity
  8
Defpoints
 62
     0
100
AcDbPoint
 10
897.8695451134063
 20
712.1862491660631
 30
0.0
  0
ENDBLK
  5
75B
330
759
100
AcDbEntity
  8
0
100
AcDbBlockEnd
  0
BLOCK
  5
7B4
330
7B3
100
AcDbEntity
  8
0
100
AcDbBlockBegin
  2
*D38
 70
     1
 10
0.0
 20
0.0
 30
0.0
  3
*D38
  1

  0
LINE
  5
7EB
330
7B3
100
AcDbEntity
  8
标注
 62
     0
370
    -2
100
AcDbLine
 10
1161.465743848341
 20
951.9924034739153
 30
0.0
 11
1161.465743848341
 21
1009.463485216244
 31
0.0
  0
LINE
  5
7EC
330
7B3
100
AcDbEntity
  8
标注
 62
     0
370
    -2
100
AcDbLine
 10
1700.26574384834
 20
951.9924034739153
 30
0.0
 11
1700.26574384834
 21
1009.463485216244
 31
0.0
  0
LINE
  5
7ED
330
7B3
100
AcDbEntity
  8
标注
 62
     0
370
    -2
100
AcDbLine
 10
1173.465743848341
 20
999.4634852162445
 30
0.0
 11
1688.26574384834
 21
999.4634852162445
 31
0.0
  0
SOLID
  5
7EE
330
7B3
100
AcDbEntity
  8
标注
 62
     0
100
AcDbTrace
 10
1173.465743848341
 20
1001.463485216244
 30
0.0
 11
1173.465743848341
 21
997.4634852162443
 31
0.0
 12
1161.465743848341
 22
999.4634852162445
 32
0.0
 13
1161.465743848341
 23
999.4634852162445
 33
0.0
  0
SOLID
  5
7EF
330
7B3
100
AcDbEntity
  8
标注
 62
     0
100
AcDbTrace
 10
1688.26574384834
 20
1001.463485216244
 30
0.0
 11
1688.26574384834
 21
997.4634852162443
 31
0.0
 12
1700.26574384834
 22
999.4634852162445
 32
0.0
 13
1700.26574384834
 23
999.4634852162445
 33
0.0
  0
MTEXT
  5
7F0
330
7B3
100
AcDbEntity
  8
标注
 62
     0
100
AcDbMText
 10
1430.86574384834
 20
1016.374535693734
 30
0.0
 40
18.39999999999998
 41
0.0
 71
     5
 72
     1
  1
538.8 [21 1/4"]
 73
     1
 44
1.0
1001
ACAD
1000
MTEXTBEGIN
1070
    73
1070
     1
1070
    44
1040
1.0
1070
    74
1070
     0
1000
MTEXTEND
  0
POINT
  5
7F1
330
7B3
100
AcDbEntity
  8
Defpoints
 62
     0
100
AcDbPoint
 10
1161.465743848341
 20
946.9924034739149
 30
0.0
  0
POINT
  5
7F2
330
7B3
100
AcDbEntity
  8
Defpoints
 62
     0
100
AcDbPoint
 10
1700.26574384834
 20
946.9924034739149
 30
0.0
  0
POINT
  5
7F3
330
7B3
100
AcDbEntity
  8
Defpoints
 62
     0
100
AcDbPoint
 10
1700.26574384834
 20
999.4634852162445
 30
0.0
  0
ENDBLK
  5
7B5
330
7B3
100
AcDbEntity
  8
0
100
AcDbBlockEnd
  0
BLOCK
  5
7CC
330
7CB
100
AcDbEntity
  8
0
100
AcDbBlockBegin
  2
*D39
 70
     1
 10
0.0
 20
0.0
 30
0.0
  3
*D39
  1

  0
LINE
  5
7E2
330
7CB
100
AcDbEntity
  8
标注
 62
     0
370
    -2
100
AcDbLine
 10
1156.465743848341
 20
946.9924034739149
 30
0.0
 11
1087.358926590837
 21
946.9924034739149
 31
0.0
  0
LINE
  5
7E3
330
7CB
100
AcDbEntity
  8
标注
 62
     0
370
    -2
100
AcDbLine
 10
1156.465743848341
 20
408.1924034739154
 30
0.0
 11
1087.358926590837
 21
408.1924034739154
 31
0.0
  0
LINE
  5
7E4
330
7CB
100
AcDbEntity
  8
标注
 62
     0
370
    -2
100
AcDbLine
 10
1097.358926590837
 20
934.9924034739153
 30
0.0
 11
1097.358926590837
 21
420.1924034739154
 31
0.0
  0
SOLID
  5
7E5
330
7CB
100
AcDbEntity
  8
标注
 62
     0
100
AcDbTrace
 10
1095.358926590837
 20
934.9924034739153
 30
0.0
 11
1099.358926590837
 21
934.9924034739153
 31
0.0
 12
1097.358926590837
 22
946.9924034739149
 32
0.0
 13
1097.358926590837
 23
946.9924034739149
 33
0.0
  0
SOLID
  5
7E6
330
7CB
100
AcDbEntity
  8
标注
 62
     0
100
AcDbTrace
 10
1095.358926590837
 20
420.1924034739154
 30
0.0
 11
1099.358926590837
 21
420.1924034739154
 31
0.0
 12
1097.358926590837
 22
408.1924034739154
 32
0.0
 13
1097.358926590837
 23
408.1924034739154
 33
0.0
  0
MTEXT
  5
7E7
330
7CB
100
AcDbEntity
  8
标注
 62
     0
100
AcDbMText
 10
1080.447876113348
 20
677.5924034739154
 30
0.0
 40
18.39999999999998
 41
0.0
 71
     5
 72
     1
  1
538.8 [21 1/4"]
 11
0.0000000000000001
 21
1.0
 31
0.0
 73
     1
 44
1.0
1001
ACAD
1000
MTEXTBEGIN
1070
    73
1070
     1
1070
    44
1040
1.0
1070
    74
1070
     0
1000
MTEXTEND
  0
POINT
  5
7E8
330
7CB
100
AcDbEntity
  8
Defpoints
 62
     0
100
AcDbPoint
 10
1161.465743848341
 20
946.9924034739149
 30
0.0
  0
POINT
  5
7E9
330
7CB
100
AcDbEntity
  8
Defpoints
 62
     0
100
AcDbPoint
 10
1161.465743848341
 20
408.1924034739154
 30
0.0
  0
POINT
  5
7EA
330
7CB
100
AcDbEntity
  8
Defpoints
 62
     0
100
AcDbPoint
 10
1097.358926590837
 20
408.1924034739154
 30
0.0
  0
ENDBLK
  5
7CD
330
7CB
100
AcDbEntity
  8
0
100
AcDbBlockEnd
  0
BLOCK
  5
7F5
330
7F4
100
AcDbEntity
  8
0
100
AcDbBlockBegin
  2
*D40
 70
     1
 10
0.0
 20
0.0
 30
0.0
  3
*D40
  1

  0
LINE
  5
7F6
330
7F4
100
AcDbEntity
  8
标注
 62
     0
370
    -2
100
AcDbLine
 10
1161.465743848341
 20
951.9924034739153
 30
0.0
 11
1161.465743848341
 21
1009.463485216244
 31
0.0
  0
LINE
  5
7F7
330
7F4
100
AcDbEntity
  8
标注
 62
     0
370
    -2
100
AcDbLine
 10
1700.26574384834
 20
951.9924034739153
 30
0.0
 11
1700.26574384834
 21
1009.463485216244
 31
0.0
  0
LINE
  5
7F8
330
7F4
100
AcDbEntity
  8
标注
 62
     0
370
    -2
100
AcDbLine
 10
1173.465743848341
 20
999.4634852162445
 30
0.0
 11
1688.26574384834
 21
999.4634852162445
 31
0.0
  0
SOLID
  5
7F9
330
7F4
100
AcDbEntity
  8
标注
 62
     0
100
AcDbTrace
 10
1173.465743848341
 20
1001.463485216244
 30
0.0
 11
1173.465743848341
 21
997.4634852162443
 31
0.0
 12
1161.465743848341
 22
999.4634852162445
 32
0.0
 13
1161.465743848341
 23
999.4634852162445
 33
0.0
  0
SOLID
  5
7FA
330
7F4
100
AcDbEntity
  8
标注
 62
     0
100
AcDbTrace
 10
1688.26574384834
 20
1001.463485216244
 30
0.0
 11
1688.26574384834
 21
997.4634852162443
 31
0.0
 12
1700.26574384834
 22
999.4634852162445
 32
0.0
 13
1700.26574384834
 23
999.4634852162445
 33
0.0
  0
MTEXT
  5
7FB
330
7F4
100
AcDbEntity
  8
标注
 62
     0
100
AcDbMText
 10
1430.86574384834
 20
1016.374535693734
 30
0.0
 40
18.39999999999998
 41
0.0
 71
     5
 72
     1
  1
538.8 [21 1/4"]
 73
     1
 44
1.0
1001
ACAD
1000
MTEXTBEGIN
1070
    73
1070
     1
1070
    44
1040
1.0
1070
    74
1070
     0
1000
MTEXTEND
  0
POINT
  5
7FC
330
7F4
100
AcDbEntity
  8
Defpoints
 62
     0
100
AcDbPoint
 10
1161.465743848341
 20
946.9924034739149
 30
0.0
  0
POINT
  5
7FD
330
7F4
100
AcDbEntity
  8
Defpoints
 62
     0
100
AcDbPoint
 10
1700.26574384834
 20
946.9924034739149
 30
0.0
  0
POINT
  5
7FE
330
7F4
100
AcDbEntity
  8
Defpoints
 62
     0
100
AcDbPoint
 10
1700.26574384834
 20
999.4634852162445
 30
0.0
  0
ENDBLK
  5
7FF
330
7F4
100
AcDbEntity
  8
0
100
AcDbBlockEnd
  0
BLOCK
  5
801
330
800
100
AcDbEntity
  8
0
100
AcDbBlockBegin
  2
*D41
 70
     1
 10
0.0
 20
0.0
 30
0.0
  3
*D41
  1

  0
LINE
  5
802
330
800
100
AcDbEntity
  8
标注
 62
     0
370
    -2
100
AcDbLine
 10
1156.465743848341
 20
946.9924034739149
 30
0.0
 11
1087.358926590837
 21
946.9924034739149
 31
0.0
  0
LINE
  5
803
330
800
100
AcDbEntity
  8
标注
 62
     0
370
    -2
100
AcDbLine
 10
1156.465743848341
 20
408.1924034739154
 30
0.0
 11
1087.358926590837
 21
408.1924034739154
 31
0.0
  0
LINE
  5
804
330
800
100
AcDbEntity
  8
标注
 62
     0
370
    -2
100
AcDbLine
 10
1097.358926590837
 20
934.9924034739153
 30
0.0
 11
1097.358926590837
 21
420.1924034739154
 31
0.0
  0
SOLID
  5
805
330
800
100
AcDbEntity
  8
标注
 62
     0
100
AcDbTrace
 10
1095.358926590837
 20
934.9924034739153
 30
0.0
 11
1099.358926590837
 21
934.9924034739153
 31
0.0
 12
1097.358926590837
 22
946.9924034739149
 32
0.0
 13
1097.358926590837
 23
946.9924034739149
 33
0.0
  0
SOLID
  5
806
330
800
100
AcDbEntity
  8
标注
 62
     0
100
AcDbTrace
 10
1095.358926590837
 20
420.1924034739154
 30
0.0
 11
1099.358926590837
 21
420.1924034739154
 31
0.0
 12
1097.358926590837
 22
408.1924034739154
 32
0.0
 13
1097.358926590837
 23
408.1924034739154
 33
0.0
  0
MTEXT
  5
807
330
800
100
AcDbEntity
  8
标注
 62
     0
100
AcDbMText
 10
1080.447876113348
 20
677.5924034739154
 30
0.0
 40
18.39999999999998
 41
0.0
 71
     5
 72
     1
  1
538.8 [21 1/4"]
 11
0.0000000000000001
 21
1.0
 31
0.0
 73
     1
 44
1.0
1001
ACAD
1000
MTEXTBEGIN
1070
    73
1070
     1
1070
    44
1040
1.0
1070
    74
1070
     0
1000
MTEXTEND
  0
POINT
  5
808
330
800
100
AcDbEntity
  8
Defpoints
 62
     0
100
AcDbPoint
 10
1161.465743848341
 20
946.9924034739149
 30
0.0
  0
POINT
  5
809
330
800
100
AcDbEntity
  8
Defpoints
 62
     0
100
AcDbPoint
 10
1161.465743848341
 20
408.1924034739154
 30
0.0
  0
POINT
  5
80A
330
800
100
AcDbEntity
  8
Defpoints
 62
     0
100
AcDbPoint
 10
1097.358926590837
 20
408.1924034739154
 30
0.0
  0
ENDBLK
  5
80B
330
800
100
AcDbEntity
  8
0
100
AcDbBlockEnd
  0
BLOCK
  5
820
330
81F
100
AcDbEntity
  8
0
100
AcDbBlockBegin
  2
*D42
 70
     1
 10
0.0
 20
0.0
 30
0.0
  3
*D42
  1

  0
LINE
  5
822
330
81F
100
AcDbEntity
  8
标注
 62
     0
370
    -2
100
AcDbLine
 10
429.7709369268541
 20
743.8043727169237
 30
0.0
 11
429.7709369268541
 21
801.275454459253
 31
0.0
  0
LINE
  5
823
330
81F
100
AcDbEntity
  8
标注
 62
     0
370
    -2
100
AcDbLine
 10
968.5709369268533
 20
743.8043727169237
 30
0.0
 11
968.5709369268533
 21
801.275454459253
 31
0.0
  0
LINE
  5
824
330
81F
100
AcDbEntity
  8
标注
 62
     0
370
    -2
100
AcDbLine
 10
441.7709369268541
 20
791.2754544592529
 30
0.0
 11
956.5709369268532
 21
791.2754544592529
 31
0.0
  0
SOLID
  5
825
330
81F
100
AcDbEntity
  8
标注
 62
     0
100
AcDbTrace
 10
441.7709369268541
 20
793.2754544592531
 30
0.0
 11
441.7709369268541
 21
789.2754544592531
 31
0.0
 12
429.7709369268541
 22
791.2754544592529
 32
0.0
 13
429.7709369268541
 23
791.2754544592529
 33
0.0
  0
SOLID
  5
826
330
81F
100
AcDbEntity
  8
标注
 62
     0
100
AcDbTrace
 10
956.5709369268532
 20
793.2754544592531
 30
0.0
 11
956.5709369268532
 21
789.2754544592531
 31
0.0
 12
968.5709369268533
 22
791.2754544592529
 32
0.0
 13
968.5709369268533
 23
791.2754544592529
 33
0.0
  0
MTEXT
  5
827
330
81F
100
AcDbEntity
  8
标注
 62
     0
100
AcDbMText
 10
699.1709369268537
 20
808.1865049367427
 30
0.0
 40
18.39999999999998
 41
0.0
 71
     5
 72
     1
  1
538.8 [21 1/4"]
 73
     1
 44
1.0
1001
ACAD
1000
MTEXTBEGIN
1070
    73
1070
     1
1070
    44
1040
1.0
1070
    74
1070
     0
1000
MTEXTEND
  0
POINT
  5
828
330
81F
100
AcDbEntity
  8
Defpoints
 62
     0
100
AcDbPoint
 10
429.7709369268541
 20
738.8043727169237
 30
0.0
  0
POINT
  5
829
330
81F
100
AcDbEntity
  8
Defpoints
 62
     0
100
AcDbPoint
 10
968.5709369268533
 20
738.8043727169237
 30
0.0
  0
POINT
  5
82A
330
81F
100
AcDbEntity
  8
Defpoints
 62
     0
100
AcDbPoint
 10
968.5709369268533
 20
791.2754544592529
 30
0.0
  0
ENDBLK
  5
821
330
81F
100
AcDbEntity
  8
0
100
AcDbBlockEnd
  0
BLOCK
  5
82C
330
82B
100
AcDbEntity
  8
0
100
AcDbBlockBegin
  2
*D43
 70
     1
 10
0.0
 20
0.0
 30
0.0
  3
*D43
  1

  0
LINE
  5
82E
330
82B
100
AcDbEntity
  8
标注
 62
     0
370
    -2
100
AcDbLine
 10
424.7709369268541
 20
738.8043727169237
 30
0.0
 11
355.6641196693507
 21
738.8043727169237
 31
0.0
  0
LINE
  5
82F
330
82B
100
AcDbEntity
  8
标注
 62
     0
370
    -2
100
AcDbLine
 10
424.7709369268541
 20
200.0043727169241
 30
0.0
 11
355.6641196693507
 21
200.0043727169241
 31
0.0
  0
LINE
  5
830
330
82B
100
AcDbEntity
  8
标注
 62
     0
370
    -2
100
AcDbLine
 10
365.6641196693507
 20
726.8043727169237
 30
0.0
 11
365.6641196693507
 21
212.0043727169241
 31
0.0
  0
SOLID
  5
831
330
82B
100
AcDbEntity
  8
标注
 62
     0
100
AcDbTrace
 10
363.6641196693507
 20
726.8043727169237
 30
0.0
 11
367.6641196693507
 21
726.8043727169237
 31
0.0
 12
365.6641196693507
 22
738.8043727169237
 32
0.0
 13
365.6641196693507
 23
738.8043727169237
 33
0.0
  0
SOLID
  5
832
330
82B
100
AcDbEntity
  8
标注
 62
     0
100
AcDbTrace
 10
363.6641196693507
 20
212.0043727169241
 30
0.0
 11
367.6641196693507
 21
212.0043727169241
 31
0.0
 12
365.6641196693507
 22
200.0043727169241
 32
0.0
 13
365.6641196693507
 23
200.0043727169241
 33
0.0
  0
MTEXT
  5
833
330
82B
100
AcDbEntity
  8
标注
 62
     0
100
AcDbMText
 10
348.7530691918609
 20
469.4043727169241
 30
0.0
 40
18.39999999999998
 41
0.0
 71
     5
 72
     1
  1
538.8 [21 1/4"]
 11
0.0000000000000001
 21
1.0
 31
0.0
 73
     1
 44
1.0
1001
ACAD
1000
MTEXTBEGIN
1070
    73
1070
     1
1070
    44
1040
1.0
1070
    74
1070
     0
1000
MTEXTEND
  0
POINT
  5
834
330
82B
100
AcDbEntity
  8
Defpoints
 62
     0
100
AcDbPoint
 10
429.7709369268541
 20
738.8043727169237
 30
0.0
  0
POINT
  5
835
330
82B
100
AcDbEntity
  8
Defpoints
 62
     0
100
AcDbPoint
 10
429.7709369268541
 20
200.0043727169241
 30
0.0
  0
POINT
  5
836
330
82B
100
AcDbEntity
  8
Defpoints
 62
     0
100
AcDbPoint
 10
365.6641196693507
 20
200.0043727169241
 30
0.0
  0
ENDBLK
  5
82D
330
82B
100
AcDbEntity
  8
0
100
AcDbBlockEnd
  0
BLOCK
  5
886
330
885
100
AcDbEntity
  8
0
100
AcDbBlockBegin
  2
*D44
 70
     1
 10
0.0
 20
0.0
 30
0.0
  3
*D44
  1

  0
LINE
  5
8BD
330
885
100
AcDbEntity
  8
标注
 62
     0
370
    -2
100
AcDbLine
 10
1268.699691665304
 20
959.9411588473019
 30
0.0
 11
1268.699691665304
 21
1009.828069268807
 31
0.0
  0
LINE
  5
8BE
330
885
100
AcDbEntity
  8
标注
 62
     0
370
    -2
100
AcDbLine
 10
1883.699691665304
 20
959.9411588473019
 30
0.0
 11
1883.699691665304
 21
1009.828069268807
 31
0.0
  0
LINE
  5
8BF
330
885
100
AcDbEntity
  8
标注
 62
     0
370
    -2
100
AcDbLine
 10
1280.699691665304
 20
999.8280692688068
 30
0.0
 11
1871.699691665304
 21
999.8280692688068
 31
0.0
  0
SOLID
  5
8C0
330
885
100
AcDbEntity
  8
标注
 62
     0
100
AcDbTrace
 10
1280.699691665304
 20
1001.828069268807
 30
0.0
 11
1280.699691665304
 21
997.8280692688068
 31
0.0
 12
1268.699691665304
 22
999.8280692688068
 32
0.0
 13
1268.699691665304
 23
999.8280692688068
 33
0.0
  0
SOLID
  5
8C1
330
885
100
AcDbEntity
  8
标注
 62
     0
100
AcDbTrace
 10
1871.699691665304
 20
1001.828069268807
 30
0.0
 11
1871.699691665304
 21
997.8280692688068
 31
0.0
 12
1883.699691665304
 22
999.8280692688068
 32
0.0
 13
1883.699691665304
 23
999.8280692688068
 33
0.0
  0
MTEXT
  5
8C2
330
885
100
AcDbEntity
  8
标注
 62
     0
100
AcDbMText
 10
1576.199691665304
 20
1016.739119746296
 30
0.0
 40
18.39999999999998
 41
0.0
 71
     5
 72
     1
  1
615 [24 1/4"]
 73
     1
 44
1.0
1001
ACAD
1000
MTEXTBEGIN
1070
    73
1070
     1
1070
    44
1040
1.0
1070
    74
1070
     0
1000
MTEXTEND
  0
POINT
  5
8C3
330
885
100
AcDbEntity
  8
Defpoints
 62
     0
100
AcDbPoint
 10
1268.699691665304
 20
954.9411588473022
 30
0.0
  0
POINT
  5
8C4
330
885
100
AcDbEntity
  8
Defpoints
 62
     0
100
AcDbPoint
 10
1883.699691665304
 20
954.9411588473022
 30
0.0
  0
POINT
  5
8C5
330
885
100
AcDbEntity
  8
Defpoints
 62
     0
100
AcDbPoint
 10
1883.699691665304
 20
999.8280692688068
 30
0.0
  0
ENDBLK
  5
887
330
885
100
AcDbEntity
  8
0
100
AcDbBlockEnd
  0
BLOCK
  5
89E
330
89D
100
AcDbEntity
  8
0
100
AcDbBlockBegin
  2
*D45
 70
     1
 10
0.0
 20
0.0
 30
0.0
  3
*D45
  1

  0
LINE
  5
8B4
330
89D
100
AcDbEntity
  8
标注
 62
     0
370
    -2
100
AcDbLine
 10
1263.699691665304
 20
954.9411588473022
 30
0.0
 11
1198.576478647646
 21
954.9411588473022
 31
0.0
  0
LINE
  5
8B5
330
89D
100
AcDbEntity
  8
标注
 62
     0
370
    -2
100
AcDbLine
 10
1263.699691665304
 20
416.1411588473018
 30
0.0
 11
1198.576478647646
 21
416.1411588473018
 31
0.0
  0
LINE
  5
8B6
330
89D
100
AcDbEntity
  8
标注
 62
     0
370
    -2
100
AcDbLine
 10
1208.576478647647
 20
942.9411588473019
 30
0.0
 11
1208.576478647646
 21
428.1411588473019
 31
0.0
  0
SOLID
  5
8B7
330
89D
100
AcDbEntity
  8
标注
 62
     0
100
AcDbTrace
 10
1206.576478647647
 20
942.9411588473019
 30
0.0
 11
1210.576478647647
 21
942.9411588473019
 31
0.0
 12
1208.576478647647
 22
954.9411588473022
 32
0.0
 13
1208.576478647647
 23
954.9411588473022
 33
0.0
  0
SOLID
  5
8B8
330
89D
100
AcDbEntity
  8
标注
 62
     0
100
AcDbTrace
 10
1206.576478647646
 20
428.1411588473019
 30
0.0
 11
1210.576478647646
 21
428.1411588473019
 31
0.0
 12
1208.576478647646
 22
416.1411588473018
 32
0.0
 13
1208.576478647646
 23
416.1411588473018
 33
0.0
  0
MTEXT
  5
8B9
330
89D
100
AcDbEntity
  8
标注
 62
     0
100
AcDbMText
 10
1191.665428170157
 20
685.5411588473022
 30
0.0
 40
18.39999999999998
 41
0.0
 71
     5
 72
     1
  1
538.8 [21 1/4"]
 11
0.0000000000000001
 21
1.0
 31
0.0
 73
     1
 44
1.0
1001
ACAD
1000
MTEXTBEGIN
1070
    73
1070
     1
1070
    44
1040
1.0
1070
    74
1070
     0
1000
MTEXTEND
  0
POINT
  5
8BA
330
89D
100
AcDbEntity
  8
Defpoints
 62
     0
100
AcDbPoint
 10
1268.699691665304
 20
954.9411588473022
 30
0.0
  0
POINT
  5
8BB
330
89D
100
AcDbEntity
  8
Defpoints
 62
     0
100
AcDbPoint
 10
1268.699691665304
 20
416.1411588473018
 30
0.0
  0
POINT
  5
8BC
330
89D
100
AcDbEntity
  8
Defpoints
 62
     0
100
AcDbPoint
 10
1208.576478647646
 20
416.1411588473018
 30
0.0
  0
ENDBLK
  5
89F
330
89D
100
AcDbEntity
  8
0
100
AcDbBlockEnd
  0
BLOCK
  5
8C7
330
8C6
100
AcDbEntity
  8
0
100
AcDbBlockBegin
  2
*D46
 70
     1
 10
0.0
 20
0.0
 30
0.0
  3
*D46
  1

  0
LINE
  5
8C8
330
8C6
100
AcDbEntity
  8
标注
 62
     0
370
    -2
100
AcDbLine
 10
1268.699691665304
 20
959.9411588473019
 30
0.0
 11
1268.699691665304
 21
1009.828069268807
 31
0.0
  0
LINE
  5
8C9
330
8C6
100
AcDbEntity
  8
标注
 62
     0
370
    -2
100
AcDbLine
 10
1883.699691665304
 20
959.9411588473019
 30
0.0
 11
1883.699691665304
 21
1009.828069268807
 31
0.0
  0
LINE
  5
8CA
330
8C6
100
AcDbEntity
  8
标注
 62
     0
370
    -2
100
AcDbLine
 10
1280.699691665304
 20
999.8280692688068
 30
0.0
 11
1871.699691665304
 21
999.8280692688068
 31
0.0
  0
SOLID
  5
8CB
330
8C6
100
AcDbEntity
  8
标注
 62
     0
100
AcDbTrace
 10
1280.699691665304
 20
1001.828069268807
 30
0.0
 11
1280.699691665304
 21
997.8280692688068
 31
0.0
 12
1268.699691665304
 22
999.8280692688068
 32
0.0
 13
1268.699691665304
 23
999.8280692688068
 33
0.0
  0
SOLID
  5
8CC
330
8C6
100
AcDbEntity
  8
标注
 62
     0
100
AcDbTrace
 10
1871.699691665304
 20
1001.828069268807
 30
0.0
 11
1871.699691665304
 21
997.8280692688068
 31
0.0
 12
1883.699691665304
 22
999.8280692688068
 32
0.0
 13
1883.699691665304
 23
999.8280692688068
 33
0.0
  0
MTEXT
  5
8CD
330
8C6
100
AcDbEntity
  8
标注
 62
     0
100
AcDbMText
 10
1576.199691665304
 20
1016.739119746296
 30
0.0
 40
18.39999999999998
 41
0.0
 71
     5
 72
     1
  1
615 [24 1/4"]
 73
     1
 44
1.0
1001
ACAD
1000
MTEXTBEGIN
1070
    73
1070
     1
1070
    44
1040
1.0
1070
    74
1070
     0
1000
MTEXTEND
  0
POINT
  5
8CE
330
8C6
100
AcDbEntity
  8
Defpoints
 62
     0
100
AcDbPoint
 10
1268.699691665304
 20
954.9411588473022
 30
0.0
  0
POINT
  5
8CF
330
8C6
100
AcDbEntity
  8
Defpoints
 62
     0
100
AcDbPoint
 10
1883.699691665304
 20
954.9411588473022
 30
0.0
  0
POINT
  5
8D0
330
8C6
100
AcDbEntity
  8
Defpoints
 62
     0
100
AcDbPoint
 10
1883.699691665304
 20
999.8280692688068
 30
0.0
  0
ENDBLK
  5
8D1
330
8C6
100
AcDbEntity
  8
0
100
AcDbBlockEnd
  0
BLOCK
  5
8D3
330
8D2
100
AcDbEntity
  8
0
100
AcDbBlockBegin
  2
*D47
 70
     1
 10
0.0
 20
0.0
 30
0.0
  3
*D47
  1

  0
LINE
  5
8D4
330
8D2
100
AcDbEntity
  8
标注
 62
     0
370
    -2
100
AcDbLine
 10
1263.699691665304
 20
954.9411588473022
 30
0.0
 11
1198.576478647646
 21
954.9411588473022
 31
0.0
  0
LINE
  5
8D5
330
8D2
100
AcDbEntity
  8
标注
 62
     0
370
    -2
100
AcDbLine
 10
1263.699691665304
 20
416.1411588473018
 30
0.0
 11
1198.576478647646
 21
416.1411588473018
 31
0.0
  0
LINE
  5
8D6
330
8D2
100
AcDbEntity
  8
标注
 62
     0
370
    -2
100
AcDbLine
 10
1208.576478647647
 20
942.9411588473019
 30
0.0
 11
1208.576478647646
 21
428.1411588473019
 31
0.0
  0
SOLID
  5
8D7
330
8D2
100
AcDbEntity
  8
标注
 62
     0
100
AcDbTrace
 10
1206.576478647647
 20
942.9411588473019
 30
0.0
 11
1210.576478647647
 21
942.9411588473019
 31
0.0
 12
1208.576478647647
 22
954.9411588473022
 32
0.0
 13
1208.576478647647
 23
954.9411588473022
 33
0.0
  0
SOLID
  5
8D8
330
8D2
100
AcDbEntity
  8
标注
 62
     0
100
AcDbTrace
 10
1206.576478647646
 20
428.1411588473019
 30
0.0
 11
1210.576478647646
 21
428.1411588473019
 31
0.0
 12
1208.576478647646
 22
416.1411588473018
 32
0.0
 13
1208.576478647646
 23
416.1411588473018
 33
0.0
  0
MTEXT
  5
8D9
330
8D2
100
AcDbEntity
  8
标注
 62
     0
100
AcDbMText
 10
1191.665428170157
 20
685.5411588473022
 30
0.0
 40
18.39999999999998
 41
0.0
 71
     5
 72
     1
  1
538.8 [21 1/4"]
 11
0.0000000000000001
 21
1.0
 31
0.0
 73
     1
 44
1.0
1001
ACAD
1000
MTEXTBEGIN
1070
    73
1070
     1
1070
    44
1040
1.0
1070
    74
1070
     0
1000
MTEXTEND
  0
POINT
  5
8DA
330
8D2
100
AcDbEntity
  8
Defpoints
 62
     0
100
AcDbPoint
 10
1268.699691665304
 20
954.9411588473022
 30
0.0
  0
POINT
  5
8DB
330
8D2
100
AcDbEntity
  8
Defpoints
 62
     0
100
AcDbPoint
 10
1268.699691665304
 20
416.1411588473018
 30
0.0
  0
POINT
  5
8DC
330
8D2
100
AcDbEntity
  8
Defpoints
 62
     0
100
AcDbPoint
 10
1208.576478647646
 20
416.1411588473018
 30
0.0
  0
ENDBLK
  5
8DD
330
8D2
100
AcDbEntity
  8
0
100
AcDbBlockEnd
  0
BLOCK
  5
8F2
330
8F1
100
AcDbEntity
  8
0
100
AcDbBlockBegin
  2
*D48
 70
     1
 10
0.0
 20
0.0
 30
0.0
  3
*D48
  1

  0
LINE
  5
909
330
8F1
100
AcDbEntity
  8
标注
 62
     0
370
    -2
100
AcDbLine
 10
400.803966080437
 20
736.76676628214
 30
0.0
 11
400.803966080437
 21
786.6536767036445
 31
0.0
  0
LINE
  5
90A
330
8F1
100
AcDbEntity
  8
标注
 62
     0
370
    -2
100
AcDbLine
 10
1015.803966080437
 20
736.76676628214
 30
0.0
 11
1015.803966080437
 21
786.6536767036445
 31
0.0
  0
LINE
  5
90B
330
8F1
100
AcDbEntity
  8
标注
 62
     0
370
    -2
100
AcDbLine
 10
412.803966080437
 20
776.6536767036446
 30
0.0
 11
1003.803966080437
 21
776.6536767036446
 31
0.0
  0
SOLID
  5
90C
330
8F1
100
AcDbEntity
  8
标注
 62
     0
100
AcDbTrace
 10
412.803966080437
 20
778.6536767036445
 30
0.0
 11
412.803966080437
 21
774.6536767036445
 31
0.0
 12
400.803966080437
 22
776.6536767036446
 32
0.0
 13
400.803966080437
 23
776.6536767036446
 33
0.0
  0
SOLID
  5
90D
330
8F1
100
AcDbEntity
  8
标注
 62
     0
100
AcDbTrace
 10
1003.803966080437
 20
778.6536767036445
 30
0.0
 11
1003.803966080437
 21
774.6536767036445
 31
0.0
 12
1015.803966080437
 22
776.6536767036446
 32
0.0
 13
1015.803966080437
 23
776.6536767036446
 33
0.0
  0
MTEXT
  5
90E
330
8F1
100
AcDbEntity
  8
标注
 62
     0
100
AcDbMText
 10
708.3039660804374
 20
793.5647271811342
 30
0.0
 40
18.39999999999998
 41
0.0
 71
     5
 72
     1
  1
615 [24 1/4"]
 73
     1
 44
1.0
1001
ACAD
1000
MTEXTBEGIN
1070
    73
1070
     1
1070
    44
1040
1.0
1070
    74
1070
     0
1000
MTEXTEND
  0
POINT
  5
90F
330
8F1
100
AcDbEntity
  8
Defpoints
 62
     0
100
AcDbPoint
 10
400.803966080437
 20
731.7667662821398
 30
0.0
  0
POINT
  5
910
330
8F1
100
AcDbEntity
  8
Defpoints
 62
     0
100
AcDbPoint
 10
1015.803966080437
 20
731.7667662821398
 30
0.0
  0
POINT
  5
911
330
8F1
100
AcDbEntity
  8
Defpoints
 62
     0
100
AcDbPoint
 10
1015.803966080437
 20
776.6536767036446
 30
0.0
  0
ENDBLK
  5
8F3
330
8F1
100
AcDbEntity
  8
0
100
AcDbBlockEnd
  0
BLOCK
  5
8FE
330
8FD
100
AcDbEntity
  8
0
100
AcDbBlockBegin
  2
*D49
 70
     1
 10
0.0
 20
0.0
 30
0.0
  3
*D49
  1

  0
LINE
  5
900
330
8FD
100
AcDbEntity
  8
标注
 62
     0
370
    -2
100
AcDbLine
 10
395.803966080437
 20
731.7667662821398
 30
0.0
 11
330.6807530627795
 21
731.7667662821398
 31
0.0
  0
LINE
  5
901
330
8FD
100
AcDbEntity
  8
标注
 62
     0
370
    -2
100
AcDbLine
 10
395.803966080437
 20
192.9667662821398
 30
0.0
 11
330.6807530627793
 21
192.9667662821398
 31
0.0
  0
LINE
  5
902
330
8FD
100
AcDbEntity
  8
标注
 62
     0
370
    -2
100
AcDbLine
 10
340.6807530627795
 20
719.76676628214
 30
0.0
 11
340.6807530627793
 21
204.9667662821398
 31
0.0
  0
SOLID
  5
903
330
8FD
100
AcDbEntity
  8
标注
 62
     0
100
AcDbTrace
 10
338.6807530627795
 20
719.76676628214
 30
0.0
 11
342.6807530627794
 21
719.76676628214
 31
0.0
 12
340.6807530627795
 22
731.7667662821398
 32
0.0
 13
340.6807530627795
 23
731.7667662821398
 33
0.0
  0
SOLID
  5
904
330
8FD
100
AcDbEntity
  8
标注
 62
     0
100
AcDbTrace
 10
338.6807530627793
 20
204.9667662821398
 30
0.0
 11
342.6807530627793
 21
204.9667662821398
 31
0.0
 12
340.6807530627793
 22
192.9667662821398
 32
0.0
 13
340.6807530627793
 23
192.9667662821398
 33
0.0
  0
MTEXT
  5
905
330
8FD
100
AcDbEntity
  8
标注
 62
     0
100
AcDbMText
 10
323.7697025852895
 20
462.36676628214
 30
0.0
 40
18.39999999999998
 41
0.0
 71
     5
 72
     1
  1
538.8 [21 1/4"]
 11
0.0000000000000001
 21
1.0
 31
0.0
 73
     1
 44
1.0
1001
ACAD
1000
MTEXTBEGIN
1070
    73
1070
     1
1070
    44
1040
1.0
1070
    74
1070
     0
1000
MTEXTEND
  0
POINT
  5
906
330
8FD
100
AcDbEntity
  8
Defpoints
 62
     0
100
AcDbPoint
 10
400.803966080437
 20
731.7667662821398
 30
0.0
  0
POINT
  5
907
330
8FD
100
AcDbEntity
  8
Defpoints
 62
     0
100
AcDbPoint
 10
400.803966080437
 20
192.9667662821398
 30
0.0
  0
POINT
  5
908
330
8FD
100
AcDbEntity
  8
Defpoints
 62
     0
100
AcDbPoint
 10
340.6807530627793
 20
192.9667662821398
 30
0.0
  0
ENDBLK
  5
8FF
330
8FD
100
AcDbEntity
  8
0
100
AcDbBlockEnd
  0
BLOCK
  5
961
330
960
100
AcDbEntity
  8
0
100
AcDbBlockBegin
  2
*D50
 70
     1
 10
0.0
 20
0.0
 30
0.0
  3
*D50
  1

  0
LINE
  5
9A1
330
960
100
AcDbEntity
  8
标注
 62
     0
370
    -2
100
AcDbLine
 10
373.4737317143991
 20
736.7667689438409
 30
0.0
 11
373.4737317143991
 21
786.7973877114318
 31
0.0
  0
LINE
  5
9A2
330
960
100
AcDbEntity
  8
标注
 62
     0
370
    -2
100
AcDbLine
 10
1064.673731714398
 20
736.7667689438409
 30
0.0
 11
1064.673731714398
 21
786.7973877114318
 31
0.0
  0
LINE
  5
9A3
330
960
100
AcDbEntity
  8
标注
 62
     0
370
    -2
100
AcDbLine
 10
385.473731714399
 20
776.7973877114318
 30
0.0
 11
1052.673731714398
 21
776.7973877114318
 31
0.0
  0
SOLID
  5
9A4
330
960
100
AcDbEntity
  8
标注
 62
     0
100
AcDbTrace
 10
385.473731714399
 20
778.7973877114318
 30
0.0
 11
385.473731714399
 21
774.7973877114318
 31
0.0
 12
373.4737317143991
 22
776.7973877114318
 32
0.0
 13
373.4737317143991
 23
776.7973877114318
 33
0.0
  0
SOLID
  5
9A5
330
960
100
AcDbEntity
  8
标注
 62
     0
100
AcDbTrace
 10
1052.673731714398
 20
778.7973877114318
 30
0.0
 11
1052.673731714398
 21
774.7973877114318
 31
0.0
 12
1064.673731714398
 22
776.7973877114318
 32
0.0
 13
1064.673731714398
 23
776.7973877114318
 33
0.0
  0
MTEXT
  5
9A6
330
960
100
AcDbEntity
  8
标注
 62
     0
100
AcDbMText
 10
719.0737317143985
 20
793.7084381889218
 30
0.0
 40
18.39999999999998
 41
0.0
 71
     5
 72
     1
  1
691.2 [27 1/4"]
 73
     1
 44
1.0
1001
ACAD
1000
MTEXTBEGIN
1070
    73
1070
     1
1070
    44
1040
1.0
1070
    74
1070
     0
1000
MTEXTEND
  0
POINT
  5
9A7
330
960
100
AcDbEntity
  8
Defpoints
 62
     0
100
AcDbPoint
 10
373.4737317143991
 20
731.7667689438409
 30
0.0
  0
POINT
  5
9A8
330
960
100
AcDbEntity
  8
Defpoints
 62
     0
100
AcDbPoint
 10
1064.673731714398
 20
731.7667689438409
 30
0.0
  0
POINT
  5
9A9
330
960
100
AcDbEntity
  8
Defpoints
 62
     0
100
AcDbPoint
 10
1064.673731714398
 20
776.7973877114318
 30
0.0
  0
ENDBLK
  5
962
330
960
100
AcDbEntity
  8
0
100
AcDbBlockEnd
  0
BLOCK
  5
979
330
978
100
AcDbEntity
  8
0
100
AcDbBlockBegin
  2
*D51
 70
     1
 10
0.0
 20
0.0
 30
0.0
  3
*D51
  1

  0
LINE
  5
9AA
330
978
100
AcDbEntity
  8
标注
 62
     0
370
    -2
100
AcDbLine
 10
368.473731714399
 20
731.7667689438409
 30
0.0
 11
306.6819778419632
 21
731.7667689438409
 31
0.0
  0
LINE
  5
9AB
330
978
100
AcDbEntity
  8
标注
 62
     0
370
    -2
100
AcDbLine
 10
368.473731714399
 20
192.9667689438409
 30
0.0
 11
306.681977841963
 21
192.966768943841
 31
0.0
  0
LINE
  5
9AC
330
978
100
AcDbEntity
  8
标注
 62
     0
370
    -2
100
AcDbLine
 10
316.6819778419632
 20
719.7667689438409
 30
0.0
 11
316.681977841963
 21
204.966768943841
 31
0.0
  0
SOLID
  5
9AD
330
978
100
AcDbEntity
  8
标注
 62
     0
100
AcDbTrace
 10
314.6819778419632
 20
719.7667689438409
 30
0.0
 11
318.6819778419632
 21
719.7667689438409
 31
0.0
 12
316.6819778419632
 22
731.7667689438409
 32
0.0
 13
316.6819778419632
 23
731.7667689438409
 33
0.0
  0
SOLID
  5
9AE
330
978
100
AcDbEntity
  8
标注
 62
     0
100
AcDbTrace
 10
314.681977841963
 20
204.966768943841
 30
0.0
 11
318.681977841963
 21
204.966768943841
 31
0.0
 12
316.681977841963
 22
192.966768943841
 32
0.0
 13
316.681977841963
 23
192.966768943841
 33
0.0
  0
MTEXT
  5
9AF
330
978
100
AcDbEntity
  8
标注
 62
     0
100
AcDbMText
 10
299.7709273644732
 20
462.366768943841
 30
0.0
 40
18.39999999999998
 41
0.0
 71
     5
 72
     1
  1
538.8 [21 1/4"]
 11
0.0000000000000001
 21
1.0
 31
0.0
 73
     1
 44
1.0
1001
ACAD
1000
MTEXTBEGIN
1070
    73
1070
     1
1070
    44
1040
1.0
1070
    74
1070
     0
1000
MTEXTEND
  0
POINT
  5
9B0
330
978
100
AcDbEntity
  8
Defpoints
 62
     0
100
AcDbPoint
 10
373.4737317143991
 20
731.7667689438409
 30
0.0
  0
POINT
  5
9B1
330
978
100
AcDbEntity
  8
Defpoints
 62
     0
100
AcDbPoint
 10
373.4737317143991
 20
192.9667689438409
 30
0.0
  0
POINT
  5
9B2
330
978
100
AcDbEntity
  8
Defpoints
 62
     0
100
AcDbPoint
 10
316.681977841963
 20
192.966768943841
 30
0.0
  0
ENDBLK
  5
97A
330
978
100
AcDbEntity
  8
0
100
AcDbBlockEnd
  0
BLOCK
  5
A02
330
A01
100
AcDbEntity
  8
0
100
AcDbBlockBegin
  2
*D52
 70
     1
 10
0.0
 20
0.0
 30
0.0
  3
*D52
  1

  0
LINE
  5
A42
330
A01
100
AcDbEntity
  8
标注
 62
     0
370
    -2
100
AcDbLine
 10
335.3248224086583
 20
731.7667692100115
 30
0.0
 11
282.9139817306333
 21
731.7667692100115
 31
0.0
  0
LINE
  5
A43
330
A01
100
AcDbEntity
  8
标注
 62
     0
370
    -2
100
AcDbLine
 10
335.3248224086583
 20
192.9667692100111
 30
0.0
 11
282.9139817306332
 21
192.9667692100111
 31
0.0
  0
LINE
  5
A44
330
A01
100
AcDbEntity
  8
标注
 62
     0
370
    -2
100
AcDbLine
 10
292.9139817306333
 20
719.7667692100115
 30
0.0
 11
292.9139817306332
 21
204.9667692100112
 31
0.0
  0
SOLID
  5
A45
330
A01
100
AcDbEntity
  8
标注
 62
     0
100
AcDbTrace
 10
290.9139817306333
 20
719.7667692100115
 30
0.0
 11
294.9139817306333
 21
719.7667692100115
 31
0.0
 12
292.9139817306333
 22
731.7667692100115
 32
0.0
 13
292.9139817306333
 23
731.7667692100115
 33
0.0
  0
SOLID
  5
A46
330
A01
100
AcDbEntity
  8
标注
 62
     0
100
AcDbTrace
 10
290.9139817306332
 20
204.9667692100112
 30
0.0
 11
294.9139817306332
 21
204.9667692100112
 31
0.0
 12
292.9139817306332
 22
192.9667692100111
 32
0.0
 13
292.9139817306332
 23
192.9667692100111
 33
0.0
  0
MTEXT
  5
A47
330
A01
100
AcDbEntity
  8
标注
 62
     0
100
AcDbMText
 10
276.0029312531433
 20
462.3667692100113
 30
0.0
 40
18.39999999999998
 41
0.0
 71
     5
 72
     1
  1
538.8 [21 1/4"]
 11
0.0000000000000001
 21
1.0
 31
0.0
 73
     1
 44
1.0
1001
ACAD
1000
MTEXTBEGIN
1070
    73
1070
     1
1070
    44
1040
1.0
1070
    74
1070
     0
1000
MTEXTEND
  0
POINT
  5
A48
330
A01
100
AcDbEntity
  8
Defpoints
 62
     0
100
AcDbPoint
 10
340.3248224086583
 20
731.7667692100115
 30
0.0
  0
POINT
  5
A49
330
A01
100
AcDbEntity
  8
Defpoints
 62
     0
100
AcDbPoint
 10
340.3248224086583
 20
192.9667692100111
 30
0.0
  0
POINT
  5
A4A
330
A01
100
AcDbEntity
  8
Defpoints
 62
     0
100
AcDbPoint
 10
292.9139817306332
 20
192.9667692100111
 30
0.0
  0
ENDBLK
  5
A03
330
A01
100
AcDbEntity
  8
0
100
AcDbBlockEnd
  0
BLOCK
  5
A1A
330
A19
100
AcDbEntity
  8
0
100
AcDbBlockBegin
  2
*D53
 70
     1
 10
0.0
 20
0.0
 30
0.0
  3
*D53
  1

  0
LINE
  5
A4B
330
A19
100
AcDbEntity
  8
标注
 62
     0
370
    -2
100
AcDbLine
 10
340.3248224086583
 20
736.7667692100114
 30
0.0
 11
340.3248224086583
 21
782.5716870710366
 31
0.0
  0
LINE
  5
A4C
330
A19
100
AcDbEntity
  8
标注
 62
     0
370
    -2
100
AcDbLine
 10
1082.32482240866
 20
736.7667692100114
 30
0.0
 11
1082.32482240866
 21
782.5716870710366
 31
0.0
  0
LINE
  5
A4D
330
A19
100
AcDbEntity
  8
标注
 62
     0
370
    -2
100
AcDbLine
 10
352.3248224086583
 20
772.5716870710366
 30
0.0
 11
1070.32482240866
 21
772.5716870710366
 31
0.0
  0
SOLID
  5
A4E
330
A19
100
AcDbEntity
  8
标注
 62
     0
100
AcDbTrace
 10
352.3248224086583
 20
774.5716870710366
 30
0.0
 11
352.3248224086583
 21
770.5716870710366
 31
0.0
 12
340.3248224086583
 22
772.5716870710366
 32
0.0
 13
340.3248224086583
 23
772.5716870710366
 33
0.0
  0
SOLID
  5
A4F
330
A19
100
AcDbEntity
  8
标注
 62
     0
100
AcDbTrace
 10
1070.32482240866
 20
774.5716870710366
 30
0.0
 11
1070.32482240866
 21
770.5716870710366
 31
0.0
 12
1082.32482240866
 22
772.5716870710366
 32
0.0
 13
1082.32482240866
 23
772.5716870710366
 33
0.0
  0
MTEXT
  5
A50
330
A19
100
AcDbEntity
  8
标注
 62
     0
100
AcDbMText
 10
711.3248224086592
 20
789.4827375485264
 30
0.0
 40
18.39999999999998
 41
0.0
 71
     5
 72
     1
  1
742 [29 1/4"]
 73
     1
 44
1.0
1001
ACAD
1000
MTEXTBEGIN
1070
    73
1070
     1
1070
    44
1040
1.0
1070
    74
1070
     0
1000
MTEXTEND
  0
POINT
  5
A51
330
A19
100
AcDbEntity
  8
Defpoints
 62
     0
100
AcDbPoint
 10
340.3248224086583
 20
731.7667692100115
 30
0.0
  0
POINT
  5
A52
330
A19
100
AcDbEntity
  8
Defpoints
 62
     0
100
AcDbPoint
 10
1082.32482240866
 20
731.7667692100115
 30
0.0
  0
POINT
  5
A53
330
A19
100
AcDbEntity
  8
Defpoints
 62
     0
100
AcDbPoint
 10
1082.32482240866
 20
772.5716870710366
 30
0.0
  0
ENDBLK
  5
A1B
330
A19
100
AcDbEntity
  8
0
100
AcDbBlockEnd
  0
BLOCK
  5
AA3
330
AA2
100
AcDbEntity
  8
0
100
AcDbBlockBegin
  2
*D54
 70
     1
 10
0.0
 20
0.0
 30
0.0
  3
*D54
  1

  0
LINE
  5
B22
330
AA2
100
AcDbEntity
  8
标注
 62
     0
370
    -2
100
AcDbLine
 10
405.5671348099293
 20
731.7667692639607
 30
0.0
 11
327.6293939247864
 21
731.7667692639607
 31
0.0
  0
LINE
  5
B23
330
AA2
100
AcDbEntity
  8
标注
 62
     0
370
    -2
100
AcDbLine
 10
405.5671348099293
 20
192.9667692639608
 30
0.0
 11
327.6293939247862
 21
192.9667692639608
 31
0.0
  0
LINE
  5
B24
330
AA2
100
AcDbEntity
  8
标注
 62
     0
370
    -2
100
AcDbLine
 10
337.6293939247864
 20
719.7667692639607
 30
0.0
 11
337.6293939247863
 21
204.9667692639608
 31
0.0
  0
SOLID
  5
B25
330
AA2
100
AcDbEntity
  8
标注
 62
     0
100
AcDbTrace
 10
335.6293939247864
 20
719.7667692639607
 30
0.0
 11
339.6293939247864
 21
719.7667692639607
 31
0.0
 12
337.6293939247864
 22
731.7667692639607
 32
0.0
 13
337.6293939247864
 23
731.7667692639607
 33
0.0
  0
SOLID
  5
B26
330
AA2
100
AcDbEntity
  8
标注
 62
     0
100
AcDbTrace
 10
335.6293939247863
 20
204.9667692639608
 30
0.0
 11
339.6293939247863
 21
204.9667692639608
 31
0.0
 12
337.6293939247863
 22
192.9667692639608
 32
0.0
 13
337.6293939247863
 23
192.9667692639608
 33
0.0
  0
MTEXT
  5
B27
330
AA2
100
AcDbEntity
  8
标注
 62
     0
100
AcDbMText
 10
320.7183434472964
 20
462.3667692639608
 30
0.0
 40
18.39999999999998
 41
0.0
 71
     5
 72
     1
  1
538.8 [21 1/4"]
 11
0.0000000000000001
 21
1.0
 31
0.0
 73
     1
 44
1.0
1001
ACAD
1000
MTEXTBEGIN
1070
    73
1070
     1
1070
    44
1040
1.0
1070
    74
1070
     0
1000
MTEXTEND
  0
POINT
  5
B28
330
AA2
100
AcDbEntity
  8
Defpoints
 62
     0
100
AcDbPoint
 10
410.5671348099295
 20
731.7667692639607
 30
0.0
  0
POINT
  5
B29
330
AA2
100
AcDbEntity
  8
Defpoints
 62
     0
100
AcDbPoint
 10
410.5671348099295
 20
192.9667692639608
 30
0.0
  0
POINT
  5
B2A
330
AA2
100
AcDbEntity
  8
Defpoints
 62
     0
100
AcDbPoint
 10
337.6293939247863
 20
192.9667692639608
 30
0.0
  0
ENDBLK
  5
AA4
330
AA2
100
AcDbEntity
  8
0
100
AcDbBlockEnd
  0
BLOCK
  5
ABB
330
ABA
100
AcDbEntity
  8
0
100
AcDbBlockBegin
  2
*D55
 70
     1
 10
0.0
 20
0.0
 30
0.0
  3
*D55
  1

  0
LINE
  5
AF5
330
ABA
100
AcDbEntity
  8
标注
 62
     0
370
    -2
100
AcDbLine
 10
410.5671348099295
 20
736.7667692639606
 30
0.0
 11
410.5671348099295
 21
791.9643905766679
 31
0.0
  0
LINE
  5
AF6
330
ABA
100
AcDbEntity
  8
标注
 62
     0
370
    -2
100
AcDbLine
 10
1025.567134809929
 20
736.7667692639606
 30
0.0
 11
1025.567134809929
 21
791.9643905766679
 31
0.0
  0
LINE
  5
AF7
330
ABA
100
AcDbEntity
  8
标注
 62
     0
370
    -2
100
AcDbLine
 10
422.5671348099295
 20
781.9643905766679
 30
0.0
 11
1013.567134809929
 21
781.9643905766679
 31
0.0
  0
SOLID
  5
AF8
330
ABA
100
AcDbEntity
  8
标注
 62
     0
100
AcDbTrace
 10
422.5671348099295
 20
783.9643905766679
 30
0.0
 11
422.5671348099295
 21
779.9643905766679
 31
0.0
 12
410.5671348099295
 22
781.9643905766679
 32
0.0
 13
410.5671348099295
 23
781.9643905766679
 33
0.0
  0
SOLID
  5
AF9
330
ABA
100
AcDbEntity
  8
标注
 62
     0
100
AcDbTrace
 10
1013.567134809929
 20
783.9643905766679
 30
0.0
 11
1013.567134809929
 21
779.9643905766679
 31
0.0
 12
1025.567134809929
 22
781.9643905766679
 32
0.0
 13
1025.567134809929
 23
781.9643905766679
 33
0.0
  0
MTEXT
  5
AFA
330
ABA
100
AcDbEntity
  8
标注
 62
     0
100
AcDbMText
 10
718.0671348099295
 20
798.8754410541576
 30
0.0
 40
18.39999999999998
 41
0.0
 71
     5
 72
     1
  1
615 [24 1/4"]
 73
     1
 44
1.0
1001
ACAD
1000
MTEXTBEGIN
1070
    73
1070
     1
1070
    44
1040
1.0
1070
    74
1070
     0
1000
MTEXTEND
  0
POINT
  5
AFB
330
ABA
100
AcDbEntity
  8
Defpoints
 62
     0
100
AcDbPoint
 10
410.5671348099295
 20
731.7667692639607
 30
0.0
  0
POINT
  5
AFC
330
ABA
100
AcDbEntity
  8
Defpoints
 62
     0
100
AcDbPoint
 10
1025.567134809929
 20
731.7667692639607
 30
0.0
  0
POINT
  5
AFD
330
ABA
100
AcDbEntity
  8
Defpoints
 62
     0
100
AcDbPoint
 10
1025.567134809929
 20
781.9643905766679
 30
0.0
  0
ENDBLK
  5
ABC
330
ABA
100
AcDbEntity
  8
0
100
AcDbBlockEnd
  0
BLOCK
  5
B7A
330
B79
100
AcDbEntity
  8
0
100
AcDbBlockBegin
  2
*D56
 70
     1
 10
0.0
 20
0.0
 30
0.0
  3
*D56
  1

  0
LINE
  5
BBA
330
B79
100
AcDbEntity
  8
标注
 62
     0
370
    -2
100
AcDbLine
 10
350.7609263821686
 20
731.766769810433
 30
0.0
 11
295.7198709431706
 21
731.766769810433
 31
0.0
  0
LINE
  5
BBB
330
B79
100
AcDbEntity
  8
标注
 62
     0
370
    -2
100
AcDbLine
 10
350.7609263821686
 20
192.9667698104332
 30
0.0
 11
295.7198709431704
 21
192.9667698104332
 31
0.0
  0
LINE
  5
BBC
330
B79
100
AcDbEntity
  8
标注
 62
     0
370
    -2
100
AcDbLine
 10
305.7198709431706
 20
719.7667698104329
 30
0.0
 11
305.7198709431705
 21
204.9667698104332
 31
0.0
  0
SOLID
  5
BBD
330
B79
100
AcDbEntity
  8
标注
 62
     0
100
AcDbTrace
 10
303.7198709431706
 20
719.7667698104329
 30
0.0
 11
307.7198709431706
 21
719.7667698104329
 31
0.0
 12
305.7198709431706
 22
731.766769810433
 32
0.0
 13
305.7198709431706
 23
731.766769810433
 33
0.0
  0
SOLID
  5
BBE
330
B79
100
AcDbEntity
  8
标注
 62
     0
100
AcDbTrace
 10
303.7198709431705
 20
204.9667698104332
 30
0.0
 11
307.7198709431705
 21
204.9667698104332
 31
0.0
 12
305.7198709431705
 22
192.9667698104332
 32
0.0
 13
305.7198709431705
 23
192.9667698104332
 33
0.0
  0
MTEXT
  5
BBF
330
B79
100
AcDbEntity
  8
标注
 62
     0
100
AcDbMText
 10
288.8088204656806
 20
462.3667698104331
 30
0.0
 40
18.39999999999998
 41
0.0
 71
     5
 72
     1
  1
538.8 [21 1/4"]
 11
0.0000000000000001
 21
1.0
 31
0.0
 73
     1
 44
1.0
1001
ACAD
1000
MTEXTBEGIN
1070
    73
1070
     1
1070
    44
1040
1.0
1070
    74
1070
     0
1000
MTEXTEND
  0
POINT
  5
BC0
330
B79
100
AcDbEntity
  8
Defpoints
 62
     0
100
AcDbPoint
 10
355.7609263821686
 20
731.766769810433
 30
0.0
  0
POINT
  5
BC1
330
B79
100
AcDbEntity
  8
Defpoints
 62
     0
100
AcDbPoint
 10
355.7609263821686
 20
192.9667698104332
 30
0.0
  0
POINT
  5
BC2
330
B79
100
AcDbEntity
  8
Defpoints
 62
     0
100
AcDbPoint
 10
305.7198709431705
 20
192.9667698104332
 30
0.0
  0
ENDBLK
  5
B7B
330
B79
100
AcDbEntity
  8
0
100
AcDbBlockEnd
  0
BLOCK
  5
B92
330
B91
100
AcDbEntity
  8
0
100
AcDbBlockBegin
  2
*D57
 70
     1
 10
0.0
 20
0.0
 30
0.0
  3
*D57
  1

  0
LINE
  5
BC3
330
B91
100
AcDbEntity
  8
标注
 62
     0
370
    -2
100
AcDbLine
 10
355.7609263821686
 20
736.7667698104329
 30
0.0
 11
355.7609263821686
 21
796.1230631106372
 31
0.0
  0
LINE
  5
BC4
330
B91
100
AcDbEntity
  8
标注
 62
     0
370
    -2
100
AcDbLine
 10
1097.760926382169
 20
736.7667698104329
 30
0.0
 11
1097.760926382169
 21
796.1230631106372
 31
0.0
  0
LINE
  5
BC5
330
B91
100
AcDbEntity
  8
标注
 62
     0
370
    -2
100
AcDbLine
 10
367.7609263821687
 20
786.1230631106373
 30
0.0
 11
1085.760926382168
 21
786.1230631106373
 31
0.0
  0
SOLID
  5
BC6
330
B91
100
AcDbEntity
  8
标注
 62
     0
100
AcDbTrace
 10
367.7609263821687
 20
788.1230631106372
 30
0.0
 11
367.7609263821687
 21
784.1230631106372
 31
0.0
 12
355.7609263821686
 22
786.1230631106373
 32
0.0
 13
355.7609263821686
 23
786.1230631106373
 33
0.0
  0
SOLID
  5
BC7
330
B91
100
AcDbEntity
  8
标注
 62
     0
100
AcDbTrace
 10
1085.760926382168
 20
788.1230631106372
 30
0.0
 11
1085.760926382168
 21
784.1230631106372
 31
0.0
 12
1097.760926382169
 22
786.1230631106373
 32
0.0
 13
1097.760926382169
 23
786.1230631106373
 33
0.0
  0
MTEXT
  5
BC8
330
B91
100
AcDbEntity
  8
标注
 62
     0
100
AcDbMText
 10
726.7609263821687
 20
803.0341135881272
 30
0.0
 40
18.39999999999998
 41
0.0
 71
     5
 72
     1
  1
742 [29 1/4"]
 73
     1
 44
1.0
1001
ACAD
1000
MTEXTBEGIN
1070
    73
1070
     1
1070
    44
1040
1.0
1070
    74
1070
     0
1000
MTEXTEND
  0
POINT
  5
BC9
330
B91
100
AcDbEntity
  8
Defpoints
 62
     0
100
AcDbPoint
 10
355.7609263821686
 20
731.766769810433
 30
0.0
  0
POINT
  5
BCA
330
B91
100
AcDbEntity
  8
Defpoints
 62
     0
100
AcDbPoint
 10
1097.760926382169
 20
731.766769810433
 30
0.0
  0
POINT
  5
BCB
330
B91
100
AcDbEntity
  8
Defpoints
 62
     0
100
AcDbPoint
 10
1097.760926382169
 20
786.1230631106373
 30
0.0
  0
ENDBLK
  5
B93
330
B91
100
AcDbEntity
  8
0
100
AcDbBlockEnd
  0
BLOCK
  5
C1B
330
C1A
100
AcDbEntity
  8
0
100
AcDbBlockBegin
  2
*D58
 70
     1
 10
0.0
 20
0.0
 30
0.0
  3
*D58
  1

  0
LINE
  5
C5B
330
C1A
100
AcDbEntity
  8
标注
 62
     0
370
    -2
100
AcDbLine
 10
293.8715838453536
 20
731.7667699067161
 30
0.0
 11
243.0489257432238
 21
731.7667699067162
 31
0.0
  0
LINE
  5
C5C
330
C1A
100
AcDbEntity
  8
标注
 62
     0
370
    -2
100
AcDbLine
 10
293.8715838453536
 20
192.9667699067162
 30
0.0
 11
243.0489257432236
 21
192.9667699067162
 31
0.0
  0
LINE
  5
C5D
330
C1A
100
AcDbEntity
  8
标注
 62
     0
370
    -2
100
AcDbLine
 10
253.0489257432238
 20
719.7667699067162
 30
0.0
 11
253.0489257432237
 21
204.9667699067162
 31
0.0
  0
SOLID
  5
C5E
330
C1A
100
AcDbEntity
  8
标注
 62
     0
100
AcDbTrace
 10
251.0489257432238
 20
719.7667699067162
 30
0.0
 11
255.0489257432238
 21
719.7667699067162
 31
0.0
 12
253.0489257432238
 22
731.7667699067162
 32
0.0
 13
253.0489257432238
 23
731.7667699067162
 33
0.0
  0
SOLID
  5
C5F
330
C1A
100
AcDbEntity
  8
标注
 62
     0
100
AcDbTrace
 10
251.0489257432237
 20
204.9667699067162
 30
0.0
 11
255.0489257432237
 21
204.9667699067162
 31
0.0
 12
253.0489257432237
 22
192.9667699067162
 32
0.0
 13
253.0489257432237
 23
192.9667699067162
 33
0.0
  0
MTEXT
  5
C60
330
C1A
100
AcDbEntity
  8
标注
 62
     0
100
AcDbMText
 10
236.1378752657339
 20
462.3667699067161
 30
0.0
 40
18.39999999999998
 41
0.0
 71
     5
 72
     1
  1
538.8 [21 1/4"]
 11
0.0000000000000001
 21
1.0
 31
0.0
 73
     1
 44
1.0
1001
ACAD
1000
MTEXTBEGIN
1070
    73
1070
     1
1070
    44
1040
1.0
1070
    74
1070
     0
1000
MTEXTEND
  0
POINT
  5
C61
330
C1A
100
AcDbEntity
  8
Defpoints
 62
     0
100
AcDbPoint
 10
298.8715838453536
 20
731.7667699067161
 30
0.0
  0
POINT
  5
C62
330
C1A
100
AcDbEntity
  8
Defpoints
 62
     0
100
AcDbPoint
 10
298.8715838453536
 20
192.9667699067162
 30
0.0
  0
POINT
  5
C63
330
C1A
100
AcDbEntity
  8
Defpoints
 62
     0
100
AcDbPoint
 10
253.0489257432237
 20
192.9667699067162
 30
0.0
  0
ENDBLK
  5
C1C
330
C1A
100
AcDbEntity
  8
0
100
AcDbBlockEnd
  0
BLOCK
  5
C33
330
C32
100
AcDbEntity
  8
0
100
AcDbBlockBegin
  2
*D59
 70
     1
 10
0.0
 20
0.0
 30
0.0
  3
*D59
  1

  0
LINE
  5
C64
330
C32
100
AcDbEntity
  8
标注
 62
     0
370
    -2
100
AcDbLine
 10
298.8715838453536
 20
736.7667699067161
 30
0.0
 11
298.8715838453536
 21
793.2485503853659
 31
0.0
  0
LINE
  5
C65
330
C32
100
AcDbEntity
  8
标注
 62
     0
370
    -2
100
AcDbLine
 10
1117.071583845354
 20
736.7667699067161
 30
0.0
 11
1117.071583845354
 21
793.2485503853659
 31
0.0
  0
LINE
  5
C66
330
C32
100
AcDbEntity
  8
标注
 62
     0
370
    -2
100
AcDbLine
 10
310.8715838453536
 20
783.248550385366
 30
0.0
 11
1105.071583845354
 21
783.248550385366
 31
0.0
  0
SOLID
  5
C67
330
C32
100
AcDbEntity
  8
标注
 62
     0
100
AcDbTrace
 10
310.8715838453536
 20
785.2485503853658
 30
0.0
 11
310.8715838453536
 21
781.2485503853658
 31
0.0
 12
298.8715838453536
 22
783.248550385366
 32
0.0
 13
298.8715838453536
 23
783.248550385366
 33
0.0
  0
SOLID
  5
C68
330
C32
100
AcDbEntity
  8
标注
 62
     0
100
AcDbTrace
 10
1105.071583845354
 20
785.2485503853658
 30
0.0
 11
1105.071583845354
 21
781.2485503853658
 31
0.0
 12
1117.071583845354
 22
783.248550385366
 32
0.0
 13
1117.071583845354
 23
783.248550385366
 33
0.0
  0
MTEXT
  5
C69
330
C32
100
AcDbEntity
  8
标注
 62
     0
100
AcDbMText
 10
707.9715838453538
 20
800.1596008628556
 30
0.0
 40
18.39999999999998
 41
0.0
 71
     5
 72
     1
  1
818.2 [32 1/4"]
 73
     1
 44
1.0
1001
ACAD
1000
MTEXTBEGIN
1070
    73
1070
     1
1070
    44
1040
1.0
1070
    74
1070
     0
1000
MTEXTEND
  0
POINT
  5
C6A
330
C32
100
AcDbEntity
  8
Defpoints
 62
     0
100
AcDbPoint
 10
298.8715838453536
 20
731.7667699067161
 30
0.0
  0
POINT
  5
C6B
330
C32
100
AcDbEntity
  8
Defpoints
 62
     0
100
AcDbPoint
 10
1117.071583845354
 20
731.7667699067161
 30
0.0
  0
POINT
  5
C6C
330
C32
100
AcDbEntity
  8
Defpoints
 62
     0
100
AcDbPoint
 10
1117.071583845354
 20
783.248550385366
 30
0.0
  0
ENDBLK
  5
C34
330
C32
100
AcDbEntity
  8
0
100
AcDbBlockEnd
  0
BLOCK
  5
CBC
330
CBB
100
AcDbEntity
  8
0
100
AcDbBlockBegin
  2
*D60
 70
     1
 10
0.0
 20
0.0
 30
0.0
  3
*D60
  1

  0
LINE
  5
CFC
330
CBB
100
AcDbEntity
  8
标注
 62
     0
370
    -2
100
AcDbLine
 10
452.6212488401998
 20
680.9667717616449
 30
0.0
 11
384.7235559883867
 21
680.9667717616449
 31
0.0
  0
LINE
  5
CFD
330
CBB
100
AcDbEntity
  8
标注
 62
     0
370
    -2
100
AcDbLine
 10
452.6212488401998
 20
192.9667717616452
 30
0.0
 11
384.7235559883866
 21
192.9667717616453
 31
0.0
  0
LINE
  5
CFE
330
CBB
100
AcDbEntity
  8
标注
 62
     0
370
    -2
100
AcDbLine
 10
394.7235559883867
 20
668.9667717616449
 30
0.0
 11
394.7235559883866
 21
204.9667717616453
 31
0.0
  0
SOLID
  5
CFF
330
CBB
100
AcDbEntity
  8
标注
 62
     0
100
AcDbTrace
 10
392.7235559883867
 20
668.9667717616449
 30
0.0
 11
396.7235559883867
 21
668.9667717616449
 31
0.0
 12
394.7235559883867
 22
680.9667717616449
 32
0.0
 13
394.7235559883867
 23
680.9667717616449
 33
0.0
  0
SOLID
  5
D00
330
CBB
100
AcDbEntity
  8
标注
 62
     0
100
AcDbTrace
 10
392.7235559883866
 20
204.9667717616453
 30
0.0
 11
396.7235559883866
 21
204.9667717616453
 31
0.0
 12
394.7235559883866
 22
192.9667717616453
 32
0.0
 13
394.7235559883866
 23
192.9667717616453
 33
0.0
  0
MTEXT
  5
D01
330
CBB
100
AcDbEntity
  8
标注
 62
     0
100
AcDbMText
 10
377.8125055108968
 20
436.9667717616453
 30
0.0
 40
18.39999999999998
 41
0.0
 71
     5
 72
     1
  1
488 [19 1/4"]
 11
0.0000000000000001
 21
1.0
 31
0.0
 73
     1
 44
1.0
1001
ACAD
1000
MTEXTBEGIN
1070
    73
1070
     1
1070
    44
1040
1.0
1070
    74
1070
     0
1000
MTEXTEND
  0
POINT
  5
D02
330
CBB
100
AcDbEntity
  8
Defpoints
 62
     0
100
AcDbPoint
 10
457.6212488401997
 20
680.9667717616449
 30
0.0
  0
POINT
  5
D03
330
CBB
100
AcDbEntity
  8
Defpoints
 62
     0
100
AcDbPoint
 10
457.6212488401997
 20
192.9667717616452
 30
0.0
  0
POINT
  5
D04
330
CBB
100
AcDbEntity
  8
Defpoints
 62
     0
100
AcDbPoint
 10
394.7235559883866
 20
192.9667717616453
 30
0.0
  0
ENDBLK
  5
CBD
330
CBB
100
AcDbEntity
  8
0
100
AcDbBlockEnd
  0
BLOCK
  5
CD4
330
CD3
100
AcDbEntity
  8
0
100
AcDbBlockBegin
  2
*D61
 70
     1
 10
0.0
 20
0.0
 30
0.0
  3
*D61
  1

  0
LINE
  5
D05
330
CD3
100
AcDbEntity
  8
标注
 62
     0
370
    -2
100
AcDbLine
 10
457.6212488401997
 20
685.9667717616449
 30
0.0
 11
457.6212488401997
 21
738.1098893078188
 31
0.0
  0
LINE
  5
D06
330
CD3
100
AcDbEntity
  8
标注
 62
     0
370
    -2
100
AcDbLine
 10
971.0212488401976
 20
685.9667717616449
 30
0.0
 11
971.0212488401976
 21
738.1098893078188
 31
0.0
  0
LINE
  5
D07
330
CD3
100
AcDbEntity
  8
标注
 62
     0
370
    -2
100
AcDbLine
 10
469.6212488401998
 20
728.1098893078191
 30
0.0
 11
959.0212488401975
 21
728.1098893078191
 31
0.0
  0
SOLID
  5
D08
330
CD3
100
AcDbEntity
  8
标注
 62
     0
100
AcDbTrace
 10
469.6212488401998
 20
730.1098893078191
 30
0.0
 11
469.6212488401998
 21
726.1098893078191
 31
0.0
 12
457.6212488401997
 22
728.1098893078191
 32
0.0
 13
457.6212488401997
 23
728.1098893078191
 33
0.0
  0
SOLID
  5
D09
330
CD3
100
AcDbEntity
  8
标注
 62
     0
100
AcDbTrace
 10
959.0212488401975
 20
730.1098893078191
 30
0.0
 11
959.0212488401975
 21
726.1098893078191
 31
0.0
 12
971.0212488401976
 22
728.1098893078191
 32
0.0
 13
971.0212488401976
 23
728.1098893078191
 33
0.0
  0
MTEXT
  5
D0A
330
CD3
100
AcDbEntity
  8
标注
 62
     0
100
AcDbMText
 10
714.3212488401986
 20
745.0209397853086
 30
0.0
 40
18.39999999999998
 41
0.0
 71
     5
 72
     1
  1
513.4 [20 1/4"]
 73
     1
 44
1.0
1001
ACAD
1000
MTEXTBEGIN
1070
    73
1070
     1
1070
    44
1040
1.0
1070
    74
1070
     0
1000
MTEXTEND
  0
POINT
  5
D0B
330
CD3
100
AcDbEntity
  8
Defpoints
 62
     0
100
AcDbPoint
 10
457.6212488401997
 20
680.9667717616449
 30
0.0
  0
POINT
  5
D0C
330
CD3
100
AcDbEntity
  8
Defpoints
 62
     0
100
AcDbPoint
 10
971.0212488401976
 20
680.9667717616449
 30
0.0
  0
POINT
  5
D0D
330
CD3
100
AcDbEntity
  8
Defpoints
 62
     0
100
AcDbPoint
 10
971.0212488401976
 20
728.1098893078191
 30
0.0
  0
ENDBLK
  5
CD5
330
CD3
100
AcDbEntity
  8
0
100
AcDbBlockEnd
  0
BLOCK
  5
D5D
330
D5C
100
AcDbEntity
  8
0
100
AcDbBlockBegin
  2
*D62
 70
     1
 10
0.0
 20
0.0
 30
0.0
  3
*D62
  1

  0
LINE
  5
DAF
330
D5C
100
AcDbEntity
  8
标注
 62
     0
370
    -2
100
AcDbLine
 10
491.3770492289422
 20
599.3667715939476
 30
0.0
 11
438.1666870277888
 21
599.3667715939476
 31
0.0
  0
LINE
  5
DB0
330
D5C
100
AcDbEntity
  8
标注
 62
     0
370
    -2
100
AcDbLine
 10
491.3770492289434
 20
192.9667715939475
 30
0.0
 11
438.1666870277888
 21
192.9667715939475
 31
0.0
  0
LINE
  5
DB1
330
D5C
100
AcDbEntity
  8
标注
 62
     0
370
    -2
100
AcDbLine
 10
448.1666870277888
 20
587.3667715939476
 30
0.0
 11
448.1666870277888
 21
204.9667715939475
 31
0.0
  0
SOLID
  5
DB2
330
D5C
100
AcDbEntity
  8
标注
 62
     0
100
AcDbTrace
 10
446.1666870277888
 20
587.3667715939476
 30
0.0
 11
450.1666870277888
 21
587.3667715939476
 31
0.0
 12
448.1666870277888
 22
599.3667715939476
 32
0.0
 13
448.1666870277888
 23
599.3667715939476
 33
0.0
  0
SOLID
  5
DB3
330
D5C
100
AcDbEntity
  8
标注
 62
     0
100
AcDbTrace
 10
446.1666870277888
 20
204.9667715939476
 30
0.0
 11
450.1666870277888
 21
204.9667715939475
 31
0.0
 12
448.1666870277888
 22
192.9667715939475
 32
0.0
 13
448.1666870277888
 23
192.9667715939475
 33
0.0
  0
MTEXT
  5
DB4
330
D5C
100
AcDbEntity
  8
标注
 62
     0
100
AcDbMText
 10
431.3748725666701
 20
396.1667715939477
 30
0.0
 40
18.39999999999998
 41
0.0
 71
     5
 72
     1
  1
406.4 [16"]
 11
0.0000000000000001
 21
1.0
 31
0.0
 73
     1
 44
1.0
1001
ACAD
1000
MTEXTBEGIN
1070
    73
1070
     1
1070
    44
1040
1.0
1070
    74
1070
     0
1000
MTEXTEND
  0
POINT
  5
DB5
330
D5C
100
AcDbEntity
  8
Defpoints
 62
     0
100
AcDbPoint
 10
496.3770492289421
 20
599.3667715939476
 30
0.0
  0
POINT
  5
DB6
330
D5C
100
AcDbEntity
  8
Defpoints
 62
     0
100
AcDbPoint
 10
496.3770492289434
 20
192.9667715939475
 30
0.0
  0
POINT
  5
DB7
330
D5C
100
AcDbEntity
  8
Defpoints
 62
     0
100
AcDbPoint
 10
448.1666870277888
 20
192.9667715939475
 30
0.0
  0
ENDBLK
  5
D5E
330
D5C
100
AcDbEntity
  8
0
100
AcDbBlockEnd
  0
BLOCK
  5
D75
330
D74
100
AcDbEntity
  8
0
100
AcDbBlockBegin
  2
*D63
 70
     1
 10
0.0
 20
0.0
 30
0.0
  3
*D63
  1

  0
LINE
  5
DA6
330
D74
100
AcDbEntity
  8
标注
 62
     0
370
    -2
100
AcDbLine
 10
496.3770492289421
 20
604.3667715939476
 30
0.0
 11
496.3770492289421
 21
661.7078589490285
 31
0.0
  0
LINE
  5
DA7
330
D74
100
AcDbEntity
  8
标注
 62
     0
370
    -2
100
AcDbLine
 10
978.9770492289406
 20
604.3667715939476
 30
0.0
 11
978.9770492289406
 21
661.7078589490285
 31
0.0
  0
LINE
  5
DA8
330
D74
100
AcDbEntity
  8
标注
 62
     0
370
    -2
100
AcDbLine
 10
508.3770492289422
 20
651.7078589490283
 30
0.0
 11
966.9770492289407
 21
651.7078589490283
 31
0.0
  0
SOLID
  5
DA9
330
D74
100
AcDbEntity
  8
标注
 62
     0
100
AcDbTrace
 10
508.3770492289422
 20
653.7078589490285
 30
0.0
 11
508.3770492289422
 21
649.7078589490285
 31
0.0
 12
496.3770492289421
 22
651.7078589490283
 32
0.0
 13
496.3770492289421
 23
651.7078589490283
 33
0.0
  0
SOLID
  5
DAA
330
D74
100
AcDbEntity
  8
标注
 62
     0
100
AcDbTrace
 10
966.9770492289407
 20
653.7078589490285
 30
0.0
 11
966.9770492289407
 21
649.7078589490285
 31
0.0
 12
978.9770492289406
 22
651.7078589490283
 32
0.0
 13
978.9770492289406
 23
651.7078589490283
 33
0.0
  0
MTEXT
  5
DAB
330
D74
100
AcDbEntity
  8
标注
 62
     0
100
AcDbMText
 10
737.6770492289415
 20
668.4996734101471
 30
0.0
 40
18.39999999999998
 41
0.0
 71
     5
 72
     1
  1
482.6 [19"]
 73
     1
 44
1.0
1001
ACAD
1000
MTEXTBEGIN
1070
    73
1070
     1
1070
    44
1040
1.0
1070
    74
1070
     0
1000
MTEXTEND
  0
POINT
  5
DAC
330
D74
100
AcDbEntity
  8
Defpoints
 62
     0
100
AcDbPoint
 10
496.3770492289421
 20
599.3667715939476
 30
0.0
  0
POINT
  5
DAD
330
D74
100
AcDbEntity
  8
Defpoints
 62
     0
100
AcDbPoint
 10
978.9770492289406
 20
599.3667715939476
 30
0.0
  0
POINT
  5
DAE
330
D74
100
AcDbEntity
  8
Defpoints
 62
     0
100
AcDbPoint
 10
978.9770492289406
 20
651.7078589490283
 30
0.0
  0
ENDBLK
  5
D76
330
D74
100
AcDbEntity
  8
0
100
AcDbBlockEnd
  0
BLOCK
  5
E07
330
E06
100
AcDbEntity
  8
0
100
AcDbBlockBegin
  2
*D64
 70
     1
 10
0.0
 20
0.0
 30
0.0
  3
*D64
  1

  0
LINE
  5
E47
330
E06
100
AcDbEntity
  8
标注
 62
     0
370
    -2
100
AcDbLine
 10
421.953081182588
 20
604.3667718132502
 30
0.0
 11
421.953081182588
 21
657.4784481876112
 31
0.0
  0
LINE
  5
E48
330
E06
100
AcDbEntity
  8
标注
 62
     0
370
    -2
100
AcDbLine
 10
980.7530811825907
 20
604.3667718132502
 30
0.0
 11
980.7530811825907
 21
657.4784481876112
 31
0.0
  0
LINE
  5
E49
330
E06
100
AcDbEntity
  8
标注
 62
     0
370
    -2
100
AcDbLine
 10
433.953081182588
 20
647.4784481876111
 30
0.0
 11
968.7530811825908
 21
647.4784481876111
 31
0.0
  0
SOLID
  5
E4A
330
E06
100
AcDbEntity
  8
标注
 62
     0
100
AcDbTrace
 10
433.953081182588
 20
649.4784481876112
 30
0.0
 11
433.953081182588
 21
645.4784481876112
 31
0.0
 12
421.953081182588
 22
647.4784481876111
 32
0.0
 13
421.953081182588
 23
647.4784481876111
 33
0.0
  0
SOLID
  5
E4B
330
E06
100
AcDbEntity
  8
标注
 62
     0
100
AcDbTrace
 10
968.7530811825908
 20
649.4784481876112
 30
0.0
 11
968.7530811825908
 21
645.4784481876112
 31
0.0
 12
980.7530811825907
 22
647.4784481876111
 32
0.0
 13
980.7530811825907
 23
647.4784481876111
 33
0.0
  0
MTEXT
  5
E4C
330
E06
100
AcDbEntity
  8
标注
 62
     0
100
AcDbMText
 10
701.3530811825894
 20
664.2702626487298
 30
0.0
 40
18.39999999999998
 41
0.0
 71
     5
 72
     1
  1
558.8 [22"]
 73
     1
 44
1.0
1001
ACAD
1000
MTEXTBEGIN
1070
    73
1070
     1
1070
    44
1040
1.0
1070
    74
1070
     0
1000
MTEXTEND
  0
POINT
  5
E4D
330
E06
100
AcDbEntity
  8
Defpoints
 62
     0
100
AcDbPoint
 10
421.953081182588
 20
599.3667718132502
 30
0.0
  0
POINT
  5
E4E
330
E06
100
AcDbEntity
  8
Defpoints
 62
     0
100
AcDbPoint
 10
980.7530811825907
 20
599.3667718132502
 30
0.0
  0
POINT
  5
E4F
330
E06
100
AcDbEntity
  8
Defpoints
 62
     0
100
AcDbPoint
 10
980.7530811825907
 20
647.4784481876111
 30
0.0
  0
ENDBLK
  5
E08
330
E06
100
AcDbEntity
  8
0
100
AcDbBlockEnd
  0
BLOCK
  5
E1F
330
E1E
100
AcDbEntity
  8
0
100
AcDbBlockBegin
  2
*D65
 70
     1
 10
0.0
 20
0.0
 30
0.0
  3
*D65
  1

  0
LINE
  5
E50
330
E1E
100
AcDbEntity
  8
标注
 62
     0
370
    -2
100
AcDbLine
 10
416.953081182588
 20
599.3667718132502
 30
0.0
 11
374.6646261587248
 21
599.3667718132502
 31
0.0
  0
LINE
  5
E51
330
E1E
100
AcDbEntity
  8
标注
 62
     0
370
    -2
100
AcDbLine
 10
416.953081182588
 20
192.9667718132505
 30
0.0
 11
374.6646261587248
 21
192.9667718132505
 31
0.0
  0
LINE
  5
E52
330
E1E
100
AcDbEntity
  8
标注
 62
     0
370
    -2
100
AcDbLine
 10
384.6646261587249
 20
587.3667718132502
 30
0.0
 11
384.6646261587249
 21
204.9667718132505
 31
0.0
  0
SOLID
  5
E53
330
E1E
100
AcDbEntity
  8
标注
 62
     0
100
AcDbTrace
 10
382.6646261587248
 20
587.3667718132502
 30
0.0
 11
386.6646261587249
 21
587.3667718132502
 31
0.0
 12
384.6646261587249
 22
599.3667718132502
 32
0.0
 13
384.6646261587249
 23
599.3667718132502
 33
0.0
  0
SOLID
  5
E54
330
E1E
100
AcDbEntity
  8
标注
 62
     0
100
AcDbTrace
 10
382.6646261587248
 20
204.9667718132505
 30
0.0
 11
386.6646261587249
 21
204.9667718132505
 31
0.0
 12
384.6646261587249
 22
192.9667718132505
 32
0.0
 13
384.6646261587249
 23
192.9667718132505
 33
0.0
  0
MTEXT
  5
E55
330
E1E
100
AcDbEntity
  8
标注
 62
     0
100
AcDbMText
 10
367.872811697606
 20
396.1667718132505
 30
0.0
 40
18.39999999999998
 41
0.0
 71
     5
 72
     1
  1
406.4 [16"]
 11
0.0000000000000001
 21
1.0
 31
0.0
 73
     1
 44
1.0
1001
ACAD
1000
MTEXTBEGIN
1070
    73
1070
     1
1070
    44
1040
1.0
1070
    74
1070
     0
1000
MTEXTEND
  0
POINT
  5
E56
330
E1E
100
AcDbEntity
  8
Defpoints
 62
     0
100
AcDbPoint
 10
421.953081182588
 20
599.3667718132502
 30
0.0
  0
POINT
  5
E57
330
E1E
100
AcDbEntity
  8
Defpoints
 62
     0
100
AcDbPoint
 10
421.953081182588
 20
192.9667718132505
 30
0.0
  0
POINT
  5
E58
330
E1E
100
AcDbEntity
  8
Defpoints
 62
     0
100
AcDbPoint
 10
384.6646261587249
 20
192.9667718132505
 30
0.0
  0
ENDBLK
  5
E20
330
E1E
100
AcDbEntity
  8
0
100
AcDbBlockEnd
  0
ENDSEC
  0
SECTION
  2
ENTITIES
  0
TEXT
  5
303
330
1F
100
AcDbEntity
  8
视口
 62
     3
100
AcDbText
 10
419.7517074184288
 20
1036.416130153728
 30
0.0
 40
50.0
  1
RVU6124 TEMPLATE
  7
样式 1
100
AcDbText
  0
LWPOLYLINE
  5
E04
102
{ACAD_REACTORS
330
E1C
330
E34
102
}
330
1F
100
AcDbEntity
  8
外框线1
100
AcDbPolyline
 90
        5
 70
     1
 43
0.0
 10
421.953081182588
 20
192.9667718132505
 10
980.7530811825907
 20
192.9667718132505
 10
980.7530811825907
 20
599.3667718132502
 10
421.953081182588
 20
599.3667718132502
 10
421.953081182588
 20
192.9667718132505
  0
DIMENSION
  5
E05
102
{ACAD_XDICTIONARY
360
E12
102
}
102
{ACAD_REACTORS
330
E1C
102
}
330
1F
100
AcDbEntity
  8
标注
100
AcDbDimension
  2
*D64
 10
980.7530811825907
 20
647.4784481876111
 30
0.0
 11
701.3530811825894
 21
664.2702626487298
 31
0.0
 70
    32
 71
     5
 42
558.8000000000029
  3
1-10
100
AcDbAlignedDimension
 13
421.953081182588
 23
599.3667718132502
 33
0.0
 14
980.7530811825907
 24
599.3667718132502
 34
0.0
100
AcDbRotatedDimension
  0
DIMENSION
  5
E1D
102
{ACAD_XDICTIONARY
360
E2A
102
}
102
{ACAD_REACTORS
330
E34
102
}
330
1F
100
AcDbEntity
  8
标注
100
AcDbDimension
  2
*D65
 10
384.6646261587249
 20
192.9667718132505
 30
0.0
 11
367.872811697606
 21
396.1667718132505
 31
0.0
 70
    32
 71
     5
 42
406.3999999999998
  3
1-10
100
AcDbAlignedDimension
 13
421.953081182588
 23
599.3667718132502
 33
0.0
 14
421.953081182588
 24
192.9667718132505
 34
0.0
 50
90.0
100
AcDbRotatedDimension
  0
ENDSEC
  0
SECTION
  2
OBJECTS
  0
DICTIONARY
  5
C
330
0
100
AcDbDictionary
281
     1
  3
ACAD_2007HEADERVARS_RT
350
EFC
  3
ACAD_CIP_PREVIOUS_PRODUCT_INFO
350
216
  3
ACAD_COLOR
350
6B
  3
ACAD_DETAILVIEWSTYLE
350
21B
  3
ACAD_GROUP
350
D
  3
ACAD_LAYOUT
350
1A
  3
ACAD_MATERIAL
350
6A
  3
ACAD_MLEADERSTYLE
350
12D
  3
ACAD_MLINESTYLE
350
17
  3
ACAD_PLOTSETTINGS
350
19
  3
ACAD_PLOTSTYLENAME
350
E
  3
ACAD_SCALELIST
350
10C
  3
ACAD_SECTIONVIEWSTYLE
350
219
  3
ACAD_TABLESTYLE
350
7E
  3
ACAD_VISUALSTYLE
350
EF
  3
ACDB_RECOMPOSE_DATA
350
EFA
  3
AcDbVariableDictionary
350
5E
  3
DWGPROPS
350
EFB
  0
DICTIONARY
  5
1FF
330
2
100
AcDbDictionary
280
     1
281
     1
  3
ACAD_LAYERSTATES
360
200
  0
DICTIONARY
  5
13C
330
10
100
AcDbDictionary
280
     1
281
     1
  0
DICTIONARY
  5
62B
330
62A
100
AcDbDictionary
280
     1
281
     1
  0
DICTIONARY
  5
1CE
330
1F
100
AcDbDictionary
280
     1
281
     1
  0
DICTIONARY
  5
5BA
330
5AE
100
AcDbDictionary
280
     1
281
     1
  3
ACAD_SORTENTS
360
5BB
  0
DICTIONARY
  5
5B5
330
5B4
100
AcDbDictionary
280
     1
281
     1
  3
ACAD_DIMASSOC
360
5B6
  0
DICTIONARY
  5
5B8
330
5B7
100
AcDbDictionary
280
     1
281
     1
  3
ACAD_DIMASSOC
360
5B9
  0
DICTIONARY
  5
E12
330
E05
100
AcDbDictionary
280
     1
281
     1
  3
ACAD_DIMASSOC
360
E1C
  0
DICTIONARY
  5
E2A
330
E1D
100
AcDbDictionary
280
     1
281
     1
  3
ACAD_DIMASSOC
360
E34
  0
DICTIONARY
  5
EFC
102
{ACAD_REACTORS
330
C
102
}
330
C
100
AcDbDictionary
281
     1
  3
DIMFXL
350
EFD
  3
DIMJOGANG
350
EFE
  0
XRECORD
  5
216
102
{ACAD_REACTORS
330
C
102
}
330
C
100
AcDbXrecord
280
     1
300
ACD
300
2015
300
ACD_F_S
  0
DICTIONARY
  5
6B
102
{ACAD_REACTORS
330
C
102
}
330
C
100
AcDbDictionary
281
     1
  0
DICTIONARY
  5
21B
102
{ACAD_REACTORS
330
C
102
}
330
C
100
AcDbDictionary
281
     1
  3
Imperial24
350
62D
  3
Metric50
350
21C
  0
DICTIONARY
  5
D
102
{ACAD_REACTORS
330
C
102
}
330
C
100
AcDbDictionary
281
     1
  0
DICTIONARY
  5
1A
102
{ACAD_REACTORS
330
C
102
}
330
C
100
AcDbDictionary
281
     1
  3
Model
350
22
  3
布局1
350
D3
  3
布局2
350
D7
  0
DICTIONARY
  5
6A
102
{ACAD_REACTORS
330
C
102
}
330
C
100
AcDbDictionary
281
     1
  3
ByBlock
350
ED
  3
ByLayer
350
EC
  3
Global
350
EE
  0
DICTIONARY
  5
12D
102
{ACAD_REACTORS
330
C
102
}
330
C
100
AcDbDictionary
281
     1
  3
Annotative
350
13B
  3
Standard
350
12E
  0
DICTIONARY
  5
17
102
{ACAD_REACTORS
330
C
102
}
330
C
100
AcDbDictionary
281
     1
  3
Standard
350
18
  0
DICTIONARY
  5
19
102
{ACAD_REACTORS
330
C
102
}
330
C
100
AcDbDictionary
281
     1
  0
ACDBDICTIONARYWDFLT
  5
E
102
{ACAD_REACTORS
330
C
102
}
330
C
100
AcDbDictionary
281
     1
  3
Normal
350
F
100
AcDbDictionaryWithDefault
340
F
  0
DICTIONARY
  5
10C
102
{ACAD_REACTORS
330
C
102
}
330
C
100
AcDbDictionary
281
     1
  3
A0
350
10D
  3
A1
350
1BE
  3
A2
350
1BF
  3
A3
350
1C0
  3
A4
350
1C1
  3
A5
350
1C2
  3
A6
350
1C3
  3
A7
350
1C4
  3
A8
350
1C5
  3
A9
350
1C6
  3
B0
350
1C7
  3
B1
350
1C8
  3
B2
350
1C9
  3
B3
350
1CA
  3
B4
350
1CB
  3
B5
350
1CC
  3
B6
350
1CD
  0
DICTIONARY
  5
219
102
{ACAD_REACTORS
330
C
102
}
330
C
100
AcDbDictionary
281
     1
  3
Imperial24
350
62C
  3
Metric50
350
21A
  0
DICTIONARY
  5
7E
102
{ACAD_REACTORS
330
C
102
}
330
C
100
AcDbDictionary
281
     1
  3
Standard
350
7F
  0
DICTIONARY
  5
EF
102
{ACAD_REACTORS
330
C
102
}
330
C
100
AcDbDictionary
281
     1
  3
2dWireframe
350
F5
  3
3dWireframe
350
2BD
  3
Basic
350
F4
  3
Brighten
350
FB
  3
ColorChange
350
FF
  3
Conceptual
350
F8
  3
Dim
350
FA
  3
EdgeColorOff
350
1E6
  3
Facepattern
350
FE
  3
Flat
350
F0
  3
FlatWithEdges
350
F1
  3
Gouraud
350
F2
  3
GouraudWithEdges
350
F3
  3
Hidden
350
F7
  3
JitterOff
350
1E4
  3
Linepattern
350
FD
  3
OverhangOff
350
1E5
  3
Realistic
350
F9
  3
Shaded
350
1F3
  3
Shaded with edges
350
1F2
  3
Shades of Gray
350
1EF
  3
Sketchy
350
1F0
  3
Thicken
350
FC
  3
Wireframe
350
F6
  3
X-Ray
350
1F1
  0
XRECORD
  5
EFA
102
{ACAD_REACTORS
330
C
102
}
330
C
100
AcDbXrecord
280
     1
 90
        1
330
7F
  0
DICTIONARY
  5
5E
102
{ACAD_REACTORS
330
C
102
}
330
C
100
AcDbDictionary
281
     1
  3
CANNOSCALE
350
146
  3
CMLEADERSTYLE
350
145
  3
CTABLESTYLE
350
84
  3
CVIEWDETAILSTYLE
350
227
  3
CVIEWSECTIONSTYLE
350
228
  3
DIMASSOC
350
5F
  3
HIDETEXT
350
63
  3
INDEXCTL
350
506
  3
LAYEREVAL
350
1AE
  3
LAYERNOTIFY
350
1AF
  3
LIGHTINGUNITS
350
3F6
  3
MSLTSCALE
350
3F5
  3
PSOLHEIGHT
350
EF7
  3
PSOLWIDTH
350
EF6
  3
SORTENTS
350
505
  3
XCLIPFRAME
350
EF8
  0
XRECORD
  5
EFB
102
{ACAD_REACTORS
330
C
102
}
330
C
100
AcDbXrecord
280
     1
  1
DWGPROPS COOKIE
  2

  3

  4

  6

  7

  8
SPEED
  9

300
=
301
=
302
=
303
=
304
=
305
=
306
=
307
=
308
=
309
=
 40
0.271573599537037
 41
2458468.68946257
 42
2458710.646769097
  1

 90
        0
  0
DICTIONARY
  5
200
102
{ACAD_REACTORS
330
1FF
102
}
330
1FF
100
AcDbDictionary
281
     1
  0
SORTENTSTABLE
  5
5BB
102
{ACAD_REACTORS
330
5BA
102
}
330
5BA
100
AcDbSortentsTable
330
5AE
  0
DIMASSOC
  5
5B6
102
{ACAD_REACTORS
330
5B5
102
}
330
5B5
100
AcDbDimAssoc
330
5B4
 90
        3
 70
     0
 71
     0
  1
AcDbOsnapPointRef
 72
     1
331
5B2
 73
     2
 91
        0
 40
1.0
 10
39930.87604793248
 20
-54533.6892006409
 30
0.0
 75
     0
  1
AcDbOsnapPointRef
 72
    13
331
5B2
 73
     2
 91
        0
 40
0.0
 10
40748.87604793246
 20
-54533.6892006409
 30
0.0
 75
     0
  0
DIMASSOC
  5
5B9
102
{ACAD_REACTORS
330
5B8
102
}
330
5B8
100
AcDbDimAssoc
330
5B7
 90
        2
 70
     0
 71
     0
  1
AcDbOsnapPointRef
 72
     1
331
5B1
 73
     2
 91
        0
 40
1.0
 10
39930.87604793248
 20
-55071.68920064091
 30
0.0
 75
     0
  0
DIMASSOC
  5
E1C
102
{ACAD_REACTORS
330
E12
102
}
330
E12
100
AcDbDimAssoc
330
E05
 90
        3
 70
     0
 71
     0
  1
AcDbOsnapPointRef
 72
     1
331
E04
 73
     2
 91
        3
 40
1.0
 10
0.0
 20
0.0
 30
2.000000000000000E+50
 75
     0
  1
AcDbOsnapPointRef
 72
     1
331
E04
 73
     2
 91
        2
 40
0.9999999999999998
 10
0.0
 20
0.0
 30
2.000000000000000E+50
 75
     0
  0
DIMASSOC
  5
E34
102
{ACAD_REACTORS
330
E2A
102
}
330
E2A
100
AcDbDimAssoc
330
E1D
 90
        2
 70
     0
 71
     0
  1
AcDbOsnapPointRef
 72
    13
331
E04
 73
     2
 91
        1
 40
0.0
 10
0.0
 20
0.0
 30
2.000000000000000E+50
 75
     0
  0
XRECORD
  5
EFD
102
{ACAD_REACTORS
330
EFC
102
}
330
EFC
100
AcDbXrecord
280
     1
 40
0.18
  0
XRECORD
  5
EFE
102
{ACAD_REACTORS
330
EFC
102
}
330
EFC
100
AcDbXrecord
280
     1
 40
1.570796326794896
  0
ACDBDETAILVIEWSTYLE
  5
62D
102
{ACAD_XDICTIONARY
360
F3E
102
}
102
{ACAD_REACTORS
330
21B
102
}
330
21B
100
AcDbModelDocViewStyle
 70
     0
  3
Imperial24
290
     0
100
AcDbDetailViewStyle
 70
     0
 71
     0
 90
        3
 71
     1
340
11
 40
0.24
340
0
 40
0.24
300

 40
0.36
280
     3
 71
     2
340
16
 90
       25
 71
     3
340
11
 40
0.24
 90
        1
 40
0.75
 90
        1
300
%<\AcVar ViewType \f "%tc1">% %<\AcVar ViewDetailId>%\PSCALE %<\AcVar ViewScale \f "%sn">%
 71
     4
340
16
 90
       25
340
16
 90
       25
280
     0
  0
ACDBDETAILVIEWSTYLE
  5
21C
102
{ACAD_XDICTIONARY
360
F38
102
}
102
{ACAD_REACTORS
330
21B
102
}
330
21B
100
AcDbModelDocViewStyle
 70
     0
  3
Metric50
290
     0
100
AcDbDetailViewStyle
 70
     0
 71
     0
 90
        3
 71
     1
340
11
 40
5.0
340
0
 40
5.0
300

 40
0.0
280
     1
 71
     2
340
16
 90
       25
 71
     3
340
11
 40
5.0
 90
        0
 40
15.0
 90
        1
300
%<\AcVar ViewDetailId>% (%<\AcVar ViewScale \f "%sn">%)
 71
     4
340
16
 90
       25
340
16
 90
       25
280
     0
  0
LAYOUT
  5
22
102
{ACAD_XDICTIONARY
360
EFF
102
}
102
{ACAD_REACTORS
330
1A
102
}
330
1A
100
AcDbPlotSettings
  1

  2
none_device
  4
ISO_A4_(210.00_x_297.00_MM)
  6

 40
7.5
 41
20.0
 42
7.5
 43
20.0
 44
210.0
 45
297.0
 46
11.54999923706054
 47
-13.65000009536743
 48
0.0
 49
0.0
140
0.0
141
0.0
142
1.0
143
8.704084754739808
 70
 11952
 72
     1
 73
     0
 74
     0
  7

 75
     0
147
0.1148885871608098
148
0.0
149
0.0
100
AcDbLayout
  1
Model
 70
     1
 71
     0
 10
0.0
 20
0.0
 11
12.0
 21
9.0
 12
0.0
 22
0.0
 32
0.0
 14
0.0
 24
0.0
 34
0.0
 15
0.0
 25
0.0
 35
0.0
146
0.0
 13
0.0
 23
0.0
 33
0.0
 16
1.0
 26
0.0
 36
0.0
 17
0.0
 27
1.0
 37
0.0
 76
     0
330
1F
331
EA
1001
ACAD_PSEXT
1000
None
1000
None
1000
Not applicable
1000
The layout will not be plotted unless a new plotter configuration name is selected.
1070
     0
  0
LAYOUT
  5
D3
102
{ACAD_XDICTIONARY
360
F02
102
}
102
{ACAD_REACTORS
330
1A
102
}
330
1A
100
AcDbPlotSettings
  1

  2
C:\Documents and Settings\basas\Application Data\Autodesk\AutoCAD 2005\R16.1\enu\plotters\Default Windows System Printer.pc3
  4

  6

 40
0.0
 41
0.0
 42
0.0
 43
0.0
 44
0.0
 45
0.0
 46
0.0
 47
0.0
 48
0.0
 49
0.0
140
0.0
141
0.0
142
1.0
143
1.0
 70
   688
 72
     0
 73
     0
 74
     5
  7

 75
    16
147
1.0
148
0.0
149
0.0
100
AcDbLayout
  1
布局1
 70
     1
 71
     1
 10
0.0
 20
0.0
 11
12.0
 21
9.0
 12
0.0
 22
0.0
 32
0.0
 14
0.0
 24
0.0
 34
0.0
 15
0.0
 25
0.0
 35
0.0
146
0.0
 13
0.0
 23
0.0
 33
0.0
 16
1.0
 26
0.0
 36
0.0
 17
0.0
 27
1.0
 37
0.0
 76
     0
330
D2
  0
LAYOUT
  5
D7
102
{ACAD_XDICTIONARY
360
F04
102
}
102
{ACAD_REACTORS
330
1A
102
}
330
1A
100
AcDbPlotSettings
  1

  2
C:\Documents and Settings\basas\Application Data\Autodesk\AutoCAD 2005\R16.1\enu\plotters\Default Windows System Printer.pc3
  4

  6

 40
0.0
 41
0.0
 42
0.0
 43
0.0
 44
0.0
 45
0.0
 46
0.0
 47
0.0
 48
0.0
 49
0.0
140
0.0
141
0.0
142
1.0
143
1.0
 70
   688
 72
     0
 73
     0
 74
     5
  7

 75
    16
147
1.0
148
0.0
149
0.0
100
AcDbLayout
  1
布局2
 70
     1
 71
     2
 10
0.0
 20
0.0
 11
12.0
 21
9.0
 12
0.0
 22
0.0
 32
0.0
 14
0.0
 24
0.0
 34
0.0
 15
0.0
 25
0.0
 35
0.0
146
0.0
 13
0.0
 23
0.0
 33
0.0
 16
1.0
 26
0.0
 36
0.0
 17
0.0
 27
1.0
 37
0.0
 76
     0
330
D6
  0
MATERIAL
  5
ED
102
{ACAD_XDICTIONARY
360
1F9
102
}
102
{ACAD_REACTORS
330
6A
102
}
330
6A
100
AcDbMaterial
  1
ByBlock
  0
MATERIAL
  5
EC
102
{ACAD_XDICTIONARY
360
1F7
102
}
102
{ACAD_REACTORS
330
6A
102
}
330
6A
100
AcDbMaterial
  1
ByLayer
  0
MATERIAL
  5
EE
102
{ACAD_XDICTIONARY
360
173
102
}
102
{ACAD_REACTORS
330
6A
102
}
330
6A
100
AcDbMaterial
  1
Global
 43
0.0007999999797903
 43
0.0
 43
0.0
 43
0.0
 43
0.0
 43
0.0007999999797903
 43
0.0
 43
0.0
 43
0.0
 43
0.0
 43
1.0
 43
0.0
 43
0.0
 43
0.0
 43
0.0
 43
1.0
 49
0.0007999999797903
 49
0.0
 49
0.0
 49
0.0
 49
0.0
 49
0.0007999999797903
 49
0.0
 49
0.0
 49
0.0
 49
0.0
 49
1.0
 49
0.0
 49
0.0
 49
0.0
 49
0.0
 49
1.0
142
0.0007999999797903
142
0.0
142
0.0
142
0.0
142
0.0
142
0.0007999999797903
142
0.0
142
0.0
142
0.0
142
0.0
142
1.0
142
0.0
142
0.0
142
0.0
142
0.0
142
1.0
144
0.0007999999797903
144
0.0
144
0.0
144
0.0
144
0.0
144
0.0007999999797903
144
0.0
144
0.0
144
0.0
144
0.0
144
1.0
144
0.0
144
0.0
144
0.0
144
0.0
144
1.0
1001
ACAD
1070
    -1
1070
     3
1070
     0
1000

1071
        0
1070
     0
  0
MLEADERSTYLE
  5
13B
102
{ACAD_REACTORS
330
12D
102
}
330
12D
100
AcDbMLeaderStyle
170
     2
171
     1
172
     0
 90
        2
 40
0.0
 41
0.0
173
     1
 91
-1056964608
340
14
 92
       -2
290
     1
 42
2.0
291
     1
 43
8.0
  3
Standard
 44
4.0
300

342
11
174
     1
178
     1
175
     1
176
     0
 93
-1056964608
 45
4.0
292
     0
297
     0
 46
4.0
 94
-1056964608
 47
1.0
 49
1.0
140
1.0
293
     1
141
0.0
294
     1
177
     0
142
1.0
295
     0
296
     1
143
3.75
1001
ACAD_MLEADERVER
1070
     2
  0
MLEADERSTYLE
  5
12E
102
{ACAD_REACTORS
330
12D
102
}
330
12D
100
AcDbMLeaderStyle
170
     2
171
     1
172
     0
 90
        2
 40
0.0
 41
0.0
173
     1
 91
-1056964608
340
14
 92
       -2
290
     1
 42
2.0
291
     1
 43
8.0
  3
Standard
 44
4.0
300

342
11
174
     1
178
     1
175
     1
176
     0
 93
-1056964608
 45
4.0
292
     0
297
     0
 46
4.0
 94
-1056964608
 47
1.0
 49
1.0
140
1.0
293
     1
141
0.0
294
     1
177
     0
142
1.0
295
     0
296
     0
143
3.75
1001
ACAD_MLEADERVER
1070
     2
  0
MLINESTYLE
  5
18
102
{ACAD_REACTORS
330
17
102
}
330
17
100
AcDbMlineStyle
  2
STANDARD
 70
     0
  3

 62
   256
 51
90.0
 52
90.0
 71
     2
 49
0.5
 62
   256
  6
BYLAYER
 49
-0.5
 62
   256
  6
BYLAYER
  0
ACDBPLACEHOLDER
  5
F
102
{ACAD_REACTORS
330
E
102
}
330
E
  0
SCALE
  5
10D
102
{ACAD_REACTORS
330
10C
102
}
330
10C
100
AcDbScale
 70
     0
300
1:1
140
1.0
141
1.0
290
     1
  0
SCALE
  5
1BE
102
{ACAD_REACTORS
330
10C
102
}
330
10C
100
AcDbScale
 70
     0
300
1:2
140
1.0
141
2.0
290
     0
  0
SCALE
  5
1BF
102
{ACAD_REACTORS
330
10C
102
}
330
10C
100
AcDbScale
 70
     0
300
1:4
140
1.0
141
4.0
290
     0
  0
SCALE
  5
1C0
102
{ACAD_REACTORS
330
10C
102
}
330
10C
100
AcDbScale
 70
     0
300
1:5
140
1.0
141
5.0
290
     0
  0
SCALE
  5
1C1
102
{ACAD_REACTORS
330
10C
102
}
330
10C
100
AcDbScale
 70
     0
300
1:8
140
1.0
141
8.0
290
     0
  0
SCALE
  5
1C2
102
{ACAD_REACTORS
330
10C
102
}
330
10C
100
AcDbScale
 70
     0
300
1:10
140
1.0
141
10.0
290
     0
  0
SCALE
  5
1C3
102
{ACAD_REACTORS
330
10C
102
}
330
10C
100
AcDbScale
 70
     0
300
1:16
140
1.0
141
16.0
290
     0
  0
SCALE
  5
1C4
102
{ACAD_REACTORS
330
10C
102
}
330
10C
100
AcDbScale
 70
     0
300
1:20
140
1.0
141
20.0
290
     0
  0
SCALE
  5
1C5
102
{ACAD_REACTORS
330
10C
102
}
330
10C
100
AcDbScale
 70
     0
300
1:30
140
1.0
141
30.0
290
     0
  0
SCALE
  5
1C6
102
{ACAD_REACTORS
330
10C
102
}
330
10C
100
AcDbScale
 70
     0
300
1:40
140
1.0
141
40.0
290
     0
  0
SCALE
  5
1C7
102
{ACAD_REACTORS
330
10C
102
}
330
10C
100
AcDbScale
 70
     0
300
1:50
140
1.0
141
50.0
290
     0
  0
SCALE
  5
1C8
102
{ACAD_REACTORS
330
10C
102
}
330
10C
100
AcDbScale
 70
     0
300
1:100
140
1.0
141
100.0
290
     0
  0
SCALE
  5
1C9
102
{ACAD_REACTORS
330
10C
102
}
330
10C
100
AcDbScale
 70
     0
300
2:1
140
2.0
141
1.0
290
     0
  0
SCALE
  5
1CA
102
{ACAD_REACTORS
330
10C
102
}
330
10C
100
AcDbScale
 70
     0
300
4:1
140
4.0
141
1.0
290
     0
  0
SCALE
  5
1CB
102
{ACAD_REACTORS
330
10C
102
}
330
10C
100
AcDbScale
 70
     0
300
8:1
140
8.0
141
1.0
290
     0
  0
SCALE
  5
1CC
102
{ACAD_REACTORS
330
10C
102
}
330
10C
100
AcDbScale
 70
     0
300
10:1
140
10.0
141
1.0
290
     0
  0
SCALE
  5
1CD
102
{ACAD_REACTORS
330
10C
102
}
330
10C
100
AcDbScale
 70
     0
300
100:1
140
100.0
141
1.0
290
     0
  0
ACDBSECTIONVIEWSTYLE
  5
62C
102
{ACAD_XDICTIONARY
360
F3C
102
}
102
{ACAD_REACTORS
330
219
102
}
330
219
100
AcDbModelDocViewStyle
 70
     0
  3
Imperial24
290
     0
100
AcDbSectionViewStyle
 70
     0
 71
     0
 90
       78
 71
     1
340
11
 40
0.24
340
0
340
0
 40
0.24
300
I, O, Q, S, X, Z
 40
0.48
 90
        3
 40
0.18
 90
        1
 71
     2
340
16
 90
       25
340
16
 90
       50
 40
0.24
 40
0.0
 40
0.24
 71
     3
340
11
 40
0.24
 90
        1
 40
0.75
 90
        1
300
%<\AcVar ViewType \f "%tc1">% %<\AcVar ViewSectionStartId>%-%<\AcVar ViewSectionEndId>%\PSCALE %<\AcVar ViewScale \f "%sn">%
 71
     4
300
ANSI31
 40
1.0
 90
        0
290
     0
290
     0
 90
        6
 40
0.0
 40
1.570796326794896
 40
0.2617993877991494
 40
1.308996938995747
 40
-0.2617993877991494
 40
1.832595714594045
  0
ACDBSECTIONVIEWSTYLE
  5
21A
102
{ACAD_XDICTIONARY
360
F36
102
}
102
{ACAD_REACTORS
330
219
102
}
330
219
100
AcDbModelDocViewStyle
 70
     0
  3
Metric50
290
     0
100
AcDbSectionViewStyle
 70
     0
 71
     0
 90
      102
 71
     1
340
11
 40
5.0
340
0
340
0
 40
5.0
300
I, O, Q, S, X, Z
 40
10.0
 90
        0
 40
2.5
 90
        0
 71
     2
340
16
 90
       25
340
16
 90
       50
 40
5.0
 40
2.5
 40
5.0
 71
     3
340
11
 40
5.0
 90
        0
 40
15.0
 90
        1
300
%<\AcVar ViewSectionStartId>%-%<\AcVar ViewSectionEndId>% (%<\AcVar ViewScale \f "%sn">%)
 71
     4
300
ANSI31
 40
1.0
 90
        0
290
     0
290
     0
 90
        6
 40
0.0
 40
1.570796326794896
 40
0.2617993877991494
 40
1.308996938995747
 40
-0.2617993877991494
 40
1.832595714594044
  0
TABLESTYLE
  5
7F
102
{ACAD_XDICTIONARY
360
162
102
}
102
{ACAD_REACTORS
330
7E
102
}
330
7E
100
AcDbTableStyle
  3
Standard
 70
     0
 71
     0
 40
1.5
 41
1.5
280
     0
281
     0
  7
Standard
140
4.5
170
     2
 62
     0
 63
     7
283
     0
274
    -2
284
     1
 64
     0
275
    -2
285
     1
 65
     0
276
    -2
286
     1
 66
     0
277
    -2
287
     1
 67
     0
278
    -2
288
     1
 68
     0
279
    -2
289
     1
 69
     0
  7
Standard
140
6.0
170
     5
 62
     0
 63
     7
283
     0
274
    -2
284
     1
 64
     0
275
    -2
285
     1
 65
     0
276
    -2
286
     1
 66
     0
277
    -2
287
     1
 67
     0
278
    -2
288
     1
 68
     0
279
    -2
289
     1
 69
     0
  7
Standard
140
4.5
170
     5
 62
     0
 63
     7
283
     0
274
    -2
284
     1
 64
     0
275
    -2
285
     1
 65
     0
276
    -2
286
     1
 66
     0
277
    -2
287
     1
 67
     0
278
    -2
288
     1
 68
     0
279
    -2
289
     1
 69
     0
  0
VISUALSTYLE
  5
F5
102
{ACAD_XDICTIONARY
360
F10
102
}
102
{ACAD_REACTORS
330
EF
102
}
330
EF
100
AcDbVisualStyle
  2

 70
     4
 71
     0
 72
     2
 73
     1
 90
        0
 40
-0.6
 41
-30.0
 62
     5
 63
     7
 74
     1
 91
        4
 64
     7
 65
   257
 75
     1
175
     1
 42
1.0
 92
        0
 66
   257
 43
1.0
 76
     1
 77
     6
 78
     2
 67
     7
 79
     5
170
     0
171
     0
290
     0
174
     0
 93
        1
 44
0.0
173
     0
291
     0
 45
0.0
1001
ACAD
1000
AcDbSavedByObjectVersion
1070
     0
  0
VISUALSTYLE
  5
2BD
102
{ACAD_XDICTIONARY
360
F3A
102
}
102
{ACAD_REACTORS
330
EF
102
}
330
EF
100
AcDbVisualStyle
  2

 70
     5
 71
     0
 72
     2
 73
     1
 90
        0
 40
-0.6
 41
-30.0
 62
     5
 63
     7
 74
     1
 91
        4
 64
     7
 65
   257
 75
     1
175
     1
 42
1.0
 92
        0
 66
   257
 43
1.0
 76
     1
 77
     6
 78
     2
 67
     7
 79
     5
170
     0
171
     0
290
     0
174
     0
 93
        1
 44
0.0
173
     0
291
     0
 45
0.0
1001
ACAD
1000
AcDbSavedByObjectVersion
1070
     0
  0
VISUALSTYLE
  5
F4
102
{ACAD_XDICTIONARY
360
F0E
102
}
102
{ACAD_REACTORS
330
EF
102
}
330
EF
100
AcDbVisualStyle
  2

 70
     7
 71
     1
 72
     0
 73
     1
 90
        0
 40
-0.6
 41
-30.0
 62
     5
 63
     7
 74
     0
 91
        4
 64
     7
 65
   257
 75
     1
175
     1
 42
1.0
 92
        8
 66
     7
 43
1.0
 76
     1
 77
     6
 78
     2
 67
     7
 79
     5
170
     0
171
     0
290
     0
174
     0
 93
        1
 44
0.0
173
     0
291
     1
 45
0.0
1001
ACAD
1000
AcDbSavedByObjectVersion
1070
     0
  0
VISUALSTYLE
  5
FB
102
{ACAD_XDICTIONARY
360
F1C
102
}
102
{ACAD_REACTORS
330
EF
102
}
330
EF
100
AcDbVisualStyle
  2

 70
    12
 71
     2
 72
     2
 73
     1
 90
        0
 40
-0.6
 41
-30.0
 62
     5
 63
     7
 74
     1
 91
        4
 64
     7
 65
   257
 75
     1
175
     1
 42
1.0
 92
        8
 66
     7
 43
1.0
 76
     1
 77
     6
 78
     2
 67
     7
 79
     5
170
     0
171
     0
290
     0
174
     0
 93
        1
 44
50.0
173
     0
291
     1
 45
0.0
1001
ACAD
1000
AcDbSavedByObjectVersion
1070
     0
  0
VISUALSTYLE
  5
FF
102
{ACAD_XDICTIONARY
360
F24
102
}
102
{ACAD_REACTORS
330
EF
102
}
330
EF
100
AcDbVisualStyle
  2

 70
    16
 71
     2
 72
     2
 73
     3
 90
        0
 40
-0.6
 41
-30.0
 62
     5
 63
     8
 74
     1
 91
        4
 64
     7
 65
   257
 75
     1
175
     1
 42
1.0
 92
        8
 66
     8
 43
1.0
 76
     1
 77
     6
 78
     2
 67
     7
 79
     5
170
     0
171
     0
290
     0
174
     0
 93
        1
 44
0.0
173
     0
291
     1
 45
0.0
1001
ACAD
1000
AcDbSavedByObjectVersion
1070
     0
  0
VISUALSTYLE
  5
F8
102
{ACAD_XDICTIONARY
360
F16
102
}
102
{ACAD_REACTORS
330
EF
102
}
330
EF
100
AcDbVisualStyle
  2

 70
     9
 71
     3
 72
     2
 73
     1
 90
        0
 40
-0.6
 41
-30.0
 62
     5
 63
     7
 74
     2
 91
        2
 64
     7
 65
   257
 75
     1
175
     1
 42
40.0
 92
        8
 66
     7
 43
1.0
 76
     1
 77
     6
 78
     2
 67
     7
 79
     3
170
     0
171
     0
290
     0
174
     0
 93
        1
 44
0.0
173
     0
291
     0
 45
0.0
1001
ACAD
1000
AcDbSavedByObjectVersion
1070
     0
  0
VISUALSTYLE
  5
FA
102
{ACAD_XDICTIONARY
360
F1A
102
}
102
{ACAD_REACTORS
330
EF
102
}
330
EF
100
AcDbVisualStyle
  2

 70
    11
 71
     2
 72
     2
 73
     1
 90
        0
 40
-0.6
 41
-30.0
 62
     5
 63
     7
 74
     1
 91
        4
 64
     7
 65
   257
 75
     1
175
     1
 42
1.0
 92
        8
 66
     7
 43
1.0
 76
     1
 77
     6
 78
     2
 67
     7
 79
     5
170
     0
171
     0
290
     0
174
     0
 93
        1
 44
-50.0
173
     0
291
     1
 45
0.0
1001
ACAD
1000
AcDbSavedByObjectVersion
1070
     0
  0
VISUALSTYLE
  5
1E6
102
{ACAD_XDICTIONARY
360
F2A
102
}
102
{ACAD_REACTORS
330
EF
102
}
330
EF
100
AcDbVisualStyle
  2

 70
    22
 71
     2
 72
     2
 73
     0
 90
        0
 40
-0.6
 41
-30.0
 62
     5
 63
     7
 74
     1
 91
        4
 64
     7
 65
   257
 75
     1
175
     1
 42
1.0
 92
        8
 66
     7
 43
1.0
 76
     1
 77
     6
 78
     2
 67
     7
 79
     5
170
     0
171
     0
290
     0
174
     0
 93
        1
 44
0.0
173
     0
291
     1
 45
0.0
1001
ACAD
1000
AcDbSavedByObjectVersion
1070
     0
  0
VISUALSTYLE
  5
FE
102
{ACAD_XDICTIONARY
360
F22
102
}
102
{ACAD_REACTORS
330
EF
102
}
330
EF
100
AcDbVisualStyle
  2

 70
    15
 71
     2
 72
     2
 73
     1
 90
        0
 40
-0.6
 41
-30.0
 62
     5
 63
     7
 74
     1
 91
        4
 64
     7
 65
   257
 75
     1
175
     1
 42
1.0
 92
        8
 66
     7
 43
1.0
 76
     1
 77
     6
 78
     2
 67
     7
 79
     5
170
     0
171
     0
290
     0
174
     0
 93
        1
 44
0.0
173
     0
291
     1
 45
0.0
1001
ACAD
1000
AcDbSavedByObjectVersion
1070
     0
  0
VISUALSTYLE
  5
F0
102
{ACAD_XDICTIONARY
360
F06
102
}
102
{ACAD_REACTORS
330
EF
102
}
330
EF
100
AcDbVisualStyle
  2

 70
     0
 71
     2
 72
     1
 73
     1
 90
        2
 40
-0.6
 41
30.0
 62
     5
 63
     7
 74
     0
 91
        0
 64
     7
 65
   257
 75
     1
175
     1
 42
1.0
 92
        8
 66
     7
 43
1.0
 76
     1
 77
     6
 78
     2
 67
     7
 79
     5
170
     0
171
     0
290
     0
174
     0
 93
       13
 44
0.0
173
     0
291
     1
 45
0.0
1001
ACAD
1000
AcDbSavedByObjectVersion
1070
     0
  0
VISUALSTYLE
  5
F1
102
{ACAD_XDICTIONARY
360
F08
102
}
102
{ACAD_REACTORS
330
EF
102
}
330
EF
100
AcDbVisualStyle
  2

 70
     1
 71
     2
 72
     1
 73
     1
 90
        2
 40
-0.6
 41
30.0
 62
     5
 63
     7
 74
     1
 91
        0
 64
     7
 65
   257
 75
     1
175
     1
 42
1.0
 92
        0
 66
   257
 43
1.0
 76
     1
 77
     6
 78
     2
 67
     7
 79
     5
170
     0
171
     0
290
     0
174
     0
 93
       13
 44
0.0
173
     0
291
     1
 45
0.0
1001
ACAD
1000
AcDbSavedByObjectVersion
1070
     0
  0
VISUALSTYLE
  5
F2
102
{ACAD_XDICTIONARY
360
F0A
102
}
102
{ACAD_REACTORS
330
EF
102
}
330
EF
100
AcDbVisualStyle
  2

 70
     2
 71
     2
 72
     2
 73
     1
 90
        2
 40
-0.6
 41
30.0
 62
     5
 63
     7
 74
     0
 91
        0
 64
     7
 65
   257
 75
     1
175
     1
 42
1.0
 92
        0
 66
     7
 43
1.0
 76
     1
 77
     6
 78
     2
 67
     7
 79
     5
170
     0
171
     0
290
     0
174
     0
 93
       13
 44
0.0
173
     0
291
     1
 45
0.0
1001
ACAD
1000
AcDbSavedByObjectVersion
1070
     0
  0
VISUALSTYLE
  5
F3
102
{ACAD_XDICTIONARY
360
F0C
102
}
102
{ACAD_REACTORS
330
EF
102
}
330
EF
100
AcDbVisualStyle
  2

 70
     3
 71
     2
 72
     2
 73
     1
 90
        2
 40
-0.6
 41
30.0
 62
     5
 63
     7
 74
     1
 91
        0
 64
     7
 65
   257
 75
     1
175
     1
 42
1.0
 92
        0
 66
   257
 43
1.0
 76
     1
 77
     6
 78
     2
 67
     7
 79
     5
170
     0
171
     0
290
     0
174
     0
 93
       13
 44
0.0
173
     0
291
     1
 45
0.0
1001
ACAD
1000
AcDbSavedByObjectVersion
1070
     0
  0
VISUALSTYLE
  5
F7
102
{ACAD_XDICTIONARY
360
F14
102
}
102
{ACAD_REACTORS
330
EF
102
}
330
EF
100
AcDbVisualStyle
  2

 70
     6
 71
     1
 72
     2
 73
     2
 90
        0
 40
-0.6
 41
-30.0
 62
     5
 63
     7
 74
     2
 91
        2
 64
     7
 65
   257
 75
     2
175
     1
 42
40.0
 92
        0
 66
   257
 43
1.0
 76
     1
 77
     6
 78
     2
 67
     7
 79
     3
170
     0
171
     0
290
     0
174
     0
 93
        1
 44
0.0
173
     0
291
     0
 45
0.0
1001
ACAD
1000
AcDbSavedByObjectVersion
1070
     0
  0
VISUALSTYLE
  5
1E4
102
{ACAD_XDICTIONARY
360
F26
102
}
102
{ACAD_REACTORS
330
EF
102
}
330
EF
100
AcDbVisualStyle
  2

 70
    20
 71
     2
 72
     2
 73
     0
 90
        0
 40
-0.6
 41
-30.0
 62
     5
 63
     7
 74
     1
 91
        4
 64
     7
 65
   257
 75
     1
175
     1
 42
1.0
 92
       10
 66
     7
 43
1.0
 76
     1
 77
     6
 78
     2
 67
     7
 79
     5
170
     0
171
     0
290
     0
174
     0
 93
        1
 44
0.0
173
     0
291
     1
 45
0.0
1001
ACAD
1000
AcDbSavedByObjectVersion
1070
     0
  0
VISUALSTYLE
  5
FD
102
{ACAD_XDICTIONARY
360
F20
102
}
102
{ACAD_REACTORS
330
EF
102
}
330
EF
100
AcDbVisualStyle
  2

 70
    14
 71
     2
 72
     2
 73
     1
 90
        0
 40
-0.6
 41
-30.0
 62
     5
 63
     7
 74
     1
 91
        4
 64
     7
 65
   257
 75
     7
175
     7
 42
1.0
 92
        8
 66
     7
 43
1.0
 76
     1
 77
     6
 78
     2
 67
     7
 79
     5
170
     0
171
     0
290
     0
174
     0
 93
        1
 44
0.0
173
     0
291
     1
 45
0.0
1001
ACAD
1000
AcDbSavedByObjectVersion
1070
     0
  0
VISUALSTYLE
  5
1E5
102
{ACAD_XDICTIONARY
360
F28
102
}
102
{ACAD_REACTORS
330
EF
102
}
330
EF
100
AcDbVisualStyle
  2

 70
    21
 71
     2
 72
     2
 73
     0
 90
        0
 40
-0.6
 41
-30.0
 62
     5
 63
     7
 74
     1
 91
        4
 64
     7
 65
   257
 75
     1
175
     1
 42
1.0
 92
        9
 66
     7
 43
1.0
 76
     1
 77
     6
 78
     2
 67
     7
 79
     5
170
     0
171
     0
290
     0
174
     0
 93
        1
 44
0.0
173
     0
291
     1
 45
0.0
1001
ACAD
1000
AcDbSavedByObjectVersion
1070
     0
  0
VISUALSTYLE
  5
F9
102
{ACAD_XDICTIONARY
360
F18
102
}
102
{ACAD_REACTORS
330
EF
102
}
330
EF
100
AcDbVisualStyle
  2

 70
     8
 71
     2
 72
     3
 73
     0
 90
        2
 40
-0.6
 41
30.0
 62
     5
 63
     7
 74
     0
 91
        0
 64
     7
 65
   257
 75
     1
175
     1
 42
1.0
 92
        8
 66
   257
 43
1.0
 76
     1
 77
     6
 78
     2
 67
     7
 79
     3
170
     0
171
     0
290
     0
174
     0
 93
       13
 44
0.0
173
     0
291
     0
 45
0.0
1001
ACAD
1000
AcDbSavedByObjectVersion
1070
     0
  0
VISUALSTYLE
  5
1F3
102
{ACAD_XDICTIONARY
360
F34
102
}
102
{ACAD_REACTORS
330
EF
102
}
330
EF
100
AcDbVisualStyle
  2

 70
    27
 71
     2
 72
     2
 73
     1
 90
        2
 40
-0.6
 41
30.0
 62
     5
 63
     7
 74
     0
 91
        4
 64
     7
 65
   257
 75
     1
175
     1
 42
1.0
 92
        8
 66
   257
 43
1.0
 76
     1
 77
     6
 78
     2
 67
     8
 79
     3
170
     0
171
     0
290
     0
174
     0
 93
        5
 44
0.0
173
     0
291
     0
 45
0.0
1001
ACAD
1000
AcDbSavedByObjectVersion
1070
     0
  0
VISUALSTYLE
  5
1F2
102
{ACAD_XDICTIONARY
360
F32
102
}
102
{ACAD_REACTORS
330
EF
102
}
330
EF
100
AcDbVisualStyle
  2

 70
    26
 71
     2
 72
     2
 73
     1
 90
        2
 40
-0.6
 41
30.0
 62
     5
 63
     7
 74
     1
 91
       10
 64
     7
 65
   257
 75
     2
175
     1
 42
1.0
 92
        8
 66
   257
 43
1.0
 76
     1
 77
     6
 78
     2
 67
     7
 79
     3
170
     0
171
     0
290
     0
174
     0
 93
        5
 44
0.0
173
     0
291
     0
 45
0.0
1001
ACAD
1000
AcDbSavedByObjectVersion
1070
     0
  0
VISUALSTYLE
  5
1EF
102
{ACAD_XDICTIONARY
360
F2C
102
}
102
{ACAD_REACTORS
330
EF
102
}
330
EF
100
AcDbVisualStyle
  2

 70
    23
 71
     2
 72
     2
 73
     3
 90
        0
 40
-0.6
 41
-30.0
 62
     5
 63
     7
 74
     2
 91
        2
 64
     7
 65
     7
 75
     1
175
     1
 42
40.0
 92
        8
 66
     7
 43
1.0
 76
     1
 77
     6
 78
     2
 67
     7
 79
     3
170
     0
171
     0
290
     0
174
     0
 93
        1
 44
0.0
173
     0
291
     0
 45
0.0
1001
ACAD
1000
AcDbSavedByObjectVersion
1070
     0
  0
VISUALSTYLE
  5
1F0
102
{ACAD_XDICTIONARY
360
F2E
102
}
102
{ACAD_REACTORS
330
EF
102
}
330
EF
100
AcDbVisualStyle
  2

 70
    24
 71
     1
 72
     2
 73
     2
 90
        0
 40
-0.6
 41
-30.0
 62
     5
 63
     7
 74
     2
 91
        2
 64
     7
 65
     7
 75
     1
175
     1
 42
40.0
 92
       11
 66
     7
 43
1.0
 76
     1
 77
     6
 78
     2
 67
     7
 79
     6
170
     0
171
     0
290
     0
174
     0
 93
        1
 44
0.0
173
     0
291
     0
 45
0.0
1001
ACAD
1000
AcDbSavedByObjectVersion
1070
     0
  0
VISUALSTYLE
  5
FC
102
{ACAD_XDICTIONARY
360
F1E
102
}
102
{ACAD_REACTORS
330
EF
102
}
330
EF
100
AcDbVisualStyle
  2

 70
    13
 71
     2
 72
     2
 73
     1
 90
        0
 40
-0.6
 41
-30.0
 62
     5
 63
     7
 74
     1
 91
        4
 64
     7
 65
   257
 75
     1
175
     1
 42
1.0
 92
       12
 66
     7
 43
1.0
 76
     1
 77
     6
 78
     2
 67
     7
 79
     5
170
     0
171
     0
290
     0
174
     0
 93
        1
 44
0.0
173
     0
291
     1
 45
0.0
1001
ACAD
1000
AcDbSavedByObjectVersion
1070
     0
  0
VISUALSTYLE
  5
F6
102
{ACAD_XDICTIONARY
360
F12
102
}
102
{ACAD_REACTORS
330
EF
102
}
330
EF
100
AcDbVisualStyle
  2

 70
     5
 71
     0
 72
     2
 73
     0
 90
        0
 40
-0.6
 41
-30.0
 62
     5
 63
     7
 74
     1
 91
        4
 64
     7
 65
   257
 75
     1
175
     1
 42
1.0
 92
        0
 66
   257
 43
1.0
 76
     1
 77
     6
 78
     2
 67
     7
 79
     3
170
     0
171
     0
290
     0
174
     0
 93
        1
 44
0.0
173
     0
291
     0
 45
0.0
1001
ACAD
1000
AcDbSavedByObjectVersion
1070
     0
  0
VISUALSTYLE
  5
1F1
102
{ACAD_XDICTIONARY
360
F30
102
}
102
{ACAD_REACTORS
330
EF
102
}
330
EF
100
AcDbVisualStyle
  2

 70
    25
 71
     2
 72
     2
 73
     1
 90
        1
 40
0.5
 41
-30.0
 62
     5
 63
     7
 74
     1
 91
        0
 64
     7
 65
   257
 75
     1
175
     1
 42
1.0
 92
        8
 66
     7
 43
1.0
 76
     1
 77
     6
 78
     2
 67
     7
 79
     3
170
     0
171
     0
290
     0
174
     0
 93
       13
 44
0.0
173
     0
291
     0
 45
0.0
1001
ACAD
1000
AcDbSavedByObjectVersion
1070
     0
  0
DICTIONARYVAR
  5
146
102
{ACAD_REACTORS
330
5E
102
}
330
5E
100
DictionaryVariables
280
     0
  1
1:1
  0
DICTIONARYVAR
  5
145
102
{ACAD_REACTORS
330
5E
102
}
330
5E
100
DictionaryVariables
280
     0
  1
STANDARD
  0
DICTIONARYVAR
  5
84
102
{ACAD_REACTORS
330
5E
102
}
330
5E
100
DictionaryVariables
280
     0
  1
STANDARD
  0
DICTIONARYVAR
  5
227
102
{ACAD_REACTORS
330
5E
102
}
330
5E
100
DictionaryVariables
280
     0
  1
Metric50
  0
DICTIONARYVAR
  5
228
102
{ACAD_REACTORS
330
5E
102
}
330
5E
100
DictionaryVariables
280
     0
  1
Metric50
  0
DICTIONARYVAR
  5
5F
102
{ACAD_REACTORS
330
5E
102
}
330
5E
100
DictionaryVariables
280
     0
  1
2
  0
DICTIONARYVAR
  5
63
102
{ACAD_REACTORS
330
5E
102
}
330
5E
100
DictionaryVariables
280
     0
  1
1
  0
DICTIONARYVAR
  5
506
102
{ACAD_REACTORS
330
5E
102
}
330
5E
100
DictionaryVariables
280
     0
  1
0
  0
DICTIONARYVAR
  5
1AE
102
{ACAD_REACTORS
330
5E
102
}
330
5E
100
DictionaryVariables
280
     0
  1
0
  0
DICTIONARYVAR
  5
1AF
102
{ACAD_REACTORS
330
5E
102
}
330
5E
100
DictionaryVariables
280
     0
  1
0
  0
DICTIONARYVAR
  5
3F6
102
{ACAD_REACTORS
330
5E
102
}
330
5E
100
DictionaryVariables
280
     0
  1
2
  0
DICTIONARYVAR
  5
3F5
102
{ACAD_REACTORS
330
5E
102
}
330
5E
100
DictionaryVariables
280
     0
  1
1
  0
DICTIONARYVAR
  5
EF7
102
{ACAD_REACTORS
330
5E
102
}
330
5E
100
DictionaryVariables
280
     0
  1
80.000000
  0
DICTIONARYVAR
  5
EF6
102
{ACAD_REACTORS
330
5E
102
}
330
5E
100
DictionaryVariables
280
     0
  1
5.000000
  0
DICTIONARYVAR
  5
505
102
{ACAD_REACTORS
330
5E
102
}
330
5E
100
DictionaryVariables
280
     0
  1
127
  0
DICTIONARYVAR
  5
EF8
102
{ACAD_REACTORS
330
5E
102
}
330
5E
100
DictionaryVariables
280
     0
  1
2
  0
DICTIONARY
  5
F3E
330
62D
100
AcDbDictionary
280
     1
281
     1
  3
ACAD_XREC_ROUNDTRIP
360
F3F
  0
DICTIONARY
  5
F38
330
21C
100
AcDbDictionary
280
     1
281
     1
  3
ACAD_XREC_ROUNDTRIP
360
F39
  0
DICTIONARY
  5
EFF
330
22
100
AcDbDictionary
280
     1
281
     1
  3
ACAD_XREC_ROUNDTRIP
360
F00
  0
DICTIONARY
  5
F02
330
D3
100
AcDbDictionary
280
     1
281
     1
  3
ACAD_XREC_ROUNDTRIP
360
F03
  0
DICTIONARY
  5
F04
330
D7
100
AcDbDictionary
280
     1
281
     1
  3
ACAD_XREC_ROUNDTRIP
360
F05
  0
DICTIONARY
  5
1F9
330
ED
100
AcDbDictionary
280
     1
281
     1
  3
ACAD_XREC_ROUNDTRIP
360
406
  3
FBXASSET
360
1FA
  0
DICTIONARY
  5
1F7
330
EC
100
AcDbDictionary
280
     1
281
     1
  3
ACAD_XREC_ROUNDTRIP
360
405
  3
FBXASSET
360
1F8
  0
DICTIONARY
  5
173
330
EE
100
AcDbDictionary
280
     1
281
     1
  3
ACAD_XREC_ROUNDTRIP
360
407
  3
BUMPTILE
360
175
  3
DIFFUSETILE
360
174
  3
FBXASSET
360
1FB
  3
OPACITYTILE
360
176
  3
REFLECTIONTILE
360
177
  0
DICTIONARY
  5
F3C
330
62C
100
AcDbDictionary
280
     1
281
     1
  3
ACAD_XREC_ROUNDTRIP
360
F3D
  0
DICTIONARY
  5
F36
330
21A
100
AcDbDictionary
280
     1
281
     1
  3
ACAD_XREC_ROUNDTRIP
360
F37
  0
DICTIONARY
  5
162
330
7F
100
AcDbDictionary
280
     1
281
     1
  3
ACAD_ROUNDTRIP_2008_TABLESTYLE_CELLSTYLEMAP
360
EF9
  3
ACAD_XREC_ROUNDTRIP
360
F01
  0
DICTIONARY
  5
F10
330
F5
100
AcDbDictionary
280
     1
281
     1
  3
ACAD_XREC_ROUNDTRIP
360
F11
  0
DICTIONARY
  5
F3A
330
2BD
100
AcDbDictionary
280
     1
281
     1
  3
ACAD_XREC_ROUNDTRIP
360
F3B
  0
DICTIONARY
  5
F0E
330
F4
100
AcDbDictionary
280
     1
281
     1
  3
ACAD_XREC_ROUNDTRIP
360
F0F
  0
DICTIONARY
  5
F1C
330
FB
100
AcDbDictionary
280
     1
281
     1
  3
ACAD_XREC_ROUNDTRIP
360
F1D
  0
DICTIONARY
  5
F24
330
FF
100
AcDbDictionary
280
     1
281
     1
  3
ACAD_XREC_ROUNDTRIP
360
F25
  0
DICTIONARY
  5
F16
330
F8
100
AcDbDictionary
280
     1
281
     1
  3
ACAD_XREC_ROUNDTRIP
360
F17
  0
DICTIONARY
  5
F1A
330
FA
100
AcDbDictionary
280
     1
281
     1
  3
ACAD_XREC_ROUNDTRIP
360
F1B
  0
DICTIONARY
  5
F2A
330
1E6
100
AcDbDictionary
280
     1
281
     1
  3
ACAD_XREC_ROUNDTRIP
360
F2B
  0
DICTIONARY
  5
F22
330
FE
100
AcDbDictionary
280
     1
281
     1
  3
ACAD_XREC_ROUNDTRIP
360
F23
  0
DICTIONARY
  5
F06
330
F0
100
AcDbDictionary
280
     1
281
     1
  3
ACAD_XREC_ROUNDTRIP
360
F07
  0
DICTIONARY
  5
F08
330
F1
100
AcDbDictionary
280
     1
281
     1
  3
ACAD_XREC_ROUNDTRIP
360
F09
  0
DICTIONARY
  5
F0A
330
F2
100
AcDbDictionary
280
     1
281
     1
  3
ACAD_XREC_ROUNDTRIP
360
F0B
  0
DICTIONARY
  5
F0C
330
F3
100
AcDbDictionary
280
     1
281
     1
  3
ACAD_XREC_ROUNDTRIP
360
F0D
  0
DICTIONARY
  5
F14
330
F7
100
AcDbDictionary
280
     1
281
     1
  3
ACAD_XREC_ROUNDTRIP
360
F15
  0
DICTIONARY
  5
F26
330
1E4
100
AcDbDictionary
280
     1
281
     1
  3
ACAD_XREC_ROUNDTRIP
360
F27
  0
DICTIONARY
  5
F20
330
FD
100
AcDbDictionary
280
     1
281
     1
  3
ACAD_XREC_ROUNDTRIP
360
F21
  0
DICTIONARY
  5
F28
330
1E5
100
AcDbDictionary
280
     1
281
     1
  3
ACAD_XREC_ROUNDTRIP
360
F29
  0
DICTIONARY
  5
F18
330
F9
100
AcDbDictionary
280
     1
281
     1
  3
ACAD_XREC_ROUNDTRIP
360
F19
  0
DICTIONARY
  5
F34
330
1F3
100
AcDbDictionary
280
     1
281
     1
  3
ACAD_XREC_ROUNDTRIP
360
F35
  0
DICTIONARY
  5
F32
330
1F2
100
AcDbDictionary
280
     1
281
     1
  3
ACAD_XREC_ROUNDTRIP
360
F33
  0
DICTIONARY
  5
F2C
330
1EF
100
AcDbDictionary
280
     1
281
     1
  3
ACAD_XREC_ROUNDTRIP
360
F2D
  0
DICTIONARY
  5
F2E
330
1F0
100
AcDbDictionary
280
     1
281
     1
  3
ACAD_XREC_ROUNDTRIP
360
F2F
  0
DICTIONARY
  5
F1E
330
FC
100
AcDbDictionary
280
     1
281
     1
  3
ACAD_XREC_ROUNDTRIP
360
F1F
  0
DICTIONARY
  5
F12
330
F6
100
AcDbDictionary
280
     1
281
     1
  3
ACAD_XREC_ROUNDTRIP
360
F13
  0
DICTIONARY
  5
F30
330
1F1
100
AcDbDictionary
280
     1
281
     1
  3
ACAD_XREC_ROUNDTRIP
360
F31
  0
XRECORD
  5
F3F
102
{ACAD_REACTORS
330
F3E
102
}
330
F3E
100
AcDbXrecord
280
     1
102
DISPLAYNAME
  1
Imperial24
102
FLAGS
 90
        0
  0
XRECORD
  5
F39
102
{ACAD_REACTORS
330
F38
102
}
330
F38
100
AcDbXrecord
280
     1
102
DISPLAYNAME
  1
Metric50
102
FLAGS
 90
        0
  0
XRECORD
  5
F00
102
{ACAD_REACTORS
330
EFF
102
}
330
EFF
100
AcDbXrecord
280
     1
102
SHADEPLOT
 70
     0
102
SHADEPLOTRESLEVEL
 70
     2
102
SHADEPLOTCUSTOMDPI
 70
   300
  0
XRECORD
  5
F03
102
{ACAD_REACTORS
330
F02
102
}
330
F02
100
AcDbXrecord
280
     1
102
SHADEPLOT
 70
     0
102
SHADEPLOTRESLEVEL
 70
     2
102
SHADEPLOTCUSTOMDPI
 70
   300
  0
XRECORD
  5
F05
102
{ACAD_REACTORS
330
F04
102
}
330
F04
100
AcDbXrecord
280
     1
102
SHADEPLOT
 70
     0
102
SHADEPLOTRESLEVEL
 70
     2
102
SHADEPLOTCUSTOMDPI
 70
   300
  0
XRECORD
  5
406
102
{ACAD_REACTORS
330
1F9
102
}
330
1F9
100
AcDbXrecord
280
     1
102
MATERIAL
148
0.0
149
0.0
149
0.0
 93
        0
 94
      127
282
     0
 72
     1
 77
     1
171
     1
175
     1
179
     1
273
     0
  0
XRECORD
  5
1FA
102
{ACAD_REACTORS
330
1F9
102
}
330
1F9
100
AcDbXrecord
280
     1
 70
     1
 90
429727718
  1
D62C5603-E3A1-4AEA-B7FB-FE5D8D0755AF
310
504B03040A0000080000CC70623B3DEE336E79000000790000001B0000006175746F6465736B2D64657369676E2D7061636B6167652E786D6C3C3F786D6C2076657273696F6E3D22312E302220656E636F64696E673D227574662D3822203F3E3C666F726D6174733E3C666F726D61743E687474703A2F2F736368656D612E
310
6175746F6465736B2E636F6D2F64657369676E2D7061636B6167652F323030393C2F666F726D61743E3C2F666F726D6174733E504B0304140006080800CC70623BD486FD9CA0000000F4000000130000005B436F6E74656E745F54797065735D2E786D6C7D8EC10E82300C865F65E91D8A1E8C310C0EEA1BF002731658846E
310
D98AC1B77784ABF1D8FE5FBFBF75BBCE937A534CCEB38643598122B6FEE978D0B0485F9C41B54DDD7D022595594E1A469170414C76A4D9A4D207E29CF43ECE46F218070CC6BECC4078ACAA135ACF422C856C0E68EA1BF5669944DDD7BCDE7B1F8E415D77AECB980613C2E4AC91FC167A2B244592486606FC29C8FD7F045B9A
310
EF7053A7E60B504B0304140006080800CC70623B853B8169EB0000007C01000008000000636F72652E786D6C8D90416EC3201045AF62CDB6C206821CC7C244919D9CA01740401C94182C03558F5F9C3852BBEB6A467FFE9B197D7EFC9E1EC5975982F5AE035262288C535E5B377690E21535501C055FBC8FBF6C503839990E
310
5619041F179FE64D52DE45E362569DD7661365082642A11EB9E920A89B99642953CC8E702F67A9EE7234257977194EC9EAE275C4EABCCF5EAD5940D4AC6F0E35A568B8F43562CD7046CD199FD07E60174276A7BE677B5EADB0E0D14EEFFB6A31321A0D82627C4084204C3F096B71DD52F6819B16635EADF63F509AF53FA164
310
5DDCD1EDDD17164090FCC8732078B56691CB33A85CD7DCC40F504B0304140006080800CC70623B55019EA25F0000007C00000007000000636E782E786D6C4DCB3B0E80201045D1AD90E915ED2CF8AC45050C11660C8261F98AB1B07AC9C97D42D718D865D3E909258CFD00CCE24AC6E326A164D74DC0B4128928FF32603847
310
2BA13128B1252AC747C6BAB984FC68F0B87FE8960A5C09FE86CFB69FBA01504B0304140006080800CC70623BDBABAAF470010000D40300000C0000006662782F636F72652E786D6CC553D16E823014FD95A6AF4B694182CC941A83FA05FB810A9511A125A5257EFE2E82712ECEB8A7F100CD39F7F69E734AF9FADC366850B6
310
AF8DCE7018308C942E4C59EB2AC3DE1D498AD15A706B8CFB56869196ADCAF00863C12B6B7C374385D14E6907A836A59A41D9F7CA615434B0C8705F7CAA5606D23BA8E84F41278B93AC54100640439DE0BDB320004D43C63716C7C399D30917DCFBBA9CD9BA8469F5B156168B24CED3F7248AC8769F27244EB73B92EED8862C
310
B7F13E0C179B3C8F979C8ECD82BBBABDAA2BAC924E9558448CBD9330242CFA08E3154B5651FCC6D215639C8EE5774DBE2B5F6CF2B5768B68963BB5F5588420E442FC700B1139D4CB01F450C1E918227C2E09DF070D8140C84E1E9AAB8F1340832A9CB13130A5F1376A908D57309505ECF2A0DF179C4E9D30F5B239B87E3823
310
7A79C6F31DE1A8A5AEC08474B03C7837EAE4938639B44E5932B833D2C6B6B279CDC613877FA26EE21F4A2A4C63EC7F29A2F301D1F9F7A0E37D145F504B0304140006080800CC70623B9C113CC27E0000009D0000000B0000006662782F636E782E786D6C4DCCDF0A83201C86E15B91DFB94BFB330DD428C8FB886521330DA7
310
6397BF1A1DECE883878F57749FCDA1B7892F1BBC047A23808C7F84D9FA55424E0BE6803A256208E9EF06C84F9B91703228B1C690F78B66B34CD9A5439DF5CF0BFBF65E35BCA1B8D6A5C6F540381E886698B5741C695F9503EBA150A2F8958E3DC3EA0B504B0304140006080800CC70623B7DF2F77C2A010000120200003100
310
00006662782F41393633353835312D344632462D344230382D423046372D3739314545314133324237412F636F72652E786D6C8D51DB8EC22014FC15C2939B0D2DB4B45643319AE817EC0F6041255A68B86CFCFC856D4D76DF7CE190393373060EDB3DC707F856CE6B6B7A480A0C81328395DA5C7B18C3057510EC3873D686
310
3F34088C18550F330C39BB3A1BA7051AAC09CA84841A2BD5020AEF55806078A44B0FFD7053A328440C89E1EFC52486BBB8AA8214A99D789CF9E05200300FC927E4FB4D5B375D43103D5527440FB843077C5AA3F5861C8F645F5787F59E95B390B318B55CE45AA638FAA2957BD7248B390B7A7CC51F9C124149C82B8C378810
310
84AB2F42B7B8DD56F413775B8C5999E9FF4471926F8AA236A1AE96B8B3CC434E5839373893369E1FAF30EA395917409EB7F26AF8801C171837A4A6AC9C89E9F9C9B1A58BA30FD6A5EF5DDDCF894B9AD9B6A59C957943A9FCAE2FD5BC4DFE03504B0304140006080800CC70623BAD7543B64E01000033030000300000006662
310
782F41393633353835312D344632462D344230382D423046372D3739314545314133324237412F636E782E786D6CD593CD6EC32010845F0571AD6CE3D48AD20813A9873E410FBD12D82434182C7EAAE6EDBB2424CD25871E7B41D6EC30B3FA84F9E67BB2E40B4234DE8DB46F1925E094D7C6ED479AD3AE5951B2113C789FEE
310
6C943839C1488B4C05DF079FE72A69D8C96C13AAD6B8631503449F83828872B949AC57D26200B826A308D316B4064D6E46FCDA41C05550DC9E483A00797BFD207EFB092A45DE9514C1BBD22178396BD39D891265658C238DEA00936C654E5E433CB65A26D9F6EDB5EBC14EBF49A45CB856E66048291F6939A9A81BB5C89177
310
38143CA680F4AA299D66A042CEB3354A2684DC9D8D178FE0D9B8B41CAAD720F880EE7EF93C0C18769E099ECC04D5A102C8049A8A05632F4DDF376CF1DE0F6BB65C2F8627B65A33C6BB62177CEBBDAD973006829F89F22E814B54F4BC2BE347F8AA8F681390B50FA73F804400B5F542E796F19FF974E7F78DB802FE05E20750
310
4B0304140006080800CC70623BE75B7789680500003C100000340000006662782F41393633353835312D344632462D344230382D423046372D3739314545314133324237412F6F626A656374732E786D6CAD575B8F9B3818FD2B887D06C22499CB8AA1CA655245D5B455A356FB305264C061D8018C6C3393D95FBFC7600890
310
A4CD5EF210B0B1BFEBF98E3F7B1FF6596ABC522E1296DF9BAE3D320D9A872C4AF2F8DE2CE5CEBA358D0FBEC719939D65A691938CDE9B6ADAF4BD98B3B2D05311DD91329583D9D5FC0F438434A7A611A644887B5384CF34233629258BA878B12322891DEFF6B66BD70BFB62634E8AE781D082709A4B588AF91C528CDA28B73F
310
1C998EEF39EABBEFA97FBD6A7C7E9553F9D3D79FE442923C3C523610337627CB87ABE99D359D4CC6D6E4FACAB5E6ABF9D2726FC6A3C5F56271377BB88362213924694B38DD99FE47C48627A1E7D49F5A8BB5E1A74C0A599ED3B0F21F1E56366B89112D681E218F0915D0D6F17AD41FBA2A369DCF6335D62ABBD39779D5DDD1
310
11D4D8DE3CBB96B2E04FB8202E41051754A1AA8E8F76B4C6DFE810B580B1547F4B84911149794252234D024EF8BBE963A95AE27B3D310A9D5C215C7960FAEE415ED75694C6AFB17BCACA5D99A60A9AA65F217B0BFC53292ACB92BF283FAD0D3621576592CB5BED907C2FA8E9DF794E35E97BEA31BED21FEB401ABB94C44839
310
DCACBF0E1C5DA8DA5B2F4DFFD32AD86F543D9E565E7056502E157C00AD2671CD534549AB752FCA9CDA00677A313F04E51B22FF19E57B300579E3C97EB29F682D92935CEC18CF901B7B54FD8C51F362B56FC72FE0B3C1EAE335EDCCBF5AEC39ADB17DC238973F804BA5E6F6BFE7AF1FB32E523BE9F3BD571418E3631DCA4D48
310
5250CF639223210A9446CA30052EDF057BD35F8329C1ECD84552BF0DC8D18BE7BCE23BFE6BD960AB4A7DE79923A103BEBD80F911CBAA2C60DB19B01CF164A5583B772EE6D3FFA56666CBCDA74DC97724A48F9A58967497E489C4D979006FD7A05E227A1EBDD0F737C623387A9C844D3709995625106D157315F8B8392CD4E0
310
A0B9A720C4BE9829CEF37EA1E13111214D53925356365ADA634861B52519DD27A00AEB808EAF0628E6F435519D446F45CF2C9CF5214F0A15B2F6D06B79DA3EE3CBF7F56780D2F4E7EF73A0F5E5B02A38D07DC852C6B7C1FBB6664213E0C39E3EBA7FF4E1AD23EA2829407C85E586727488B751B2DB9502BC7B228A3FD68B6E
310
A65A22397E690AA8D158D7E404EC8CDA235CC3B7D1898680131CEC2CDF2638C65196279577750F15884AEE19F94199155B92B13297978469D4F8D358DF0AEF7631E28DC8F0D9F437D5D39A83B2231A1D52D543813A824EF8D44BCFF2FA6A31BD1E8DAD87F1CCB526B3879935BF59CDADD5C37479BB1CDD4CA7B3556B516589
310
EF352754B706114D9C885EC9131DE6EFEB43D99AFE2391C2F958179413D7CFEF6B1B6DB1E7600F00DE6E5C67454A339A4BA2E0FBA85ED26F045D454F463DBFCE484C2F90F2E5E3666003662ED8F755951A7D1BECD5B30B550B2785C8E7320B7292A4838DDA71BBC863ED7613CAF659337A3354231D4FF4A182A54904C2898C
310
98B28C4AD0CE056CCF332A80986E571EE9DBC305BB5FEB7E509220A58D25CF042D712A806AC0AD0C657FDEF80D2D9CEAA2EE4D1C76F60BFE74219A06527D6F82DF6412526107381E55E353090704D085B52408A8913C4ED159D79BDA71BB4BC506F4831350EB6F975CD22D69BF7AC49B91A2C0A9DDA3D5CA36AD20FC478E37
310
E61844E2352865EBCB61A275A65283CAAA9DD27703B4102F5AF51EF5F573B75CBB5AD38BC845F7A49F82A0966A49C2E3EA5EA0ECD326CD965F1DB402C6FA8B51A4658C5C5E2EC9E214602E55810345408596591009A82E7E7FFACA19EEA299B14A0081A705CB3296EBC14CDF658DCD336EA6D1136881AAEB87B81AB9EE53D5
310
F5EB8BC8362082DA24122F98680A4E7930C01A0079749CEA14382A0783E5EBA5A10F8C098456A03D6A4AEB6BB881E2513747552A5DB22C7EDAF83BD5528081A365F7FF06504B0304140006080000CC70623B000000000000000000000000350000006662782F41393633353835312D344632462D344230382D423046372D37
310
39314545314133324237412F76657274696365732E62696E504B0304140006080800CC70623BF270F1330600000004000000360000006662782F41393633353835312D344632462D344230382D423046372D3739314545314133324237412F747269616E676C65732E62696E636660600000504B0304140006080000CC7062
310
3B000000000000000000000000370000006662782F41393633353835312D344632462D344230382D423046372D3739314545314133324237412F617474726962757465732E62696E504B0304140006080800CC70623B08DA0BD19000000041010000360000006662782F41393633353835312D344632462D344230382D4230
310
46372D3739314545314133324237412F6469726563746F72792E786D6C858F410AC3201045AF22B36F53E9A60B35CBEEBAE80D244E44489C6234F4F835464A48035D0DF398FF9F8AF63D0E6CC63039F212F8F9020C7D47C6792B21C5FE7403D62A1188E2E60C98D7234A5830286103A55745067B9D86B8A3CF9C7F90C11DE6
310
07FB144396D7B6A82D282E9A152AD114D5EF2CB866EEE831B8EEA07A7BB5A8D7D61A2BAAEB7FD5F70921FF497D00504B0304140006080800CC70623BEDD1DC58FD000000A00100003B0000006662782F41393633353835312D344632462D344230382D423046372D3739314545314133324237412F7265736F75726365732F
310
636F72652E786D6C8D504B6E833010BD0A9A6D65B00922041947112427E8052C33A156828DFCA97AFC9A40A576D7CDCCE87D344F8F9FBFE667F689CE6B6B3A6039850C8DB2A336530731DC4903D95970676DF82583CCC8193B5861107C72362E3BA4AC096842428D1D7107A5F7182053CF7474E0D507CE32973124857FE48B
310
540F3961CEF244279DE03EB81420DB9EAC1384436FA353E879B1B182C7A8C75DA3C7F453DF353A1075D537A7BA6464B8F535A99AE14A9A2BBD90E350DD183B5CFABE3AF262350B1EF4FC9351399401471025A527C218A1E53BAB5A5AB765F5469B96525EACF23FA6B88CFF34456DC2A1DCE36E360F82A5202F42F062ED2BAD
310
579969AFDD8A6F504B010214000A0000080000CC70623B3DEE336E79000000790000001B00000000000000000000000000000000006175746F6465736B2D64657369676E2D7061636B6167652E786D6C504B01021400140006080800CC70623BD486FD9CA0000000F40000001300000000000000000000000000B20000005B
310
436F6E74656E745F54797065735D2E786D6C504B01021400140006080800CC70623B853B8169EB0000007C010000080000000000000000000000000083010000636F72652E786D6C504B01021400140006080800CC70623B55019EA25F0000007C000000070000000000000000000000000094020000636E782E786D6C504B
310
01021400140006080800CC70623BDBABAAF470010000D40300000C00000000000000000000000000180300006662782F636F72652E786D6C504B01021400140006080800CC70623B9C113CC27E0000009D0000000B00000000000000000000000000B20400006662782F636E782E786D6C504B01021400140006080800CC70
310
623B7DF2F77C2A010000120200003100000000000000000000000000590500006662782F41393633353835312D344632462D344230382D423046372D3739314545314133324237412F636F72652E786D6C504B01021400140006080800CC70623BAD7543B64E010000330300003000000000000000000000000000D2060000
310
6662782F41393633353835312D344632462D344230382D423046372D3739314545314133324237412F636E782E786D6C504B01021400140006080800CC70623BE75B7789680500003C10000034000000000000000000000000006E0800006662782F41393633353835312D344632462D344230382D423046372D3739314545
310
314133324237412F6F626A656374732E786D6C504B01021400140006080000CC70623B0000000000000000000000003500000000000000000000000000280E00006662782F41393633353835312D344632462D344230382D423046372D3739314545314133324237412F76657274696365732E62696E504B01021400140006
310
080800CC70623BF270F133060000000400000036000000000000000000000000007B0E00006662782F41393633353835312D344632462D344230382D423046372D3739314545314133324237412F747269616E676C65732E62696E504B01021400140006080000CC70623B0000000000000000000000003700000000000000
310
000000000000D50E00006662782F41393633353835312D344632462D344230382D423046372D3739314545314133324237412F617474726962757465732E62696E504B01021400140006080800CC70623B08DA0BD1900000004101000036000000000000000000000000002A0F00006662782F41393633353835312D344632
310
462D344230382D423046372D3739314545314133324237412F6469726563746F72792E786D6C504B01021400140006080800CC70623BEDD1DC58FD000000A00100003B000000000000000000000000000E1000006662782F41393633353835312D344632462D344230382D423046372D3739314545314133324237412F7265
310
736F75726365732F636F72652E786D6C504B0506000000000E000E0080040000641100000000
  0
XRECORD
  5
405
102
{ACAD_REACTORS
330
1F7
102
}
330
1F7
100
AcDbXrecord
280
     1
102
MATERIAL
148
0.0
149
0.0
149
0.0
 93
        0
 94
      127
282
     0
 72
     1
 77
     1
171
     1
175
     1
179
     1
273
     0
  0
XRECORD
  5
1F8
102
{ACAD_REACTORS
330
1F7
102
}
330
1F7
100
AcDbXrecord
280
     1
 70
     1
 90
429727718
  1
30362254-06B7-45E0-A893-8CFA70E3D6BC
310
504B03040A0000080000CC70623B3DEE336E79000000790000001B0000006175746F6465736B2D64657369676E2D7061636B6167652E786D6C3C3F786D6C2076657273696F6E3D22312E302220656E636F64696E673D227574662D3822203F3E3C666F726D6174733E3C666F726D61743E687474703A2F2F736368656D612E
310
6175746F6465736B2E636F6D2F64657369676E2D7061636B6167652F323030393C2F666F726D61743E3C2F666F726D6174733E504B0304140006080800CC70623BD486FD9CA0000000F4000000130000005B436F6E74656E745F54797065735D2E786D6C7D8EC10E82300C865F65E91D8A1E8C310C0EEA1BF002731658846E
310
D98AC1B77784ABF1D8FE5FBFBF75BBCE937A534CCEB38643598122B6FEE978D0B0485F9C41B54DDD7D022595594E1A469170414C76A4D9A4D207E29CF43ECE46F218070CC6BECC4078ACAA135ACF422C856C0E68EA1BF5669944DDD7BCDE7B1F8E415D77AECB980613C2E4AC91FC167A2B244592486606FC29C8FD7F045B9A
310
EF7053A7E60B504B0304140006080800CC70623B1EC5D7A3EB0000007C01000008000000636F72652E786D6C8D90416EC3201045AF82665B6103C6756C6122AB4D4ED00B204C5C94182C03558F5F9C3852BBEB6A467FFE9B197D71FC9E6FE8CBACC17AD7032D0820E3B41FAD9B7A48F1820F808E52ACDEC75F36404ECDA687
310
4D0629A6D5A76597B477D1B89855E747B38B2A041301E95B6E7A08FAD3CCAA50296647B8168BD2573599823EBB0CA76447F43862C7BCCF5EAC59410E4DDD9C7973C2755553CCCFA4C603E3040F1565ED3B1FDE4E432BCA0D9622DAF9795FAF464533826484B498524CD807E51D79ED187F21878E10516EF63F505AC67F42C9
310
BA58B1FDDD071640D2FCC87D2045B96591CB3DA85CB7DCE40F504B0304140006080800CC70623B55019EA25F0000007C00000007000000636E782E786D6C4DCB3B0E80201045D1AD90E915ED2CF8AC45050C11660C8261F98AB1B07AC9C97D42D718D865D3E909258CFD00CCE24AC6E326A164D74DC0B4128928FF32603847
310
2BA13128B1252AC747C6BAB984FC68F0B87FE8960A5C09FE86CFB69FBA01504B0304140006080800CC70623B8C9102E971010000D40300000C0000006662782F636F72652E786D6CC5535B6E833010BC8AE5DF0A6C08340F1947A84D4ED00B38C6A128602363A31CBFCB234A53A551FA553EC09AD9F5CE8C31DB9E9B1AF5CA
310
7695D1198E428A91D2D214952E33ECDD315861B4E5CC1AE3BE9561A445A3323CC098B3D21ADFCE9034DA29ED00D5A6503328BA4E398C640D8B0C77F253352214DE4145770A5B214FA2546114020D759C75CE8200340D19DE981F0F6746269C33EFAB6266AB02A655C74A59CCF365BADC27CB5D902ED22848F6340DF238A141
310
BE88E2F57B92BFEDF23523433367AE6A2EEAA455C2A902F398D2751045018D3FA264435F3771F242571B4A1919CA6F9A7C5B3CD9E42BED16F12C776AEB308F40C848FC700B1139D4891EF410CEC810227CC6846F8386402064270EF5C5C709A05E49676C024C61FC95EA45ED154CA5211D1FF4FB8291A913A68E9B83EBBB33
310
E2A7673CDE118E5AE8124C0807CB8377834E366998436B950D7A7746DAD846D4CFD978E0F04FD455FC5D49D2D4C6FE9722321F10997F0F32DC47FE05504B0304140006080800CC70623BFFEA85907E0000009D0000000B0000006662782F636E782E786D6C4DCCD10A83201886E15B91FFDC95D95A811AB6F23E625948A6C3
310
E9D8E5AF46073BFAE0E1E365ED67B3E8ADC3CB78C7815C7240DA3DFC64DCC221C519D7805AC182F7F1EF06C88D9BE6703008B6049F9E274D7A1E938DBB5AE3D6131B2589BA0D3D965551E0B2EA732C9B9A624AAEB41E3A557677029960D9AFB4EF11165F504B0304140006080800CC70623B4FEEA4082C0100001202000031
310
0000006662782F39464131463745442D413632322D343644302D413938332D3331353338454246344243312F636F72652E786D6C8D515B6EC32010BC0AE2AB55850DD871ED0813254D72825EC00192A2C460F1A872FC42ED48ED5F7E00CDCECCCEB26C731F6FE05B39AFADE921293004CA082BB5B9F43086336A21D870E6AC
310
0D7F68109861543DCC30E4ECE26C9C164858139409093556AA051CBC570102714B8F1E7AF1A5C6A11862480C7F2DA6415C878B2A4891CA89C7990F2E050073937C42DE1DB7E4F87ED8A36D4329AA9B3D46DBAEAD504556557BD81DEBDD0761E52CE42C462D17B996298E3E6BE59E35C962CE821E1FF18553435012728A7187
310
0841987E927A8D9B35ADDF70BBC6989599FE4F1427F9A4286A132ABAC49D651EF234CD5CE04CDA78BA3DC2A8FB645D00B9DF8B57E215725C60BCA2A463E54C4CE327C7A65E1C7DB02E7DEFCBF594B864C5CA6CDBD49C957943E9FA5D5FBAF336F90F504B0304140006080800CC70623BAD7543B64E01000033030000300000
310
006662782F39464131463745442D413632322D343644302D413938332D3331353338454246344243312F636E782E786D6CD593CD6EC32010845F0571AD6CE3D48AD20813A9873E410FBD12D82434182C7EAAE6EDBB2424CD25871E7B41D6EC30B3FA84F9E67BB2E40B4234DE8DB46F1925E094D7C6ED479AD3AE5951B2113C
310
789FEE6C943839C1488B4C05DF079FE72A69D8C96C13AAD6B8631503449F83828872B949AC57D26200B826A308D316B4064D6E46FCDA41C05550DC9E483A00797BFD207EFB092A45DE9514C1BBD22178396BD39D891265658C238DEA00936C654E5E433CB65A26D9F6EDB5EBC14EBF49A45CB856E66048291F6939A9A81BB5
310
C8917738143CA680F4AA299D66A042CEB3354A2684DC9D8D178FE0D9B8B41CAAD720F880EE7EF93C0C18769E099ECC04D5A102C8049A8A05632F4DDF376CF1DE0F6BB65C2F8627B65A33C6BB62177CEBBDAD973006829F89F22E814B54F4BC2BE347F8AA8F681390B50FA73F804400B5F542E796F19FF974E7F78DB802FE05
310
E207504B0304140006080800CC70623B16AB87BA640500003C100000340000006662782F39464131463745442D413632322D343644302D413938332D3331353338454246344243312F6F626A656374732E786D6CAD575B6FA33818FD2B887DE6924B3BED8A326A92B68A663B534DD4D13E548A0C38942D60649B369D5FBFC7
310
600890A493BDE42160637FD7F31D7FF63E6FB3D478A55C242CBF3247B66B1A340F5994E4F19559CA8D75611A9F7D8F33263BCB4C232719BD32D5B4E97B316765A1A722BA21652A07B3B7B33F0D11D29C9A46981221AE4C113ED38CD8A4942CA2E2C58E882476BCD9DA23BB5ED8171B73523C0F841684D35CC252CCE79062D4
310
468DFA43D7747CCF51DF7D4FFDEB5593E3AB9CCA9FBEFE241792E4E19EB28198C968BAB8199F5D5A67D3E9C49A9E8F47D6EC76B6B0469F26EEFC7C3EBFBCBEB98462213924694B38DD98FE1D62C393D073EA4FADC5DAF04326852CCF6958F90F0F2B9BB5C48816348F90C7840A68EB78EDF68723159BCEE7891A6B95DDE9D3
310
BCEAEEE8086A6C6F9E5D4B59F0175C10A7A0820BAA5055C7473B5AE3CFDD452D602CD5DF12616444529E90D448938013FE6EFA58AA96F85E4F8C42275708571E98FE6827AF6B2B4AE3D7D83D64E5A64C53054DD3AF90BD06FEA9149565C94FCA0F6B834DC85599E4F2423B24DF0B6AFA979E534DFA9E7A4CC6FA631D486393
310
921829879BF5D781A373557BCB85E97FB90DB62B558F8795179C15944B051F40AB495CF35451D26A4727654E6D8033BD98EF82F21D91FF8AF2DD9982BCF1643BDD4EB516C9492E368C67C88DED563FC36D5EACF66DFF057C3658BDBFA69DF9578B3DA735B64F18C7F20770A9D45CFCF7FCF563D6456A277DBEF78A02637CA2
310
43B90A490AEAB94F72244481D24819A6C0E59B606BFA4B3025981DBB48EAB701D97BF19C577CC77F2D1B6C55A9EF3C732474C0B727303F625995056C3B02963D9EAC146BE78EC5FCEC7FA999EBC5EACBAAE41B12D27B4D2C0BBA49F244E2ECDC81B76B502F113D8F5EE8FB1BE3111CDD4FC2AA9B844CAB1288B68AB90A7CDC
310
1C166AB0D3DC5310625FCC14E779BFD0709F8890A629C9292B1B2DED31A4B0DA928CEE135085754027E3018A397D4D5427D15BD1330B677DC8934285AC3DF45A9EB68FF8F2B8FC0A509AFEECFD0FF2DE25CC6047F7214B195F07EFEB9A094D800F7BFAE8FED187B78EA8A3A400F115961BCAD1215E47C966530AF0EE8128FE
310
58CEBB996A8964FFA529A046635D9353B0336A8F700DDF46271A024E70B0B37C9DE01847591E54DED53D54202AB947E4076556AC49C6CA5C9E1226B7F1A7B1BE15DEED62C41B91E1B3E9AFAAA735036547343A925075041DF0A9979E893B391F8FCFA6967B3EFB644DCF6E5CEBFAE272625DCC6FAF3FB93793C5F90CE1EF57
310
407342756B10D1C489E8953CD1617E5CEECAD6F4EF8914CE5D5D504E5C3F1F9736DA62CFC11E00BCDDB8CC8A9466349744C1F75EBDA4DF09BA8A9E8C7A7E9991989E20E5DBDD6A6003664ED8F7A04A8DBE0DF6EAD9B9AA858342E47399053949D2C146EDB85DE4B176BB0965FBAC19BD19AA918E27FA50C1D22402E144464C
310
59462568E704B6E71915404CB72B8FF4EDE184DDAF753F284990D2C6926782963815403548A70C657FDEF80D2D9CEAA2AE4C1C76F60BFE74219A06527D6582DF6412526107381E55E353090704D085B52408D0933C4ED159D79BDA71BB4BC506F4831350EB6F979CD22D69BF7AC49B91A2C0A9DDA3D5CA36AD20FC478E37E6
310
1844E2352865EBCB6EA275A652E3836BE04EFB400BF1A2556F515F1FBB35B2AB35BD889C744FFA1004B5544B121E57F70215746DD2F5E2C1412B602CBF19455AC6C8E5E9922C4E01E65215385004546899059180EAFCF7A707CE7017CD8CDB0410789AB32C63B91E5CEBBBACB17AC6CD347A022D5075FD106377347AAABA7E
310
7D11590744509B44E205134DC1290F06580320F78E537D3D73540E06CB970B431F185308AD40BBD794D6D77003C5A36E8EAA54BA64597CD8F83BD552A080A365F7FF06504B0304140006080000CC70623B000000000000000000000000350000006662782F39464131463745442D413632322D343644302D413938332D3331
310
353338454246344243312F76657274696365732E62696E504B0304140006080800CC70623BF270F1330600000004000000360000006662782F39464131463745442D413632322D343644302D413938332D3331353338454246344243312F747269616E676C65732E62696E636660600000504B0304140006080000CC70623B
310
000000000000000000000000370000006662782F39464131463745442D413632322D343644302D413938332D3331353338454246344243312F617474726962757465732E62696E504B0304140006080800CC70623B08DA0BD19000000041010000360000006662782F39464131463745442D413632322D343644302D413938
310
332D3331353338454246344243312F6469726563746F72792E786D6C858F410AC3201045AF22B36F53E9A60B35CBEEBAE80D244E44489C6234F4F835464A48035D0DF398FF9F8AF63D0E6CC63039F212F8F9020C7D47C6792B21C5FE7403D62A1188E2E60C98D7234A5830286103A55745067B9D86B8A3CF9C7F90C11DE607
310
FB144396D7B6A82D282E9A152AD114D5EF2CB866EEE831B8EEA07A7BB5A8D7D61A2BAAEB7FD5F70921FF497D00504B0304140006080800CC70623B0D6EF93BFE000000A00100003B0000006662782F39464131463745442D413632322D343644302D413938332D3331353338454246344243312F7265736F75726365732F63
310
6F72652E786D6C8D50596E833010BD0A9ADFCA60B334011947A8694ED00B586642AC041B79A97AFC9A40A5F6AF3F33A3B7689E1E3F7DCD8FEC139DD7D6F4C0720A191A65476DA61E62B892236427C19DB5E1970C322367EC618541F0C9D9B8EC90B226A009093576C41D94DE63804C3DD2D18357379C652E63480A7FCF17A9
310
EE72C29CE5894E3AC17D702940B63D59270887DE46A7D0F36263058F518FBB468FE9A7BE6A7420864373B8D4873369AA8691FA421B3294352543C5CAF65C0F6FEF43CB8BD52C78D0F34F46E550061C419494B6843142CB0F5677F4B52BEB177AEC28E5C52AFF638ACBF84F53D42654E51E77B379102C05791282176B5F693D
310
CB4C7BED567C03504B010214000A0000080000CC70623B3DEE336E79000000790000001B00000000000000000000000000000000006175746F6465736B2D64657369676E2D7061636B6167652E786D6C504B01021400140006080800CC70623BD486FD9CA0000000F40000001300000000000000000000000000B20000005B
310
436F6E74656E745F54797065735D2E786D6C504B01021400140006080800CC70623B1EC5D7A3EB0000007C010000080000000000000000000000000083010000636F72652E786D6C504B01021400140006080800CC70623B55019EA25F0000007C000000070000000000000000000000000094020000636E782E786D6C504B
310
01021400140006080800CC70623B8C9102E971010000D40300000C00000000000000000000000000180300006662782F636F72652E786D6C504B01021400140006080800CC70623BFFEA85907E0000009D0000000B00000000000000000000000000B30400006662782F636E782E786D6C504B01021400140006080800CC70
310
623B4FEEA4082C0100001202000031000000000000000000000000005A0500006662782F39464131463745442D413632322D343644302D413938332D3331353338454246344243312F636F72652E786D6C504B01021400140006080800CC70623BAD7543B64E010000330300003000000000000000000000000000D5060000
310
6662782F39464131463745442D413632322D343644302D413938332D3331353338454246344243312F636E782E786D6C504B01021400140006080800CC70623B16AB87BA640500003C1000003400000000000000000000000000710800006662782F39464131463745442D413632322D343644302D413938332D3331353338
310
454246344243312F6F626A656374732E786D6C504B01021400140006080000CC70623B0000000000000000000000003500000000000000000000000000270E00006662782F39464131463745442D413632322D343644302D413938332D3331353338454246344243312F76657274696365732E62696E504B01021400140006
310
080800CC70623BF270F133060000000400000036000000000000000000000000007A0E00006662782F39464131463745442D413632322D343644302D413938332D3331353338454246344243312F747269616E676C65732E62696E504B01021400140006080000CC70623B0000000000000000000000003700000000000000
310
000000000000D40E00006662782F39464131463745442D413632322D343644302D413938332D3331353338454246344243312F617474726962757465732E62696E504B01021400140006080800CC70623B08DA0BD190000000410100003600000000000000000000000000290F00006662782F39464131463745442D413632
310
322D343644302D413938332D3331353338454246344243312F6469726563746F72792E786D6C504B01021400140006080800CC70623B0D6EF93BFE000000A00100003B000000000000000000000000000D1000006662782F39464131463745442D413632322D343644302D413938332D3331353338454246344243312F7265
310
736F75726365732F636F72652E786D6C504B0506000000000E000E0080040000641100000000
  0
XRECORD
  5
407
102
{ACAD_REACTORS
330
173
102
}
330
173
100
AcDbXrecord
280
     1
102
MATERIAL
148
0.0
149
0.0
149
0.0
 93
        0
 94
      127
282
     0
 72
     1
 77
     1
171
     1
175
     1
179
     1
273
     0
  0
XRECORD
  5
175
102
{ACAD_REACTORS
330
173
102
}
330
173
100
AcDbXrecord
280
     1
270
     1
271
     1
  0
XRECORD
  5
174
102
{ACAD_REACTORS
330
173
102
}
330
173
100
AcDbXrecord
280
     1
270
     1
271
     1
  0
XRECORD
  5
1FB
102
{ACAD_REACTORS
330
173
102
}
330
173
100
AcDbXrecord
280
     1
 70
     0
 90
1673772943
  1
ECE7A1D2-D628-4531-984C-D00F80459256
310
504B03040A0000080000CC70623B3DEE336E79000000790000001B0000006175746F6465736B2D64657369676E2D7061636B6167652E786D6C3C3F786D6C2076657273696F6E3D22312E302220656E636F64696E673D227574662D3822203F3E3C666F726D6174733E3C666F726D61743E687474703A2F2F736368656D612E
310
6175746F6465736B2E636F6D2F64657369676E2D7061636B6167652F323030393C2F666F726D61743E3C2F666F726D6174733E504B0304140006080800CC70623BD486FD9CA0000000F4000000130000005B436F6E74656E745F54797065735D2E786D6C7D8EC10E82300C865F65E91D8A1E8C310C0EEA1BF002731658846E
310
D98AC1B77784ABF1D8FE5FBFBF75BBCE937A534CCEB38643598122B6FEE978D0B0485F9C41B54DDD7D022595594E1A469170414C76A4D9A4D207E29CF43ECE46F218070CC6BECC4078ACAA135ACF422C856C0E68EA1BF5669944DDD7BCDE7B1F8E415D77AECB980613C2E4AC91FC167A2B244592486606FC29C8FD7F045B9A
310
EF7053A7E60B504B0304140006080800CC70623BD9DDAED0EC0000007C01000008000000636F72652E786D6C8D90416EC3201045AF82665B61836D9CD8C2444DD39CA01740405C94182C03558F5F9C3852BBEB6A467FFE9B197D7EF89E6EE8CB2CC17A37002D0820E394D7D68D03A478C17B4007C117EFE32F1B20272733C0
310
2A83E0E3E2D3BC49CABB685CCCAAF3DA6CA20CC14440EA969B0182FA34932C648AD911AEC52CD5558EA6A0CF2EC329598D1E47ACCEFBECC59A050463A7EA5833865FEBDD0E37353BE3EE8DBDE3F6786A48D375FBF6CC78B9C282473B3DEFABC5C86834888A900E538A49F5419B9EB47DD5BC907D4F082F57FB1F28CDFA9F50
310
B22ED6D5F6EE030B20687EE43E10BC5CB3C8E51E54AE6B6EE207504B0304140006080800CC70623B55019EA25F0000007C00000007000000636E782E786D6C4DCB3B0E80201045D1AD90E915ED2CF8AC45050C11660C8261F98AB1B07AC9C97D42D718D865D3E909258CFD00CCE24AC6E326A164D74DC0B4128928FF326038
310
472BA13128B1252AC747C6BAB984FC68F0B87FE8960A5C09FE86CFB69FBA01504B0304140006080800CC70623BA24EB22D72010000D40300000C0000006662782F636F72652E786D6CC5535B6E833010BC8AE5DF0A6C5E49888CA3A6694ED00B38E05014B091B1518EDFE511A5A9D228FD2A1F60CDEC7A67C6986DCE4D8D7A
310
69BA4AAB0C073EC548AA5C17952A33ECECD15B61B4E1CC686DBF9561A44423333CC098B3D268D7CE50AE9595CA02AA74216750749DB418E5352C32DCE59FB211BE70162ABA93DF8AFC244AE9073ED050C759670D0840D390E18DF9F1706664C23973AE2A66B62A605A75ACA4C13C4976E1364A12EF355A2EBD384AF65EFA96
310
BC7B8BED2EA6719AAE16FB8491A199335B351775B991C2CA02F390D2D40B028F861F41BCA68B7518BFD0D59A524686F29B26D7164F36B94AD9289CE54E6D1DE6010819891F6E21228B3AD1831EC219194284CF98F06DD01008846CC5A1BEF83801D4CBDC6A1303536877A57A513B0953A94FC707FDBE6064EA84A9E3E6E0FA
310
EE8CF0E9198F7784A316AA0413C2C2F2E0ECA0934D1AE6D05A69BCDE9E91D2A611F573361E38FC1375157F5752AE6B6DFE4B11990F88CCBF0719EE23FF02504B0304140006080800CC70623B408A7D3B7C0000009D0000000B0000006662782F636E782E786D6C4DCCD10A83201886E15B91FFDC552A92A0064DBC8F581632
310
D3703A76F9ABD1C18E3E78F878E5F0D9027ABBFCF2292AE86E2D20171F69F6715550CB827B40839639A5F2770314A7CD293819B45C73AAFB45B35BA61ACAA1C1C7E7855C58C15BC331339661262CC762340413D68D77DA5B42298546CBE6573AF60CEB2F504B0304140006080800CC70623B449FB9BD290100001202000031
310
0000006662782F36394639363044362D344446342D343946362D394244322D3234314243333846323333332F636F72652E786D6C8D515B6EC32010BC0AE22B55850D98B871848994463E412FE002495162B07854397EA176A4F62F3F2C9A9D991D587EB84F37F0AD7D30CEF6905418026DA553C65E7A98E219ED203808EE9D
310
8B7F6810D871D23D2C3014FCE25D9A57483A1BB58D19B54EE9151C43D0110279CB971E06F9A5A7B11A53CC8C70ADE6515EC78BAE4895DB992778883E0700CB907242D17643D7E2538BD869608875438BBAE38922CAC8F1BDD90DB4691A5E2F42C153326A951B95E398B3D1FE599322163C9AE9115F7A3D46ADA0A018778810
310
84E907617BDCEE297BC5BB3DC6BC2EF47FA234AB2745C9D8D8D035EE220B50105E2F0DC1954B9FB747187D9F9D8FA0CCDB042D5FA0C015C65B42DF78BD10F3F3B363CB56C7109DCFDFBBB97E662ED92EB62D13BC2E1BCAE5777DB9966D8A1F504B0304140006080800CC70623BAD7543B64E01000033030000300000006662
310
782F36394639363044362D344446342D343946362D394244322D3234314243333846323333332F636E782E786D6CD593CD6EC32010845F0571AD6CE3D48AD20813A9873E410FBD12D82434182C7EAAE6EDBB2424CD25871E7B41D6EC30B3FA84F9E67BB2E40B4234DE8DB46F1925E094D7C6ED479AD3AE5951B2113C789FEE
310
6C943839C1488B4C05DF079FE72A69D8C96C13AAD6B8631503449F83828872B949AC57D26200B826A308D316B4064D6E46FCDA41C05550DC9E483A00797BFD207EFB092A45DE9514C1BBD22178396BD39D891265658C238DEA00936C654E5E433CB65A26D9F6EDB5EBC14EBF49A45CB856E66048291F6939A9A81BB5C89177
310
38143CA680F4AA299D66A042CEB3354A2684DC9D8D178FE0D9B8B41CAAD720F880EE7EF93C0C18769E099ECC04D5A102C8049A8A05632F4DDF376CF1DE0F6BB65C2F8627B65A33C6BB62177CEBBDAD973006829F89F22E814B54F4BC2BE347F8AA8F681390B50FA73F804400B5F542E796F19FF974E7F78DB802FE05E20750
310
4B0304140006080800CC70623B8D05915C650500003B100000340000006662782F36394639363044362D344446342D343946362D394244322D3234314243333846323333332F6F626A656374732E786D6CAD575B6FA33814FE2B887D06429276DA1565D4266D158D3A339A6846FB502932E050B66023DB74D2FDF5FB190C01
310
9276B2973C046C8ECFF53B17071F77456EBD502133CEAE6CDF9DD81665314F32965ED995DA3A17B6F5310C04E7AA47665B8C14F4CAD6DB7618A48257A5D94AE89654B91AEDDEDDFC61C998326A5B714EA4BCB265FC440BE2924AF184CA6737218AB8E976E7FA6E4338649B0A523E8D98964450A6A029F619B8588D52FE7039
310
B1BD30F0F4F730D0FF866AF6369557DB33949F31A9088B0F848DD8CCFCF9F2767A76E99CCDE733677E3EF59D9BBB9BA5E37F984D16E78BC5E5F5ED25044B25C0C96822E8D60EEFE11B91C581D77CEA34368A1F5329E68CD1B8B61F16D63A1B8E092D294B10C78C4A48EB593D192E7DED9BDEE7995E1B91FDEDD3ACEA9FE831
310
6A756F9F7D4D79F4274C90A7A04248AA51D5F8C718DAE06FB2F75AC4796EBE65D22A88A22223B995679120E2D50E41AA49C260C046A35368846B0BECD0DFF3EBEB8AD4F835768F69B9ADF25C43D30E6B646F807FAA64AD59F61715C7A54127C4AACA98BA3006A9D792DAE165E0D59B61A01FB3A9F9D838D2DAE62445C86166
310
F37564E842E7DE6A69879FEEA2DD5AE7E371E1A5E025154AC307D06A03D73EB5978C58FFA4C8E9033066E0F3BD53BEC1F39F91BE7B55103791EDE6BBB991A2046172CB4581D8B893FA674DDA17A77B3B7C413D1B511FD2743BFF8A38F03A658705E3ADF8015C3A3417FF3D7E439FF591DA0B5F18BC20C1B8981957AE6392A3
310
F43C640C01D1A0B4728E2DD4F26DB4B3C3152A252A3B4E913CEC1C72F012782FF88EFF8637AA552DBEF76408E8A8DE9E50F9E1CB3A2DA0DB1B6039A893B56063DC5B3E3FFB5F72E67AB9FEB4AEC496C4F4C1149625DD662C53E89D7BF0F6151A046260D1337DFDC94502430F83B0EE07A130A224BCAD7DAE1D9FB6CD422FF6
310
920702629C4BB9AE79C12F243C6432A6794E18E5552BA56B431AAB5D91317302B2B071E86C3A42B1A02F999E24061403B5D0EB639195DA655DD3EBEAB4FB862DDF579F014AD0E73C22F99E28DA57FB98E75C6CA2D74D53086D600F4786E0FE3144B771A8A7B900F03594DB8A633CBC49B2EDB69228BB479CF863B5E807AAAB
310
23872F6DFEB4129B949CA33823F58830E86D65621E10047D9DB34D862E8EAC3C2ABC2F7B2C40D67CDFE01F5545B92105AF983AC54D93D69E56FB8E797F88913F898A9FEC705D3F9D1B54EC8426FB500D40A03BD0119B06E1B95DDC7EB8F6975367793EBD70E66733DFB9BC982F9CE564727731999F5D4ECFCE3B8D6A4DC2A0
310
6D50FD148437D110834A64C6CDDF57FBACB5C307A2A477DFE4939736CFEF2B175371E0E10CF0DD1D5C15654E0BCA14D1E87DD02FF93782A162C0A3D95F1524A52770F972BF1EE9809D13CE7DD599467F8ECE9ADD85CE85A34CD45355448C64F9E8A031DC2D596ACC6E5DD93D9B82DE2EF5CAF81363A8E47996A0DE24564A79
310
4115AACE09C55E14540231FDA13C319787134EBF34E3A022514E5B4D9E0826E25C02D5805B15ABE1BEF51B26383D445DD9E875EE33FE4C22DA16427D65A3BCA92CA6D28DD01DF5DC53330704308475351050232CCD31583787BA75774AFB06E5070DD0C8EF484E19968C5D83BA5B90B244D31E54D55A372320FE4786B7EA58
310
44E135AA5467CB7EA333A61683CC6A8C3257034C10CF46F40EF9F5BE59BE5BD30C3C72D235E95D10345C1D45445A5F0BB47E46A5EBE5570F9380B5FA629579952296A773720405982B9DE04011506178964401AA8BDF1FBF0A8EAB6861DD6580C0E38217056766716DAEB2D6FA0917D3E4116581EADB879C4E7CFFB11EFACD
310
3D641311495D92C8676CB409A72D18610D803CE8A626049E8EC1887CB5B44CC39883690DDA8399B4B9855B481E7D71D4A9D22F96E5BB73BF5793020C02137BF837504B0304140006080000CC70623B000000000000000000000000350000006662782F36394639363044362D344446342D343946362D394244322D32343142
310
43333846323333332F76657274696365732E62696E504B0304140006080800CC70623BF270F1330600000004000000360000006662782F36394639363044362D344446342D343946362D394244322D3234314243333846323333332F747269616E676C65732E62696E636660600000504B0304140006080000CC70623B0000
310
00000000000000000000370000006662782F36394639363044362D344446342D343946362D394244322D3234314243333846323333332F617474726962757465732E62696E504B0304140006080800CC70623B08DA0BD19000000041010000360000006662782F36394639363044362D344446342D343946362D394244322D
310
3234314243333846323333332F6469726563746F72792E786D6C858F410AC3201045AF22B36F53E9A60B35CBEEBAE80D244E44489C6234F4F835464A48035D0DF398FF9F8AF63D0E6CC63039F212F8F9020C7D47C6792B21C5FE7403D62A1188E2E60C98D7234A5830286103A55745067B9D86B8A3CF9C7F90C11DE607FB14
310
4396D7B6A82D282E9A152AD114D5EF2CB866EEE831B8EEA07A7BB5A8D7D61A2BAAEB7FD5F70921FF497D00504B0304140006080800CC70623BCA768048FE000000A00100003B0000006662782F36394639363044362D344446342D343946362D394244322D3234314243333846323333332F7265736F75726365732F636F72
310
652E786D6C8D50596E833010BD0A9ADFCA60D600328E9AA639412F609909B1126CE4A5EAF16B0295DABFFECC8CDEA2797AECF8353F924FB44E193D409E5248504B332A3D0D10FC95B4901C39B3C6F85F3248B49871801506CE266BC2B243D2688FDA47549B11775038871E12F988C7004EDE7016A9083E2ADC3D5D84BC8B09
310
D33C8D74D471E6BC8D0192EDC93A815B742658898E651BCB59086ADC356A8C3FD555A1055ED7E7E254D615792D0F075295F585746FF53B694EE78A565DD736979A65AB9933AFE69F8CD2A2F038022F28ED489E135A7CE4554F9BBEA85E68DB53CAB255FEC71496F19FA6A0B42F8B3DEE6673C0F318E4497096AD7DC5F52C33
310
EEB55BFE0D504B010214000A0000080000CC70623B3DEE336E79000000790000001B00000000000000000000000000000000006175746F6465736B2D64657369676E2D7061636B6167652E786D6C504B01021400140006080800CC70623BD486FD9CA0000000F40000001300000000000000000000000000B20000005B436F
310
6E74656E745F54797065735D2E786D6C504B01021400140006080800CC70623BD9DDAED0EC0000007C010000080000000000000000000000000083010000636F72652E786D6C504B01021400140006080800CC70623B55019EA25F0000007C000000070000000000000000000000000095020000636E782E786D6C504B0102
310
1400140006080800CC70623BA24EB22D72010000D40300000C00000000000000000000000000190300006662782F636F72652E786D6C504B01021400140006080800CC70623B408A7D3B7C0000009D0000000B00000000000000000000000000B50400006662782F636E782E786D6C504B01021400140006080800CC70623B
310
449FB9BD290100001202000031000000000000000000000000005A0500006662782F36394639363044362D344446342D343946362D394244322D3234314243333846323333332F636F72652E786D6C504B01021400140006080800CC70623BAD7543B64E010000330300003000000000000000000000000000D20600006662
310
782F36394639363044362D344446342D343946362D394244322D3234314243333846323333332F636E782E786D6C504B01021400140006080800CC70623B8D05915C650500003B10000034000000000000000000000000006E0800006662782F36394639363044362D344446342D343946362D394244322D32343142433338
310
46323333332F6F626A656374732E786D6C504B01021400140006080000CC70623B0000000000000000000000003500000000000000000000000000250E00006662782F36394639363044362D344446342D343946362D394244322D3234314243333846323333332F76657274696365732E62696E504B010214001400060808
310
00CC70623BF270F13306000000040000003600000000000000000000000000780E00006662782F36394639363044362D344446342D343946362D394244322D3234314243333846323333332F747269616E676C65732E62696E504B01021400140006080000CC70623B00000000000000000000000037000000000000000000
310
00000000D20E00006662782F36394639363044362D344446342D343946362D394244322D3234314243333846323333332F617474726962757465732E62696E504B01021400140006080800CC70623B08DA0BD190000000410100003600000000000000000000000000270F00006662782F36394639363044362D344446342D
310
343946362D394244322D3234314243333846323333332F6469726563746F72792E786D6C504B01021400140006080800CC70623BCA768048FE000000A00100003B000000000000000000000000000B1000006662782F36394639363044362D344446342D343946362D394244322D3234314243333846323333332F7265736F
310
75726365732F636F72652E786D6C504B0506000000000E000E0080040000621100000000
  0
XRECORD
  5
176
102
{ACAD_REACTORS
330
173
102
}
330
173
100
AcDbXrecord
280
     1
270
     1
271
     1
  0
XRECORD
  5
177
102
{ACAD_REACTORS
330
173
102
}
330
173
100
AcDbXrecord
280
     1
270
     1
271
     1
  0
XRECORD
  5
F3D
102
{ACAD_REACTORS
330
F3C
102
}
330
F3C
100
AcDbXrecord
280
     1
102
DISPLAYNAME
  1
Imperial24
102
FLAGS
 90
        0
  0
XRECORD
  5
F37
102
{ACAD_REACTORS
330
F36
102
}
330
F36
100
AcDbXrecord
280
     1
102
DISPLAYNAME
  1
Metric50
102
FLAGS
 90
        0
  0
CELLSTYLEMAP
  5
EF9
102
{ACAD_REACTORS
330
162
102
}
330
162
100
AcDbCellStyleMap
 90
        3
300
CELLSTYLE
  1
TABLEFORMAT_BEGIN
 90
        5
170
     1
 91
        0
 92
    32768
 62
   257
 93
        1
300
CONTENTFORMAT
  1
CONTENTFORMAT_BEGIN
 90
        0
 91
        0
 92
      512
 93
        0
300

 40
0.0
140
1.0
 94
        5
 62
     0
340
11
144
6.0
309
CONTENTFORMAT_END
171
     1
301
MARGIN
  1
CELLMARGIN_BEGIN
 40
1.5
 40
1.5
 40
1.5
 40
1.5
 40
0.18
 40
0.18
309
CELLMARGIN_END
 94
        6
 95
        1
302
GRIDFORMAT
  1
GRIDFORMAT_BEGIN
 90
        0
 91
        1
 62
     0
 92
       -2
340
14
 93
        0
 40
1.125
309
GRIDFORMAT_END
 95
        2
302
GRIDFORMAT
  1
GRIDFORMAT_BEGIN
 90
        0
 91
        1
 62
     0
 92
       -2
340
14
 93
        0
 40
1.125
309
GRIDFORMAT_END
 95
        4
302
GRIDFORMAT
  1
GRIDFORMAT_BEGIN
 90
        0
 91
        1
 62
     0
 92
       -2
340
14
 93
        0
 40
1.125
309
GRIDFORMAT_END
 95
        8
302
GRIDFORMAT
  1
GRIDFORMAT_BEGIN
 90
        0
 91
        1
 62
     0
 92
       -2
340
14
 93
        0
 40
1.125
309
GRIDFORMAT_END
 95
       16
302
GRIDFORMAT
  1
GRIDFORMAT_BEGIN
 90
        0
 91
        1
 62
     0
 92
       -2
340
14
 93
        0
 40
1.125
309
GRIDFORMAT_END
 95
       32
302
GRIDFORMAT
  1
GRIDFORMAT_BEGIN
 90
        0
 91
        1
 62
     0
 92
       -2
340
14
 93
        0
 40
1.125
309
GRIDFORMAT_END
309
TABLEFORMAT_END
  1
CELLSTYLE_BEGIN
 90
        1
 91
        1
300
_TITLE
309
CELLSTYLE_END
300
CELLSTYLE
  1
TABLEFORMAT_BEGIN
 90
        5
170
     1
 91
        0
 92
        0
 62
   257
 93
        1
300
CONTENTFORMAT
  1
CONTENTFORMAT_BEGIN
 90
        0
 91
        0
 92
      512
 93
        0
300

 40
0.0
140
1.0
 94
        5
 62
     0
340
11
144
4.5
309
CONTENTFORMAT_END
171
     1
301
MARGIN
  1
CELLMARGIN_BEGIN
 40
1.5
 40
1.5
 40
1.5
 40
1.5
 40
0.18
 40
0.18
309
CELLMARGIN_END
 94
        6
 95
        1
302
GRIDFORMAT
  1
GRIDFORMAT_BEGIN
 90
        0
 91
        1
 62
     0
 92
       -2
340
14
 93
        0
 40
1.125
309
GRIDFORMAT_END
 95
        2
302
GRIDFORMAT
  1
GRIDFORMAT_BEGIN
 90
        0
 91
        1
 62
     0
 92
       -2
340
14
 93
        0
 40
1.125
309
GRIDFORMAT_END
 95
        4
302
GRIDFORMAT
  1
GRIDFORMAT_BEGIN
 90
        0
 91
        1
 62
     0
 92
       -2
340
14
 93
        0
 40
1.125
309
GRIDFORMAT_END
 95
        8
302
GRIDFORMAT
  1
GRIDFORMAT_BEGIN
 90
        0
 91
        1
 62
     0
 92
       -2
340
14
 93
        0
 40
1.125
309
GRIDFORMAT_END
 95
       16
302
GRIDFORMAT
  1
GRIDFORMAT_BEGIN
 90
        0
 91
        1
 62
     0
 92
       -2
340
14
 93
        0
 40
1.125
309
GRIDFORMAT_END
 95
       32
302
GRIDFORMAT
  1
GRIDFORMAT_BEGIN
 90
        0
 91
        1
 62
     0
 92
       -2
340
14
 93
        0
 40
1.125
309
GRIDFORMAT_END
309
TABLEFORMAT_END
  1
CELLSTYLE_BEGIN
 90
        2
 91
        1
300
_HEADER
309
CELLSTYLE_END
300
CELLSTYLE
  1
TABLEFORMAT_BEGIN
 90
        5
170
     1
 91
        0
 92
        0
 62
   257
 93
        1
300
CONTENTFORMAT
  1
CONTENTFORMAT_BEGIN
 90
        0
 91
        0
 92
      512
 93
        0
300

 40
0.0
140
1.0
 94
        2
 62
     0
340
11
144
4.5
309
CONTENTFORMAT_END
171
     1
301
MARGIN
  1
CELLMARGIN_BEGIN
 40
1.5
 40
1.5
 40
1.5
 40
1.5
 40
0.18
 40
0.18
309
CELLMARGIN_END
 94
        6
 95
        1
302
GRIDFORMAT
  1
GRIDFORMAT_BEGIN
 90
        0
 91
        1
 62
     0
 92
       -2
340
14
 93
        0
 40
1.125
309
GRIDFORMAT_END
 95
        2
302
GRIDFORMAT
  1
GRIDFORMAT_BEGIN
 90
        0
 91
        1
 62
     0
 92
       -2
340
14
 93
        0
 40
1.125
309
GRIDFORMAT_END
 95
        4
302
GRIDFORMAT
  1
GRIDFORMAT_BEGIN
 90
        0
 91
        1
 62
     0
 92
       -2
340
14
 93
        0
 40
1.125
309
GRIDFORMAT_END
 95
        8
302
GRIDFORMAT
  1
GRIDFORMAT_BEGIN
 90
        0
 91
        1
 62
     0
 92
       -2
340
14
 93
        0
 40
1.125
309
GRIDFORMAT_END
 95
       16
302
GRIDFORMAT
  1
GRIDFORMAT_BEGIN
 90
        0
 91
        1
 62
     0
 92
       -2
340
14
 93
        0
 40
1.125
309
GRIDFORMAT_END
 95
       32
302
GRIDFORMAT
  1
GRIDFORMAT_BEGIN
 90
        0
 91
        1
 62
     0
 92
       -2
340
14
 93
        0
 40
1.125
309
GRIDFORMAT_END
309
TABLEFORMAT_END
  1
CELLSTYLE_BEGIN
 90
        3
 91
        2
300
_DATA
309
CELLSTYLE_END
  0
XRECORD
  5
F01
102
{ACAD_REACTORS
330
162
102
}
330
162
100
AcDbXrecord
280
     1
102
ACAD_ROUNDTRIP_PRE2007_TABLESTYLE
 90
      512
 91
        0
  1

 92
      512
 93
        0
  2

 94
      512
 95
        0
  3

  0
XRECORD
  5
F11
102
{ACAD_REACTORS
330
F10
102
}
330
F10
100
AcDbXrecord
280
     1
102
RTVSPost2010Prop28
280
     1
102
RTVSPost2010PropOp28
 70
     1
102
RTVSPost2010Prop29
280
     1
102
RTVSPost2010PropOp29
 70
     1
102
RTVSPost2010Prop30
280
     0
102
RTVSPost2010PropOp30
 70
     1
102
RTVSPost2010Prop31
280
     0
102
RTVSPost2010PropOp31
 70
     1
102
RTVSPost2010Prop32
280
     0
102
RTVSPost2010PropOp32
 70
     1
102
RTVSPost2010Prop33
280
     0
102
RTVSPost2010PropOp33
 70
     1
102
RTVSPost2010Prop34
280
     0
102
RTVSPost2010PropOp34
 70
     1
102
RTVSPost2010Prop35
280
     0
102
RTVSPost2010PropOp35
 70
     1
102
RTVSPost2010Prop36
280
     0
102
RTVSPost2010PropOp36
 70
     1
102
RTVSPost2010Prop37
 90
       50
102
RTVSPost2010PropOp37
 70
     1
102
RTVSPost2010Prop38
140
0.0
102
RTVSPost2010PropOp38
 70
     1
102
RTVSPost2010Prop39
140
1.0
102
RTVSPost2010PropOp39
 70
     1
102
RTVSPost2010Prop40
 90
        0
102
RTVSPost2010PropOp40
 70
     1
102
RTVSPost2010Prop41ColorIndex
 90
       18
102
RTVSPost2010Prop41ColorRGB
 90
        0
102
RTVSPost2010PropOp41
 70
     1
102
RTVSPost2010Prop42
 90
       50
102
RTVSPost2010PropOp42
 70
     1
102
RTVSPost2010Prop43
 90
        3
102
RTVSPost2010PropOp43
 70
     1
102
RTVSPost2010Prop44ColorIndex
 90
        5
102
RTVSPost2010Prop44ColorRGB
 90
      255
102
RTVSPost2010PropOp44
 70
     1
102
RTVSPost2010Prop45
280
     0
102
RTVSPost2010PropOp45
 70
     1
102
RTVSPost2010Prop46
 90
       50
102
RTVSPost2010PropOp46
 70
     1
102
RTVSPost2010Prop47
 90
       50
102
RTVSPost2010PropOp47
 70
     1
102
RTVSPost2010Prop48
 90
       50
102
RTVSPost2010PropOp48
 70
     1
102
RTVSPost2010Prop49
280
     0
102
RTVSPost2010PropOp49
 70
     1
102
RTVSPost2010Prop50
 90
       50
102
RTVSPost2010PropOp50
 70
     1
102
RTVSPost2010Prop51ColorIndex
 90
      256
102
RTVSPost2010Prop51ColorRGB
 90
-16777216
102
RTVSPost2010PropOp51
 70
     0
102
RTVSPost2010Prop52
140
1.0
102
RTVSPost2010PropOp52
 70
     0
102
RTVSPost2010Prop53
 90
        2
102
RTVSPost2010PropOp53
 70
     1
102
RTVSPost2010Prop54
  1
strokes_ogs.tif
102
RTVSPost2010PropOp54
 70
     1
102
RTVSPost2010Prop55
280
     0
102
RTVSPost2010PropOp55
 70
     1
102
RTVSPost2010Prop56
140
1.0
102
RTVSPost2010PropOp56
 70
     1
102
RTVSPost2010Prop57
140
1.0
102
RTVSPost2010PropOp57
 70
     1
102
RTVSPropertyOp0
 70
     1
102
RTVSPropertyOp1
 70
     1
102
RTVSPropertyOp2
 70
     1
102
RTVSPropertyOp3
 70
     1
102
RTVSPropertyOp4
 70
     1
102
RTVSPropertyOp5
 70
     1
102
RTVSPropertyOp6
 70
     1
102
RTVSPropertyOp7
 70
     1
102
RTVSPropertyOp8
 70
     1
102
RTVSPropertyOp9
 70
     1
102
RTVSPropertyOp10
 70
     1
102
RTVSPropertyOp11
 70
     1
102
RTVSPropertyOp12
 70
     1
102
RTVSPropertyOp13
 70
     1
102
RTVSPropertyOp14
 70
     1
102
RTVSPropertyOp15
 70
     1
102
RTVSPropertyOp16
 70
     1
102
RTVSPropertyOp17
 70
     1
102
RTVSPropertyOp18
 70
     1
102
RTVSPropertyOp19
 70
     1
102
RTVSPropertyOp20
 70
     1
102
RTVSPropertyOp21
 70
     1
102
RTVSPropertyOp22
 70
     1
102
RTVSPropertyOp23
 70
     1
102
RTVSPropertyOp24
 70
     1
102
RTVSPropertyOp25
 70
     1
102
RTVSPropertyOp26
 70
     1
102
RTVSPropertyOp27
 70
     1
102
RTVSPropertyOp28
 70
     1
102
RTVSPropertyOp29
 70
     1
102
RTVSPropertyOp30
 70
     1
102
RTVSPropertyOp31
 70
     1
102
RTVSPropertyOp32
 70
     1
102
RTVSPropertyOp33
 70
     1
102
RTVSPropertyOp34
 70
     1
102
RTVSPropertyOp35
 70
     1
102
RTVSPropertyOp36
 70
     1
102
RTVSPropertyOp37
 70
     1
102
RTVSPropertyOp38
 70
     1
102
RTVSPropertyOp39
 70
     1
102
RTVSPropertyOp40
 70
     1
102
RTVSPropertyOp41
 70
     1
102
RTVSPropertyOp42
 70
     1
102
RTVSPropertyOp43
 70
     1
102
RTVSPropertyOp44
 70
     1
102
RTVSPropertyOp45
 70
     1
102
RTVSPropertyOp46
 70
     1
102
RTVSPropertyOp47
 70
     1
102
RTVSPropertyOp48
 70
     1
102
RTVSPropertyOp49
 70
     1
102
RTVSPropertyOp50
 70
     1
102
RTVSPropertyOp51
 70
     0
102
RTVSPropertyOp52
 70
     0
102
RTVSPropertyOp53
 70
     1
102
RTVSPropertyOp54
 70
     1
102
RTVSPropertyOp55
 70
     1
102
RTVSPropertyOp56
 70
     1
102
RTVSPropertyOp57
 70
     1
102
RTVSPropertyOp58
 70
     1
102
RTVSPropertyOp59
 70
     1
102
RTVSPropertyOp60
 70
     1
102
RTVSPropertyOp61
 70
     1
102
RTVSPropertyOp62
 70
     1
  0
XRECORD
  5
F3B
102
{ACAD_REACTORS
330
F3A
102
}
330
F3A
100
AcDbXrecord
280
     1
102
RTVSPost2010Prop28
280
     0
102
RTVSPost2010PropOp28
 70
     1
102
RTVSPost2010Prop29
280
     1
102
RTVSPost2010PropOp29
 70
     1
102
RTVSPost2010Prop30
280
     1
102
RTVSPost2010PropOp30
 70
     1
102
RTVSPost2010Prop31
280
     0
102
RTVSPost2010PropOp31
 70
     1
102
RTVSPost2010Prop32
280
     0
102
RTVSPost2010PropOp32
 70
     1
102
RTVSPost2010Prop33
280
     0
102
RTVSPost2010PropOp33
 70
     1
102
RTVSPost2010Prop34
280
     0
102
RTVSPost2010PropOp34
 70
     1
102
RTVSPost2010Prop35
280
     0
102
RTVSPost2010PropOp35
 70
     1
102
RTVSPost2010Prop36
280
     0
102
RTVSPost2010PropOp36
 70
     1
102
RTVSPost2010Prop37
 90
       50
102
RTVSPost2010PropOp37
 70
     1
102
RTVSPost2010Prop38
140
0.0
102
RTVSPost2010PropOp38
 70
     1
102
RTVSPost2010Prop39
140
1.0
102
RTVSPost2010PropOp39
 70
     1
102
RTVSPost2010Prop40
 90
        0
102
RTVSPost2010PropOp40
 70
     1
102
RTVSPost2010Prop41ColorIndex
 90
       18
102
RTVSPost2010Prop41ColorRGB
 90
        0
102
RTVSPost2010PropOp41
 70
     1
102
RTVSPost2010Prop42
 90
       50
102
RTVSPost2010PropOp42
 70
     1
102
RTVSPost2010Prop43
 90
        3
102
RTVSPost2010PropOp43
 70
     1
102
RTVSPost2010Prop44ColorIndex
 90
        5
102
RTVSPost2010Prop44ColorRGB
 90
      255
102
RTVSPost2010PropOp44
 70
     1
102
RTVSPost2010Prop45
280
     0
102
RTVSPost2010PropOp45
 70
     1
102
RTVSPost2010Prop46
 90
       50
102
RTVSPost2010PropOp46
 70
     1
102
RTVSPost2010Prop47
 90
       50
102
RTVSPost2010PropOp47
 70
     1
102
RTVSPost2010Prop48
 90
       50
102
RTVSPost2010PropOp48
 70
     1
102
RTVSPost2010Prop49
280
     0
102
RTVSPost2010PropOp49
 70
     1
102
RTVSPost2010Prop50
 90
       50
102
RTVSPost2010PropOp50
 70
     1
102
RTVSPost2010Prop51ColorIndex
 90
      256
102
RTVSPost2010Prop51ColorRGB
 90
-16777216
102
RTVSPost2010PropOp51
 70
     0
102
RTVSPost2010Prop52
140
1.0
102
RTVSPost2010PropOp52
 70
     0
102
RTVSPost2010Prop53
 90
        2
102
RTVSPost2010PropOp53
 70
     1
102
RTVSPost2010Prop54
  1
strokes_ogs.tif
102
RTVSPost2010PropOp54
 70
     1
102
RTVSPost2010Prop55
280
     0
102
RTVSPost2010PropOp55
 70
     1
102
RTVSPost2010Prop56
140
1.0
102
RTVSPost2010PropOp56
 70
     1
102
RTVSPost2010Prop57
140
1.0
102
RTVSPost2010PropOp57
 70
     1
102
RTVSPropertyOp0
 70
     1
102
RTVSPropertyOp1
 70
     1
102
RTVSPropertyOp2
 70
     1
102
RTVSPropertyOp3
 70
     1
102
RTVSPropertyOp4
 70
     1
102
RTVSPropertyOp5
 70
     1
102
RTVSPropertyOp6
 70
     1
102
RTVSPropertyOp7
 70
     1
102
RTVSPropertyOp8
 70
     1
102
RTVSPropertyOp9
 70
     1
102
RTVSPropertyOp10
 70
     1
102
RTVSPropertyOp11
 70
     1
102
RTVSPropertyOp12
 70
     1
102
RTVSPropertyOp13
 70
     1
102
RTVSPropertyOp14
 70
     1
102
RTVSPropertyOp15
 70
     1
102
RTVSPropertyOp16
 70
     1
102
RTVSPropertyOp17
 70
     1
102
RTVSPropertyOp18
 70
     1
102
RTVSPropertyOp19
 70
     1
102
RTVSPropertyOp20
 70
     1
102
RTVSPropertyOp21
 70
     1
102
RTVSPropertyOp22
 70
     1
102
RTVSPropertyOp23
 70
     1
102
RTVSPropertyOp24
 70
     1
102
RTVSPropertyOp25
 70
     1
102
RTVSPropertyOp26
 70
     1
102
RTVSPropertyOp27
 70
     1
102
RTVSPropertyOp28
 70
     1
102
RTVSPropertyOp29
 70
     1
102
RTVSPropertyOp30
 70
     1
102
RTVSPropertyOp31
 70
     1
102
RTVSPropertyOp32
 70
     1
102
RTVSPropertyOp33
 70
     1
102
RTVSPropertyOp34
 70
     1
102
RTVSPropertyOp35
 70
     1
102
RTVSPropertyOp36
 70
     1
102
RTVSPropertyOp37
 70
     1
102
RTVSPropertyOp38
 70
     1
102
RTVSPropertyOp39
 70
     1
102
RTVSPropertyOp40
 70
     1
102
RTVSPropertyOp41
 70
     1
102
RTVSPropertyOp42
 70
     1
102
RTVSPropertyOp43
 70
     1
102
RTVSPropertyOp44
 70
     1
102
RTVSPropertyOp45
 70
     1
102
RTVSPropertyOp46
 70
     1
102
RTVSPropertyOp47
 70
     1
102
RTVSPropertyOp48
 70
     1
102
RTVSPropertyOp49
 70
     1
102
RTVSPropertyOp50
 70
     1
102
RTVSPropertyOp51
 70
     0
102
RTVSPropertyOp52
 70
     0
102
RTVSPropertyOp53
 70
     1
102
RTVSPropertyOp54
 70
     1
102
RTVSPropertyOp55
 70
     1
102
RTVSPropertyOp56
 70
     1
102
RTVSPropertyOp57
 70
     1
102
RTVSPropertyOp58
 70
     1
102
RTVSPropertyOp59
 70
     1
102
RTVSPropertyOp60
 70
     1
102
RTVSPropertyOp61
 70
     1
102
RTVSPropertyOp62
 70
     1
  0
XRECORD
  5
F0F
102
{ACAD_REACTORS
330
F0E
102
}
330
F0E
100
AcDbXrecord
280
     1
102
RTVSPost2010Prop28
280
     0
102
RTVSPost2010PropOp28
 70
     1
102
RTVSPost2010Prop29
280
     1
102
RTVSPost2010PropOp29
 70
     1
102
RTVSPost2010Prop30
280
     1
102
RTVSPost2010PropOp30
 70
     1
102
RTVSPost2010Prop31
280
     0
102
RTVSPost2010PropOp31
 70
     1
102
RTVSPost2010Prop32
280
     0
102
RTVSPost2010PropOp32
 70
     1
102
RTVSPost2010Prop33
280
     0
102
RTVSPost2010PropOp33
 70
     1
102
RTVSPost2010Prop34
280
     0
102
RTVSPost2010PropOp34
 70
     1
102
RTVSPost2010Prop35
280
     0
102
RTVSPost2010PropOp35
 70
     1
102
RTVSPost2010Prop36
280
     0
102
RTVSPost2010PropOp36
 70
     1
102
RTVSPost2010Prop37
 90
       50
102
RTVSPost2010PropOp37
 70
     1
102
RTVSPost2010Prop38
140
0.0
102
RTVSPost2010PropOp38
 70
     1
102
RTVSPost2010Prop39
140
1.0
102
RTVSPost2010PropOp39
 70
     1
102
RTVSPost2010Prop40
 90
        0
102
RTVSPost2010PropOp40
 70
     1
102
RTVSPost2010Prop41ColorIndex
 90
       18
102
RTVSPost2010Prop41ColorRGB
 90
        0
102
RTVSPost2010PropOp41
 70
     1
102
RTVSPost2010Prop42
 90
       50
102
RTVSPost2010PropOp42
 70
     1
102
RTVSPost2010Prop43
 90
        3
102
RTVSPost2010PropOp43
 70
     1
102
RTVSPost2010Prop44ColorIndex
 90
        5
102
RTVSPost2010Prop44ColorRGB
 90
      255
102
RTVSPost2010PropOp44
 70
     1
102
RTVSPost2010Prop45
280
     0
102
RTVSPost2010PropOp45
 70
     1
102
RTVSPost2010Prop46
 90
       50
102
RTVSPost2010PropOp46
 70
     1
102
RTVSPost2010Prop47
 90
       50
102
RTVSPost2010PropOp47
 70
     1
102
RTVSPost2010Prop48
 90
       50
102
RTVSPost2010PropOp48
 70
     1
102
RTVSPost2010Prop49
280
     0
102
RTVSPost2010PropOp49
 70
     1
102
RTVSPost2010Prop50
 90
       50
102
RTVSPost2010PropOp50
 70
     1
102
RTVSPost2010Prop51ColorIndex
 90
      256
102
RTVSPost2010Prop51ColorRGB
 90
-16777216
102
RTVSPost2010PropOp51
 70
     0
102
RTVSPost2010Prop52
140
1.0
102
RTVSPost2010PropOp52
 70
     0
102
RTVSPost2010Prop53
 90
        2
102
RTVSPost2010PropOp53
 70
     1
102
RTVSPost2010Prop54
  1
strokes_ogs.tif
102
RTVSPost2010PropOp54
 70
     1
102
RTVSPost2010Prop55
280
     0
102
RTVSPost2010PropOp55
 70
     1
102
RTVSPost2010Prop56
140
1.0
102
RTVSPost2010PropOp56
 70
     1
102
RTVSPost2010Prop57
140
1.0
102
RTVSPost2010PropOp57
 70
     1
102
RTVSPropertyOp0
 70
     1
102
RTVSPropertyOp1
 70
     1
102
RTVSPropertyOp2
 70
     1
102
RTVSPropertyOp3
 70
     1
102
RTVSPropertyOp4
 70
     1
102
RTVSPropertyOp5
 70
     1
102
RTVSPropertyOp6
 70
     1
102
RTVSPropertyOp7
 70
     1
102
RTVSPropertyOp8
 70
     1
102
RTVSPropertyOp9
 70
     1
102
RTVSPropertyOp10
 70
     1
102
RTVSPropertyOp11
 70
     1
102
RTVSPropertyOp12
 70
     1
102
RTVSPropertyOp13
 70
     1
102
RTVSPropertyOp14
 70
     1
102
RTVSPropertyOp15
 70
     1
102
RTVSPropertyOp16
 70
     1
102
RTVSPropertyOp17
 70
     1
102
RTVSPropertyOp18
 70
     1
102
RTVSPropertyOp19
 70
     1
102
RTVSPropertyOp20
 70
     1
102
RTVSPropertyOp21
 70
     1
102
RTVSPropertyOp22
 70
     1
102
RTVSPropertyOp23
 70
     1
102
RTVSPropertyOp24
 70
     1
102
RTVSPropertyOp25
 70
     1
102
RTVSPropertyOp26
 70
     1
102
RTVSPropertyOp27
 70
     1
102
RTVSPropertyOp28
 70
     1
102
RTVSPropertyOp29
 70
     1
102
RTVSPropertyOp30
 70
     1
102
RTVSPropertyOp31
 70
     1
102
RTVSPropertyOp32
 70
     1
102
RTVSPropertyOp33
 70
     1
102
RTVSPropertyOp34
 70
     1
102
RTVSPropertyOp35
 70
     1
102
RTVSPropertyOp36
 70
     1
102
RTVSPropertyOp37
 70
     1
102
RTVSPropertyOp38
 70
     1
102
RTVSPropertyOp39
 70
     1
102
RTVSPropertyOp40
 70
     1
102
RTVSPropertyOp41
 70
     1
102
RTVSPropertyOp42
 70
     1
102
RTVSPropertyOp43
 70
     1
102
RTVSPropertyOp44
 70
     1
102
RTVSPropertyOp45
 70
     1
102
RTVSPropertyOp46
 70
     1
102
RTVSPropertyOp47
 70
     1
102
RTVSPropertyOp48
 70
     1
102
RTVSPropertyOp49
 70
     1
102
RTVSPropertyOp50
 70
     1
102
RTVSPropertyOp51
 70
     0
102
RTVSPropertyOp52
 70
     0
102
RTVSPropertyOp53
 70
     1
102
RTVSPropertyOp54
 70
     1
102
RTVSPropertyOp55
 70
     1
102
RTVSPropertyOp56
 70
     1
102
RTVSPropertyOp57
 70
     1
102
RTVSPropertyOp58
 70
     1
102
RTVSPropertyOp59
 70
     1
102
RTVSPropertyOp60
 70
     1
102
RTVSPropertyOp61
 70
     1
102
RTVSPropertyOp62
 70
     1
  0
XRECORD
  5
F1D
102
{ACAD_REACTORS
330
F1C
102
}
330
F1C
100
AcDbXrecord
280
     1
102
RTVSPost2010Prop28
280
     0
102
RTVSPost2010PropOp28
 70
     1
102
RTVSPost2010Prop29
280
     1
102
RTVSPost2010PropOp29
 70
     1
102
RTVSPost2010Prop30
280
     1
102
RTVSPost2010PropOp30
 70
     1
102
RTVSPost2010Prop31
280
     0
102
RTVSPost2010PropOp31
 70
     1
102
RTVSPost2010Prop32
280
     0
102
RTVSPost2010PropOp32
 70
     1
102
RTVSPost2010Prop33
280
     0
102
RTVSPost2010PropOp33
 70
     1
102
RTVSPost2010Prop34
280
     0
102
RTVSPost2010PropOp34
 70
     1
102
RTVSPost2010Prop35
280
     0
102
RTVSPost2010PropOp35
 70
     1
102
RTVSPost2010Prop36
280
     0
102
RTVSPost2010PropOp36
 70
     1
102
RTVSPost2010Prop37
 90
       50
102
RTVSPost2010PropOp37
 70
     1
102
RTVSPost2010Prop38
140
0.0
102
RTVSPost2010PropOp38
 70
     1
102
RTVSPost2010Prop39
140
1.0
102
RTVSPost2010PropOp39
 70
     1
102
RTVSPost2010Prop40
 90
        0
102
RTVSPost2010PropOp40
 70
     1
102
RTVSPost2010Prop41ColorIndex
 90
       18
102
RTVSPost2010Prop41ColorRGB
 90
        0
102
RTVSPost2010PropOp41
 70
     1
102
RTVSPost2010Prop42
 90
       50
102
RTVSPost2010PropOp42
 70
     1
102
RTVSPost2010Prop43
 90
        3
102
RTVSPost2010PropOp43
 70
     1
102
RTVSPost2010Prop44ColorIndex
 90
        5
102
RTVSPost2010Prop44ColorRGB
 90
      255
102
RTVSPost2010PropOp44
 70
     1
102
RTVSPost2010Prop45
280
     0
102
RTVSPost2010PropOp45
 70
     1
102
RTVSPost2010Prop46
 90
       50
102
RTVSPost2010PropOp46
 70
     1
102
RTVSPost2010Prop47
 90
       50
102
RTVSPost2010PropOp47
 70
     1
102
RTVSPost2010Prop48
 90
       50
102
RTVSPost2010PropOp48
 70
     1
102
RTVSPost2010Prop49
280
     0
102
RTVSPost2010PropOp49
 70
     1
102
RTVSPost2010Prop50
 90
       50
102
RTVSPost2010PropOp50
 70
     1
102
RTVSPost2010Prop51ColorIndex
 90
      256
102
RTVSPost2010Prop51ColorRGB
 90
-16777216
102
RTVSPost2010PropOp51
 70
     0
102
RTVSPost2010Prop52
140
1.0
102
RTVSPost2010PropOp52
 70
     0
102
RTVSPost2010Prop53
 90
        2
102
RTVSPost2010PropOp53
 70
     1
102
RTVSPost2010Prop54
  1
strokes_ogs.tif
102
RTVSPost2010PropOp54
 70
     1
102
RTVSPost2010Prop55
280
     0
102
RTVSPost2010PropOp55
 70
     1
102
RTVSPost2010Prop56
140
1.0
102
RTVSPost2010PropOp56
 70
     1
102
RTVSPost2010Prop57
140
1.0
102
RTVSPost2010PropOp57
 70
     1
102
RTVSPropertyOp0
 70
     1
102
RTVSPropertyOp1
 70
     1
102
RTVSPropertyOp2
 70
     1
102
RTVSPropertyOp3
 70
     1
102
RTVSPropertyOp4
 70
     1
102
RTVSPropertyOp5
 70
     1
102
RTVSPropertyOp6
 70
     1
102
RTVSPropertyOp7
 70
     1
102
RTVSPropertyOp8
 70
     1
102
RTVSPropertyOp9
 70
     1
102
RTVSPropertyOp10
 70
     1
102
RTVSPropertyOp11
 70
     1
102
RTVSPropertyOp12
 70
     1
102
RTVSPropertyOp13
 70
     1
102
RTVSPropertyOp14
 70
     1
102
RTVSPropertyOp15
 70
     1
102
RTVSPropertyOp16
 70
     1
102
RTVSPropertyOp17
 70
     1
102
RTVSPropertyOp18
 70
     1
102
RTVSPropertyOp19
 70
     1
102
RTVSPropertyOp20
 70
     1
102
RTVSPropertyOp21
 70
     1
102
RTVSPropertyOp22
 70
     1
102
RTVSPropertyOp23
 70
     1
102
RTVSPropertyOp24
 70
     1
102
RTVSPropertyOp25
 70
     1
102
RTVSPropertyOp26
 70
     1
102
RTVSPropertyOp27
 70
     1
102
RTVSPropertyOp28
 70
     1
102
RTVSPropertyOp29
 70
     1
102
RTVSPropertyOp30
 70
     1
102
RTVSPropertyOp31
 70
     1
102
RTVSPropertyOp32
 70
     1
102
RTVSPropertyOp33
 70
     1
102
RTVSPropertyOp34
 70
     1
102
RTVSPropertyOp35
 70
     1
102
RTVSPropertyOp36
 70
     1
102
RTVSPropertyOp37
 70
     1
102
RTVSPropertyOp38
 70
     1
102
RTVSPropertyOp39
 70
     1
102
RTVSPropertyOp40
 70
     1
102
RTVSPropertyOp41
 70
     1
102
RTVSPropertyOp42
 70
     1
102
RTVSPropertyOp43
 70
     1
102
RTVSPropertyOp44
 70
     1
102
RTVSPropertyOp45
 70
     1
102
RTVSPropertyOp46
 70
     1
102
RTVSPropertyOp47
 70
     1
102
RTVSPropertyOp48
 70
     1
102
RTVSPropertyOp49
 70
     1
102
RTVSPropertyOp50
 70
     1
102
RTVSPropertyOp51
 70
     0
102
RTVSPropertyOp52
 70
     0
102
RTVSPropertyOp53
 70
     1
102
RTVSPropertyOp54
 70
     1
102
RTVSPropertyOp55
 70
     1
102
RTVSPropertyOp56
 70
     1
102
RTVSPropertyOp57
 70
     1
102
RTVSPropertyOp58
 70
     1
102
RTVSPropertyOp59
 70
     1
102
RTVSPropertyOp60
 70
     1
102
RTVSPropertyOp61
 70
     1
102
RTVSPropertyOp62
 70
     1
  0
XRECORD
  5
F25
102
{ACAD_REACTORS
330
F24
102
}
330
F24
100
AcDbXrecord
280
     1
102
RTVSPost2010Prop28
280
     0
102
RTVSPost2010PropOp28
 70
     1
102
RTVSPost2010Prop29
280
     1
102
RTVSPost2010PropOp29
 70
     1
102
RTVSPost2010Prop30
280
     1
102
RTVSPost2010PropOp30
 70
     1
102
RTVSPost2010Prop31
280
     0
102
RTVSPost2010PropOp31
 70
     1
102
RTVSPost2010Prop32
280
     0
102
RTVSPost2010PropOp32
 70
     1
102
RTVSPost2010Prop33
280
     0
102
RTVSPost2010PropOp33
 70
     1
102
RTVSPost2010Prop34
280
     0
102
RTVSPost2010PropOp34
 70
     1
102
RTVSPost2010Prop35
280
     0
102
RTVSPost2010PropOp35
 70
     1
102
RTVSPost2010Prop36
280
     0
102
RTVSPost2010PropOp36
 70
     1
102
RTVSPost2010Prop37
 90
       50
102
RTVSPost2010PropOp37
 70
     1
102
RTVSPost2010Prop38
140
0.0
102
RTVSPost2010PropOp38
 70
     1
102
RTVSPost2010Prop39
140
1.0
102
RTVSPost2010PropOp39
 70
     1
102
RTVSPost2010Prop40
 90
        0
102
RTVSPost2010PropOp40
 70
     1
102
RTVSPost2010Prop41ColorIndex
 90
       18
102
RTVSPost2010Prop41ColorRGB
 90
        0
102
RTVSPost2010PropOp41
 70
     1
102
RTVSPost2010Prop42
 90
       50
102
RTVSPost2010PropOp42
 70
     1
102
RTVSPost2010Prop43
 90
        3
102
RTVSPost2010PropOp43
 70
     1
102
RTVSPost2010Prop44ColorIndex
 90
        5
102
RTVSPost2010Prop44ColorRGB
 90
      255
102
RTVSPost2010PropOp44
 70
     1
102
RTVSPost2010Prop45
280
     0
102
RTVSPost2010PropOp45
 70
     1
102
RTVSPost2010Prop46
 90
       50
102
RTVSPost2010PropOp46
 70
     1
102
RTVSPost2010Prop47
 90
       50
102
RTVSPost2010PropOp47
 70
     1
102
RTVSPost2010Prop48
 90
       50
102
RTVSPost2010PropOp48
 70
     1
102
RTVSPost2010Prop49
280
     0
102
RTVSPost2010PropOp49
 70
     1
102
RTVSPost2010Prop50
 90
       50
102
RTVSPost2010PropOp50
 70
     1
102
RTVSPost2010Prop51ColorIndex
 90
      256
102
RTVSPost2010Prop51ColorRGB
 90
-16777216
102
RTVSPost2010PropOp51
 70
     0
102
RTVSPost2010Prop52
140
1.0
102
RTVSPost2010PropOp52
 70
     0
102
RTVSPost2010Prop53
 90
        2
102
RTVSPost2010PropOp53
 70
     1
102
RTVSPost2010Prop54
  1
strokes_ogs.tif
102
RTVSPost2010PropOp54
 70
     1
102
RTVSPost2010Prop55
280
     0
102
RTVSPost2010PropOp55
 70
     1
102
RTVSPost2010Prop56
140
1.0
102
RTVSPost2010PropOp56
 70
     1
102
RTVSPost2010Prop57
140
1.0
102
RTVSPost2010PropOp57
 70
     1
102
RTVSPropertyOp0
 70
     1
102
RTVSPropertyOp1
 70
     1
102
RTVSPropertyOp2
 70
     1
102
RTVSPropertyOp3
 70
     1
102
RTVSPropertyOp4
 70
     1
102
RTVSPropertyOp5
 70
     1
102
RTVSPropertyOp6
 70
     1
102
RTVSPropertyOp7
 70
     1
102
RTVSPropertyOp8
 70
     1
102
RTVSPropertyOp9
 70
     1
102
RTVSPropertyOp10
 70
     1
102
RTVSPropertyOp11
 70
     1
102
RTVSPropertyOp12
 70
     1
102
RTVSPropertyOp13
 70
     1
102
RTVSPropertyOp14
 70
     1
102
RTVSPropertyOp15
 70
     1
102
RTVSPropertyOp16
 70
     1
102
RTVSPropertyOp17
 70
     1
102
RTVSPropertyOp18
 70
     1
102
RTVSPropertyOp19
 70
     1
102
RTVSPropertyOp20
 70
     1
102
RTVSPropertyOp21
 70
     1
102
RTVSPropertyOp22
 70
     1
102
RTVSPropertyOp23
 70
     1
102
RTVSPropertyOp24
 70
     1
102
RTVSPropertyOp25
 70
     1
102
RTVSPropertyOp26
 70
     1
102
RTVSPropertyOp27
 70
     1
102
RTVSPropertyOp28
 70
     1
102
RTVSPropertyOp29
 70
     1
102
RTVSPropertyOp30
 70
     1
102
RTVSPropertyOp31
 70
     1
102
RTVSPropertyOp32
 70
     1
102
RTVSPropertyOp33
 70
     1
102
RTVSPropertyOp34
 70
     1
102
RTVSPropertyOp35
 70
     1
102
RTVSPropertyOp36
 70
     1
102
RTVSPropertyOp37
 70
     1
102
RTVSPropertyOp38
 70
     1
102
RTVSPropertyOp39
 70
     1
102
RTVSPropertyOp40
 70
     1
102
RTVSPropertyOp41
 70
     1
102
RTVSPropertyOp42
 70
     1
102
RTVSPropertyOp43
 70
     1
102
RTVSPropertyOp44
 70
     1
102
RTVSPropertyOp45
 70
     1
102
RTVSPropertyOp46
 70
     1
102
RTVSPropertyOp47
 70
     1
102
RTVSPropertyOp48
 70
     1
102
RTVSPropertyOp49
 70
     1
102
RTVSPropertyOp50
 70
     1
102
RTVSPropertyOp51
 70
     0
102
RTVSPropertyOp52
 70
     0
102
RTVSPropertyOp53
 70
     1
102
RTVSPropertyOp54
 70
     1
102
RTVSPropertyOp55
 70
     1
102
RTVSPropertyOp56
 70
     1
102
RTVSPropertyOp57
 70
     1
102
RTVSPropertyOp58
 70
     1
102
RTVSPropertyOp59
 70
     1
102
RTVSPropertyOp60
 70
     1
102
RTVSPropertyOp61
 70
     1
102
RTVSPropertyOp62
 70
     1
  0
XRECORD
  5
F17
102
{ACAD_REACTORS
330
F16
102
}
330
F16
100
AcDbXrecord
280
     1
102
RTVSPost2010Prop28
280
     0
102
RTVSPost2010PropOp28
 70
     1
102
RTVSPost2010Prop29
280
     1
102
RTVSPost2010PropOp29
 70
     1
102
RTVSPost2010Prop30
280
     1
102
RTVSPost2010PropOp30
 70
     1
102
RTVSPost2010Prop31
280
     0
102
RTVSPost2010PropOp31
 70
     1
102
RTVSPost2010Prop32
280
     0
102
RTVSPost2010PropOp32
 70
     1
102
RTVSPost2010Prop33
280
     0
102
RTVSPost2010PropOp33
 70
     1
102
RTVSPost2010Prop34
280
     0
102
RTVSPost2010PropOp34
 70
     1
102
RTVSPost2010Prop35
280
     0
102
RTVSPost2010PropOp35
 70
     1
102
RTVSPost2010Prop36
280
     0
102
RTVSPost2010PropOp36
 70
     1
102
RTVSPost2010Prop37
 90
       50
102
RTVSPost2010PropOp37
 70
     1
102
RTVSPost2010Prop38
140
0.0
102
RTVSPost2010PropOp38
 70
     1
102
RTVSPost2010Prop39
140
1.0
102
RTVSPost2010PropOp39
 70
     1
102
RTVSPost2010Prop40
 90
        0
102
RTVSPost2010PropOp40
 70
     1
102
RTVSPost2010Prop41ColorIndex
 90
       18
102
RTVSPost2010Prop41ColorRGB
 90
        0
102
RTVSPost2010PropOp41
 70
     1
102
RTVSPost2010Prop42
 90
       50
102
RTVSPost2010PropOp42
 70
     1
102
RTVSPost2010Prop43
 90
        3
102
RTVSPost2010PropOp43
 70
     1
102
RTVSPost2010Prop44ColorIndex
 90
        5
102
RTVSPost2010Prop44ColorRGB
 90
      255
102
RTVSPost2010PropOp44
 70
     1
102
RTVSPost2010Prop45
280
     0
102
RTVSPost2010PropOp45
 70
     1
102
RTVSPost2010Prop46
 90
       50
102
RTVSPost2010PropOp46
 70
     1
102
RTVSPost2010Prop47
 90
       50
102
RTVSPost2010PropOp47
 70
     1
102
RTVSPost2010Prop48
 90
       50
102
RTVSPost2010PropOp48
 70
     1
102
RTVSPost2010Prop49
280
     0
102
RTVSPost2010PropOp49
 70
     1
102
RTVSPost2010Prop50
 90
       50
102
RTVSPost2010PropOp50
 70
     1
102
RTVSPost2010Prop51ColorIndex
 90
      256
102
RTVSPost2010Prop51ColorRGB
 90
-16777216
102
RTVSPost2010PropOp51
 70
     0
102
RTVSPost2010Prop52
140
1.0
102
RTVSPost2010PropOp52
 70
     0
102
RTVSPost2010Prop53
 90
        2
102
RTVSPost2010PropOp53
 70
     1
102
RTVSPost2010Prop54
  1
strokes_ogs.tif
102
RTVSPost2010PropOp54
 70
     1
102
RTVSPost2010Prop55
280
     0
102
RTVSPost2010PropOp55
 70
     1
102
RTVSPost2010Prop56
140
1.0
102
RTVSPost2010PropOp56
 70
     1
102
RTVSPost2010Prop57
140
1.0
102
RTVSPost2010PropOp57
 70
     1
102
RTVSPropertyOp0
 70
     1
102
RTVSPropertyOp1
 70
     1
102
RTVSPropertyOp2
 70
     1
102
RTVSPropertyOp3
 70
     1
102
RTVSPropertyOp4
 70
     1
102
RTVSPropertyOp5
 70
     1
102
RTVSPropertyOp6
 70
     1
102
RTVSPropertyOp7
 70
     1
102
RTVSPropertyOp8
 70
     1
102
RTVSPropertyOp9
 70
     1
102
RTVSPropertyOp10
 70
     1
102
RTVSPropertyOp11
 70
     1
102
RTVSPropertyOp12
 70
     1
102
RTVSPropertyOp13
 70
     1
102
RTVSPropertyOp14
 70
     1
102
RTVSPropertyOp15
 70
     1
102
RTVSPropertyOp16
 70
     1
102
RTVSPropertyOp17
 70
     1
102
RTVSPropertyOp18
 70
     1
102
RTVSPropertyOp19
 70
     1
102
RTVSPropertyOp20
 70
     1
102
RTVSPropertyOp21
 70
     1
102
RTVSPropertyOp22
 70
     1
102
RTVSPropertyOp23
 70
     1
102
RTVSPropertyOp24
 70
     1
102
RTVSPropertyOp25
 70
     1
102
RTVSPropertyOp26
 70
     1
102
RTVSPropertyOp27
 70
     1
102
RTVSPropertyOp28
 70
     1
102
RTVSPropertyOp29
 70
     1
102
RTVSPropertyOp30
 70
     1
102
RTVSPropertyOp31
 70
     1
102
RTVSPropertyOp32
 70
     1
102
RTVSPropertyOp33
 70
     1
102
RTVSPropertyOp34
 70
     1
102
RTVSPropertyOp35
 70
     1
102
RTVSPropertyOp36
 70
     1
102
RTVSPropertyOp37
 70
     1
102
RTVSPropertyOp38
 70
     1
102
RTVSPropertyOp39
 70
     1
102
RTVSPropertyOp40
 70
     1
102
RTVSPropertyOp41
 70
     1
102
RTVSPropertyOp42
 70
     1
102
RTVSPropertyOp43
 70
     1
102
RTVSPropertyOp44
 70
     1
102
RTVSPropertyOp45
 70
     1
102
RTVSPropertyOp46
 70
     1
102
RTVSPropertyOp47
 70
     1
102
RTVSPropertyOp48
 70
     1
102
RTVSPropertyOp49
 70
     1
102
RTVSPropertyOp50
 70
     1
102
RTVSPropertyOp51
 70
     0
102
RTVSPropertyOp52
 70
     0
102
RTVSPropertyOp53
 70
     1
102
RTVSPropertyOp54
 70
     1
102
RTVSPropertyOp55
 70
     1
102
RTVSPropertyOp56
 70
     1
102
RTVSPropertyOp57
 70
     1
102
RTVSPropertyOp58
 70
     1
102
RTVSPropertyOp59
 70
     1
102
RTVSPropertyOp60
 70
     1
102
RTVSPropertyOp61
 70
     1
102
RTVSPropertyOp62
 70
     1
  0
XRECORD
  5
F1B
102
{ACAD_REACTORS
330
F1A
102
}
330
F1A
100
AcDbXrecord
280
     1
102
RTVSPost2010Prop28
280
     0
102
RTVSPost2010PropOp28
 70
     1
102
RTVSPost2010Prop29
280
     1
102
RTVSPost2010PropOp29
 70
     1
102
RTVSPost2010Prop30
280
     1
102
RTVSPost2010PropOp30
 70
     1
102
RTVSPost2010Prop31
280
     0
102
RTVSPost2010PropOp31
 70
     1
102
RTVSPost2010Prop32
280
     0
102
RTVSPost2010PropOp32
 70
     1
102
RTVSPost2010Prop33
280
     0
102
RTVSPost2010PropOp33
 70
     1
102
RTVSPost2010Prop34
280
     0
102
RTVSPost2010PropOp34
 70
     1
102
RTVSPost2010Prop35
280
     0
102
RTVSPost2010PropOp35
 70
     1
102
RTVSPost2010Prop36
280
     0
102
RTVSPost2010PropOp36
 70
     1
102
RTVSPost2010Prop37
 90
       50
102
RTVSPost2010PropOp37
 70
     1
102
RTVSPost2010Prop38
140
0.0
102
RTVSPost2010PropOp38
 70
     1
102
RTVSPost2010Prop39
140
1.0
102
RTVSPost2010PropOp39
 70
     1
102
RTVSPost2010Prop40
 90
        0
102
RTVSPost2010PropOp40
 70
     1
102
RTVSPost2010Prop41ColorIndex
 90
       18
102
RTVSPost2010Prop41ColorRGB
 90
        0
102
RTVSPost2010PropOp41
 70
     1
102
RTVSPost2010Prop42
 90
       50
102
RTVSPost2010PropOp42
 70
     1
102
RTVSPost2010Prop43
 90
        3
102
RTVSPost2010PropOp43
 70
     1
102
RTVSPost2010Prop44ColorIndex
 90
        5
102
RTVSPost2010Prop44ColorRGB
 90
      255
102
RTVSPost2010PropOp44
 70
     1
102
RTVSPost2010Prop45
280
     0
102
RTVSPost2010PropOp45
 70
     1
102
RTVSPost2010Prop46
 90
       50
102
RTVSPost2010PropOp46
 70
     1
102
RTVSPost2010Prop47
 90
       50
102
RTVSPost2010PropOp47
 70
     1
102
RTVSPost2010Prop48
 90
       50
102
RTVSPost2010PropOp48
 70
     1
102
RTVSPost2010Prop49
280
     0
102
RTVSPost2010PropOp49
 70
     1
102
RTVSPost2010Prop50
 90
       50
102
RTVSPost2010PropOp50
 70
     1
102
RTVSPost2010Prop51ColorIndex
 90
      256
102
RTVSPost2010Prop51ColorRGB
 90
-16777216
102
RTVSPost2010PropOp51
 70
     0
102
RTVSPost2010Prop52
140
1.0
102
RTVSPost2010PropOp52
 70
     0
102
RTVSPost2010Prop53
 90
        2
102
RTVSPost2010PropOp53
 70
     1
102
RTVSPost2010Prop54
  1
strokes_ogs.tif
102
RTVSPost2010PropOp54
 70
     1
102
RTVSPost2010Prop55
280
     0
102
RTVSPost2010PropOp55
 70
     1
102
RTVSPost2010Prop56
140
1.0
102
RTVSPost2010PropOp56
 70
     1
102
RTVSPost2010Prop57
140
1.0
102
RTVSPost2010PropOp57
 70
     1
102
RTVSPropertyOp0
 70
     1
102
RTVSPropertyOp1
 70
     1
102
RTVSPropertyOp2
 70
     1
102
RTVSPropertyOp3
 70
     1
102
RTVSPropertyOp4
 70
     1
102
RTVSPropertyOp5
 70
     1
102
RTVSPropertyOp6
 70
     1
102
RTVSPropertyOp7
 70
     1
102
RTVSPropertyOp8
 70
     1
102
RTVSPropertyOp9
 70
     1
102
RTVSPropertyOp10
 70
     1
102
RTVSPropertyOp11
 70
     1
102
RTVSPropertyOp12
 70
     1
102
RTVSPropertyOp13
 70
     1
102
RTVSPropertyOp14
 70
     1
102
RTVSPropertyOp15
 70
     1
102
RTVSPropertyOp16
 70
     1
102
RTVSPropertyOp17
 70
     1
102
RTVSPropertyOp18
 70
     1
102
RTVSPropertyOp19
 70
     1
102
RTVSPropertyOp20
 70
     1
102
RTVSPropertyOp21
 70
     1
102
RTVSPropertyOp22
 70
     1
102
RTVSPropertyOp23
 70
     1
102
RTVSPropertyOp24
 70
     1
102
RTVSPropertyOp25
 70
     1
102
RTVSPropertyOp26
 70
     1
102
RTVSPropertyOp27
 70
     1
102
RTVSPropertyOp28
 70
     1
102
RTVSPropertyOp29
 70
     1
102
RTVSPropertyOp30
 70
     1
102
RTVSPropertyOp31
 70
     1
102
RTVSPropertyOp32
 70
     1
102
RTVSPropertyOp33
 70
     1
102
RTVSPropertyOp34
 70
     1
102
RTVSPropertyOp35
 70
     1
102
RTVSPropertyOp36
 70
     1
102
RTVSPropertyOp37
 70
     1
102
RTVSPropertyOp38
 70
     1
102
RTVSPropertyOp39
 70
     1
102
RTVSPropertyOp40
 70
     1
102
RTVSPropertyOp41
 70
     1
102
RTVSPropertyOp42
 70
     1
102
RTVSPropertyOp43
 70
     1
102
RTVSPropertyOp44
 70
     1
102
RTVSPropertyOp45
 70
     1
102
RTVSPropertyOp46
 70
     1
102
RTVSPropertyOp47
 70
     1
102
RTVSPropertyOp48
 70
     1
102
RTVSPropertyOp49
 70
     1
102
RTVSPropertyOp50
 70
     1
102
RTVSPropertyOp51
 70
     0
102
RTVSPropertyOp52
 70
     0
102
RTVSPropertyOp53
 70
     1
102
RTVSPropertyOp54
 70
     1
102
RTVSPropertyOp55
 70
     1
102
RTVSPropertyOp56
 70
     1
102
RTVSPropertyOp57
 70
     1
102
RTVSPropertyOp58
 70
     1
102
RTVSPropertyOp59
 70
     1
102
RTVSPropertyOp60
 70
     1
102
RTVSPropertyOp61
 70
     1
102
RTVSPropertyOp62
 70
     1
  0
XRECORD
  5
F2B
102
{ACAD_REACTORS
330
F2A
102
}
330
F2A
100
AcDbXrecord
280
     1
102
RTVSPost2010Prop28
280
     0
102
RTVSPost2010PropOp28
 70
     1
102
RTVSPost2010Prop29
280
     1
102
RTVSPost2010PropOp29
 70
     1
102
RTVSPost2010Prop30
280
     1
102
RTVSPost2010PropOp30
 70
     1
102
RTVSPost2010Prop31
280
     0
102
RTVSPost2010PropOp31
 70
     1
102
RTVSPost2010Prop32
280
     0
102
RTVSPost2010PropOp32
 70
     1
102
RTVSPost2010Prop33
280
     0
102
RTVSPost2010PropOp33
 70
     1
102
RTVSPost2010Prop34
280
     0
102
RTVSPost2010PropOp34
 70
     1
102
RTVSPost2010Prop35
280
     0
102
RTVSPost2010PropOp35
 70
     1
102
RTVSPost2010Prop36
280
     0
102
RTVSPost2010PropOp36
 70
     1
102
RTVSPost2010Prop37
 90
       50
102
RTVSPost2010PropOp37
 70
     1
102
RTVSPost2010Prop38
140
0.0
102
RTVSPost2010PropOp38
 70
     1
102
RTVSPost2010Prop39
140
1.0
102
RTVSPost2010PropOp39
 70
     1
102
RTVSPost2010Prop40
 90
        0
102
RTVSPost2010PropOp40
 70
     1
102
RTVSPost2010Prop41ColorIndex
 90
       18
102
RTVSPost2010Prop41ColorRGB
 90
        0
102
RTVSPost2010PropOp41
 70
     1
102
RTVSPost2010Prop42
 90
       50
102
RTVSPost2010PropOp42
 70
     1
102
RTVSPost2010Prop43
 90
        3
102
RTVSPost2010PropOp43
 70
     1
102
RTVSPost2010Prop44ColorIndex
 90
        5
102
RTVSPost2010Prop44ColorRGB
 90
      255
102
RTVSPost2010PropOp44
 70
     1
102
RTVSPost2010Prop45
280
     0
102
RTVSPost2010PropOp45
 70
     1
102
RTVSPost2010Prop46
 90
       50
102
RTVSPost2010PropOp46
 70
     1
102
RTVSPost2010Prop47
 90
       50
102
RTVSPost2010PropOp47
 70
     1
102
RTVSPost2010Prop48
 90
       50
102
RTVSPost2010PropOp48
 70
     1
102
RTVSPost2010Prop49
280
     0
102
RTVSPost2010PropOp49
 70
     1
102
RTVSPost2010Prop50
 90
       50
102
RTVSPost2010PropOp50
 70
     1
102
RTVSPost2010Prop51ColorIndex
 90
      256
102
RTVSPost2010Prop51ColorRGB
 90
-16777216
102
RTVSPost2010PropOp51
 70
     0
102
RTVSPost2010Prop52
140
1.0
102
RTVSPost2010PropOp52
 70
     0
102
RTVSPost2010Prop53
 90
        2
102
RTVSPost2010PropOp53
 70
     1
102
RTVSPost2010Prop54
  1
strokes_ogs.tif
102
RTVSPost2010PropOp54
 70
     1
102
RTVSPost2010Prop55
280
     0
102
RTVSPost2010PropOp55
 70
     1
102
RTVSPost2010Prop56
140
1.0
102
RTVSPost2010PropOp56
 70
     1
102
RTVSPost2010Prop57
140
1.0
102
RTVSPost2010PropOp57
 70
     1
102
RTVSPropertyOp0
 70
     0
102
RTVSPropertyOp1
 70
     0
102
RTVSPropertyOp2
 70
     0
102
RTVSPropertyOp3
 70
     0
102
RTVSPropertyOp4
 70
     0
102
RTVSPropertyOp5
 70
     0
102
RTVSPropertyOp6
 70
     0
102
RTVSPropertyOp7
 70
     0
102
RTVSPropertyOp8
 70
     0
102
RTVSPropertyOp9
 70
     0
102
RTVSPropertyOp10
 70
     0
102
RTVSPropertyOp11
 70
     0
102
RTVSPropertyOp12
 70
     0
102
RTVSPropertyOp13
 70
     0
102
RTVSPropertyOp14
 70
     2
102
RTVSPropertyOp15
 70
     0
102
RTVSPropertyOp16
 70
     0
102
RTVSPropertyOp17
 70
     0
102
RTVSPropertyOp18
 70
     0
102
RTVSPropertyOp19
 70
     0
102
RTVSPropertyOp20
 70
     0
102
RTVSPropertyOp21
 70
     0
102
RTVSPropertyOp22
 70
     0
102
RTVSPropertyOp23
 70
     0
102
RTVSPropertyOp24
 70
     0
102
RTVSPropertyOp25
 70
     0
102
RTVSPropertyOp26
 70
     0
102
RTVSPropertyOp27
 70
     0
102
RTVSPropertyOp28
 70
     1
102
RTVSPropertyOp29
 70
     1
102
RTVSPropertyOp30
 70
     1
102
RTVSPropertyOp31
 70
     1
102
RTVSPropertyOp32
 70
     1
102
RTVSPropertyOp33
 70
     1
102
RTVSPropertyOp34
 70
     1
102
RTVSPropertyOp35
 70
     1
102
RTVSPropertyOp36
 70
     1
102
RTVSPropertyOp37
 70
     1
102
RTVSPropertyOp38
 70
     1
102
RTVSPropertyOp39
 70
     1
102
RTVSPropertyOp40
 70
     1
102
RTVSPropertyOp41
 70
     1
102
RTVSPropertyOp42
 70
     1
102
RTVSPropertyOp43
 70
     1
102
RTVSPropertyOp44
 70
     1
102
RTVSPropertyOp45
 70
     1
102
RTVSPropertyOp46
 70
     1
102
RTVSPropertyOp47
 70
     1
102
RTVSPropertyOp48
 70
     1
102
RTVSPropertyOp49
 70
     1
102
RTVSPropertyOp50
 70
     1
102
RTVSPropertyOp51
 70
     0
102
RTVSPropertyOp52
 70
     0
102
RTVSPropertyOp53
 70
     1
102
RTVSPropertyOp54
 70
     1
102
RTVSPropertyOp55
 70
     1
102
RTVSPropertyOp56
 70
     1
102
RTVSPropertyOp57
 70
     1
102
RTVSPropertyOp58
 70
     1
102
RTVSPropertyOp59
 70
     1
102
RTVSPropertyOp60
 70
     1
102
RTVSPropertyOp61
 70
     1
102
RTVSPropertyOp62
 70
     1
  0
XRECORD
  5
F23
102
{ACAD_REACTORS
330
F22
102
}
330
F22
100
AcDbXrecord
280
     1
102
RTVSPost2010Prop28
280
     0
102
RTVSPost2010PropOp28
 70
     1
102
RTVSPost2010Prop29
280
     1
102
RTVSPost2010PropOp29
 70
     1
102
RTVSPost2010Prop30
280
     1
102
RTVSPost2010PropOp30
 70
     1
102
RTVSPost2010Prop31
280
     0
102
RTVSPost2010PropOp31
 70
     1
102
RTVSPost2010Prop32
280
     0
102
RTVSPost2010PropOp32
 70
     1
102
RTVSPost2010Prop33
280
     0
102
RTVSPost2010PropOp33
 70
     1
102
RTVSPost2010Prop34
280
     0
102
RTVSPost2010PropOp34
 70
     1
102
RTVSPost2010Prop35
280
     0
102
RTVSPost2010PropOp35
 70
     1
102
RTVSPost2010Prop36
280
     0
102
RTVSPost2010PropOp36
 70
     1
102
RTVSPost2010Prop37
 90
       50
102
RTVSPost2010PropOp37
 70
     1
102
RTVSPost2010Prop38
140
0.0
102
RTVSPost2010PropOp38
 70
     1
102
RTVSPost2010Prop39
140
1.0
102
RTVSPost2010PropOp39
 70
     1
102
RTVSPost2010Prop40
 90
        0
102
RTVSPost2010PropOp40
 70
     1
102
RTVSPost2010Prop41ColorIndex
 90
       18
102
RTVSPost2010Prop41ColorRGB
 90
        0
102
RTVSPost2010PropOp41
 70
     1
102
RTVSPost2010Prop42
 90
       50
102
RTVSPost2010PropOp42
 70
     1
102
RTVSPost2010Prop43
 90
        3
102
RTVSPost2010PropOp43
 70
     1
102
RTVSPost2010Prop44ColorIndex
 90
        5
102
RTVSPost2010Prop44ColorRGB
 90
      255
102
RTVSPost2010PropOp44
 70
     1
102
RTVSPost2010Prop45
280
     0
102
RTVSPost2010PropOp45
 70
     1
102
RTVSPost2010Prop46
 90
       50
102
RTVSPost2010PropOp46
 70
     1
102
RTVSPost2010Prop47
 90
       50
102
RTVSPost2010PropOp47
 70
     1
102
RTVSPost2010Prop48
 90
       50
102
RTVSPost2010PropOp48
 70
     1
102
RTVSPost2010Prop49
280
     0
102
RTVSPost2010PropOp49
 70
     1
102
RTVSPost2010Prop50
 90
       50
102
RTVSPost2010PropOp50
 70
     1
102
RTVSPost2010Prop51ColorIndex
 90
      256
102
RTVSPost2010Prop51ColorRGB
 90
-16777216
102
RTVSPost2010PropOp51
 70
     0
102
RTVSPost2010Prop52
140
1.0
102
RTVSPost2010PropOp52
 70
     0
102
RTVSPost2010Prop53
 90
        2
102
RTVSPost2010PropOp53
 70
     1
102
RTVSPost2010Prop54
  1
strokes_ogs.tif
102
RTVSPost2010PropOp54
 70
     1
102
RTVSPost2010Prop55
280
     0
102
RTVSPost2010PropOp55
 70
     1
102
RTVSPost2010Prop56
140
1.0
102
RTVSPost2010PropOp56
 70
     1
102
RTVSPost2010Prop57
140
1.0
102
RTVSPost2010PropOp57
 70
     1
102
RTVSPropertyOp0
 70
     1
102
RTVSPropertyOp1
 70
     1
102
RTVSPropertyOp2
 70
     1
102
RTVSPropertyOp3
 70
     1
102
RTVSPropertyOp4
 70
     1
102
RTVSPropertyOp5
 70
     1
102
RTVSPropertyOp6
 70
     1
102
RTVSPropertyOp7
 70
     1
102
RTVSPropertyOp8
 70
     1
102
RTVSPropertyOp9
 70
     1
102
RTVSPropertyOp10
 70
     1
102
RTVSPropertyOp11
 70
     1
102
RTVSPropertyOp12
 70
     1
102
RTVSPropertyOp13
 70
     1
102
RTVSPropertyOp14
 70
     1
102
RTVSPropertyOp15
 70
     1
102
RTVSPropertyOp16
 70
     1
102
RTVSPropertyOp17
 70
     1
102
RTVSPropertyOp18
 70
     1
102
RTVSPropertyOp19
 70
     1
102
RTVSPropertyOp20
 70
     1
102
RTVSPropertyOp21
 70
     1
102
RTVSPropertyOp22
 70
     1
102
RTVSPropertyOp23
 70
     1
102
RTVSPropertyOp24
 70
     1
102
RTVSPropertyOp25
 70
     1
102
RTVSPropertyOp26
 70
     1
102
RTVSPropertyOp27
 70
     1
102
RTVSPropertyOp28
 70
     1
102
RTVSPropertyOp29
 70
     1
102
RTVSPropertyOp30
 70
     1
102
RTVSPropertyOp31
 70
     1
102
RTVSPropertyOp32
 70
     1
102
RTVSPropertyOp33
 70
     1
102
RTVSPropertyOp34
 70
     1
102
RTVSPropertyOp35
 70
     1
102
RTVSPropertyOp36
 70
     1
102
RTVSPropertyOp37
 70
     1
102
RTVSPropertyOp38
 70
     1
102
RTVSPropertyOp39
 70
     1
102
RTVSPropertyOp40
 70
     1
102
RTVSPropertyOp41
 70
     1
102
RTVSPropertyOp42
 70
     1
102
RTVSPropertyOp43
 70
     1
102
RTVSPropertyOp44
 70
     1
102
RTVSPropertyOp45
 70
     1
102
RTVSPropertyOp46
 70
     1
102
RTVSPropertyOp47
 70
     1
102
RTVSPropertyOp48
 70
     1
102
RTVSPropertyOp49
 70
     1
102
RTVSPropertyOp50
 70
     1
102
RTVSPropertyOp51
 70
     0
102
RTVSPropertyOp52
 70
     0
102
RTVSPropertyOp53
 70
     1
102
RTVSPropertyOp54
 70
     1
102
RTVSPropertyOp55
 70
     1
102
RTVSPropertyOp56
 70
     1
102
RTVSPropertyOp57
 70
     1
102
RTVSPropertyOp58
 70
     1
102
RTVSPropertyOp59
 70
     1
102
RTVSPropertyOp60
 70
     1
102
RTVSPropertyOp61
 70
     1
102
RTVSPropertyOp62
 70
     1
  0
XRECORD
  5
F07
102
{ACAD_REACTORS
330
F06
102
}
330
F06
100
AcDbXrecord
280
     1
102
RTVSPost2010Prop28
280
     0
102
RTVSPost2010PropOp28
 70
     1
102
RTVSPost2010Prop29
280
     1
102
RTVSPost2010PropOp29
 70
     1
102
RTVSPost2010Prop30
280
     1
102
RTVSPost2010PropOp30
 70
     1
102
RTVSPost2010Prop31
280
     0
102
RTVSPost2010PropOp31
 70
     1
102
RTVSPost2010Prop32
280
     0
102
RTVSPost2010PropOp32
 70
     1
102
RTVSPost2010Prop33
280
     0
102
RTVSPost2010PropOp33
 70
     1
102
RTVSPost2010Prop34
280
     0
102
RTVSPost2010PropOp34
 70
     1
102
RTVSPost2010Prop35
280
     0
102
RTVSPost2010PropOp35
 70
     1
102
RTVSPost2010Prop36
280
     0
102
RTVSPost2010PropOp36
 70
     1
102
RTVSPost2010Prop37
 90
       50
102
RTVSPost2010PropOp37
 70
     1
102
RTVSPost2010Prop38
140
0.0
102
RTVSPost2010PropOp38
 70
     1
102
RTVSPost2010Prop39
140
1.0
102
RTVSPost2010PropOp39
 70
     1
102
RTVSPost2010Prop40
 90
        0
102
RTVSPost2010PropOp40
 70
     1
102
RTVSPost2010Prop41ColorIndex
 90
       18
102
RTVSPost2010Prop41ColorRGB
 90
        0
102
RTVSPost2010PropOp41
 70
     1
102
RTVSPost2010Prop42
 90
       50
102
RTVSPost2010PropOp42
 70
     1
102
RTVSPost2010Prop43
 90
        3
102
RTVSPost2010PropOp43
 70
     1
102
RTVSPost2010Prop44ColorIndex
 90
        5
102
RTVSPost2010Prop44ColorRGB
 90
      255
102
RTVSPost2010PropOp44
 70
     1
102
RTVSPost2010Prop45
280
     0
102
RTVSPost2010PropOp45
 70
     1
102
RTVSPost2010Prop46
 90
       50
102
RTVSPost2010PropOp46
 70
     1
102
RTVSPost2010Prop47
 90
       50
102
RTVSPost2010PropOp47
 70
     1
102
RTVSPost2010Prop48
 90
       50
102
RTVSPost2010PropOp48
 70
     1
102
RTVSPost2010Prop49
280
     0
102
RTVSPost2010PropOp49
 70
     1
102
RTVSPost2010Prop50
 90
       50
102
RTVSPost2010PropOp50
 70
     1
102
RTVSPost2010Prop51ColorIndex
 90
      256
102
RTVSPost2010Prop51ColorRGB
 90
-16777216
102
RTVSPost2010PropOp51
 70
     0
102
RTVSPost2010Prop52
140
1.0
102
RTVSPost2010PropOp52
 70
     0
102
RTVSPost2010Prop53
 90
        2
102
RTVSPost2010PropOp53
 70
     1
102
RTVSPost2010Prop54
  1
strokes_ogs.tif
102
RTVSPost2010PropOp54
 70
     1
102
RTVSPost2010Prop55
280
     0
102
RTVSPost2010PropOp55
 70
     1
102
RTVSPost2010Prop56
140
1.0
102
RTVSPost2010PropOp56
 70
     1
102
RTVSPost2010Prop57
140
1.0
102
RTVSPost2010PropOp57
 70
     1
102
RTVSPropertyOp0
 70
     1
102
RTVSPropertyOp1
 70
     1
102
RTVSPropertyOp2
 70
     1
102
RTVSPropertyOp3
 70
     1
102
RTVSPropertyOp4
 70
     1
102
RTVSPropertyOp5
 70
     1
102
RTVSPropertyOp6
 70
     1
102
RTVSPropertyOp7
 70
     1
102
RTVSPropertyOp8
 70
     1
102
RTVSPropertyOp9
 70
     1
102
RTVSPropertyOp10
 70
     1
102
RTVSPropertyOp11
 70
     1
102
RTVSPropertyOp12
 70
     1
102
RTVSPropertyOp13
 70
     1
102
RTVSPropertyOp14
 70
     1
102
RTVSPropertyOp15
 70
     1
102
RTVSPropertyOp16
 70
     1
102
RTVSPropertyOp17
 70
     1
102
RTVSPropertyOp18
 70
     1
102
RTVSPropertyOp19
 70
     1
102
RTVSPropertyOp20
 70
     1
102
RTVSPropertyOp21
 70
     1
102
RTVSPropertyOp22
 70
     1
102
RTVSPropertyOp23
 70
     1
102
RTVSPropertyOp24
 70
     1
102
RTVSPropertyOp25
 70
     1
102
RTVSPropertyOp26
 70
     1
102
RTVSPropertyOp27
 70
     1
102
RTVSPropertyOp28
 70
     1
102
RTVSPropertyOp29
 70
     1
102
RTVSPropertyOp30
 70
     1
102
RTVSPropertyOp31
 70
     1
102
RTVSPropertyOp32
 70
     1
102
RTVSPropertyOp33
 70
     1
102
RTVSPropertyOp34
 70
     1
102
RTVSPropertyOp35
 70
     1
102
RTVSPropertyOp36
 70
     1
102
RTVSPropertyOp37
 70
     1
102
RTVSPropertyOp38
 70
     1
102
RTVSPropertyOp39
 70
     1
102
RTVSPropertyOp40
 70
     1
102
RTVSPropertyOp41
 70
     1
102
RTVSPropertyOp42
 70
     1
102
RTVSPropertyOp43
 70
     1
102
RTVSPropertyOp44
 70
     1
102
RTVSPropertyOp45
 70
     1
102
RTVSPropertyOp46
 70
     1
102
RTVSPropertyOp47
 70
     1
102
RTVSPropertyOp48
 70
     1
102
RTVSPropertyOp49
 70
     1
102
RTVSPropertyOp50
 70
     1
102
RTVSPropertyOp51
 70
     0
102
RTVSPropertyOp52
 70
     0
102
RTVSPropertyOp53
 70
     1
102
RTVSPropertyOp54
 70
     1
102
RTVSPropertyOp55
 70
     1
102
RTVSPropertyOp56
 70
     1
102
RTVSPropertyOp57
 70
     1
102
RTVSPropertyOp58
 70
     1
102
RTVSPropertyOp59
 70
     1
102
RTVSPropertyOp60
 70
     1
102
RTVSPropertyOp61
 70
     1
102
RTVSPropertyOp62
 70
     1
  0
XRECORD
  5
F09
102
{ACAD_REACTORS
330
F08
102
}
330
F08
100
AcDbXrecord
280
     1
102
RTVSPost2010Prop28
280
     0
102
RTVSPost2010PropOp28
 70
     1
102
RTVSPost2010Prop29
280
     1
102
RTVSPost2010PropOp29
 70
     1
102
RTVSPost2010Prop30
280
     1
102
RTVSPost2010PropOp30
 70
     1
102
RTVSPost2010Prop31
280
     0
102
RTVSPost2010PropOp31
 70
     1
102
RTVSPost2010Prop32
280
     0
102
RTVSPost2010PropOp32
 70
     1
102
RTVSPost2010Prop33
280
     0
102
RTVSPost2010PropOp33
 70
     1
102
RTVSPost2010Prop34
280
     0
102
RTVSPost2010PropOp34
 70
     1
102
RTVSPost2010Prop35
280
     0
102
RTVSPost2010PropOp35
 70
     1
102
RTVSPost2010Prop36
280
     0
102
RTVSPost2010PropOp36
 70
     1
102
RTVSPost2010Prop37
 90
       50
102
RTVSPost2010PropOp37
 70
     1
102
RTVSPost2010Prop38
140
0.0
102
RTVSPost2010PropOp38
 70
     1
102
RTVSPost2010Prop39
140
1.0
102
RTVSPost2010PropOp39
 70
     1
102
RTVSPost2010Prop40
 90
        0
102
RTVSPost2010PropOp40
 70
     1
102
RTVSPost2010Prop41ColorIndex
 90
       18
102
RTVSPost2010Prop41ColorRGB
 90
        0
102
RTVSPost2010PropOp41
 70
     1
102
RTVSPost2010Prop42
 90
       50
102
RTVSPost2010PropOp42
 70
     1
102
RTVSPost2010Prop43
 90
        3
102
RTVSPost2010PropOp43
 70
     1
102
RTVSPost2010Prop44ColorIndex
 90
        5
102
RTVSPost2010Prop44ColorRGB
 90
      255
102
RTVSPost2010PropOp44
 70
     1
102
RTVSPost2010Prop45
280
     0
102
RTVSPost2010PropOp45
 70
     1
102
RTVSPost2010Prop46
 90
       50
102
RTVSPost2010PropOp46
 70
     1
102
RTVSPost2010Prop47
 90
       50
102
RTVSPost2010PropOp47
 70
     1
102
RTVSPost2010Prop48
 90
       50
102
RTVSPost2010PropOp48
 70
     1
102
RTVSPost2010Prop49
280
     0
102
RTVSPost2010PropOp49
 70
     1
102
RTVSPost2010Prop50
 90
       50
102
RTVSPost2010PropOp50
 70
     1
102
RTVSPost2010Prop51ColorIndex
 90
      256
102
RTVSPost2010Prop51ColorRGB
 90
-16777216
102
RTVSPost2010PropOp51
 70
     0
102
RTVSPost2010Prop52
140
1.0
102
RTVSPost2010PropOp52
 70
     0
102
RTVSPost2010Prop53
 90
        2
102
RTVSPost2010PropOp53
 70
     1
102
RTVSPost2010Prop54
  1
strokes_ogs.tif
102
RTVSPost2010PropOp54
 70
     1
102
RTVSPost2010Prop55
280
     0
102
RTVSPost2010PropOp55
 70
     1
102
RTVSPost2010Prop56
140
1.0
102
RTVSPost2010PropOp56
 70
     1
102
RTVSPost2010Prop57
140
1.0
102
RTVSPost2010PropOp57
 70
     1
102
RTVSPropertyOp0
 70
     1
102
RTVSPropertyOp1
 70
     1
102
RTVSPropertyOp2
 70
     1
102
RTVSPropertyOp3
 70
     1
102
RTVSPropertyOp4
 70
     1
102
RTVSPropertyOp5
 70
     1
102
RTVSPropertyOp6
 70
     1
102
RTVSPropertyOp7
 70
     1
102
RTVSPropertyOp8
 70
     1
102
RTVSPropertyOp9
 70
     1
102
RTVSPropertyOp10
 70
     1
102
RTVSPropertyOp11
 70
     1
102
RTVSPropertyOp12
 70
     1
102
RTVSPropertyOp13
 70
     1
102
RTVSPropertyOp14
 70
     1
102
RTVSPropertyOp15
 70
     1
102
RTVSPropertyOp16
 70
     1
102
RTVSPropertyOp17
 70
     1
102
RTVSPropertyOp18
 70
     1
102
RTVSPropertyOp19
 70
     1
102
RTVSPropertyOp20
 70
     1
102
RTVSPropertyOp21
 70
     1
102
RTVSPropertyOp22
 70
     1
102
RTVSPropertyOp23
 70
     1
102
RTVSPropertyOp24
 70
     1
102
RTVSPropertyOp25
 70
     1
102
RTVSPropertyOp26
 70
     1
102
RTVSPropertyOp27
 70
     1
102
RTVSPropertyOp28
 70
     1
102
RTVSPropertyOp29
 70
     1
102
RTVSPropertyOp30
 70
     1
102
RTVSPropertyOp31
 70
     1
102
RTVSPropertyOp32
 70
     1
102
RTVSPropertyOp33
 70
     1
102
RTVSPropertyOp34
 70
     1
102
RTVSPropertyOp35
 70
     1
102
RTVSPropertyOp36
 70
     1
102
RTVSPropertyOp37
 70
     1
102
RTVSPropertyOp38
 70
     1
102
RTVSPropertyOp39
 70
     1
102
RTVSPropertyOp40
 70
     1
102
RTVSPropertyOp41
 70
     1
102
RTVSPropertyOp42
 70
     1
102
RTVSPropertyOp43
 70
     1
102
RTVSPropertyOp44
 70
     1
102
RTVSPropertyOp45
 70
     1
102
RTVSPropertyOp46
 70
     1
102
RTVSPropertyOp47
 70
     1
102
RTVSPropertyOp48
 70
     1
102
RTVSPropertyOp49
 70
     1
102
RTVSPropertyOp50
 70
     1
102
RTVSPropertyOp51
 70
     0
102
RTVSPropertyOp52
 70
     0
102
RTVSPropertyOp53
 70
     1
102
RTVSPropertyOp54
 70
     1
102
RTVSPropertyOp55
 70
     1
102
RTVSPropertyOp56
 70
     1
102
RTVSPropertyOp57
 70
     1
102
RTVSPropertyOp58
 70
     1
102
RTVSPropertyOp59
 70
     1
102
RTVSPropertyOp60
 70
     1
102
RTVSPropertyOp61
 70
     1
102
RTVSPropertyOp62
 70
     1
  0
XRECORD
  5
F0B
102
{ACAD_REACTORS
330
F0A
102
}
330
F0A
100
AcDbXrecord
280
     1
102
RTVSPost2010Prop28
280
     0
102
RTVSPost2010PropOp28
 70
     1
102
RTVSPost2010Prop29
280
     1
102
RTVSPost2010PropOp29
 70
     1
102
RTVSPost2010Prop30
280
     1
102
RTVSPost2010PropOp30
 70
     1
102
RTVSPost2010Prop31
280
     0
102
RTVSPost2010PropOp31
 70
     1
102
RTVSPost2010Prop32
280
     0
102
RTVSPost2010PropOp32
 70
     1
102
RTVSPost2010Prop33
280
     0
102
RTVSPost2010PropOp33
 70
     1
102
RTVSPost2010Prop34
280
     0
102
RTVSPost2010PropOp34
 70
     1
102
RTVSPost2010Prop35
280
     0
102
RTVSPost2010PropOp35
 70
     1
102
RTVSPost2010Prop36
280
     0
102
RTVSPost2010PropOp36
 70
     1
102
RTVSPost2010Prop37
 90
       50
102
RTVSPost2010PropOp37
 70
     1
102
RTVSPost2010Prop38
140
0.0
102
RTVSPost2010PropOp38
 70
     1
102
RTVSPost2010Prop39
140
1.0
102
RTVSPost2010PropOp39
 70
     1
102
RTVSPost2010Prop40
 90
        0
102
RTVSPost2010PropOp40
 70
     1
102
RTVSPost2010Prop41ColorIndex
 90
       18
102
RTVSPost2010Prop41ColorRGB
 90
        0
102
RTVSPost2010PropOp41
 70
     1
102
RTVSPost2010Prop42
 90
       50
102
RTVSPost2010PropOp42
 70
     1
102
RTVSPost2010Prop43
 90
        3
102
RTVSPost2010PropOp43
 70
     1
102
RTVSPost2010Prop44ColorIndex
 90
        5
102
RTVSPost2010Prop44ColorRGB
 90
      255
102
RTVSPost2010PropOp44
 70
     1
102
RTVSPost2010Prop45
280
     0
102
RTVSPost2010PropOp45
 70
     1
102
RTVSPost2010Prop46
 90
       50
102
RTVSPost2010PropOp46
 70
     1
102
RTVSPost2010Prop47
 90
       50
102
RTVSPost2010PropOp47
 70
     1
102
RTVSPost2010Prop48
 90
       50
102
RTVSPost2010PropOp48
 70
     1
102
RTVSPost2010Prop49
280
     0
102
RTVSPost2010PropOp49
 70
     1
102
RTVSPost2010Prop50
 90
       50
102
RTVSPost2010PropOp50
 70
     1
102
RTVSPost2010Prop51ColorIndex
 90
      256
102
RTVSPost2010Prop51ColorRGB
 90
-16777216
102
RTVSPost2010PropOp51
 70
     0
102
RTVSPost2010Prop52
140
1.0
102
RTVSPost2010PropOp52
 70
     0
102
RTVSPost2010Prop53
 90
        2
102
RTVSPost2010PropOp53
 70
     1
102
RTVSPost2010Prop54
  1
strokes_ogs.tif
102
RTVSPost2010PropOp54
 70
     1
102
RTVSPost2010Prop55
280
     0
102
RTVSPost2010PropOp55
 70
     1
102
RTVSPost2010Prop56
140
1.0
102
RTVSPost2010PropOp56
 70
     1
102
RTVSPost2010Prop57
140
1.0
102
RTVSPost2010PropOp57
 70
     1
102
RTVSPropertyOp0
 70
     1
102
RTVSPropertyOp1
 70
     1
102
RTVSPropertyOp2
 70
     1
102
RTVSPropertyOp3
 70
     1
102
RTVSPropertyOp4
 70
     1
102
RTVSPropertyOp5
 70
     1
102
RTVSPropertyOp6
 70
     1
102
RTVSPropertyOp7
 70
     1
102
RTVSPropertyOp8
 70
     1
102
RTVSPropertyOp9
 70
     1
102
RTVSPropertyOp10
 70
     1
102
RTVSPropertyOp11
 70
     1
102
RTVSPropertyOp12
 70
     1
102
RTVSPropertyOp13
 70
     1
102
RTVSPropertyOp14
 70
     1
102
RTVSPropertyOp15
 70
     1
102
RTVSPropertyOp16
 70
     1
102
RTVSPropertyOp17
 70
     1
102
RTVSPropertyOp18
 70
     1
102
RTVSPropertyOp19
 70
     1
102
RTVSPropertyOp20
 70
     1
102
RTVSPropertyOp21
 70
     1
102
RTVSPropertyOp22
 70
     1
102
RTVSPropertyOp23
 70
     1
102
RTVSPropertyOp24
 70
     1
102
RTVSPropertyOp25
 70
     1
102
RTVSPropertyOp26
 70
     1
102
RTVSPropertyOp27
 70
     1
102
RTVSPropertyOp28
 70
     1
102
RTVSPropertyOp29
 70
     1
102
RTVSPropertyOp30
 70
     1
102
RTVSPropertyOp31
 70
     1
102
RTVSPropertyOp32
 70
     1
102
RTVSPropertyOp33
 70
     1
102
RTVSPropertyOp34
 70
     1
102
RTVSPropertyOp35
 70
     1
102
RTVSPropertyOp36
 70
     1
102
RTVSPropertyOp37
 70
     1
102
RTVSPropertyOp38
 70
     1
102
RTVSPropertyOp39
 70
     1
102
RTVSPropertyOp40
 70
     1
102
RTVSPropertyOp41
 70
     1
102
RTVSPropertyOp42
 70
     1
102
RTVSPropertyOp43
 70
     1
102
RTVSPropertyOp44
 70
     1
102
RTVSPropertyOp45
 70
     1
102
RTVSPropertyOp46
 70
     1
102
RTVSPropertyOp47
 70
     1
102
RTVSPropertyOp48
 70
     1
102
RTVSPropertyOp49
 70
     1
102
RTVSPropertyOp50
 70
     1
102
RTVSPropertyOp51
 70
     0
102
RTVSPropertyOp52
 70
     0
102
RTVSPropertyOp53
 70
     1
102
RTVSPropertyOp54
 70
     1
102
RTVSPropertyOp55
 70
     1
102
RTVSPropertyOp56
 70
     1
102
RTVSPropertyOp57
 70
     1
102
RTVSPropertyOp58
 70
     1
102
RTVSPropertyOp59
 70
     1
102
RTVSPropertyOp60
 70
     1
102
RTVSPropertyOp61
 70
     1
102
RTVSPropertyOp62
 70
     1
  0
XRECORD
  5
F0D
102
{ACAD_REACTORS
330
F0C
102
}
330
F0C
100
AcDbXrecord
280
     1
102
RTVSPost2010Prop28
280
     0
102
RTVSPost2010PropOp28
 70
     1
102
RTVSPost2010Prop29
280
     1
102
RTVSPost2010PropOp29
 70
     1
102
RTVSPost2010Prop30
280
     1
102
RTVSPost2010PropOp30
 70
     1
102
RTVSPost2010Prop31
280
     0
102
RTVSPost2010PropOp31
 70
     1
102
RTVSPost2010Prop32
280
     0
102
RTVSPost2010PropOp32
 70
     1
102
RTVSPost2010Prop33
280
     0
102
RTVSPost2010PropOp33
 70
     1
102
RTVSPost2010Prop34
280
     0
102
RTVSPost2010PropOp34
 70
     1
102
RTVSPost2010Prop35
280
     0
102
RTVSPost2010PropOp35
 70
     1
102
RTVSPost2010Prop36
280
     0
102
RTVSPost2010PropOp36
 70
     1
102
RTVSPost2010Prop37
 90
       50
102
RTVSPost2010PropOp37
 70
     1
102
RTVSPost2010Prop38
140
0.0
102
RTVSPost2010PropOp38
 70
     1
102
RTVSPost2010Prop39
140
1.0
102
RTVSPost2010PropOp39
 70
     1
102
RTVSPost2010Prop40
 90
        0
102
RTVSPost2010PropOp40
 70
     1
102
RTVSPost2010Prop41ColorIndex
 90
       18
102
RTVSPost2010Prop41ColorRGB
 90
        0
102
RTVSPost2010PropOp41
 70
     1
102
RTVSPost2010Prop42
 90
       50
102
RTVSPost2010PropOp42
 70
     1
102
RTVSPost2010Prop43
 90
        3
102
RTVSPost2010PropOp43
 70
     1
102
RTVSPost2010Prop44ColorIndex
 90
        5
102
RTVSPost2010Prop44ColorRGB
 90
      255
102
RTVSPost2010PropOp44
 70
     1
102
RTVSPost2010Prop45
280
     0
102
RTVSPost2010PropOp45
 70
     1
102
RTVSPost2010Prop46
 90
       50
102
RTVSPost2010PropOp46
 70
     1
102
RTVSPost2010Prop47
 90
       50
102
RTVSPost2010PropOp47
 70
     1
102
RTVSPost2010Prop48
 90
       50
102
RTVSPost2010PropOp48
 70
     1
102
RTVSPost2010Prop49
280
     0
102
RTVSPost2010PropOp49
 70
     1
102
RTVSPost2010Prop50
 90
       50
102
RTVSPost2010PropOp50
 70
     1
102
RTVSPost2010Prop51ColorIndex
 90
      256
102
RTVSPost2010Prop51ColorRGB
 90
-16777216
102
RTVSPost2010PropOp51
 70
     0
102
RTVSPost2010Prop52
140
1.0
102
RTVSPost2010PropOp52
 70
     0
102
RTVSPost2010Prop53
 90
        2
102
RTVSPost2010PropOp53
 70
     1
102
RTVSPost2010Prop54
  1
strokes_ogs.tif
102
RTVSPost2010PropOp54
 70
     1
102
RTVSPost2010Prop55
280
     0
102
RTVSPost2010PropOp55
 70
     1
102
RTVSPost2010Prop56
140
1.0
102
RTVSPost2010PropOp56
 70
     1
102
RTVSPost2010Prop57
140
1.0
102
RTVSPost2010PropOp57
 70
     1
102
RTVSPropertyOp0
 70
     1
102
RTVSPropertyOp1
 70
     1
102
RTVSPropertyOp2
 70
     1
102
RTVSPropertyOp3
 70
     1
102
RTVSPropertyOp4
 70
     1
102
RTVSPropertyOp5
 70
     1
102
RTVSPropertyOp6
 70
     1
102
RTVSPropertyOp7
 70
     1
102
RTVSPropertyOp8
 70
     1
102
RTVSPropertyOp9
 70
     1
102
RTVSPropertyOp10
 70
     1
102
RTVSPropertyOp11
 70
     1
102
RTVSPropertyOp12
 70
     1
102
RTVSPropertyOp13
 70
     1
102
RTVSPropertyOp14
 70
     1
102
RTVSPropertyOp15
 70
     1
102
RTVSPropertyOp16
 70
     1
102
RTVSPropertyOp17
 70
     1
102
RTVSPropertyOp18
 70
     1
102
RTVSPropertyOp19
 70
     1
102
RTVSPropertyOp20
 70
     1
102
RTVSPropertyOp21
 70
     1
102
RTVSPropertyOp22
 70
     1
102
RTVSPropertyOp23
 70
     1
102
RTVSPropertyOp24
 70
     1
102
RTVSPropertyOp25
 70
     1
102
RTVSPropertyOp26
 70
     1
102
RTVSPropertyOp27
 70
     1
102
RTVSPropertyOp28
 70
     1
102
RTVSPropertyOp29
 70
     1
102
RTVSPropertyOp30
 70
     1
102
RTVSPropertyOp31
 70
     1
102
RTVSPropertyOp32
 70
     1
102
RTVSPropertyOp33
 70
     1
102
RTVSPropertyOp34
 70
     1
102
RTVSPropertyOp35
 70
     1
102
RTVSPropertyOp36
 70
     1
102
RTVSPropertyOp37
 70
     1
102
RTVSPropertyOp38
 70
     1
102
RTVSPropertyOp39
 70
     1
102
RTVSPropertyOp40
 70
     1
102
RTVSPropertyOp41
 70
     1
102
RTVSPropertyOp42
 70
     1
102
RTVSPropertyOp43
 70
     1
102
RTVSPropertyOp44
 70
     1
102
RTVSPropertyOp45
 70
     1
102
RTVSPropertyOp46
 70
     1
102
RTVSPropertyOp47
 70
     1
102
RTVSPropertyOp48
 70
     1
102
RTVSPropertyOp49
 70
     1
102
RTVSPropertyOp50
 70
     1
102
RTVSPropertyOp51
 70
     0
102
RTVSPropertyOp52
 70
     0
102
RTVSPropertyOp53
 70
     1
102
RTVSPropertyOp54
 70
     1
102
RTVSPropertyOp55
 70
     1
102
RTVSPropertyOp56
 70
     1
102
RTVSPropertyOp57
 70
     1
102
RTVSPropertyOp58
 70
     1
102
RTVSPropertyOp59
 70
     1
102
RTVSPropertyOp60
 70
     1
102
RTVSPropertyOp61
 70
     1
102
RTVSPropertyOp62
 70
     1
  0
XRECORD
  5
F15
102
{ACAD_REACTORS
330
F14
102
}
330
F14
100
AcDbXrecord
280
     1
102
RTVSPost2010Prop28
280
     0
102
RTVSPost2010PropOp28
 70
     1
102
RTVSPost2010Prop29
280
     1
102
RTVSPost2010PropOp29
 70
     1
102
RTVSPost2010Prop30
280
     1
102
RTVSPost2010PropOp30
 70
     1
102
RTVSPost2010Prop31
280
     0
102
RTVSPost2010PropOp31
 70
     1
102
RTVSPost2010Prop32
280
     0
102
RTVSPost2010PropOp32
 70
     1
102
RTVSPost2010Prop33
280
     0
102
RTVSPost2010PropOp33
 70
     1
102
RTVSPost2010Prop34
280
     0
102
RTVSPost2010PropOp34
 70
     1
102
RTVSPost2010Prop35
280
     0
102
RTVSPost2010PropOp35
 70
     1
102
RTVSPost2010Prop36
280
     0
102
RTVSPost2010PropOp36
 70
     1
102
RTVSPost2010Prop37
 90
       50
102
RTVSPost2010PropOp37
 70
     1
102
RTVSPost2010Prop38
140
0.0
102
RTVSPost2010PropOp38
 70
     1
102
RTVSPost2010Prop39
140
1.0
102
RTVSPost2010PropOp39
 70
     1
102
RTVSPost2010Prop40
 90
        0
102
RTVSPost2010PropOp40
 70
     1
102
RTVSPost2010Prop41ColorIndex
 90
       18
102
RTVSPost2010Prop41ColorRGB
 90
        0
102
RTVSPost2010PropOp41
 70
     1
102
RTVSPost2010Prop42
 90
       50
102
RTVSPost2010PropOp42
 70
     1
102
RTVSPost2010Prop43
 90
        3
102
RTVSPost2010PropOp43
 70
     1
102
RTVSPost2010Prop44ColorIndex
 90
        5
102
RTVSPost2010Prop44ColorRGB
 90
      255
102
RTVSPost2010PropOp44
 70
     1
102
RTVSPost2010Prop45
280
     0
102
RTVSPost2010PropOp45
 70
     1
102
RTVSPost2010Prop46
 90
       50
102
RTVSPost2010PropOp46
 70
     1
102
RTVSPost2010Prop47
 90
       50
102
RTVSPost2010PropOp47
 70
     1
102
RTVSPost2010Prop48
 90
       50
102
RTVSPost2010PropOp48
 70
     1
102
RTVSPost2010Prop49
280
     0
102
RTVSPost2010PropOp49
 70
     1
102
RTVSPost2010Prop50
 90
       50
102
RTVSPost2010PropOp50
 70
     1
102
RTVSPost2010Prop51ColorIndex
 90
      256
102
RTVSPost2010Prop51ColorRGB
 90
-16777216
102
RTVSPost2010PropOp51
 70
     0
102
RTVSPost2010Prop52
140
1.0
102
RTVSPost2010PropOp52
 70
     0
102
RTVSPost2010Prop53
 90
        2
102
RTVSPost2010PropOp53
 70
     1
102
RTVSPost2010Prop54
  1
strokes_ogs.tif
102
RTVSPost2010PropOp54
 70
     1
102
RTVSPost2010Prop55
280
     0
102
RTVSPost2010PropOp55
 70
     1
102
RTVSPost2010Prop56
140
1.0
102
RTVSPost2010PropOp56
 70
     1
102
RTVSPost2010Prop57
140
1.0
102
RTVSPost2010PropOp57
 70
     1
102
RTVSPropertyOp0
 70
     1
102
RTVSPropertyOp1
 70
     1
102
RTVSPropertyOp2
 70
     1
102
RTVSPropertyOp3
 70
     1
102
RTVSPropertyOp4
 70
     1
102
RTVSPropertyOp5
 70
     1
102
RTVSPropertyOp6
 70
     1
102
RTVSPropertyOp7
 70
     1
102
RTVSPropertyOp8
 70
     1
102
RTVSPropertyOp9
 70
     1
102
RTVSPropertyOp10
 70
     1
102
RTVSPropertyOp11
 70
     1
102
RTVSPropertyOp12
 70
     1
102
RTVSPropertyOp13
 70
     1
102
RTVSPropertyOp14
 70
     1
102
RTVSPropertyOp15
 70
     1
102
RTVSPropertyOp16
 70
     1
102
RTVSPropertyOp17
 70
     1
102
RTVSPropertyOp18
 70
     1
102
RTVSPropertyOp19
 70
     1
102
RTVSPropertyOp20
 70
     1
102
RTVSPropertyOp21
 70
     1
102
RTVSPropertyOp22
 70
     1
102
RTVSPropertyOp23
 70
     1
102
RTVSPropertyOp24
 70
     1
102
RTVSPropertyOp25
 70
     1
102
RTVSPropertyOp26
 70
     1
102
RTVSPropertyOp27
 70
     1
102
RTVSPropertyOp28
 70
     1
102
RTVSPropertyOp29
 70
     1
102
RTVSPropertyOp30
 70
     1
102
RTVSPropertyOp31
 70
     1
102
RTVSPropertyOp32
 70
     1
102
RTVSPropertyOp33
 70
     1
102
RTVSPropertyOp34
 70
     1
102
RTVSPropertyOp35
 70
     1
102
RTVSPropertyOp36
 70
     1
102
RTVSPropertyOp37
 70
     1
102
RTVSPropertyOp38
 70
     1
102
RTVSPropertyOp39
 70
     1
102
RTVSPropertyOp40
 70
     1
102
RTVSPropertyOp41
 70
     1
102
RTVSPropertyOp42
 70
     1
102
RTVSPropertyOp43
 70
     1
102
RTVSPropertyOp44
 70
     1
102
RTVSPropertyOp45
 70
     1
102
RTVSPropertyOp46
 70
     1
102
RTVSPropertyOp47
 70
     1
102
RTVSPropertyOp48
 70
     1
102
RTVSPropertyOp49
 70
     1
102
RTVSPropertyOp50
 70
     1
102
RTVSPropertyOp51
 70
     0
102
RTVSPropertyOp52
 70
     0
102
RTVSPropertyOp53
 70
     1
102
RTVSPropertyOp54
 70
     1
102
RTVSPropertyOp55
 70
     1
102
RTVSPropertyOp56
 70
     1
102
RTVSPropertyOp57
 70
     1
102
RTVSPropertyOp58
 70
     1
102
RTVSPropertyOp59
 70
     1
102
RTVSPropertyOp60
 70
     1
102
RTVSPropertyOp61
 70
     1
102
RTVSPropertyOp62
 70
     1
  0
XRECORD
  5
F27
102
{ACAD_REACTORS
330
F26
102
}
330
F26
100
AcDbXrecord
280
     1
102
RTVSPost2010Prop28
280
     0
102
RTVSPost2010PropOp28
 70
     1
102
RTVSPost2010Prop29
280
     1
102
RTVSPost2010PropOp29
 70
     1
102
RTVSPost2010Prop30
280
     1
102
RTVSPost2010PropOp30
 70
     1
102
RTVSPost2010Prop31
280
     0
102
RTVSPost2010PropOp31
 70
     1
102
RTVSPost2010Prop32
280
     0
102
RTVSPost2010PropOp32
 70
     1
102
RTVSPost2010Prop33
280
     0
102
RTVSPost2010PropOp33
 70
     1
102
RTVSPost2010Prop34
280
     0
102
RTVSPost2010PropOp34
 70
     1
102
RTVSPost2010Prop35
280
     0
102
RTVSPost2010PropOp35
 70
     1
102
RTVSPost2010Prop36
280
     0
102
RTVSPost2010PropOp36
 70
     1
102
RTVSPost2010Prop37
 90
       50
102
RTVSPost2010PropOp37
 70
     1
102
RTVSPost2010Prop38
140
0.0
102
RTVSPost2010PropOp38
 70
     1
102
RTVSPost2010Prop39
140
1.0
102
RTVSPost2010PropOp39
 70
     1
102
RTVSPost2010Prop40
 90
        0
102
RTVSPost2010PropOp40
 70
     1
102
RTVSPost2010Prop41ColorIndex
 90
       18
102
RTVSPost2010Prop41ColorRGB
 90
        0
102
RTVSPost2010PropOp41
 70
     1
102
RTVSPost2010Prop42
 90
       50
102
RTVSPost2010PropOp42
 70
     1
102
RTVSPost2010Prop43
 90
        3
102
RTVSPost2010PropOp43
 70
     1
102
RTVSPost2010Prop44ColorIndex
 90
        5
102
RTVSPost2010Prop44ColorRGB
 90
      255
102
RTVSPost2010PropOp44
 70
     1
102
RTVSPost2010Prop45
280
     0
102
RTVSPost2010PropOp45
 70
     1
102
RTVSPost2010Prop46
 90
       50
102
RTVSPost2010PropOp46
 70
     1
102
RTVSPost2010Prop47
 90
       50
102
RTVSPost2010PropOp47
 70
     1
102
RTVSPost2010Prop48
 90
       50
102
RTVSPost2010PropOp48
 70
     1
102
RTVSPost2010Prop49
280
     0
102
RTVSPost2010PropOp49
 70
     1
102
RTVSPost2010Prop50
 90
       50
102
RTVSPost2010PropOp50
 70
     1
102
RTVSPost2010Prop51ColorIndex
 90
      256
102
RTVSPost2010Prop51ColorRGB
 90
-16777216
102
RTVSPost2010PropOp51
 70
     0
102
RTVSPost2010Prop52
140
1.0
102
RTVSPost2010PropOp52
 70
     0
102
RTVSPost2010Prop53
 90
        2
102
RTVSPost2010PropOp53
 70
     1
102
RTVSPost2010Prop54
  1
strokes_ogs.tif
102
RTVSPost2010PropOp54
 70
     1
102
RTVSPost2010Prop55
280
     0
102
RTVSPost2010PropOp55
 70
     1
102
RTVSPost2010Prop56
140
1.0
102
RTVSPost2010PropOp56
 70
     1
102
RTVSPost2010Prop57
140
1.0
102
RTVSPost2010PropOp57
 70
     1
102
RTVSPropertyOp0
 70
     0
102
RTVSPropertyOp1
 70
     0
102
RTVSPropertyOp2
 70
     0
102
RTVSPropertyOp3
 70
     0
102
RTVSPropertyOp4
 70
     0
102
RTVSPropertyOp5
 70
     0
102
RTVSPropertyOp6
 70
     0
102
RTVSPropertyOp7
 70
     0
102
RTVSPropertyOp8
 70
     0
102
RTVSPropertyOp9
 70
     0
102
RTVSPropertyOp10
 70
     0
102
RTVSPropertyOp11
 70
     0
102
RTVSPropertyOp12
 70
     0
102
RTVSPropertyOp13
 70
     0
102
RTVSPropertyOp14
 70
     2
102
RTVSPropertyOp15
 70
     0
102
RTVSPropertyOp16
 70
     0
102
RTVSPropertyOp17
 70
     0
102
RTVSPropertyOp18
 70
     0
102
RTVSPropertyOp19
 70
     0
102
RTVSPropertyOp20
 70
     0
102
RTVSPropertyOp21
 70
     0
102
RTVSPropertyOp22
 70
     0
102
RTVSPropertyOp23
 70
     0
102
RTVSPropertyOp24
 70
     0
102
RTVSPropertyOp25
 70
     0
102
RTVSPropertyOp26
 70
     0
102
RTVSPropertyOp27
 70
     0
102
RTVSPropertyOp28
 70
     1
102
RTVSPropertyOp29
 70
     1
102
RTVSPropertyOp30
 70
     1
102
RTVSPropertyOp31
 70
     1
102
RTVSPropertyOp32
 70
     1
102
RTVSPropertyOp33
 70
     1
102
RTVSPropertyOp34
 70
     1
102
RTVSPropertyOp35
 70
     1
102
RTVSPropertyOp36
 70
     1
102
RTVSPropertyOp37
 70
     1
102
RTVSPropertyOp38
 70
     1
102
RTVSPropertyOp39
 70
     1
102
RTVSPropertyOp40
 70
     1
102
RTVSPropertyOp41
 70
     1
102
RTVSPropertyOp42
 70
     1
102
RTVSPropertyOp43
 70
     1
102
RTVSPropertyOp44
 70
     1
102
RTVSPropertyOp45
 70
     1
102
RTVSPropertyOp46
 70
     1
102
RTVSPropertyOp47
 70
     1
102
RTVSPropertyOp48
 70
     1
102
RTVSPropertyOp49
 70
     1
102
RTVSPropertyOp50
 70
     1
102
RTVSPropertyOp51
 70
     0
102
RTVSPropertyOp52
 70
     0
102
RTVSPropertyOp53
 70
     1
102
RTVSPropertyOp54
 70
     1
102
RTVSPropertyOp55
 70
     1
102
RTVSPropertyOp56
 70
     1
102
RTVSPropertyOp57
 70
     1
102
RTVSPropertyOp58
 70
     1
102
RTVSPropertyOp59
 70
     1
102
RTVSPropertyOp60
 70
     1
102
RTVSPropertyOp61
 70
     1
102
RTVSPropertyOp62
 70
     1
  0
XRECORD
  5
F21
102
{ACAD_REACTORS
330
F20
102
}
330
F20
100
AcDbXrecord
280
     1
102
RTVSPost2010Prop28
280
     0
102
RTVSPost2010PropOp28
 70
     1
102
RTVSPost2010Prop29
280
     1
102
RTVSPost2010PropOp29
 70
     1
102
RTVSPost2010Prop30
280
     1
102
RTVSPost2010PropOp30
 70
     1
102
RTVSPost2010Prop31
280
     0
102
RTVSPost2010PropOp31
 70
     1
102
RTVSPost2010Prop32
280
     0
102
RTVSPost2010PropOp32
 70
     1
102
RTVSPost2010Prop33
280
     0
102
RTVSPost2010PropOp33
 70
     1
102
RTVSPost2010Prop34
280
     0
102
RTVSPost2010PropOp34
 70
     1
102
RTVSPost2010Prop35
280
     0
102
RTVSPost2010PropOp35
 70
     1
102
RTVSPost2010Prop36
280
     0
102
RTVSPost2010PropOp36
 70
     1
102
RTVSPost2010Prop37
 90
       50
102
RTVSPost2010PropOp37
 70
     1
102
RTVSPost2010Prop38
140
0.0
102
RTVSPost2010PropOp38
 70
     1
102
RTVSPost2010Prop39
140
1.0
102
RTVSPost2010PropOp39
 70
     1
102
RTVSPost2010Prop40
 90
        0
102
RTVSPost2010PropOp40
 70
     1
102
RTVSPost2010Prop41ColorIndex
 90
       18
102
RTVSPost2010Prop41ColorRGB
 90
        0
102
RTVSPost2010PropOp41
 70
     1
102
RTVSPost2010Prop42
 90
       50
102
RTVSPost2010PropOp42
 70
     1
102
RTVSPost2010Prop43
 90
        3
102
RTVSPost2010PropOp43
 70
     1
102
RTVSPost2010Prop44ColorIndex
 90
        5
102
RTVSPost2010Prop44ColorRGB
 90
      255
102
RTVSPost2010PropOp44
 70
     1
102
RTVSPost2010Prop45
280
     0
102
RTVSPost2010PropOp45
 70
     1
102
RTVSPost2010Prop46
 90
       50
102
RTVSPost2010PropOp46
 70
     1
102
RTVSPost2010Prop47
 90
       50
102
RTVSPost2010PropOp47
 70
     1
102
RTVSPost2010Prop48
 90
       50
102
RTVSPost2010PropOp48
 70
     1
102
RTVSPost2010Prop49
280
     0
102
RTVSPost2010PropOp49
 70
     1
102
RTVSPost2010Prop50
 90
       50
102
RTVSPost2010PropOp50
 70
     1
102
RTVSPost2010Prop51ColorIndex
 90
      256
102
RTVSPost2010Prop51ColorRGB
 90
-16777216
102
RTVSPost2010PropOp51
 70
     0
102
RTVSPost2010Prop52
140
1.0
102
RTVSPost2010PropOp52
 70
     0
102
RTVSPost2010Prop53
 90
        2
102
RTVSPost2010PropOp53
 70
     1
102
RTVSPost2010Prop54
  1
strokes_ogs.tif
102
RTVSPost2010PropOp54
 70
     1
102
RTVSPost2010Prop55
280
     0
102
RTVSPost2010PropOp55
 70
     1
102
RTVSPost2010Prop56
140
1.0
102
RTVSPost2010PropOp56
 70
     1
102
RTVSPost2010Prop57
140
1.0
102
RTVSPost2010PropOp57
 70
     1
102
RTVSPropertyOp0
 70
     1
102
RTVSPropertyOp1
 70
     1
102
RTVSPropertyOp2
 70
     1
102
RTVSPropertyOp3
 70
     1
102
RTVSPropertyOp4
 70
     1
102
RTVSPropertyOp5
 70
     1
102
RTVSPropertyOp6
 70
     1
102
RTVSPropertyOp7
 70
     1
102
RTVSPropertyOp8
 70
     1
102
RTVSPropertyOp9
 70
     1
102
RTVSPropertyOp10
 70
     1
102
RTVSPropertyOp11
 70
     1
102
RTVSPropertyOp12
 70
     1
102
RTVSPropertyOp13
 70
     1
102
RTVSPropertyOp14
 70
     1
102
RTVSPropertyOp15
 70
     1
102
RTVSPropertyOp16
 70
     1
102
RTVSPropertyOp17
 70
     1
102
RTVSPropertyOp18
 70
     1
102
RTVSPropertyOp19
 70
     1
102
RTVSPropertyOp20
 70
     1
102
RTVSPropertyOp21
 70
     1
102
RTVSPropertyOp22
 70
     1
102
RTVSPropertyOp23
 70
     1
102
RTVSPropertyOp24
 70
     1
102
RTVSPropertyOp25
 70
     1
102
RTVSPropertyOp26
 70
     1
102
RTVSPropertyOp27
 70
     1
102
RTVSPropertyOp28
 70
     1
102
RTVSPropertyOp29
 70
     1
102
RTVSPropertyOp30
 70
     1
102
RTVSPropertyOp31
 70
     1
102
RTVSPropertyOp32
 70
     1
102
RTVSPropertyOp33
 70
     1
102
RTVSPropertyOp34
 70
     1
102
RTVSPropertyOp35
 70
     1
102
RTVSPropertyOp36
 70
     1
102
RTVSPropertyOp37
 70
     1
102
RTVSPropertyOp38
 70
     1
102
RTVSPropertyOp39
 70
     1
102
RTVSPropertyOp40
 70
     1
102
RTVSPropertyOp41
 70
     1
102
RTVSPropertyOp42
 70
     1
102
RTVSPropertyOp43
 70
     1
102
RTVSPropertyOp44
 70
     1
102
RTVSPropertyOp45
 70
     1
102
RTVSPropertyOp46
 70
     1
102
RTVSPropertyOp47
 70
     1
102
RTVSPropertyOp48
 70
     1
102
RTVSPropertyOp49
 70
     1
102
RTVSPropertyOp50
 70
     1
102
RTVSPropertyOp51
 70
     0
102
RTVSPropertyOp52
 70
     0
102
RTVSPropertyOp53
 70
     1
102
RTVSPropertyOp54
 70
     1
102
RTVSPropertyOp55
 70
     1
102
RTVSPropertyOp56
 70
     1
102
RTVSPropertyOp57
 70
     1
102
RTVSPropertyOp58
 70
     1
102
RTVSPropertyOp59
 70
     1
102
RTVSPropertyOp60
 70
     1
102
RTVSPropertyOp61
 70
     1
102
RTVSPropertyOp62
 70
     1
  0
XRECORD
  5
F29
102
{ACAD_REACTORS
330
F28
102
}
330
F28
100
AcDbXrecord
280
     1
102
RTVSPost2010Prop28
280
     0
102
RTVSPost2010PropOp28
 70
     1
102
RTVSPost2010Prop29
280
     1
102
RTVSPost2010PropOp29
 70
     1
102
RTVSPost2010Prop30
280
     1
102
RTVSPost2010PropOp30
 70
     1
102
RTVSPost2010Prop31
280
     0
102
RTVSPost2010PropOp31
 70
     1
102
RTVSPost2010Prop32
280
     0
102
RTVSPost2010PropOp32
 70
     1
102
RTVSPost2010Prop33
280
     0
102
RTVSPost2010PropOp33
 70
     1
102
RTVSPost2010Prop34
280
     0
102
RTVSPost2010PropOp34
 70
     1
102
RTVSPost2010Prop35
280
     0
102
RTVSPost2010PropOp35
 70
     1
102
RTVSPost2010Prop36
280
     0
102
RTVSPost2010PropOp36
 70
     1
102
RTVSPost2010Prop37
 90
       50
102
RTVSPost2010PropOp37
 70
     1
102
RTVSPost2010Prop38
140
0.0
102
RTVSPost2010PropOp38
 70
     1
102
RTVSPost2010Prop39
140
1.0
102
RTVSPost2010PropOp39
 70
     1
102
RTVSPost2010Prop40
 90
        0
102
RTVSPost2010PropOp40
 70
     1
102
RTVSPost2010Prop41ColorIndex
 90
       18
102
RTVSPost2010Prop41ColorRGB
 90
        0
102
RTVSPost2010PropOp41
 70
     1
102
RTVSPost2010Prop42
 90
       50
102
RTVSPost2010PropOp42
 70
     1
102
RTVSPost2010Prop43
 90
        3
102
RTVSPost2010PropOp43
 70
     1
102
RTVSPost2010Prop44ColorIndex
 90
        5
102
RTVSPost2010Prop44ColorRGB
 90
      255
102
RTVSPost2010PropOp44
 70
     1
102
RTVSPost2010Prop45
280
     0
102
RTVSPost2010PropOp45
 70
     1
102
RTVSPost2010Prop46
 90
       50
102
RTVSPost2010PropOp46
 70
     1
102
RTVSPost2010Prop47
 90
       50
102
RTVSPost2010PropOp47
 70
     1
102
RTVSPost2010Prop48
 90
       50
102
RTVSPost2010PropOp48
 70
     1
102
RTVSPost2010Prop49
280
     0
102
RTVSPost2010PropOp49
 70
     1
102
RTVSPost2010Prop50
 90
       50
102
RTVSPost2010PropOp50
 70
     1
102
RTVSPost2010Prop51ColorIndex
 90
      256
102
RTVSPost2010Prop51ColorRGB
 90
-16777216
102
RTVSPost2010PropOp51
 70
     0
102
RTVSPost2010Prop52
140
1.0
102
RTVSPost2010PropOp52
 70
     0
102
RTVSPost2010Prop53
 90
        2
102
RTVSPost2010PropOp53
 70
     1
102
RTVSPost2010Prop54
  1
strokes_ogs.tif
102
RTVSPost2010PropOp54
 70
     1
102
RTVSPost2010Prop55
280
     0
102
RTVSPost2010PropOp55
 70
     1
102
RTVSPost2010Prop56
140
1.0
102
RTVSPost2010PropOp56
 70
     1
102
RTVSPost2010Prop57
140
1.0
102
RTVSPost2010PropOp57
 70
     1
102
RTVSPropertyOp0
 70
     0
102
RTVSPropertyOp1
 70
     0
102
RTVSPropertyOp2
 70
     0
102
RTVSPropertyOp3
 70
     0
102
RTVSPropertyOp4
 70
     0
102
RTVSPropertyOp5
 70
     0
102
RTVSPropertyOp6
 70
     0
102
RTVSPropertyOp7
 70
     0
102
RTVSPropertyOp8
 70
     0
102
RTVSPropertyOp9
 70
     0
102
RTVSPropertyOp10
 70
     0
102
RTVSPropertyOp11
 70
     0
102
RTVSPropertyOp12
 70
     0
102
RTVSPropertyOp13
 70
     0
102
RTVSPropertyOp14
 70
     2
102
RTVSPropertyOp15
 70
     0
102
RTVSPropertyOp16
 70
     0
102
RTVSPropertyOp17
 70
     0
102
RTVSPropertyOp18
 70
     0
102
RTVSPropertyOp19
 70
     0
102
RTVSPropertyOp20
 70
     0
102
RTVSPropertyOp21
 70
     0
102
RTVSPropertyOp22
 70
     0
102
RTVSPropertyOp23
 70
     0
102
RTVSPropertyOp24
 70
     0
102
RTVSPropertyOp25
 70
     0
102
RTVSPropertyOp26
 70
     0
102
RTVSPropertyOp27
 70
     0
102
RTVSPropertyOp28
 70
     1
102
RTVSPropertyOp29
 70
     1
102
RTVSPropertyOp30
 70
     1
102
RTVSPropertyOp31
 70
     1
102
RTVSPropertyOp32
 70
     1
102
RTVSPropertyOp33
 70
     1
102
RTVSPropertyOp34
 70
     1
102
RTVSPropertyOp35
 70
     1
102
RTVSPropertyOp36
 70
     1
102
RTVSPropertyOp37
 70
     1
102
RTVSPropertyOp38
 70
     1
102
RTVSPropertyOp39
 70
     1
102
RTVSPropertyOp40
 70
     1
102
RTVSPropertyOp41
 70
     1
102
RTVSPropertyOp42
 70
     1
102
RTVSPropertyOp43
 70
     1
102
RTVSPropertyOp44
 70
     1
102
RTVSPropertyOp45
 70
     1
102
RTVSPropertyOp46
 70
     1
102
RTVSPropertyOp47
 70
     1
102
RTVSPropertyOp48
 70
     1
102
RTVSPropertyOp49
 70
     1
102
RTVSPropertyOp50
 70
     1
102
RTVSPropertyOp51
 70
     0
102
RTVSPropertyOp52
 70
     0
102
RTVSPropertyOp53
 70
     1
102
RTVSPropertyOp54
 70
     1
102
RTVSPropertyOp55
 70
     1
102
RTVSPropertyOp56
 70
     1
102
RTVSPropertyOp57
 70
     1
102
RTVSPropertyOp58
 70
     1
102
RTVSPropertyOp59
 70
     1
102
RTVSPropertyOp60
 70
     1
102
RTVSPropertyOp61
 70
     1
102
RTVSPropertyOp62
 70
     1
  0
XRECORD
  5
F19
102
{ACAD_REACTORS
330
F18
102
}
330
F18
100
AcDbXrecord
280
     1
102
RTVSPost2010Prop28
280
     0
102
RTVSPost2010PropOp28
 70
     1
102
RTVSPost2010Prop29
280
     1
102
RTVSPost2010PropOp29
 70
     1
102
RTVSPost2010Prop30
280
     1
102
RTVSPost2010PropOp30
 70
     1
102
RTVSPost2010Prop31
280
     0
102
RTVSPost2010PropOp31
 70
     1
102
RTVSPost2010Prop32
280
     0
102
RTVSPost2010PropOp32
 70
     1
102
RTVSPost2010Prop33
280
     0
102
RTVSPost2010PropOp33
 70
     1
102
RTVSPost2010Prop34
280
     0
102
RTVSPost2010PropOp34
 70
     1
102
RTVSPost2010Prop35
280
     0
102
RTVSPost2010PropOp35
 70
     1
102
RTVSPost2010Prop36
280
     0
102
RTVSPost2010PropOp36
 70
     1
102
RTVSPost2010Prop37
 90
       50
102
RTVSPost2010PropOp37
 70
     1
102
RTVSPost2010Prop38
140
0.0
102
RTVSPost2010PropOp38
 70
     1
102
RTVSPost2010Prop39
140
1.0
102
RTVSPost2010PropOp39
 70
     1
102
RTVSPost2010Prop40
 90
        0
102
RTVSPost2010PropOp40
 70
     1
102
RTVSPost2010Prop41ColorIndex
 90
       18
102
RTVSPost2010Prop41ColorRGB
 90
        0
102
RTVSPost2010PropOp41
 70
     1
102
RTVSPost2010Prop42
 90
       50
102
RTVSPost2010PropOp42
 70
     1
102
RTVSPost2010Prop43
 90
        3
102
RTVSPost2010PropOp43
 70
     1
102
RTVSPost2010Prop44ColorIndex
 90
        5
102
RTVSPost2010Prop44ColorRGB
 90
      255
102
RTVSPost2010PropOp44
 70
     1
102
RTVSPost2010Prop45
280
     0
102
RTVSPost2010PropOp45
 70
     1
102
RTVSPost2010Prop46
 90
       50
102
RTVSPost2010PropOp46
 70
     1
102
RTVSPost2010Prop47
 90
       50
102
RTVSPost2010PropOp47
 70
     1
102
RTVSPost2010Prop48
 90
       50
102
RTVSPost2010PropOp48
 70
     1
102
RTVSPost2010Prop49
280
     0
102
RTVSPost2010PropOp49
 70
     1
102
RTVSPost2010Prop50
 90
       50
102
RTVSPost2010PropOp50
 70
     1
102
RTVSPost2010Prop51ColorIndex
 90
      256
102
RTVSPost2010Prop51ColorRGB
 90
-16777216
102
RTVSPost2010PropOp51
 70
     0
102
RTVSPost2010Prop52
140
1.0
102
RTVSPost2010PropOp52
 70
     0
102
RTVSPost2010Prop53
 90
        2
102
RTVSPost2010PropOp53
 70
     1
102
RTVSPost2010Prop54
  1
strokes_ogs.tif
102
RTVSPost2010PropOp54
 70
     1
102
RTVSPost2010Prop55
280
     0
102
RTVSPost2010PropOp55
 70
     1
102
RTVSPost2010Prop56
140
1.0
102
RTVSPost2010PropOp56
 70
     1
102
RTVSPost2010Prop57
140
1.0
102
RTVSPost2010PropOp57
 70
     1
102
RTVSPropertyOp0
 70
     1
102
RTVSPropertyOp1
 70
     1
102
RTVSPropertyOp2
 70
     1
102
RTVSPropertyOp3
 70
     1
102
RTVSPropertyOp4
 70
     1
102
RTVSPropertyOp5
 70
     1
102
RTVSPropertyOp6
 70
     1
102
RTVSPropertyOp7
 70
     1
102
RTVSPropertyOp8
 70
     1
102
RTVSPropertyOp9
 70
     1
102
RTVSPropertyOp10
 70
     1
102
RTVSPropertyOp11
 70
     1
102
RTVSPropertyOp12
 70
     1
102
RTVSPropertyOp13
 70
     1
102
RTVSPropertyOp14
 70
     1
102
RTVSPropertyOp15
 70
     1
102
RTVSPropertyOp16
 70
     1
102
RTVSPropertyOp17
 70
     1
102
RTVSPropertyOp18
 70
     1
102
RTVSPropertyOp19
 70
     1
102
RTVSPropertyOp20
 70
     1
102
RTVSPropertyOp21
 70
     1
102
RTVSPropertyOp22
 70
     1
102
RTVSPropertyOp23
 70
     1
102
RTVSPropertyOp24
 70
     1
102
RTVSPropertyOp25
 70
     1
102
RTVSPropertyOp26
 70
     1
102
RTVSPropertyOp27
 70
     1
102
RTVSPropertyOp28
 70
     1
102
RTVSPropertyOp29
 70
     1
102
RTVSPropertyOp30
 70
     1
102
RTVSPropertyOp31
 70
     1
102
RTVSPropertyOp32
 70
     1
102
RTVSPropertyOp33
 70
     1
102
RTVSPropertyOp34
 70
     1
102
RTVSPropertyOp35
 70
     1
102
RTVSPropertyOp36
 70
     1
102
RTVSPropertyOp37
 70
     1
102
RTVSPropertyOp38
 70
     1
102
RTVSPropertyOp39
 70
     1
102
RTVSPropertyOp40
 70
     1
102
RTVSPropertyOp41
 70
     1
102
RTVSPropertyOp42
 70
     1
102
RTVSPropertyOp43
 70
     1
102
RTVSPropertyOp44
 70
     1
102
RTVSPropertyOp45
 70
     1
102
RTVSPropertyOp46
 70
     1
102
RTVSPropertyOp47
 70
     1
102
RTVSPropertyOp48
 70
     1
102
RTVSPropertyOp49
 70
     1
102
RTVSPropertyOp50
 70
     1
102
RTVSPropertyOp51
 70
     0
102
RTVSPropertyOp52
 70
     0
102
RTVSPropertyOp53
 70
     1
102
RTVSPropertyOp54
 70
     1
102
RTVSPropertyOp55
 70
     1
102
RTVSPropertyOp56
 70
     1
102
RTVSPropertyOp57
 70
     1
102
RTVSPropertyOp58
 70
     1
102
RTVSPropertyOp59
 70
     1
102
RTVSPropertyOp60
 70
     1
102
RTVSPropertyOp61
 70
     1
102
RTVSPropertyOp62
 70
     1
  0
XRECORD
  5
F35
102
{ACAD_REACTORS
330
F34
102
}
330
F34
100
AcDbXrecord
280
     1
102
RTVSPost2010Prop28
280
     0
102
RTVSPost2010PropOp28
 70
     1
102
RTVSPost2010Prop29
280
     1
102
RTVSPost2010PropOp29
 70
     1
102
RTVSPost2010Prop30
280
     1
102
RTVSPost2010PropOp30
 70
     1
102
RTVSPost2010Prop31
280
     0
102
RTVSPost2010PropOp31
 70
     1
102
RTVSPost2010Prop32
280
     0
102
RTVSPost2010PropOp32
 70
     1
102
RTVSPost2010Prop33
280
     0
102
RTVSPost2010PropOp33
 70
     1
102
RTVSPost2010Prop34
280
     0
102
RTVSPost2010PropOp34
 70
     1
102
RTVSPost2010Prop35
280
     0
102
RTVSPost2010PropOp35
 70
     1
102
RTVSPost2010Prop36
280
     0
102
RTVSPost2010PropOp36
 70
     1
102
RTVSPost2010Prop37
 90
       50
102
RTVSPost2010PropOp37
 70
     1
102
RTVSPost2010Prop38
140
0.0
102
RTVSPost2010PropOp38
 70
     1
102
RTVSPost2010Prop39
140
1.0
102
RTVSPost2010PropOp39
 70
     1
102
RTVSPost2010Prop40
 90
        0
102
RTVSPost2010PropOp40
 70
     1
102
RTVSPost2010Prop41ColorIndex
 90
       18
102
RTVSPost2010Prop41ColorRGB
 90
        0
102
RTVSPost2010PropOp41
 70
     1
102
RTVSPost2010Prop42
 90
       50
102
RTVSPost2010PropOp42
 70
     1
102
RTVSPost2010Prop43
 90
        3
102
RTVSPost2010PropOp43
 70
     1
102
RTVSPost2010Prop44ColorIndex
 90
        5
102
RTVSPost2010Prop44ColorRGB
 90
      255
102
RTVSPost2010PropOp44
 70
     1
102
RTVSPost2010Prop45
280
     0
102
RTVSPost2010PropOp45
 70
     1
102
RTVSPost2010Prop46
 90
       50
102
RTVSPost2010PropOp46
 70
     1
102
RTVSPost2010Prop47
 90
       50
102
RTVSPost2010PropOp47
 70
     1
102
RTVSPost2010Prop48
 90
       50
102
RTVSPost2010PropOp48
 70
     1
102
RTVSPost2010Prop49
280
     0
102
RTVSPost2010PropOp49
 70
     1
102
RTVSPost2010Prop50
 90
       50
102
RTVSPost2010PropOp50
 70
     1
102
RTVSPost2010Prop51ColorIndex
 90
      256
102
RTVSPost2010Prop51ColorRGB
 90
-16777216
102
RTVSPost2010PropOp51
 70
     0
102
RTVSPost2010Prop52
140
1.0
102
RTVSPost2010PropOp52
 70
     0
102
RTVSPost2010Prop53
 90
        2
102
RTVSPost2010PropOp53
 70
     1
102
RTVSPost2010Prop54
  1
strokes_ogs.tif
102
RTVSPost2010PropOp54
 70
     1
102
RTVSPost2010Prop55
280
     0
102
RTVSPost2010PropOp55
 70
     1
102
RTVSPost2010Prop56
140
1.0
102
RTVSPost2010PropOp56
 70
     1
102
RTVSPost2010Prop57
140
1.0
102
RTVSPost2010PropOp57
 70
     1
102
RTVSPropertyOp0
 70
     1
102
RTVSPropertyOp1
 70
     1
102
RTVSPropertyOp2
 70
     1
102
RTVSPropertyOp3
 70
     1
102
RTVSPropertyOp4
 70
     1
102
RTVSPropertyOp5
 70
     1
102
RTVSPropertyOp6
 70
     1
102
RTVSPropertyOp7
 70
     1
102
RTVSPropertyOp8
 70
     1
102
RTVSPropertyOp9
 70
     1
102
RTVSPropertyOp10
 70
     1
102
RTVSPropertyOp11
 70
     1
102
RTVSPropertyOp12
 70
     1
102
RTVSPropertyOp13
 70
     1
102
RTVSPropertyOp14
 70
     1
102
RTVSPropertyOp15
 70
     1
102
RTVSPropertyOp16
 70
     1
102
RTVSPropertyOp17
 70
     1
102
RTVSPropertyOp18
 70
     1
102
RTVSPropertyOp19
 70
     1
102
RTVSPropertyOp20
 70
     1
102
RTVSPropertyOp21
 70
     1
102
RTVSPropertyOp22
 70
     1
102
RTVSPropertyOp23
 70
     1
102
RTVSPropertyOp24
 70
     1
102
RTVSPropertyOp25
 70
     1
102
RTVSPropertyOp26
 70
     1
102
RTVSPropertyOp27
 70
     1
102
RTVSPropertyOp28
 70
     1
102
RTVSPropertyOp29
 70
     1
102
RTVSPropertyOp30
 70
     1
102
RTVSPropertyOp31
 70
     1
102
RTVSPropertyOp32
 70
     1
102
RTVSPropertyOp33
 70
     1
102
RTVSPropertyOp34
 70
     1
102
RTVSPropertyOp35
 70
     1
102
RTVSPropertyOp36
 70
     1
102
RTVSPropertyOp37
 70
     1
102
RTVSPropertyOp38
 70
     1
102
RTVSPropertyOp39
 70
     1
102
RTVSPropertyOp40
 70
     1
102
RTVSPropertyOp41
 70
     1
102
RTVSPropertyOp42
 70
     1
102
RTVSPropertyOp43
 70
     1
102
RTVSPropertyOp44
 70
     1
102
RTVSPropertyOp45
 70
     1
102
RTVSPropertyOp46
 70
     1
102
RTVSPropertyOp47
 70
     1
102
RTVSPropertyOp48
 70
     1
102
RTVSPropertyOp49
 70
     1
102
RTVSPropertyOp50
 70
     1
102
RTVSPropertyOp51
 70
     0
102
RTVSPropertyOp52
 70
     0
102
RTVSPropertyOp53
 70
     1
102
RTVSPropertyOp54
 70
     1
102
RTVSPropertyOp55
 70
     1
102
RTVSPropertyOp56
 70
     1
102
RTVSPropertyOp57
 70
     1
102
RTVSPropertyOp58
 70
     1
102
RTVSPropertyOp59
 70
     1
102
RTVSPropertyOp60
 70
     1
102
RTVSPropertyOp61
 70
     1
102
RTVSPropertyOp62
 70
     1
  0
XRECORD
  5
F33
102
{ACAD_REACTORS
330
F32
102
}
330
F32
100
AcDbXrecord
280
     1
102
RTVSPost2010Prop28
280
     0
102
RTVSPost2010PropOp28
 70
     1
102
RTVSPost2010Prop29
280
     1
102
RTVSPost2010PropOp29
 70
     1
102
RTVSPost2010Prop30
280
     1
102
RTVSPost2010PropOp30
 70
     1
102
RTVSPost2010Prop31
280
     0
102
RTVSPost2010PropOp31
 70
     1
102
RTVSPost2010Prop32
280
     0
102
RTVSPost2010PropOp32
 70
     1
102
RTVSPost2010Prop33
280
     0
102
RTVSPost2010PropOp33
 70
     1
102
RTVSPost2010Prop34
280
     0
102
RTVSPost2010PropOp34
 70
     1
102
RTVSPost2010Prop35
280
     0
102
RTVSPost2010PropOp35
 70
     1
102
RTVSPost2010Prop36
280
     0
102
RTVSPost2010PropOp36
 70
     1
102
RTVSPost2010Prop37
 90
       50
102
RTVSPost2010PropOp37
 70
     1
102
RTVSPost2010Prop38
140
0.0
102
RTVSPost2010PropOp38
 70
     1
102
RTVSPost2010Prop39
140
1.0
102
RTVSPost2010PropOp39
 70
     1
102
RTVSPost2010Prop40
 90
        0
102
RTVSPost2010PropOp40
 70
     1
102
RTVSPost2010Prop41ColorIndex
 90
       18
102
RTVSPost2010Prop41ColorRGB
 90
        0
102
RTVSPost2010PropOp41
 70
     1
102
RTVSPost2010Prop42
 90
       50
102
RTVSPost2010PropOp42
 70
     1
102
RTVSPost2010Prop43
 90
        3
102
RTVSPost2010PropOp43
 70
     1
102
RTVSPost2010Prop44ColorIndex
 90
        5
102
RTVSPost2010Prop44ColorRGB
 90
      255
102
RTVSPost2010PropOp44
 70
     1
102
RTVSPost2010Prop45
280
     0
102
RTVSPost2010PropOp45
 70
     1
102
RTVSPost2010Prop46
 90
       50
102
RTVSPost2010PropOp46
 70
     1
102
RTVSPost2010Prop47
 90
       50
102
RTVSPost2010PropOp47
 70
     1
102
RTVSPost2010Prop48
 90
       50
102
RTVSPost2010PropOp48
 70
     1
102
RTVSPost2010Prop49
280
     0
102
RTVSPost2010PropOp49
 70
     1
102
RTVSPost2010Prop50
 90
       50
102
RTVSPost2010PropOp50
 70
     1
102
RTVSPost2010Prop51ColorIndex
 90
      256
102
RTVSPost2010Prop51ColorRGB
 90
-16777216
102
RTVSPost2010PropOp51
 70
     0
102
RTVSPost2010Prop52
140
1.0
102
RTVSPost2010PropOp52
 70
     0
102
RTVSPost2010Prop53
 90
        2
102
RTVSPost2010PropOp53
 70
     1
102
RTVSPost2010Prop54
  1
strokes_ogs.tif
102
RTVSPost2010PropOp54
 70
     1
102
RTVSPost2010Prop55
280
     0
102
RTVSPost2010PropOp55
 70
     1
102
RTVSPost2010Prop56
140
1.0
102
RTVSPost2010PropOp56
 70
     1
102
RTVSPost2010Prop57
140
1.0
102
RTVSPost2010PropOp57
 70
     1
102
RTVSPropertyOp0
 70
     1
102
RTVSPropertyOp1
 70
     1
102
RTVSPropertyOp2
 70
     1
102
RTVSPropertyOp3
 70
     1
102
RTVSPropertyOp4
 70
     1
102
RTVSPropertyOp5
 70
     1
102
RTVSPropertyOp6
 70
     1
102
RTVSPropertyOp7
 70
     1
102
RTVSPropertyOp8
 70
     1
102
RTVSPropertyOp9
 70
     1
102
RTVSPropertyOp10
 70
     1
102
RTVSPropertyOp11
 70
     1
102
RTVSPropertyOp12
 70
     1
102
RTVSPropertyOp13
 70
     1
102
RTVSPropertyOp14
 70
     1
102
RTVSPropertyOp15
 70
     1
102
RTVSPropertyOp16
 70
     1
102
RTVSPropertyOp17
 70
     1
102
RTVSPropertyOp18
 70
     1
102
RTVSPropertyOp19
 70
     1
102
RTVSPropertyOp20
 70
     1
102
RTVSPropertyOp21
 70
     1
102
RTVSPropertyOp22
 70
     1
102
RTVSPropertyOp23
 70
     1
102
RTVSPropertyOp24
 70
     1
102
RTVSPropertyOp25
 70
     1
102
RTVSPropertyOp26
 70
     1
102
RTVSPropertyOp27
 70
     1
102
RTVSPropertyOp28
 70
     1
102
RTVSPropertyOp29
 70
     1
102
RTVSPropertyOp30
 70
     1
102
RTVSPropertyOp31
 70
     1
102
RTVSPropertyOp32
 70
     1
102
RTVSPropertyOp33
 70
     1
102
RTVSPropertyOp34
 70
     1
102
RTVSPropertyOp35
 70
     1
102
RTVSPropertyOp36
 70
     1
102
RTVSPropertyOp37
 70
     1
102
RTVSPropertyOp38
 70
     1
102
RTVSPropertyOp39
 70
     1
102
RTVSPropertyOp40
 70
     1
102
RTVSPropertyOp41
 70
     1
102
RTVSPropertyOp42
 70
     1
102
RTVSPropertyOp43
 70
     1
102
RTVSPropertyOp44
 70
     1
102
RTVSPropertyOp45
 70
     1
102
RTVSPropertyOp46
 70
     1
102
RTVSPropertyOp47
 70
     1
102
RTVSPropertyOp48
 70
     1
102
RTVSPropertyOp49
 70
     1
102
RTVSPropertyOp50
 70
     1
102
RTVSPropertyOp51
 70
     0
102
RTVSPropertyOp52
 70
     0
102
RTVSPropertyOp53
 70
     1
102
RTVSPropertyOp54
 70
     1
102
RTVSPropertyOp55
 70
     1
102
RTVSPropertyOp56
 70
     1
102
RTVSPropertyOp57
 70
     1
102
RTVSPropertyOp58
 70
     1
102
RTVSPropertyOp59
 70
     1
102
RTVSPropertyOp60
 70
     1
102
RTVSPropertyOp61
 70
     1
102
RTVSPropertyOp62
 70
     1
  0
XRECORD
  5
F2D
102
{ACAD_REACTORS
330
F2C
102
}
330
F2C
100
AcDbXrecord
280
     1
102
RTVSPost2010Prop28
280
     0
102
RTVSPost2010PropOp28
 70
     1
102
RTVSPost2010Prop29
280
     1
102
RTVSPost2010PropOp29
 70
     1
102
RTVSPost2010Prop30
280
     1
102
RTVSPost2010PropOp30
 70
     1
102
RTVSPost2010Prop31
280
     0
102
RTVSPost2010PropOp31
 70
     1
102
RTVSPost2010Prop32
280
     0
102
RTVSPost2010PropOp32
 70
     1
102
RTVSPost2010Prop33
280
     0
102
RTVSPost2010PropOp33
 70
     1
102
RTVSPost2010Prop34
280
     0
102
RTVSPost2010PropOp34
 70
     1
102
RTVSPost2010Prop35
280
     0
102
RTVSPost2010PropOp35
 70
     1
102
RTVSPost2010Prop36
280
     0
102
RTVSPost2010PropOp36
 70
     1
102
RTVSPost2010Prop37
 90
       50
102
RTVSPost2010PropOp37
 70
     1
102
RTVSPost2010Prop38
140
0.0
102
RTVSPost2010PropOp38
 70
     1
102
RTVSPost2010Prop39
140
1.0
102
RTVSPost2010PropOp39
 70
     1
102
RTVSPost2010Prop40
 90
        0
102
RTVSPost2010PropOp40
 70
     1
102
RTVSPost2010Prop41ColorIndex
 90
       18
102
RTVSPost2010Prop41ColorRGB
 90
        0
102
RTVSPost2010PropOp41
 70
     1
102
RTVSPost2010Prop42
 90
       50
102
RTVSPost2010PropOp42
 70
     1
102
RTVSPost2010Prop43
 90
        3
102
RTVSPost2010PropOp43
 70
     1
102
RTVSPost2010Prop44ColorIndex
 90
        5
102
RTVSPost2010Prop44ColorRGB
 90
      255
102
RTVSPost2010PropOp44
 70
     1
102
RTVSPost2010Prop45
280
     0
102
RTVSPost2010PropOp45
 70
     1
102
RTVSPost2010Prop46
 90
       50
102
RTVSPost2010PropOp46
 70
     1
102
RTVSPost2010Prop47
 90
       50
102
RTVSPost2010PropOp47
 70
     1
102
RTVSPost2010Prop48
 90
       50
102
RTVSPost2010PropOp48
 70
     1
102
RTVSPost2010Prop49
280
     0
102
RTVSPost2010PropOp49
 70
     1
102
RTVSPost2010Prop50
 90
       50
102
RTVSPost2010PropOp50
 70
     1
102
RTVSPost2010Prop51ColorIndex
 90
      256
102
RTVSPost2010Prop51ColorRGB
 90
-16777216
102
RTVSPost2010PropOp51
 70
     0
102
RTVSPost2010Prop52
140
1.0
102
RTVSPost2010PropOp52
 70
     0
102
RTVSPost2010Prop53
 90
        2
102
RTVSPost2010PropOp53
 70
     1
102
RTVSPost2010Prop54
  1
strokes_ogs.tif
102
RTVSPost2010PropOp54
 70
     1
102
RTVSPost2010Prop55
280
     0
102
RTVSPost2010PropOp55
 70
     1
102
RTVSPost2010Prop56
140
1.0
102
RTVSPost2010PropOp56
 70
     1
102
RTVSPost2010Prop57
140
1.0
102
RTVSPost2010PropOp57
 70
     1
102
RTVSPropertyOp0
 70
     1
102
RTVSPropertyOp1
 70
     1
102
RTVSPropertyOp2
 70
     1
102
RTVSPropertyOp3
 70
     1
102
RTVSPropertyOp4
 70
     1
102
RTVSPropertyOp5
 70
     1
102
RTVSPropertyOp6
 70
     1
102
RTVSPropertyOp7
 70
     1
102
RTVSPropertyOp8
 70
     1
102
RTVSPropertyOp9
 70
     1
102
RTVSPropertyOp10
 70
     1
102
RTVSPropertyOp11
 70
     1
102
RTVSPropertyOp12
 70
     1
102
RTVSPropertyOp13
 70
     1
102
RTVSPropertyOp14
 70
     1
102
RTVSPropertyOp15
 70
     1
102
RTVSPropertyOp16
 70
     1
102
RTVSPropertyOp17
 70
     1
102
RTVSPropertyOp18
 70
     1
102
RTVSPropertyOp19
 70
     1
102
RTVSPropertyOp20
 70
     1
102
RTVSPropertyOp21
 70
     1
102
RTVSPropertyOp22
 70
     1
102
RTVSPropertyOp23
 70
     1
102
RTVSPropertyOp24
 70
     1
102
RTVSPropertyOp25
 70
     1
102
RTVSPropertyOp26
 70
     1
102
RTVSPropertyOp27
 70
     1
102
RTVSPropertyOp28
 70
     1
102
RTVSPropertyOp29
 70
     1
102
RTVSPropertyOp30
 70
     1
102
RTVSPropertyOp31
 70
     1
102
RTVSPropertyOp32
 70
     1
102
RTVSPropertyOp33
 70
     1
102
RTVSPropertyOp34
 70
     1
102
RTVSPropertyOp35
 70
     1
102
RTVSPropertyOp36
 70
     1
102
RTVSPropertyOp37
 70
     1
102
RTVSPropertyOp38
 70
     1
102
RTVSPropertyOp39
 70
     1
102
RTVSPropertyOp40
 70
     1
102
RTVSPropertyOp41
 70
     1
102
RTVSPropertyOp42
 70
     1
102
RTVSPropertyOp43
 70
     1
102
RTVSPropertyOp44
 70
     1
102
RTVSPropertyOp45
 70
     1
102
RTVSPropertyOp46
 70
     1
102
RTVSPropertyOp47
 70
     1
102
RTVSPropertyOp48
 70
     1
102
RTVSPropertyOp49
 70
     1
102
RTVSPropertyOp50
 70
     1
102
RTVSPropertyOp51
 70
     0
102
RTVSPropertyOp52
 70
     0
102
RTVSPropertyOp53
 70
     1
102
RTVSPropertyOp54
 70
     1
102
RTVSPropertyOp55
 70
     1
102
RTVSPropertyOp56
 70
     1
102
RTVSPropertyOp57
 70
     1
102
RTVSPropertyOp58
 70
     1
102
RTVSPropertyOp59
 70
     1
102
RTVSPropertyOp60
 70
     1
102
RTVSPropertyOp61
 70
     1
102
RTVSPropertyOp62
 70
     1
  0
XRECORD
  5
F2F
102
{ACAD_REACTORS
330
F2E
102
}
330
F2E
100
AcDbXrecord
280
     1
102
RTVSPost2010Prop28
280
     0
102
RTVSPost2010PropOp28
 70
     1
102
RTVSPost2010Prop29
280
     1
102
RTVSPost2010PropOp29
 70
     1
102
RTVSPost2010Prop30
280
     1
102
RTVSPost2010PropOp30
 70
     1
102
RTVSPost2010Prop31
280
     0
102
RTVSPost2010PropOp31
 70
     1
102
RTVSPost2010Prop32
280
     0
102
RTVSPost2010PropOp32
 70
     1
102
RTVSPost2010Prop33
280
     0
102
RTVSPost2010PropOp33
 70
     1
102
RTVSPost2010Prop34
280
     0
102
RTVSPost2010PropOp34
 70
     1
102
RTVSPost2010Prop35
280
     0
102
RTVSPost2010PropOp35
 70
     1
102
RTVSPost2010Prop36
280
     0
102
RTVSPost2010PropOp36
 70
     1
102
RTVSPost2010Prop37
 90
       50
102
RTVSPost2010PropOp37
 70
     1
102
RTVSPost2010Prop38
140
0.0
102
RTVSPost2010PropOp38
 70
     1
102
RTVSPost2010Prop39
140
1.0
102
RTVSPost2010PropOp39
 70
     1
102
RTVSPost2010Prop40
 90
        0
102
RTVSPost2010PropOp40
 70
     1
102
RTVSPost2010Prop41ColorIndex
 90
       18
102
RTVSPost2010Prop41ColorRGB
 90
        0
102
RTVSPost2010PropOp41
 70
     1
102
RTVSPost2010Prop42
 90
       50
102
RTVSPost2010PropOp42
 70
     1
102
RTVSPost2010Prop43
 90
        3
102
RTVSPost2010PropOp43
 70
     1
102
RTVSPost2010Prop44ColorIndex
 90
        5
102
RTVSPost2010Prop44ColorRGB
 90
      255
102
RTVSPost2010PropOp44
 70
     1
102
RTVSPost2010Prop45
280
     0
102
RTVSPost2010PropOp45
 70
     1
102
RTVSPost2010Prop46
 90
       50
102
RTVSPost2010PropOp46
 70
     1
102
RTVSPost2010Prop47
 90
       50
102
RTVSPost2010PropOp47
 70
     1
102
RTVSPost2010Prop48
 90
       50
102
RTVSPost2010PropOp48
 70
     1
102
RTVSPost2010Prop49
280
     0
102
RTVSPost2010PropOp49
 70
     1
102
RTVSPost2010Prop50
 90
       50
102
RTVSPost2010PropOp50
 70
     1
102
RTVSPost2010Prop51ColorIndex
 90
      256
102
RTVSPost2010Prop51ColorRGB
 90
-16777216
102
RTVSPost2010PropOp51
 70
     0
102
RTVSPost2010Prop52
140
1.0
102
RTVSPost2010PropOp52
 70
     0
102
RTVSPost2010Prop53
 90
        2
102
RTVSPost2010PropOp53
 70
     1
102
RTVSPost2010Prop54
  1
strokes_ogs.tif
102
RTVSPost2010PropOp54
 70
     1
102
RTVSPost2010Prop55
280
     0
102
RTVSPost2010PropOp55
 70
     1
102
RTVSPost2010Prop56
140
1.0
102
RTVSPost2010PropOp56
 70
     1
102
RTVSPost2010Prop57
140
1.0
102
RTVSPost2010PropOp57
 70
     1
102
RTVSPropertyOp0
 70
     1
102
RTVSPropertyOp1
 70
     1
102
RTVSPropertyOp2
 70
     1
102
RTVSPropertyOp3
 70
     1
102
RTVSPropertyOp4
 70
     1
102
RTVSPropertyOp5
 70
     1
102
RTVSPropertyOp6
 70
     1
102
RTVSPropertyOp7
 70
     1
102
RTVSPropertyOp8
 70
     1
102
RTVSPropertyOp9
 70
     1
102
RTVSPropertyOp10
 70
     1
102
RTVSPropertyOp11
 70
     1
102
RTVSPropertyOp12
 70
     1
102
RTVSPropertyOp13
 70
     1
102
RTVSPropertyOp14
 70
     1
102
RTVSPropertyOp15
 70
     1
102
RTVSPropertyOp16
 70
     1
102
RTVSPropertyOp17
 70
     1
102
RTVSPropertyOp18
 70
     1
102
RTVSPropertyOp19
 70
     1
102
RTVSPropertyOp20
 70
     1
102
RTVSPropertyOp21
 70
     1
102
RTVSPropertyOp22
 70
     1
102
RTVSPropertyOp23
 70
     1
102
RTVSPropertyOp24
 70
     1
102
RTVSPropertyOp25
 70
     1
102
RTVSPropertyOp26
 70
     1
102
RTVSPropertyOp27
 70
     1
102
RTVSPropertyOp28
 70
     1
102
RTVSPropertyOp29
 70
     1
102
RTVSPropertyOp30
 70
     1
102
RTVSPropertyOp31
 70
     1
102
RTVSPropertyOp32
 70
     1
102
RTVSPropertyOp33
 70
     1
102
RTVSPropertyOp34
 70
     1
102
RTVSPropertyOp35
 70
     1
102
RTVSPropertyOp36
 70
     1
102
RTVSPropertyOp37
 70
     1
102
RTVSPropertyOp38
 70
     1
102
RTVSPropertyOp39
 70
     1
102
RTVSPropertyOp40
 70
     1
102
RTVSPropertyOp41
 70
     1
102
RTVSPropertyOp42
 70
     1
102
RTVSPropertyOp43
 70
     1
102
RTVSPropertyOp44
 70
     1
102
RTVSPropertyOp45
 70
     1
102
RTVSPropertyOp46
 70
     1
102
RTVSPropertyOp47
 70
     1
102
RTVSPropertyOp48
 70
     1
102
RTVSPropertyOp49
 70
     1
102
RTVSPropertyOp50
 70
     1
102
RTVSPropertyOp51
 70
     0
102
RTVSPropertyOp52
 70
     0
102
RTVSPropertyOp53
 70
     1
102
RTVSPropertyOp54
 70
     1
102
RTVSPropertyOp55
 70
     1
102
RTVSPropertyOp56
 70
     1
102
RTVSPropertyOp57
 70
     1
102
RTVSPropertyOp58
 70
     1
102
RTVSPropertyOp59
 70
     1
102
RTVSPropertyOp60
 70
     1
102
RTVSPropertyOp61
 70
     1
102
RTVSPropertyOp62
 70
     1
  0
XRECORD
  5
F1F
102
{ACAD_REACTORS
330
F1E
102
}
330
F1E
100
AcDbXrecord
280
     1
102
RTVSPost2010Prop28
280
     0
102
RTVSPost2010PropOp28
 70
     1
102
RTVSPost2010Prop29
280
     1
102
RTVSPost2010PropOp29
 70
     1
102
RTVSPost2010Prop30
280
     1
102
RTVSPost2010PropOp30
 70
     1
102
RTVSPost2010Prop31
280
     0
102
RTVSPost2010PropOp31
 70
     1
102
RTVSPost2010Prop32
280
     0
102
RTVSPost2010PropOp32
 70
     1
102
RTVSPost2010Prop33
280
     0
102
RTVSPost2010PropOp33
 70
     1
102
RTVSPost2010Prop34
280
     0
102
RTVSPost2010PropOp34
 70
     1
102
RTVSPost2010Prop35
280
     0
102
RTVSPost2010PropOp35
 70
     1
102
RTVSPost2010Prop36
280
     0
102
RTVSPost2010PropOp36
 70
     1
102
RTVSPost2010Prop37
 90
       50
102
RTVSPost2010PropOp37
 70
     1
102
RTVSPost2010Prop38
140
0.0
102
RTVSPost2010PropOp38
 70
     1
102
RTVSPost2010Prop39
140
1.0
102
RTVSPost2010PropOp39
 70
     1
102
RTVSPost2010Prop40
 90
        0
102
RTVSPost2010PropOp40
 70
     1
102
RTVSPost2010Prop41ColorIndex
 90
       18
102
RTVSPost2010Prop41ColorRGB
 90
        0
102
RTVSPost2010PropOp41
 70
     1
102
RTVSPost2010Prop42
 90
       50
102
RTVSPost2010PropOp42
 70
     1
102
RTVSPost2010Prop43
 90
        3
102
RTVSPost2010PropOp43
 70
     1
102
RTVSPost2010Prop44ColorIndex
 90
        5
102
RTVSPost2010Prop44ColorRGB
 90
      255
102
RTVSPost2010PropOp44
 70
     1
102
RTVSPost2010Prop45
280
     0
102
RTVSPost2010PropOp45
 70
     1
102
RTVSPost2010Prop46
 90
       50
102
RTVSPost2010PropOp46
 70
     1
102
RTVSPost2010Prop47
 90
       50
102
RTVSPost2010PropOp47
 70
     1
102
RTVSPost2010Prop48
 90
       50
102
RTVSPost2010PropOp48
 70
     1
102
RTVSPost2010Prop49
280
     0
102
RTVSPost2010PropOp49
 70
     1
102
RTVSPost2010Prop50
 90
       50
102
RTVSPost2010PropOp50
 70
     1
102
RTVSPost2010Prop51ColorIndex
 90
      256
102
RTVSPost2010Prop51ColorRGB
 90
-16777216
102
RTVSPost2010PropOp51
 70
     0
102
RTVSPost2010Prop52
140
1.0
102
RTVSPost2010PropOp52
 70
     0
102
RTVSPost2010Prop53
 90
        2
102
RTVSPost2010PropOp53
 70
     1
102
RTVSPost2010Prop54
  1
strokes_ogs.tif
102
RTVSPost2010PropOp54
 70
     1
102
RTVSPost2010Prop55
280
     0
102
RTVSPost2010PropOp55
 70
     1
102
RTVSPost2010Prop56
140
1.0
102
RTVSPost2010PropOp56
 70
     1
102
RTVSPost2010Prop57
140
1.0
102
RTVSPost2010PropOp57
 70
     1
102
RTVSPropertyOp0
 70
     1
102
RTVSPropertyOp1
 70
     1
102
RTVSPropertyOp2
 70
     1
102
RTVSPropertyOp3
 70
     1
102
RTVSPropertyOp4
 70
     1
102
RTVSPropertyOp5
 70
     1
102
RTVSPropertyOp6
 70
     1
102
RTVSPropertyOp7
 70
     1
102
RTVSPropertyOp8
 70
     1
102
RTVSPropertyOp9
 70
     1
102
RTVSPropertyOp10
 70
     1
102
RTVSPropertyOp11
 70
     1
102
RTVSPropertyOp12
 70
     1
102
RTVSPropertyOp13
 70
     1
102
RTVSPropertyOp14
 70
     1
102
RTVSPropertyOp15
 70
     1
102
RTVSPropertyOp16
 70
     1
102
RTVSPropertyOp17
 70
     1
102
RTVSPropertyOp18
 70
     1
102
RTVSPropertyOp19
 70
     1
102
RTVSPropertyOp20
 70
     1
102
RTVSPropertyOp21
 70
     1
102
RTVSPropertyOp22
 70
     1
102
RTVSPropertyOp23
 70
     1
102
RTVSPropertyOp24
 70
     1
102
RTVSPropertyOp25
 70
     1
102
RTVSPropertyOp26
 70
     1
102
RTVSPropertyOp27
 70
     1
102
RTVSPropertyOp28
 70
     1
102
RTVSPropertyOp29
 70
     1
102
RTVSPropertyOp30
 70
     1
102
RTVSPropertyOp31
 70
     1
102
RTVSPropertyOp32
 70
     1
102
RTVSPropertyOp33
 70
     1
102
RTVSPropertyOp34
 70
     1
102
RTVSPropertyOp35
 70
     1
102
RTVSPropertyOp36
 70
     1
102
RTVSPropertyOp37
 70
     1
102
RTVSPropertyOp38
 70
     1
102
RTVSPropertyOp39
 70
     1
102
RTVSPropertyOp40
 70
     1
102
RTVSPropertyOp41
 70
     1
102
RTVSPropertyOp42
 70
     1
102
RTVSPropertyOp43
 70
     1
102
RTVSPropertyOp44
 70
     1
102
RTVSPropertyOp45
 70
     1
102
RTVSPropertyOp46
 70
     1
102
RTVSPropertyOp47
 70
     1
102
RTVSPropertyOp48
 70
     1
102
RTVSPropertyOp49
 70
     1
102
RTVSPropertyOp50
 70
     1
102
RTVSPropertyOp51
 70
     0
102
RTVSPropertyOp52
 70
     0
102
RTVSPropertyOp53
 70
     1
102
RTVSPropertyOp54
 70
     1
102
RTVSPropertyOp55
 70
     1
102
RTVSPropertyOp56
 70
     1
102
RTVSPropertyOp57
 70
     1
102
RTVSPropertyOp58
 70
     1
102
RTVSPropertyOp59
 70
     1
102
RTVSPropertyOp60
 70
     1
102
RTVSPropertyOp61
 70
     1
102
RTVSPropertyOp62
 70
     1
  0
XRECORD
  5
F13
102
{ACAD_REACTORS
330
F12
102
}
330
F12
100
AcDbXrecord
280
     1
102
RTVSPost2010Prop28
280
     0
102
RTVSPost2010PropOp28
 70
     1
102
RTVSPost2010Prop29
280
     1
102
RTVSPost2010PropOp29
 70
     1
102
RTVSPost2010Prop30
280
     1
102
RTVSPost2010PropOp30
 70
     1
102
RTVSPost2010Prop31
280
     0
102
RTVSPost2010PropOp31
 70
     1
102
RTVSPost2010Prop32
280
     0
102
RTVSPost2010PropOp32
 70
     1
102
RTVSPost2010Prop33
280
     0
102
RTVSPost2010PropOp33
 70
     1
102
RTVSPost2010Prop34
280
     0
102
RTVSPost2010PropOp34
 70
     1
102
RTVSPost2010Prop35
280
     0
102
RTVSPost2010PropOp35
 70
     1
102
RTVSPost2010Prop36
280
     0
102
RTVSPost2010PropOp36
 70
     1
102
RTVSPost2010Prop37
 90
       50
102
RTVSPost2010PropOp37
 70
     1
102
RTVSPost2010Prop38
140
0.0
102
RTVSPost2010PropOp38
 70
     1
102
RTVSPost2010Prop39
140
1.0
102
RTVSPost2010PropOp39
 70
     1
102
RTVSPost2010Prop40
 90
        0
102
RTVSPost2010PropOp40
 70
     1
102
RTVSPost2010Prop41ColorIndex
 90
       18
102
RTVSPost2010Prop41ColorRGB
 90
        0
102
RTVSPost2010PropOp41
 70
     1
102
RTVSPost2010Prop42
 90
       50
102
RTVSPost2010PropOp42
 70
     1
102
RTVSPost2010Prop43
 90
        3
102
RTVSPost2010PropOp43
 70
     1
102
RTVSPost2010Prop44ColorIndex
 90
        5
102
RTVSPost2010Prop44ColorRGB
 90
      255
102
RTVSPost2010PropOp44
 70
     1
102
RTVSPost2010Prop45
280
     0
102
RTVSPost2010PropOp45
 70
     1
102
RTVSPost2010Prop46
 90
       50
102
RTVSPost2010PropOp46
 70
     1
102
RTVSPost2010Prop47
 90
       50
102
RTVSPost2010PropOp47
 70
     1
102
RTVSPost2010Prop48
 90
       50
102
RTVSPost2010PropOp48
 70
     1
102
RTVSPost2010Prop49
280
     0
102
RTVSPost2010PropOp49
 70
     1
102
RTVSPost2010Prop50
 90
       50
102
RTVSPost2010PropOp50
 70
     1
102
RTVSPost2010Prop51ColorIndex
 90
      256
102
RTVSPost2010Prop51ColorRGB
 90
-16777216
102
RTVSPost2010PropOp51
 70
     0
102
RTVSPost2010Prop52
140
1.0
102
RTVSPost2010PropOp52
 70
     0
102
RTVSPost2010Prop53
 90
        2
102
RTVSPost2010PropOp53
 70
     1
102
RTVSPost2010Prop54
  1
strokes_ogs.tif
102
RTVSPost2010PropOp54
 70
     1
102
RTVSPost2010Prop55
280
     0
102
RTVSPost2010PropOp55
 70
     1
102
RTVSPost2010Prop56
140
1.0
102
RTVSPost2010PropOp56
 70
     1
102
RTVSPost2010Prop57
140
1.0
102
RTVSPost2010PropOp57
 70
     1
102
RTVSPropertyOp0
 70
     1
102
RTVSPropertyOp1
 70
     1
102
RTVSPropertyOp2
 70
     1
102
RTVSPropertyOp3
 70
     1
102
RTVSPropertyOp4
 70
     1
102
RTVSPropertyOp5
 70
     1
102
RTVSPropertyOp6
 70
     1
102
RTVSPropertyOp7
 70
     1
102
RTVSPropertyOp8
 70
     1
102
RTVSPropertyOp9
 70
     1
102
RTVSPropertyOp10
 70
     1
102
RTVSPropertyOp11
 70
     1
102
RTVSPropertyOp12
 70
     1
102
RTVSPropertyOp13
 70
     1
102
RTVSPropertyOp14
 70
     1
102
RTVSPropertyOp15
 70
     1
102
RTVSPropertyOp16
 70
     1
102
RTVSPropertyOp17
 70
     1
102
RTVSPropertyOp18
 70
     1
102
RTVSPropertyOp19
 70
     1
102
RTVSPropertyOp20
 70
     1
102
RTVSPropertyOp21
 70
     1
102
RTVSPropertyOp22
 70
     1
102
RTVSPropertyOp23
 70
     1
102
RTVSPropertyOp24
 70
     1
102
RTVSPropertyOp25
 70
     1
102
RTVSPropertyOp26
 70
     1
102
RTVSPropertyOp27
 70
     1
102
RTVSPropertyOp28
 70
     1
102
RTVSPropertyOp29
 70
     1
102
RTVSPropertyOp30
 70
     1
102
RTVSPropertyOp31
 70
     1
102
RTVSPropertyOp32
 70
     1
102
RTVSPropertyOp33
 70
     1
102
RTVSPropertyOp34
 70
     1
102
RTVSPropertyOp35
 70
     1
102
RTVSPropertyOp36
 70
     1
102
RTVSPropertyOp37
 70
     1
102
RTVSPropertyOp38
 70
     1
102
RTVSPropertyOp39
 70
     1
102
RTVSPropertyOp40
 70
     1
102
RTVSPropertyOp41
 70
     1
102
RTVSPropertyOp42
 70
     1
102
RTVSPropertyOp43
 70
     1
102
RTVSPropertyOp44
 70
     1
102
RTVSPropertyOp45
 70
     1
102
RTVSPropertyOp46
 70
     1
102
RTVSPropertyOp47
 70
     1
102
RTVSPropertyOp48
 70
     1
102
RTVSPropertyOp49
 70
     1
102
RTVSPropertyOp50
 70
     1
102
RTVSPropertyOp51
 70
     0
102
RTVSPropertyOp52
 70
     0
102
RTVSPropertyOp53
 70
     1
102
RTVSPropertyOp54
 70
     1
102
RTVSPropertyOp55
 70
     1
102
RTVSPropertyOp56
 70
     1
102
RTVSPropertyOp57
 70
     1
102
RTVSPropertyOp58
 70
     1
102
RTVSPropertyOp59
 70
     1
102
RTVSPropertyOp60
 70
     1
102
RTVSPropertyOp61
 70
     1
102
RTVSPropertyOp62
 70
     1
  0
XRECORD
  5
F31
102
{ACAD_REACTORS
330
F30
102
}
330
F30
100
AcDbXrecord
280
     1
102
RTVSPost2010Prop28
280
     0
102
RTVSPost2010PropOp28
 70
     1
102
RTVSPost2010Prop29
280
     1
102
RTVSPost2010PropOp29
 70
     1
102
RTVSPost2010Prop30
280
     1
102
RTVSPost2010PropOp30
 70
     1
102
RTVSPost2010Prop31
280
     0
102
RTVSPost2010PropOp31
 70
     1
102
RTVSPost2010Prop32
280
     0
102
RTVSPost2010PropOp32
 70
     1
102
RTVSPost2010Prop33
280
     0
102
RTVSPost2010PropOp33
 70
     1
102
RTVSPost2010Prop34
280
     0
102
RTVSPost2010PropOp34
 70
     1
102
RTVSPost2010Prop35
280
     0
102
RTVSPost2010PropOp35
 70
     1
102
RTVSPost2010Prop36
280
     0
102
RTVSPost2010PropOp36
 70
     1
102
RTVSPost2010Prop37
 90
       50
102
RTVSPost2010PropOp37
 70
     1
102
RTVSPost2010Prop38
140
0.0
102
RTVSPost2010PropOp38
 70
     1
102
RTVSPost2010Prop39
140
1.0
102
RTVSPost2010PropOp39
 70
     1
102
RTVSPost2010Prop40
 90
        0
102
RTVSPost2010PropOp40
 70
     1
102
RTVSPost2010Prop41ColorIndex
 90
       18
102
RTVSPost2010Prop41ColorRGB
 90
        0
102
RTVSPost2010PropOp41
 70
     1
102
RTVSPost2010Prop42
 90
       50
102
RTVSPost2010PropOp42
 70
     1
102
RTVSPost2010Prop43
 90
        3
102
RTVSPost2010PropOp43
 70
     1
102
RTVSPost2010Prop44ColorIndex
 90
        5
102
RTVSPost2010Prop44ColorRGB
 90
      255
102
RTVSPost2010PropOp44
 70
     1
102
RTVSPost2010Prop45
280
     0
102
RTVSPost2010PropOp45
 70
     1
102
RTVSPost2010Prop46
 90
       50
102
RTVSPost2010PropOp46
 70
     1
102
RTVSPost2010Prop47
 90
       50
102
RTVSPost2010PropOp47
 70
     1
102
RTVSPost2010Prop48
 90
       50
102
RTVSPost2010PropOp48
 70
     1
102
RTVSPost2010Prop49
280
     0
102
RTVSPost2010PropOp49
 70
     1
102
RTVSPost2010Prop50
 90
       50
102
RTVSPost2010PropOp50
 70
     1
102
RTVSPost2010Prop51ColorIndex
 90
      256
102
RTVSPost2010Prop51ColorRGB
 90
-16777216
102
RTVSPost2010PropOp51
 70
     0
102
RTVSPost2010Prop52
140
1.0
102
RTVSPost2010PropOp52
 70
     0
102
RTVSPost2010Prop53
 90
        2
102
RTVSPost2010PropOp53
 70
     1
102
RTVSPost2010Prop54
  1
strokes_ogs.tif
102
RTVSPost2010PropOp54
 70
     1
102
RTVSPost2010Prop55
280
     0
102
RTVSPost2010PropOp55
 70
     1
102
RTVSPost2010Prop56
140
1.0
102
RTVSPost2010PropOp56
 70
     1
102
RTVSPost2010Prop57
140
1.0
102
RTVSPost2010PropOp57
 70
     1
102
RTVSPropertyOp0
 70
     1
102
RTVSPropertyOp1
 70
     1
102
RTVSPropertyOp2
 70
     1
102
RTVSPropertyOp3
 70
     1
102
RTVSPropertyOp4
 70
     1
102
RTVSPropertyOp5
 70
     1
102
RTVSPropertyOp6
 70
     1
102
RTVSPropertyOp7
 70
     1
102
RTVSPropertyOp8
 70
     1
102
RTVSPropertyOp9
 70
     1
102
RTVSPropertyOp10
 70
     1
102
RTVSPropertyOp11
 70
     1
102
RTVSPropertyOp12
 70
     1
102
RTVSPropertyOp13
 70
     1
102
RTVSPropertyOp14
 70
     1
102
RTVSPropertyOp15
 70
     1
102
RTVSPropertyOp16
 70
     1
102
RTVSPropertyOp17
 70
     1
102
RTVSPropertyOp18
 70
     1
102
RTVSPropertyOp19
 70
     1
102
RTVSPropertyOp20
 70
     1
102
RTVSPropertyOp21
 70
     1
102
RTVSPropertyOp22
 70
     1
102
RTVSPropertyOp23
 70
     1
102
RTVSPropertyOp24
 70
     1
102
RTVSPropertyOp25
 70
     1
102
RTVSPropertyOp26
 70
     1
102
RTVSPropertyOp27
 70
     1
102
RTVSPropertyOp28
 70
     1
102
RTVSPropertyOp29
 70
     1
102
RTVSPropertyOp30
 70
     1
102
RTVSPropertyOp31
 70
     1
102
RTVSPropertyOp32
 70
     1
102
RTVSPropertyOp33
 70
     1
102
RTVSPropertyOp34
 70
     1
102
RTVSPropertyOp35
 70
     1
102
RTVSPropertyOp36
 70
     1
102
RTVSPropertyOp37
 70
     1
102
RTVSPropertyOp38
 70
     1
102
RTVSPropertyOp39
 70
     1
102
RTVSPropertyOp40
 70
     1
102
RTVSPropertyOp41
 70
     1
102
RTVSPropertyOp42
 70
     1
102
RTVSPropertyOp43
 70
     1
102
RTVSPropertyOp44
 70
     1
102
RTVSPropertyOp45
 70
     1
102
RTVSPropertyOp46
 70
     1
102
RTVSPropertyOp47
 70
     1
102
RTVSPropertyOp48
 70
     1
102
RTVSPropertyOp49
 70
     1
102
RTVSPropertyOp50
 70
     1
102
RTVSPropertyOp51
 70
     0
102
RTVSPropertyOp52
 70
     0
102
RTVSPropertyOp53
 70
     1
102
RTVSPropertyOp54
 70
     1
102
RTVSPropertyOp55
 70
     1
102
RTVSPropertyOp56
 70
     1
102
RTVSPropertyOp57
 70
     1
102
RTVSPropertyOp58
 70
     1
102
RTVSPropertyOp59
 70
     1
102
RTVSPropertyOp60
 70
     1
102
RTVSPropertyOp61
 70
     1
102
RTVSPropertyOp62
 70
     1
  0
ENDSEC
  0
EOF
