  0
SECTION
  2
HEADER
  9
$ACADVER
  1
AC1024
  9
$ACADMAINTVER
 70
     6
  9
$DWGCODEPAGE
  3
ANSI_1252
  9
$INSBASE
 10
0.0
 20
0.0
 30
0.0
  9
$EXTMIN
 10
1.000000E+20
 20
1.000000E+20
 30
1.000000E+20
  9
$EXTMAX
 10
-1.000000E+20
 20
-1.000000E+20
 30
-1.000000E+20
  9
$LIMMIN
 10
0.0
 20
0.0
  9
$LIMMAX
 10
420.0
 20
297.0
  9
$ORTHOMODE
 70
     0
  9
$REGENMODE
 70
     1
  9
$FILLMODE
 70
     1
  9
$QTEXTMODE
 70
     0
  9
$MIRRTEXT
 70
     1
  9
$LTSCALE
 40
1.0
  9
$ATTMODE
 70
     1
  9
$TEXTSIZE
 40
2.5
  9
$TRACEWID
 40
1.0
  9
$TEXTSTYLE
  7
Standard
  9
$CLAYER
  8
0
  9
$CELTYPE
  6
ByLayer
  9
$CECOLOR
 62
   256
  9
$CELTSCALE
 40
1.0
  9
$DISPSILH
 70
     0
  9
$DIMSCALE
 40
1.0
  9
$DIMASZ
 40
2.5
  9
$DIMEXO
 40
0.625
  9
$DIMDLI
 40
3.75
  9
$DIMRND
 40
0.0
  9
$DIMDLE
 40
0.0
  9
$DIMEXE
 40
1.25
  9
$DIMTP
 40
0.0
  9
$DIMTM
 40
0.0
  9
$DIMTXT
 40
2.5
  9
$DIMCEN
 40
2.5
  9
$DIMTSZ
 40
0.0
  9
$DIMTOL
 70
     0
  9
$DIMLIM
 70
     0
  9
$DIMTIH
 70
     0
  9
$DIMTOH
 70
     0
  9
$DIMSE1
 70
     0
  9
$DIMSE2
 70
     0
  9
$DIMTAD
 70
     1
  9
$DIMZIN
 70
     8
  9
$DIMBLK
  1

  9
$DIMASO
 70
     1
  9
$DIMSHO
 70
     1
  9
$DIMPOST
  1

  9
$DIMAPOST
  1

  9
$DIMALT
 70
     0
  9
$DIMALTD
 70
     3
  9
$DIMALTF
 40
0.03937
  9
$DIMLFAC
 40
1.0
  9
$DIMTOFL
 70
     1
  9
$DIMTVP
 40
0.0
  9
$DIMTIX
 70
     0
  9
$DIMSOXD
 70
     0
  9
$DIMSAH
 70
     0
  9
$DIMBLK1
  1

  9
$DIMBLK2
  1

  9
$DIMSTYLE
  2
ISO-25
  9
$DIMCLRD
 70
     0
  9
$DIMCLRE
 70
     0
  9
$DIMCLRT
 70
     0
  9
$DIMTFAC
 40
1.0
  9
$DIMGAP
 40
0.625
  9
$DIMJUST
 70
     0
  9
$DIMSD1
 70
     0
  9
$DIMSD2
 70
     0
  9
$DIMTOLJ
 70
     0
  9
$DIMTZIN
 70
     8
  9
$DIMALTZ
 70
     0
  9
$DIMALTTZ
 70
     0
  9
$DIMUPT
 70
     0
  9
$DIMDEC
 70
     2
  9
$DIMTDEC
 70
     2
  9
$DIMALTU
 70
     2
  9
$DIMALTTD
 70
     3
  9
$DIMTXSTY
  7
Standard
  9
$DIMAUNIT
 70
     0
  9
$DIMADEC
 70
     0
  9
$DIMALTRND
 40
0.0
  9
$DIMAZIN
 70
     0
  9
$DIMDSEP
 70
    44
  9
$DIMATFIT
 70
     3
  9
$DIMFRAC
 70
     0
  9
$DIMLDRBLK
  1

  9
$DIMLUNIT
 70
     2
  9
$DIMLWD
 70
    -2
  9
$DIMLWE
 70
    -2
  9
$DIMTMOVE
 70
     0
  9
$DIMFXL
 40
1.0
  9
$DIMFXLON
 70
     0
  9
$DIMJOGANG
 40
0.785398
  9
$DIMTFILL
 70
     0
  9
$DIMTFILLCLR
 70
     0
  9
$DIMARCSYM
 70
     0
  9
$DIMLTYPE
  6

  9
$DIMLTEX1
  6

  9
$DIMLTEX2
  6

  9
$DIMTXTDIRECTION
 70
     0
  9
$LUNITS
 70
     2
  9
$LUPREC
 70
     4
  9
$SKETCHINC
 40
1.0
  9
$FILLETRAD
 40
10.0
  9
$AUNITS
 70
     0
  9
$AUPREC
 70
     0
  9
$MENU
  1
.
  9
$ELEVATION
 40
0.0
  9
$PELEVATION
 40
0.0
  9
$THICKNESS
 40
0.0
  9
$LIMCHECK
 70
     0
  9
$CHAMFERA
 40
10.0
  9
$CHAMFERB
 40
10.0
  9
$CHAMFERC
 40
20.0
  9
$CHAMFERD
 40
0.0
  9
$SKPOLY
 70
     0
  9
$TDCREATE
 40
2458732.596081215
  9
$TDUCREATE
 40
2458732.512747882
  9
$TDUPDATE
 40
2458732.596081227
  9
$TDUUPDATE
 40
2458732.512747894
  9
$TDINDWG
 40
0.0000000116
  9
$TDUSRTIMER
 40
0.0000000116
  9
$USRTIMER
 70
     1
  9
$ANGBASE
 50
0.0
  9
$ANGDIR
 70
     0
  9
$PDMODE
 70
     0
  9
$PDSIZE
 40
0.0
  9
$PLINEWID
 40
0.0
  9
$SPLFRAME
 70
     0
  9
$SPLINETYPE
 70
     6
  9
$SPLINESEGS
 70
     8
  9
$HANDSEED
  5
284
  9
$SURFTAB1
 70
     6
  9
$SURFTAB2
 70
     6
  9
$SURFTYPE
 70
     6
  9
$SURFU
 70
     6
  9
$SURFV
 70
     6
  9
$UCSBASE
  2

  9
$UCSNAME
  2

  9
$UCSORG
 10
0.0
 20
0.0
 30
0.0
  9
$UCSXDIR
 10
1.0
 20
0.0
 30
0.0
  9
$UCSYDIR
 10
0.0
 20
1.0
 30
0.0
  9
$UCSORTHOREF
  2

  9
$UCSORTHOVIEW
 70
     0
  9
$UCSORGTOP
 10
0.0
 20
0.0
 30
0.0
  9
$UCSORGBOTTOM
 10
0.0
 20
0.0
 30
0.0
  9
$UCSORGLEFT
 10
0.0
 20
0.0
 30
0.0
  9
$UCSORGRIGHT
 10
0.0
 20
0.0
 30
0.0
  9
$UCSORGFRONT
 10
0.0
 20
0.0
 30
0.0
  9
$UCSORGBACK
 10
0.0
 20
0.0
 30
0.0
  9
$PUCSBASE
  2

  9
$PUCSNAME
  2

  9
$PUCSORG
 10
0.0
 20
0.0
 30
0.0
  9
$PUCSXDIR
 10
1.0
 20
0.0
 30
0.0
  9
$PUCSYDIR
 10
0.0
 20
1.0
 30
0.0
  9
$PUCSORTHOREF
  2

  9
$PUCSORTHOVIEW
 70
     0
  9
$PUCSORGTOP
 10
0.0
 20
0.0
 30
0.0
  9
$PUCSORGBOTTOM
 10
0.0
 20
0.0
 30
0.0
  9
$PUCSORGLEFT
 10
0.0
 20
0.0
 30
0.0
  9
$PUCSORGRIGHT
 10
0.0
 20
0.0
 30
0.0
  9
$PUCSORGFRONT
 10
0.0
 20
0.0
 30
0.0
  9
$PUCSORGBACK
 10
0.0
 20
0.0
 30
0.0
  9
$USERI1
 70
     0
  9
$USERI2
 70
     0
  9
$USERI3
 70
     0
  9
$USERI4
 70
     0
  9
$USERI5
 70
     0
  9
$USERR1
 40
0.0
  9
$USERR2
 40
0.0
  9
$USERR3
 40
0.0
  9
$USERR4
 40
0.0
  9
$USERR5
 40
0.0
  9
$WORLDVIEW
 70
     1
  9
$SHADEDGE
 70
     3
  9
$SHADEDIF
 70
    70
  9
$TILEMODE
 70
     1
  9
$MAXACTVP
 70
    64
  9
$PINSBASE
 10
0.0
 20
0.0
 30
0.0
  9
$PLIMCHECK
 70
     0
  9
$PEXTMIN
 10
1.000000E+20
 20
1.000000E+20
 30
1.000000E+20
  9
$PEXTMAX
 10
-1.000000E+20
 20
-1.000000E+20
 30
-1.000000E+20
  9
$PLIMMIN
 10
0.0
 20
0.0
  9
$PLIMMAX
 10
420.0
 20
297.0
  9
$UNITMODE
 70
     0
  9
$VISRETAIN
 70
     1
  9
$PLINEGEN
 70
     0
  9
$PSLTSCALE
 70
     1
  9
$TREEDEPTH
 70
  3020
  9
$CMLSTYLE
  2
Standard
  9
$CMLJUST
 70
     0
  9
$CMLSCALE
 40
20.0
  9
$PROXYGRAPHICS
 70
     1
  9
$MEASUREMENT
 70
     1
  9
$CELWEIGHT
370
    -1
  9
$ENDCAPS
280
     0
  9
$JOINSTYLE
280
     0
  9
$LWDISPLAY
290
     0
  9
$INSUNITS
 70
     4
  9
$HYPERLINKBASE
  1

  9
$STYLESHEET
  1

  9
$XEDIT
290
     1
  9
$CEPSNTYPE
380
     0
  9
$PSTYLEMODE
290
     1
  9
$FINGERPRINTGUID
  2
{58EE92A9-21B5-4F54-B4DC-F7B24C6AE8C5}
  9
$VERSIONGUID
  2
{FAEB1C32-E019-11D5-929B-00C0DF256EC4}
  9
$EXTNAMES
290
     1
  9
$PSVPSCALE
 40
0.0
  9
$OLESTARTUP
290
     0
  9
$SORTENTS
280
   127
  9
$INDEXCTL
280
     0
  9
$HIDETEXT
280
     1
  9
$XCLIPFRAME
280
     2
  9
$HALOGAP
280
     0
  9
$OBSCOLOR
 70
   257
  9
$OBSLTYPE
280
     0
  9
$INTERSECTIONDISPLAY
280
     0
  9
$INTERSECTIONCOLOR
 70
   257
  9
$DIMASSOC
280
     2
  9
$PROJECTNAME
  1

  9
$CAMERADISPLAY
290
     0
  9
$LENSLENGTH
 40
50.0
  9
$CAMERAHEIGHT
 40
0.0
  9
$STEPSPERSEC
 40
2.0
  9
$STEPSIZE
 40
6.0
  9
$3DDWFPREC
 40
2.0
  9
$PSOLWIDTH
 40
5.0
  9
$PSOLHEIGHT
 40
80.0
  9
$LOFTANG1
 40
1.570796
  9
$LOFTANG2
 40
1.570796
  9
$LOFTMAG1
 40
0.0
  9
$LOFTMAG2
 40
0.0
  9
$LOFTPARAM
 70
     7
  9
$LOFTNORMALS
280
     1
  9
$LATITUDE
 40
37.795
  9
$LONGITUDE
 40
-122.394
  9
$NORTHDIRECTION
 40
0.0
  9
$TIMEZONE
 70
 -8000
  9
$LIGHTGLYPHDISPLAY
280
     1
  9
$TILEMODELIGHTSYNCH
280
     1
  9
$SOLIDHIST
280
     1
  9
$SHOWHIST
280
     1
  9
$DWFFRAME
280
     2
  9
$DGNFRAME
280
     2
  9
$REALWORLDSCALE
290
     1
  9
$INTERFERECOLOR
 62
   256
  9
$CSHADOW
280
     0
  9
$SHADOWPLANELOCATION
 40
0.0
  0
ENDSEC
  0
SECTION
  2
CLASSES
  0
CLASS
  1
ACDBDICTIONARYWDFLT
  2
AcDbDictionaryWithDefault
  3
ObjectDBX Classes
 90
        0
 91
        4
280
     0
281
     0
  0
CLASS
  1
VISUALSTYLE
  2
AcDbVisualStyle
  3
ObjectDBX Classes
 90
     4095
 91
        4
280
     0
281
     0
  0
CLASS
  1
MATERIAL
  2
AcDbMaterial
  3
ObjectDBX Classes
 90
     1153
 91
        4
280
     0
281
     0
  0
CLASS
  1
SCALE
  2
AcDbScale
  3
ObjectDBX Classes
 90
     1153
 91
        4
280
     0
281
     0
  0
CLASS
  1
DICTIONARYVAR
  2
AcDbDictionaryVar
  3
ObjectDBX Classes
 90
        0
 91
        4
280
     0
281
     0
  0
ENDSEC
  0
SECTION
  2
TABLES
  0
TABLE
  2
VPORT
  5
8
330
0
100
AcDbSymbolTable
 70
     1
  0
VPORT
  5
29
330
8
100
AcDbSymbolTableRecord
100
AcDbViewportTableRecord
  2
*Active
 70
     0
 10
0.0
 20
0.0
 11
1.0
 21
1.0
 12
344.186916
 22
148.5
 13
0.0
 23
0.0
 14
10.0
 24
10.0
 15
10.0
 25
10.0
 16
0.0
 26
0.0
 36
1.0
 17
0.0
 27
0.0
 37
0.0
 40
297.0
 41
1.972973
 42
50.0
 43
0.0
 44
0.0
 50
0.0
 51
0.0
 71
     0
 72
   100
 73
     1
 74
     3
 75
     0
 76
     0
 77
     0
 78
     0
281
     0
 65
     1
110
0.0
120
0.0
130
0.0
111
1.0
121
0.0
131
0.0
112
0.0
122
1.0
132
0.0
 79
     0
146
0.0
 60
     3
 61
     5
292
     1
282
     1
141
0.0
142
0.0
 63
   250
  0
ENDTAB
  0
TABLE
  2
LTYPE
  5
5
330
0
100
AcDbSymbolTable
 70
     3
  0
LTYPE
  5
14
330
5
100
AcDbSymbolTableRecord
100
AcDbLinetypeTableRecord
  2
ByBlock
 70
     0
  3

 72
    65
 73
     0
 40
0.0
  0
LTYPE
  5
15
330
5
100
AcDbSymbolTableRecord
100
AcDbLinetypeTableRecord
  2
ByLayer
 70
     0
  3

 72
    65
 73
     0
 40
0.0
  0
LTYPE
  5
16
330
5
100
AcDbSymbolTableRecord
100
AcDbLinetypeTableRecord
  2
Continuous
 70
     0
  3
Solid line
 72
    65
 73
     0
 40
0.0
  0
LTYPE
  5
9C
330
5
100
AcDbSymbolTableRecord
100
AcDbLinetypeTableRecord
  2
CENTER2
 70
     0
  3
Center (.5x) ___ _ ___ _ ___ _ ___ _ ___ _ ___
 72
    65
 73
     4
 40
28.575
 49
19.05
 74
     0
 49
-3.175
 74
     0
 49
3.175
 74
     0
 49
-3.175
 74
     0
  0
LTYPE
  5
173
330
5
100
AcDbSymbolTableRecord
100
AcDbLinetypeTableRecord
  2
HIDDEN2
 70
     0
  3
Hidden (.5x) _ _ _ _ _ _ _ _ _ _ _ _ _ _ _ _ _ 
 72
    65
 73
     2
 40
4.7625
 49
3.175
 74
     0
 49
-1.5875
 74
     0
  0
ENDTAB
  0
TABLE
  2
LAYER
  5
2
330
0
100
AcDbSymbolTable
 70
     4
  0
LAYER
  5
10
330
2
100
AcDbSymbolTableRecord
100
AcDbLayerTableRecord
  2
0
 70
     0
 62
     7
  6
Continuous
370
     0
390
F
347
3E
  0
LAYER
  5
3F
330
2
100
AcDbSymbolTableRecord
100
AcDbLayerTableRecord
  2
1
 70
     0
 62
     7
  6
Continuous
370
     0
390
F
347
3E
  0
LAYER
  5
40
330
2
100
AcDbSymbolTableRecord
100
AcDbLayerTableRecord
  2
3
 70
     0
 62
     7
  6
Continuous
370
     0
390
F
347
3E
  0
LAYER
  5
41
330
2
100
AcDbSymbolTableRecord
100
AcDbLayerTableRecord
  2
Defpoints
 70
     0
 62
     7
  6
Continuous
290
     0
370
     0
390
F
347
3E
  0
ENDTAB
  0
TABLE
  2
STYLE
  5
3
330
0
100
AcDbSymbolTable
 70
    13
  0
STYLE
  5
11
330
3
100
AcDbSymbolTableRecord
100
AcDbTextStyleTableRecord
  2
Standard
 70
     0
 40
0.0
 41
1.0
 50
0.0
 71
     0
 42
2.5
  3
txt
  4

1001
ACAD
1000
txt
1071
        0
  0
STYLE
  5
42
330
3
100
AcDbSymbolTableRecord
100
AcDbTextStyleTableRecord
  2
Default
 70
     0
 40
0.0
 41
1.0
 50
0.0
 71
     0
 42
0.2
  3

  4

1001
ACAD
1000
txt
1071
        0
  0
STYLE
  5
43
330
3
100
AcDbSymbolTableRecord
100
AcDbTextStyleTableRecord
  2
ANSI
 70
     0
 40
0.0
 41
1.0
 50
0.0
 71
     0
 42
0.2
  3

  4

1001
ACAD
1000
txt
1071
        0
  0
STYLE
  5
44
330
3
100
AcDbSymbolTableRecord
100
AcDbTextStyleTableRecord
  2
KANJITATE
 70
     4
 40
0.0
 41
1.0
 50
0.0
 71
     0
 42
0.2
  3

  4

1001
ACAD
1000
txt
1071
        0
  0
STYLE
  5
45
330
3
100
AcDbSymbolTableRecord
100
AcDbTextStyleTableRecord
  2
TSTYLE3
 70
     0
 40
0.0
 41
1.0
 50
0.0
 71
     0
 42
0.2
  3

  4

1001
ACAD
1000
Arial
1071
        0
  0
STYLE
  5
46
330
3
100
AcDbSymbolTableRecord
100
AcDbTextStyleTableRecord
  2
TSTYLE2
 70
     0
 40
0.0
 41
1.0
 50
0.0
 71
     0
 42
0.2
  3

  4

1001
ACAD
1000
Arial
1071
        0
  0
STYLE
  5
47
330
3
100
AcDbSymbolTableRecord
100
AcDbTextStyleTableRecord
  2
TSTYLE5
 70
     0
 40
0.0
 41
1.0
 50
0.0
 71
     0
 42
0.2
  3

  4

1001
ACAD
1000
Arial
1071
        0
  0
STYLE
  5
48
330
3
100
AcDbSymbolTableRecord
100
AcDbTextStyleTableRecord
  2
TSTYLE7
 70
     0
 40
0.0
 41
1.0
 50
0.0
 71
     0
 42
0.2
  3

  4

1001
ACAD
1000
Arial
1071
        0
  0
STYLE
  5
49
330
3
100
AcDbSymbolTableRecord
100
AcDbTextStyleTableRecord
  2
TSTYLE8
 70
     0
 40
0.0
 41
1.0
 50
0.0
 71
     0
 42
0.2
  3

  4

1001
ACAD
1000
Arial
1071
        0
  0
STYLE
  5
4A
330
3
100
AcDbSymbolTableRecord
100
AcDbTextStyleTableRecord
  2
TSTYLE10
 70
     0
 40
0.0
 41
1.0
 50
0.0
 71
     0
 42
0.2
  3

  4

1001
ACAD
1000
Arial
1071
        0
  0
STYLE
  5
4B
330
3
100
AcDbSymbolTableRecord
100
AcDbTextStyleTableRecord
  2
TSTYLE9
 70
     0
 40
0.0
 41
1.0
 50
0.0
 71
     0
 42
0.2
  3

  4

1001
ACAD
1000
Arial
1071
        0
  0
STYLE
  5
4C
330
3
100
AcDbSymbolTableRecord
100
AcDbTextStyleTableRecord
  2
TSTYLE1
 70
     0
 40
0.0
 41
1.0
 50
0.0
 71
     0
 42
0.2
  3

  4

1001
ACAD
1000
Arial
1071
        0
  0
STYLE
  5
4D
330
3
100
AcDbSymbolTableRecord
100
AcDbTextStyleTableRecord
  2
TSTYLE6
 70
     0
 40
0.0
 41
1.0
 50
0.0
 71
     0
 42
0.2
  3

  4

1001
ACAD
1000
Futura Lt BT
1071
        0
  0
ENDTAB
  0
TABLE
  2
VIEW
  5
6
330
0
100
AcDbSymbolTable
 70
     0
  0
ENDTAB
  0
TABLE
  2
UCS
  5
7
330
0
100
AcDbSymbolTable
 70
     0
  0
ENDTAB
  0
TABLE
  2
APPID
  5
9
330
0
100
AcDbSymbolTable
 70
     1
  0
APPID
  5
12
330
9
100
AcDbSymbolTableRecord
100
AcDbRegAppTableRecord
  2
ACAD
 70
     0
  0
ENDTAB
  0
TABLE
  2
DIMSTYLE
  5
A
330
0
100
AcDbSymbolTable
 70
    16
100
AcDbDimStyleTable
  0
DIMSTYLE
105
27
102
{ACAD_REACTORS
330
20B
330
218
330
225
330
232
330
23F
330
24C
330
259
330
266
330
273
102
}
330
A
100
AcDbSymbolTableRecord
100
AcDbDimStyleTableRecord
  2
ISO-25
 70
     0
 41
2.5
 42
0.625
 43
3.75
 44
1.25
 73
     0
 74
     0
 77
     1
 78
     8
140
2.5
141
2.5
143
0.03937
147
0.625
171
     3
172
     1
271
     2
272
     2
274
     3
278
    44
283
     0
284
     8
340
11
  0
DIMSTYLE
105
4E
330
A
100
AcDbSymbolTableRecord
100
AcDbDimStyleTableRecord
  2
Default
 70
     0
  3
<>
 41
4.375
 42
1.05
 44
2.1
 49
10.01
 73
     0
 74
     0
 77
     1
 78
     8
140
3.5
146
0.4
147
1.75
172
     1
178
     2
271
     2
272
     3
284
     8
340
42
341
4F
342
4F
  0
DIMSTYLE
105
56
330
A
100
AcDbSymbolTableRecord
100
AcDbDimStyleTableRecord
  2
faultDimensionStyle
 70
     0
  3
<>
 41
2.5
 42
0.875
 44
1.75
 49
10.01
 73
     0
 74
     0
 77
     1
 78
     8
140
3.5
147
1.75
172
     1
178
     2
271
     2
272
     2
278
    44
284
     8
340
11
  0
DIMSTYLE
105
57
330
A
100
AcDbSymbolTableRecord
100
AcDbDimStyleTableRecord
  2
DefaultDimensionStyle
 70
     0
  3
<>
 41
2.5
 42
0.875
 44
1.75
 49
10.01
 73
     0
 74
     0
 77
     1
 78
     8
140
3.5
147
1.75
172
     1
178
     2
271
     2
272
     2
278
    44
284
     8
340
11
  0
DIMSTYLE
105
58
330
A
100
AcDbSymbolTableRecord
100
AcDbDimStyleTableRecord
  2
DSTYLE53
 70
     0
  3
<>
 41
5.0
 42
0.208332
 44
1.166667
 49
10.01
 73
     0
 74
     0
 78
     8
140
3.5
146
0.6
147
1.225
172
     1
178
     2
340
11
  0
DIMSTYLE
105
59
330
A
100
AcDbSymbolTableRecord
100
AcDbDimStyleTableRecord
  2
DSTYLE2
 70
     0
  3
<>
 41
25.0
 42
0.010938
 44
1.166667
 49
10.01
 73
     0
 74
     0
 78
     8
140
3.5
146
0.6
147
1.225
172
     1
178
     2
271
     2
340
45
  0
DIMSTYLE
105
5A
330
A
100
AcDbSymbolTableRecord
100
AcDbDimStyleTableRecord
  2
DSTYLE9
 70
     0
  3
<>
 41
35.0
 42
1.05
 44
1.166667
 49
10.01
 73
     0
 74
     0
 78
     8
140
3.5
146
0.6
147
1.225
172
     1
178
     2
340
47
  0
DIMSTYLE
105
5B
330
A
100
AcDbSymbolTableRecord
100
AcDbDimStyleTableRecord
  2
DSTYLE14
 70
     0
  3
<>
 41
35.0
 42
16.241401
 44
1.166667
 49
10.01
 73
     0
 74
     0
 78
     8
140
3.5
146
0.6
147
1.225
172
     1
178
     2
340
47
  0
DIMSTYLE
105
5C
330
A
100
AcDbSymbolTableRecord
100
AcDbDimStyleTableRecord
  2
DSTYLE62
 70
     0
  3
<>
 41
35.0
 42
12.589305
 44
1.166667
 49
10.01
 73
     0
 74
     0
 78
     8
140
3.5
146
0.6
147
1.225
172
     1
178
     2
271
     3
340
47
  0
DIMSTYLE
105
5D
330
A
100
AcDbSymbolTableRecord
100
AcDbDimStyleTableRecord
  2
DSTYLE1
 70
     0
  3
<>
 41
14.0
 42
3.5
 44
1.166667
 49
10.01
 73
     0
 74
     0
 77
     1
 78
     8
140
3.5
146
0.6
147
1.225
172
     1
178
     2
271
     2
340
49
  0
DIMSTYLE
105
5E
330
A
100
AcDbSymbolTableRecord
100
AcDbDimStyleTableRecord
  2
DSTYLE3
 70
     0
  3
<>
 41
35.0
 42
9.062926
 44
1.166667
 49
10.01
 73
     0
 74
     0
 77
     1
 78
     8
140
3.5
146
0.6
147
1.225
172
     1
178
     2
271
     3
340
4A
  0
DIMSTYLE
105
5F
330
A
100
AcDbSymbolTableRecord
100
AcDbDimStyleTableRecord
  2
DSTYLE4
 70
     0
  3
<>
 41
35.0
 42
3.5
 44
1.166667
 49
10.01
 73
     0
 74
     0
 77
     1
 78
     8
140
3.5
146
0.6
147
1.225
172
     1
178
     2
271
     2
340
4A
  0
DIMSTYLE
105
60
330
A
100
AcDbSymbolTableRecord
100
AcDbDimStyleTableRecord
  2
DSTYLE5
 70
     0
  3
<>
 41
35.0
 42
4.045462
 44
1.166667
 49
10.01
 73
     0
 74
     0
 77
     1
140
3.5
146
0.6
147
1.225
172
     1
178
     2
271
     0
340
4A
  0
DIMSTYLE
105
61
330
A
100
AcDbSymbolTableRecord
100
AcDbDimStyleTableRecord
  2
DSTYLE6
 70
     0
  3
<>
 41
35.0
 42
6.466186
 44
1.166667
 49
10.01
 73
     0
 74
     0
 77
     1
 78
     8
140
3.5
146
0.6
147
1.225
172
     1
178
     2
271
     3
340
4A
  0
DIMSTYLE
105
62
330
A
100
AcDbSymbolTableRecord
100
AcDbDimStyleTableRecord
  2
DSTYLE7
 70
     0
  3
<>
 41
35.0
 42
5.25
 44
1.166667
 49
10.01
 73
     0
 74
     0
 77
     1
 78
     8
140
3.5
146
0.6
147
1.225
172
     1
178
     2
271
     3
340
4A
  0
DIMSTYLE
105
63
330
A
100
AcDbSymbolTableRecord
100
AcDbDimStyleTableRecord
  2
DSTYLE8
 70
     0
  3
<>
 41
35.0
 42
4.076976
 44
1.166667
 49
10.01
 73
     0
 74
     0
 77
     1
140
3.5
146
0.6
147
1.225
172
     1
178
     2
271
     0
340
4A
  0
ENDTAB
  0
TABLE
  2
BLOCK_RECORD
  5
1
330
0
100
AcDbSymbolTable
 70
    25
  0
BLOCK_RECORD
  5
1F
330
1
100
AcDbSymbolTableRecord
100
AcDbBlockTableRecord
  2
*Model_Space
340
22
 70
     0
280
     1
281
     0
  0
BLOCK_RECORD
  5
1B
330
1
100
AcDbSymbolTableRecord
100
AcDbBlockTableRecord
  2
*Paper_Space
340
1E
 70
     0
280
     1
281
     0
  0
BLOCK_RECORD
  5
23
330
1
100
AcDbSymbolTableRecord
100
AcDbBlockTableRecord
  2
*Paper_Space0
340
26
 70
     0
280
     1
281
     0
  0
BLOCK_RECORD
  5
4F
330
1
100
AcDbSymbolTableRecord
100
AcDbBlockTableRecord
  2
_CLOSED
340
0
102
{BLKREFS
331
211
331
210
331
21E
331
21D
331
22B
331
22A
331
238
331
237
331
245
331
244
331
252
331
251
331
25F
331
25E
331
26C
331
26B
331
279
331
278
102
}
 70
     0
280
     1
281
     0
  0
BLOCK_RECORD
  5
E0
330
1
100
AcDbSymbolTableRecord
100
AcDbBlockTableRecord
  2
.TD_DIMENSION_1
340
0
102
{BLKREFS
331
EA
102
}
 70
     0
280
     1
281
     0
  0
BLOCK_RECORD
  5
143
330
1
100
AcDbSymbolTableRecord
100
AcDbBlockTableRecord
  2
.Hatch_13
340
0
102
{BLKREFS
331
150
102
}
 70
     0
280
     1
281
     0
  0
BLOCK_RECORD
  5
151
330
1
100
AcDbSymbolTableRecord
100
AcDbBlockTableRecord
  2
.Hatch_14
340
0
102
{BLKREFS
331
162
102
}
 70
     0
280
     1
281
     0
  0
BLOCK_RECORD
  5
163
330
1
100
AcDbSymbolTableRecord
100
AcDbBlockTableRecord
  2
.TD_XHATCH_40
340
0
102
{BLKREFS
331
171
102
}
 70
     0
280
     1
281
     0
  0
BLOCK_RECORD
  5
172
330
1
100
AcDbSymbolTableRecord
100
AcDbBlockTableRecord
  2
.Hatch_15
340
0
102
{BLKREFS
331
196
102
}
 70
     0
280
     1
281
     0
  0
BLOCK_RECORD
  5
19F
330
1
100
AcDbSymbolTableRecord
100
AcDbBlockTableRecord
  2
.TD_DIMENSION_2
340
0
102
{BLKREFS
331
1A8
102
}
 70
     0
280
     1
281
     0
  0
BLOCK_RECORD
  5
1A9
330
1
100
AcDbSymbolTableRecord
100
AcDbBlockTableRecord
  2
.TD_DIMENSION_3
340
0
102
{BLKREFS
331
1B2
102
}
 70
     0
280
     1
281
     0
  0
BLOCK_RECORD
  5
1B3
330
1
100
AcDbSymbolTableRecord
100
AcDbBlockTableRecord
  2
.TD_DIMENSION_4
340
0
102
{BLKREFS
331
1BC
102
}
 70
     0
280
     1
281
     0
  0
BLOCK_RECORD
  5
1BD
330
1
100
AcDbSymbolTableRecord
100
AcDbBlockTableRecord
  2
.TD_DIMENSION_5
340
0
102
{BLKREFS
331
1C6
102
}
 70
     0
280
     1
281
     0
  0
BLOCK_RECORD
  5
1C7
330
1
100
AcDbSymbolTableRecord
100
AcDbBlockTableRecord
  2
.TD_DIMENSION_6
340
0
102
{BLKREFS
331
1CF
102
}
 70
     0
280
     1
281
     0
  0
BLOCK_RECORD
  5
1D0
330
1
100
AcDbSymbolTableRecord
100
AcDbBlockTableRecord
  2
.TD_DIMENSION_7
340
0
102
{BLKREFS
331
1D9
102
}
 70
     0
280
     1
281
     0
  0
BLOCK_RECORD
  5
1E4
330
1
100
AcDbSymbolTableRecord
100
AcDbBlockTableRecord
  2
.TD_DIMENSION_8
340
0
102
{BLKREFS
331
1F1
102
}
 70
     0
280
     1
281
     0
  0
BLOCK_RECORD
  5
1F2
330
1
100
AcDbSymbolTableRecord
100
AcDbBlockTableRecord
  2
.TD_DIMENSION_9
340
0
102
{BLKREFS
331
1FF
102
}
 70
     0
280
     1
281
     0
  0
BLOCK_RECORD
  5
200
330
1
100
AcDbSymbolTableRecord
100
AcDbBlockTableRecord
  2
.TD_DIMENSION_10
340
0
102
{BLKREFS
331
20A
102
}
 70
     0
280
     1
281
     0
  0
BLOCK_RECORD
  5
20C
330
1
100
AcDbSymbolTableRecord
100
AcDbBlockTableRecord
  2
*D16
340
0
 70
     0
280
     1
281
     0
  0
BLOCK_RECORD
  5
219
330
1
100
AcDbSymbolTableRecord
100
AcDbBlockTableRecord
  2
*D17
340
0
 70
     0
280
     1
281
     0
  0
BLOCK_RECORD
  5
226
330
1
100
AcDbSymbolTableRecord
100
AcDbBlockTableRecord
  2
*D18
340
0
 70
     0
280
     1
281
     0
  0
BLOCK_RECORD
  5
233
330
1
100
AcDbSymbolTableRecord
100
AcDbBlockTableRecord
  2
*D19
340
0
 70
     0
280
     1
281
     0
  0
BLOCK_RECORD
  5
240
330
1
100
AcDbSymbolTableRecord
100
AcDbBlockTableRecord
  2
*D20
340
0
 70
     0
280
     1
281
     0
  0
BLOCK_RECORD
  5
24D
330
1
100
AcDbSymbolTableRecord
100
AcDbBlockTableRecord
  2
*D21
340
0
 70
     0
280
     1
281
     0
  0
BLOCK_RECORD
  5
25A
330
1
100
AcDbSymbolTableRecord
100
AcDbBlockTableRecord
  2
*D22
340
0
 70
     0
280
     1
281
     0
  0
BLOCK_RECORD
  5
267
330
1
100
AcDbSymbolTableRecord
100
AcDbBlockTableRecord
  2
*D23
340
0
 70
     0
280
     1
281
     0
  0
BLOCK_RECORD
  5
274
330
1
100
AcDbSymbolTableRecord
100
AcDbBlockTableRecord
  2
*D24
340
0
 70
     0
280
     1
281
     0
  0
ENDTAB
  0
ENDSEC
  0
SECTION
  2
BLOCKS
  0
BLOCK
  5
20
330
1F
100
AcDbEntity
  8
0
100
AcDbBlockBegin
  2
*Model_Space
 70
     0
 10
0.0
 20
0.0
 30
0.0
  3
*Model_Space
  1

  0
ENDBLK
  5
21
330
1F
100
AcDbEntity
  8
0
100
AcDbBlockEnd
  0
BLOCK
  5
1C
330
1B
100
AcDbEntity
 67
     1
  8
0
100
AcDbBlockBegin
  2
*Paper_Space
 70
     0
 10
0.0
 20
0.0
 30
0.0
  3
*Paper_Space
  1

  0
ENDBLK
  5
1D
330
1B
100
AcDbEntity
 67
     1
  8
0
100
AcDbBlockEnd
  0
BLOCK
  5
24
330
23
100
AcDbEntity
  8
0
100
AcDbBlockBegin
  2
*Paper_Space0
 70
     0
 10
0.0
 20
0.0
 30
0.0
  3
*Paper_Space0
  1

  0
ENDBLK
  5
25
330
23
100
AcDbEntity
  8
0
100
AcDbBlockEnd
  0
BLOCK
  5
50
330
4F
100
AcDbEntity
  8
0
100
AcDbBlockBegin
  2
_CLOSED
 70
     0
 10
0.0
 20
0.0
 30
0.0
  3
_CLOSED
  1

  0
LINE
  5
52
330
4F
100
AcDbEntity
  8
0
  6
ByBlock
 62
     0
370
    -2
100
AcDbLine
 10
-1.0
 20
0.166667
 30
0.0
 11
0.0
 21
0.0
 31
0.0
  0
LINE
  5
53
330
4F
100
AcDbEntity
  8
0
  6
ByBlock
 62
     0
370
    -2
100
AcDbLine
 10
0.0
 20
0.0
 30
0.0
 11
-1.0
 21
-0.166667
 31
0.0
  0
LINE
  5
54
330
4F
100
AcDbEntity
  8
0
  6
ByBlock
 62
     0
370
    -2
100
AcDbLine
 10
-1.0
 20
0.166667
 30
0.0
 11
-1.0
 21
-0.166667
 31
0.0
  0
LINE
  5
55
330
4F
100
AcDbEntity
  8
0
  6
ByBlock
 62
     0
370
    -2
100
AcDbLine
 10
0.0
 20
0.0
 30
0.0
 11
-1.0
 21
0.0
 31
0.0
  0
ENDBLK
  5
51
330
4F
100
AcDbEntity
  8
0
100
AcDbBlockEnd
  0
BLOCK
  5
E8
330
E0
100
AcDbEntity
  8
0
100
AcDbBlockBegin
  2
.TD_DIMENSION_1
 70
     0
 10
-1647.00222
 20
5927.4557
 30
0.0
  3
.TD_DIMENSION_1
  1

  0
LINE
  5
E1
330
E0
100
AcDbEntity
  8
0
  6
Continuous
 62
     0
100
AcDbLine
 10
798.750478
 20
205.605291
 30
0.0
 11
797.775868
 21
206.745428
 31
0.0
  0
LINE
  5
E2
330
E0
100
AcDbEntity
  8
0
  6
Continuous
 62
     0
100
AcDbLine
 10
797.775868
 20
206.745428
 30
0.0
 11
810.079823
 21
192.35285
 31
0.0
  0
MTEXT
  5
E3
330
E0
100
AcDbEntity
  8
0
  6
Continuous
 62
     0
100
AcDbMText
 10
802.575672
 20
206.901922
 30
0.0
 40
2.5
 41
0.0
 46
0.0
 71
     1
 72
     1
  1
{\fArial|b0|i0;R}
 11
0.649801962546263
 21
-0.7601035518079263
 31
0.0
 73
     2
 44
0.99598
  0
MTEXT
  5
E4
330
E0
100
AcDbEntity
  8
0
  6
Continuous
 62
     0
100
AcDbMText
 10
804.200184
 20
205.001776
 30
0.0
 40
2.5
 41
0.0
 46
0.0
 71
     1
 72
     1
  1
{\fArial|b0|i0;10 (3/8")}
 11
0.649801962546263
 21
-0.7601035518079263
 31
0.0
 73
     2
 44
0.99598
  0
LINE
  5
E5
330
E0
100
AcDbEntity
  8
0
  6
Continuous
 62
     0
100
AcDbLine
 10
799.11913
 20
205.920233
 30
0.0
 11
797.125966
 21
207.505438
 31
0.0
  0
LINE
  5
E6
330
E0
100
AcDbEntity
  8
0
  6
Continuous
 62
     0
100
AcDbLine
 10
797.125966
 20
207.505438
 30
0.0
 11
798.381825
 21
205.290106
 31
0.0
  0
LINE
  5
E7
330
E0
100
AcDbEntity
  8
0
  6
Continuous
 62
     0
100
AcDbLine
 10
798.381825
 20
205.290106
 30
0.0
 11
799.11913
 21
205.920233
 31
0.0
  0
ENDBLK
  5
E9
330
E0
100
AcDbEntity
  8
0
100
AcDbBlockEnd
  0
BLOCK
  5
14E
330
143
100
AcDbEntity
  8
0
100
AcDbBlockBegin
  2
.Hatch_13
 70
     0
 10
4807.30784
 20
-5158.0443
 30
0.0
  3
.Hatch_13
  1

  0
LINE
  5
144
330
143
100
AcDbEntity
  8
0
  6
Continuous
 62
     0
370
     0
100
AcDbLine
 10
964.844707
 20
177.268437
 30
0.0
 11
965.336235
 21
176.776908
 31
0.0
  0
LINE
  5
145
330
143
100
AcDbEntity
  8
0
  6
Continuous
 62
     0
370
     0
100
AcDbLine
 10
964.534569
 20
177.012889
 30
0.0
 11
965.254681
 21
176.292777
 31
0.0
  0
LINE
  5
146
330
143
100
AcDbEntity
  8
0
  6
Continuous
 62
     0
370
     0
100
AcDbLine
 10
964.478621
 20
176.503152
 30
0.0
 11
965.064596
 21
175.917176
 31
0.0
  0
LINE
  5
147
330
143
100
AcDbEntity
  8
0
  6
Continuous
 62
     0
370
     0
100
AcDbLine
 10
964.235111
 20
176.180977
 30
0.0
 11
964.803898
 21
175.612189
 31
0.0
  0
LINE
  5
148
330
143
100
AcDbEntity
  8
0
  6
Continuous
 62
     0
370
     0
100
AcDbLine
 10
963.834811
 20
176.01559
 30
0.0
 11
964.464157
 21
175.386245
 31
0.0
  0
LINE
  5
149
330
143
100
AcDbEntity
  8
0
  6
Continuous
 62
     0
370
     0
100
AcDbLine
 10
963.295366
 20
175.98935
 30
0.0
 11
964.045756
 21
175.238961
 31
0.0
  0
LINE
  5
14A
330
143
100
AcDbEntity
  8
0
  6
Continuous
 62
     0
370
     0
100
AcDbLine
 10
962.750663
 20
175.968368
 30
0.0
 11
963.521561
 21
175.19747
 31
0.0
  0
LINE
  5
14B
330
143
100
AcDbEntity
  8
0
  6
Continuous
 62
     0
370
     0
100
AcDbLine
 10
962.205959
 20
175.947386
 30
0.0
 11
962.976857
 21
175.176488
 31
0.0
  0
LINE
  5
14C
330
143
100
AcDbEntity
  8
0
  6
Continuous
 62
     0
370
     0
100
AcDbLine
 10
961.778882
 20
175.808778
 30
0.0
 11
962.432154
 21
175.155506
 31
0.0
  0
LINE
  5
14D
330
143
100
AcDbEntity
  8
0
  6
Continuous
 62
     0
370
     0
100
AcDbLine
 10
961.80155
 20
175.220425
 30
0.0
 11
961.88745
 21
175.134524
 31
0.0
  0
ENDBLK
  5
14F
330
143
100
AcDbEntity
  8
0
100
AcDbBlockEnd
  0
BLOCK
  5
160
330
151
100
AcDbEntity
  8
0
100
AcDbBlockBegin
  2
.Hatch_14
 70
     0
 10
4807.30784
 20
-5158.0443
 30
0.0
  3
.Hatch_14
  1

  0
LINE
  5
152
330
151
100
AcDbEntity
  8
0
  6
Continuous
 62
     0
370
     0
100
AcDbLine
 10
954.471612
 20
180.853307
 30
0.0
 11
954.791823
 21
180.533096
 31
0.0
  0
LINE
  5
153
330
151
100
AcDbEntity
  8
0
  6
Continuous
 62
     0
370
     0
100
AcDbLine
 10
953.981816
 20
180.777417
 30
0.0
 11
954.81449
 21
179.944742
 31
0.0
  0
LINE
  5
154
330
151
100
AcDbEntity
  8
0
  6
Continuous
 62
     0
370
     0
100
AcDbLine
 10
954.004484
 20
180.189064
 30
0.0
 11
954.837158
 21
179.356389
 31
0.0
  0
LINE
  5
155
330
151
100
AcDbEntity
  8
0
  6
Continuous
 62
     0
370
     0
100
AcDbLine
 10
954.027152
 20
179.60071
 30
0.0
 11
954.859826
 21
178.768036
 31
0.0
  0
LINE
  5
156
330
151
100
AcDbEntity
  8
0
  6
Continuous
 62
     0
370
     0
100
AcDbLine
 10
954.049819
 20
179.012357
 30
0.0
 11
954.882494
 21
178.179683
 31
0.0
  0
LINE
  5
157
330
151
100
AcDbEntity
  8
0
  6
Continuous
 62
     0
370
     0
100
AcDbLine
 10
957.303627
 20
175.758549
 30
0.0
 11
957.796853
 21
175.265324
 31
0.0
  0
LINE
  5
158
330
151
100
AcDbEntity
  8
0
  6
Continuous
 62
     0
370
     0
100
AcDbLine
 10
954.072487
 20
178.424004
 30
0.0
 11
954.905161
 21
177.59133
 31
0.0
  0
LINE
  5
159
330
151
100
AcDbEntity
  8
0
  6
Continuous
 62
     0
370
     0
100
AcDbLine
 10
954.095155
 20
177.835651
 30
0.0
 11
954.927829
 21
177.002977
 31
0.0
  0
LINE
  5
15A
330
151
100
AcDbEntity
  8
0
  6
Continuous
 62
     0
370
     0
100
AcDbLine
 10
956.758924
 20
175.737567
 30
0.0
 11
957.529822
 21
174.966669
 31
0.0
  0
LINE
  5
15B
330
151
100
AcDbEntity
  8
0
  6
Continuous
 62
     0
370
     0
100
AcDbLine
 10
956.21422
 20
175.716586
 30
0.0
 11
956.985118
 21
174.945687
 31
0.0
  0
LINE
  5
15C
330
151
100
AcDbEntity
  8
0
  6
Continuous
 62
     0
370
     0
100
AcDbLine
 10
954.117822
 20
177.247298
 30
0.0
 11
954.956671
 21
176.408449
 31
0.0
  0
LINE
  5
15D
330
151
100
AcDbEntity
  8
0
  6
Continuous
 62
     0
370
     0
100
AcDbLine
 10
955.658121
 20
175.707
 30
0.0
 11
956.440415
 21
174.924705
 31
0.0
  0
LINE
  5
15E
330
151
100
AcDbEntity
  8
0
  6
Continuous
 62
     0
370
     0
100
AcDbLine
 10
954.14049
 20
176.658945
 30
0.0
 11
955.895711
 21
174.903723
 31
0.0
  0
LINE
  5
15F
330
151
100
AcDbEntity
  8
0
  6
Continuous
 62
     0
370
     0
100
AcDbLine
 10
954.236648
 20
175.997101
 30
0.0
 11
955.250233
 21
174.983517
 31
0.0
  0
ENDBLK
  5
161
330
151
100
AcDbEntity
  8
0
100
AcDbBlockEnd
  0
BLOCK
  5
16F
330
163
100
AcDbEntity
  8
0
100
AcDbBlockBegin
  2
.TD_XHATCH_40
 70
     0
 10
-953.178488
 20
5879.918592
 30
0.0
  3
.TD_XHATCH_40
  1

  0
LINE
  5
164
330
163
100
AcDbEntity
  8
0
  6
Continuous
 62
     0
100
AcDbLine
 10
963.897084
 20
180.468573
 30
0.0
 11
964.297108
 21
180.868719
 31
0.0
  0
LINE
  5
165
330
163
100
AcDbEntity
  8
0
  6
Continuous
 62
     0
100
AcDbLine
 10
964.862782
 20
180.868719
 30
0.0
 11
964.462758
 21
180.468573
 31
0.0
  0
LINE
  5
166
330
163
100
AcDbEntity
  8
0
  6
Continuous
 62
     0
100
AcDbLine
 10
965.028432
 20
180.468573
 30
0.0
 11
965.428456
 21
180.868719
 31
0.0
  0
LINE
  5
167
330
163
100
AcDbEntity
  8
0
  6
Continuous
 62
     0
100
AcDbLine
 10
965.99413
 20
180.868719
 30
0.0
 11
965.594106
 21
180.468573
 31
0.0
  0
LINE
  5
168
330
163
100
AcDbEntity
  8
0
  6
Continuous
 62
     0
100
AcDbLine
 10
963.532338
 20
180.6695
 30
0.0
 11
963.731313
 21
180.868719
 31
0.0
  0
LINE
  5
169
330
163
100
AcDbEntity
  8
0
  6
Continuous
 62
     0
100
AcDbLine
 10
963.532338
 20
180.549139
 30
0.0
 11
963.612782
 21
180.468573
 31
0.0
  0
LINE
  5
16A
330
163
100
AcDbEntity
  8
0
  6
Continuous
 62
     0
100
AcDbLine
 10
964.178456
 20
180.468573
 30
0.0
 11
963.778432
 21
180.868719
 31
0.0
  0
LINE
  5
16B
330
163
100
AcDbEntity
  8
0
  6
Continuous
 62
     0
100
AcDbLine
 10
964.344106
 20
180.868719
 30
0.0
 11
964.74413
 21
180.468573
 31
0.0
  0
LINE
  5
16C
330
163
100
AcDbEntity
  8
0
  6
Continuous
 62
     0
100
AcDbLine
 10
965.309804
 20
180.468573
 30
0.0
 11
964.909901
 21
180.868719
 31
0.0
  0
LINE
  5
16D
330
163
100
AcDbEntity
  8
0
  6
Continuous
 62
     0
100
AcDbLine
 10
965.475575
 20
180.868719
 30
0.0
 11
965.875478
 21
180.468573
 31
0.0
  0
LINE
  5
16E
330
163
100
AcDbEntity
  8
0
  6
Continuous
 62
     0
100
AcDbLine
 10
966.143666
 20
180.76618
 30
0.0
 11
966.041249
 21
180.868719
 31
0.0
  0
ENDBLK
  5
170
330
163
100
AcDbEntity
  8
0
100
AcDbBlockEnd
  0
BLOCK
  5
194
330
172
100
AcDbEntity
  8
0
100
AcDbBlockBegin
  2
.Hatch_15
 70
     0
 10
4807.30784
 20
-5158.0443
 30
0.0
  3
.Hatch_15
  1

  0
LINE
  5
174
330
172
100
AcDbEntity
  8
0
  6
HIDDEN2
 62
     0
370
     0
100
AcDbLine
 10
961.924849
 20
176.228529
 30
0.0
 11
961.376674
 21
176.776705
 31
0.0
  0
LINE
  5
175
330
172
100
AcDbEntity
  8
0
  6
HIDDEN2
 62
     0
370
     0
100
AcDbLine
 10
962.773378
 20
176.228529
 30
0.0
 11
961.444938
 21
177.556968
 31
0.0
  0
LINE
  5
176
330
172
100
AcDbEntity
  8
0
  6
HIDDEN2
 62
     0
370
     0
100
AcDbLine
 10
963.621906
 20
176.228529
 30
0.0
 11
961.513202
 21
178.337232
 31
0.0
  0
LINE
  5
177
330
172
100
AcDbEntity
  8
0
  6
HIDDEN2
 62
     0
370
     0
100
AcDbLine
 10
974.683972
 20
166.01499
 30
0.0
 11
974.190238
 21
166.508725
 31
0.0
  0
LINE
  5
178
330
172
100
AcDbEntity
  8
0
  6
HIDDEN2
 62
     0
370
     0
100
AcDbLine
 10
964.166079
 20
176.532884
 30
0.0
 11
961.629903
 21
179.069059
 31
0.0
  0
LINE
  5
179
330
172
100
AcDbEntity
  8
0
  6
HIDDEN2
 62
     0
370
     0
100
AcDbLine
 10
975.596338
 20
165.951153
 30
0.0
 11
974.071469
 21
167.476022
 31
0.0
  0
LINE
  5
17A
330
172
100
AcDbEntity
  8
0
  6
HIDDEN2
 62
     0
370
     0
100
AcDbLine
 10
964.234343
 20
177.313148
 30
0.0
 11
961.912033
 21
179.635458
 31
0.0
  0
LINE
  5
17B
330
172
100
AcDbEntity
  8
0
  6
HIDDEN2
 62
     0
370
     0
100
AcDbLine
 10
976.508703
 20
165.887316
 30
0.0
 11
973.9527
 21
168.443319
 31
0.0
  0
LINE
  5
17C
330
172
100
AcDbEntity
  8
0
  6
HIDDEN2
 62
     0
370
     0
100
AcDbLine
 10
964.72749
 20
177.668529
 30
0.0
 11
962.335687
 21
180.060332
 31
0.0
  0
LINE
  5
17D
330
172
100
AcDbEntity
  8
0
  6
HIDDEN2
 62
     0
370
     0
100
AcDbLine
 10
977.049819
 20
166.194728
 30
0.0
 11
973.83393
 21
169.410617
 31
0.0
  0
LINE
  5
17E
330
172
100
AcDbEntity
  8
0
  6
HIDDEN2
 62
     0
370
     0
100
AcDbLine
 10
965.576018
 20
177.668529
 30
0.0
 11
962.888779
 21
180.355768
 31
0.0
  0
LINE
  5
17F
330
172
100
AcDbEntity
  8
0
  6
HIDDEN2
 62
     0
370
     0
100
AcDbLine
 10
976.93105
 20
167.162025
 30
0.0
 11
973.715161
 21
170.377914
 31
0.0
  0
LINE
  5
180
330
172
100
AcDbEntity
  8
0
  6
HIDDEN2
 62
     0
370
     0
100
AcDbLine
 10
976.812281
 20
168.129322
 30
0.0
 11
973.596392
 21
171.345211
 31
0.0
  0
LINE
  5
181
330
172
100
AcDbEntity
  8
0
  6
HIDDEN2
 62
     0
370
     0
100
AcDbLine
 10
976.693512
 20
169.09662
 30
0.0
 11
973.477623
 21
172.312509
 31
0.0
  0
LINE
  5
182
330
172
100
AcDbEntity
  8
0
  6
HIDDEN2
 62
     0
370
     0
100
AcDbLine
 10
966.424547
 20
177.668529
 30
0.0
 11
963.624547
 21
180.468529
 31
0.0
  0
LINE
  5
183
330
172
100
AcDbEntity
  8
0
  6
HIDDEN2
 62
     0
370
     0
100
AcDbLine
 10
967.273075
 20
177.668529
 30
0.0
 11
964.473075
 21
180.468529
 31
0.0
  0
LINE
  5
184
330
172
100
AcDbEntity
  8
0
  6
HIDDEN2
 62
     0
370
     0
100
AcDbLine
 10
968.121603
 20
177.668529
 30
0.0
 11
965.321603
 21
180.468529
 31
0.0
  0
LINE
  5
185
330
172
100
AcDbEntity
  8
0
  6
HIDDEN2
 62
     0
370
     0
100
AcDbLine
 10
976.574743
 20
170.063917
 30
0.0
 11
973.358854
 21
173.279806
 31
0.0
  0
LINE
  5
186
330
172
100
AcDbEntity
  8
0
  6
HIDDEN2
 62
     0
370
     0
100
AcDbLine
 10
976.455973
 20
171.031214
 30
0.0
 11
973.240084
 21
174.247104
 31
0.0
  0
LINE
  5
187
330
172
100
AcDbEntity
  8
0
  6
HIDDEN2
 62
     0
370
     0
100
AcDbLine
 10
976.337204
 20
171.998512
 30
0.0
 11
973.121315
 21
175.214401
 31
0.0
  0
LINE
  5
188
330
172
100
AcDbEntity
  8
0
  6
HIDDEN2
 62
     0
370
     0
100
AcDbLine
 10
976.218435
 20
172.965809
 30
0.0
 11
973.002546
 21
176.181698
 31
0.0
  0
LINE
  5
189
330
172
100
AcDbEntity
  8
0
  6
HIDDEN2
 62
     0
370
     0
100
AcDbLine
 10
968.970131
 20
177.668529
 30
0.0
 11
966.170131
 21
180.468529
 31
0.0
  0
LINE
  5
18A
330
172
100
AcDbEntity
  8
0
  6
HIDDEN2
 62
     0
370
     0
100
AcDbLine
 10
969.818659
 20
177.668529
 30
0.0
 11
967.018659
 21
180.468529
 31
0.0
  0
LINE
  5
18B
330
172
100
AcDbEntity
  8
0
  6
HIDDEN2
 62
     0
370
     0
100
AcDbLine
 10
970.667188
 20
177.668529
 30
0.0
 11
967.867188
 21
180.468529
 31
0.0
  0
LINE
  5
18C
330
172
100
AcDbEntity
  8
0
  6
HIDDEN2
 62
     0
370
     0
100
AcDbLine
 10
971.515716
 20
177.668529
 30
0.0
 11
968.715716
 21
180.468529
 31
0.0
  0
LINE
  5
18D
330
172
100
AcDbEntity
  8
0
  6
HIDDEN2
 62
     0
370
     0
100
AcDbLine
 10
976.099666
 20
173.933107
 30
0.0
 11
972.840415
 21
177.192357
 31
0.0
  0
LINE
  5
18E
330
172
100
AcDbEntity
  8
0
  6
HIDDEN2
 62
     0
370
     0
100
AcDbLine
 10
972.435546
 20
177.597227
 30
0.0
 11
969.564244
 21
180.468529
 31
0.0
  0
LINE
  5
18F
330
172
100
AcDbEntity
  8
0
  6
HIDDEN2
 62
     0
370
     0
100
AcDbLine
 10
975.980897
 20
174.900404
 30
0.0
 11
970.412772
 21
180.468529
 31
0.0
  0
LINE
  5
190
330
172
100
AcDbEntity
  8
0
  6
HIDDEN2
 62
     0
370
     0
100
AcDbLine
 10
975.862128
 20
175.867701
 30
0.0
 11
971.2613
 21
180.468529
 31
0.0
  0
LINE
  5
191
330
172
100
AcDbEntity
  8
0
  6
HIDDEN2
 62
     0
370
     0
100
AcDbLine
 10
975.743358
 20
176.834999
 30
0.0
 11
972.109828
 21
180.468529
 31
0.0
  0
LINE
  5
192
330
172
100
AcDbEntity
  8
0
  6
HIDDEN2
 62
     0
370
     0
100
AcDbLine
 10
975.624589
 20
177.802296
 30
0.0
 11
972.958357
 21
180.468529
 31
0.0
  0
LINE
  5
193
330
172
100
AcDbEntity
  8
0
  6
HIDDEN2
 62
     0
370
     0
100
AcDbLine
 10
975.50582
 20
178.769593
 30
0.0
 11
973.806885
 21
180.468529
 31
0.0
  0
ENDBLK
  5
195
330
172
100
AcDbEntity
  8
0
100
AcDbBlockEnd
  0
BLOCK
  5
1A6
330
19F
100
AcDbEntity
  8
0
100
AcDbBlockBegin
  2
.TD_DIMENSION_2
 70
     0
 10
1932.345458
 20
355.104064
 30
0.0
  3
.TD_DIMENSION_2
  1

  0
LINE
  5
1A0
330
19F
100
AcDbEntity
  8
0
  6
Continuous
 62
     0
100
AcDbLine
 10
967.970947
 20
178.915527
 30
0.0
 11
970.768677
 21
183.838379
 31
0.0
  0
LINE
  5
1A1
330
19F
100
AcDbEntity
  8
0
  6
Continuous
 62
     0
100
AcDbLine
 10
970.768677
 20
183.838379
 30
0.0
 11
971.268677
 21
183.838379
 31
0.0
  0
MTEXT
  5
1A2
330
19F
100
AcDbEntity
  8
0
  6
Continuous
 62
     0
100
AcDbMText
 10
971.42865
 20
184.638376
 30
0.0
 40
1.6
 41
0.0
 46
0.0
 71
     1
 72
     1
  1
{\fArial|b0|i0;Lavello}
 73
     2
 44
0.99598
  0
LINE
  5
1A3
330
19F
100
AcDbEntity
  8
0
  6
Continuous
 62
     0
100
AcDbLine
 10
968.133667
 20
179.398163
 30
0.0
 11
967.970947
 21
178.915527
 31
0.0
  0
LINE
  5
1A4
330
19F
100
AcDbEntity
  8
0
  6
Continuous
 62
     0
100
AcDbLine
 10
967.970947
 20
178.915527
 30
0.0
 11
968.302307
 21
179.302307
 31
0.0
  0
LINE
  5
1A5
330
19F
100
AcDbEntity
  8
0
  6
Continuous
 62
     0
100
AcDbLine
 10
968.302307
 20
179.302307
 30
0.0
 11
968.133667
 21
179.398163
 31
0.0
  0
ENDBLK
  5
1A7
330
19F
100
AcDbEntity
  8
0
100
AcDbBlockEnd
  0
BLOCK
  5
1B0
330
1A9
100
AcDbEntity
  8
0
100
AcDbBlockBegin
  2
.TD_DIMENSION_3
 70
     0
 10
1928.742676
 20
358.743928
 30
0.0
  3
.TD_DIMENSION_3
  1

  0
LINE
  5
1AA
330
1A9
100
AcDbEntity
  8
0
  6
Continuous
 62
     0
100
AcDbLine
 10
966.143555
 20
180.684326
 30
0.0
 11
969.96167
 21
189.626465
 31
0.0
  0
LINE
  5
1AB
330
1A9
100
AcDbEntity
  8
0
  6
Continuous
 62
     0
100
AcDbLine
 10
969.96167
 20
189.626465
 30
0.0
 11
970.46167
 21
189.626465
 31
0.0
  0
MTEXT
  5
1AC
330
1A9
100
AcDbEntity
  8
0
  6
Continuous
 62
     0
100
AcDbMText
 10
970.621643
 20
190.426462
 30
0.0
 40
1.6
 41
0.0
 46
0.0
 71
     1
 72
     1
  1
{\fArial|b0|i0;Sigillante}
 73
     2
 44
0.99598
  0
LINE
  5
1AD
330
1A9
100
AcDbEntity
  8
0
  6
Continuous
 62
     0
100
AcDbLine
 10
966.250671
 20
181.182251
 30
0.0
 11
966.143555
 21
180.684326
 31
0.0
  0
LINE
  5
1AE
330
1A9
100
AcDbEntity
  8
0
  6
Continuous
 62
     0
100
AcDbLine
 10
966.143555
 20
180.684326
 30
0.0
 11
966.429077
 21
181.106079
 31
0.0
  0
LINE
  5
1AF
330
1A9
100
AcDbEntity
  8
0
  6
Continuous
 62
     0
100
AcDbLine
 10
966.429077
 20
181.106079
 30
0.0
 11
966.250671
 21
181.182251
 31
0.0
  0
ENDBLK
  5
1B1
330
1A9
100
AcDbEntity
  8
0
100
AcDbBlockEnd
  0
BLOCK
  5
1BA
330
1B3
100
AcDbEntity
  8
0
100
AcDbBlockBegin
  2
.TD_DIMENSION_4
 70
     0
 10
1924.069214
 20
391.511596
 30
0.0
  3
.TD_DIMENSION_4
  1

  0
LINE
  5
1B4
330
1B3
100
AcDbEntity
  8
0
  6
Continuous
 62
     0
100
AcDbLine
 10
963.645752
 20
196.868408
 30
0.0
 11
963.152832
 21
203.246582
 31
0.0
  0
LINE
  5
1B5
330
1B3
100
AcDbEntity
  8
0
  6
Continuous
 62
     0
100
AcDbLine
 10
963.152832
 20
203.246582
 30
0.0
 11
963.652832
 21
203.246582
 31
0.0
  0
MTEXT
  5
1B6
330
1B3
100
AcDbEntity
  8
0
  6
Continuous
 62
     0
100
AcDbMText
 10
963.812805
 20
204.046579
 30
0.0
 40
1.6
 41
0.0
 46
0.0
 71
     1
 72
     1
  1
{\fArial|b0|i0;Piano di lavoro (marmo / granito)}
 73
     2
 44
0.99598
  0
LINE
  5
1B7
330
1B3
100
AcDbEntity
  8
0
  6
Continuous
 62
     0
100
AcDbLine
 10
963.510498
 20
197.359451
 30
0.0
 11
963.645752
 21
196.868408
 31
0.0
  0
LINE
  5
1B8
330
1B3
100
AcDbEntity
  8
0
  6
Continuous
 62
     0
100
AcDbLine
 10
963.645752
 20
196.868408
 30
0.0
 11
963.703918
 21
197.37439
 31
0.0
  0
LINE
  5
1B9
330
1B3
100
AcDbEntity
  8
0
  6
Continuous
 62
     0
100
AcDbLine
 10
963.703918
 20
197.37439
 30
0.0
 11
963.510498
 21
197.359451
 31
0.0
  0
ENDBLK
  5
1BB
330
1B3
100
AcDbEntity
  8
0
100
AcDbBlockEnd
  0
BLOCK
  5
1C4
330
1BD
100
AcDbEntity
  8
0
100
AcDbBlockBegin
  2
.TD_DIMENSION_5
 70
     0
 10
1885.628052
 20
368.480958
 30
0.0
  3
.TD_DIMENSION_5
  1

  0
LINE
  5
1BE
330
1BD
100
AcDbEntity
  8
0
  6
Continuous
 62
     0
100
AcDbLine
 10
961.109863
 20
185.284424
 30
0.0
 11
961.48999
 21
193.731201
 31
0.0
  0
LINE
  5
1BF
330
1BD
100
AcDbEntity
  8
0
  6
Continuous
 62
     0
100
AcDbLine
 10
961.48999
 20
193.731201
 30
0.0
 11
960.98999
 21
193.731201
 31
0.0
  0
MTEXT
  5
1C0
330
1BD
100
AcDbEntity
  8
0
  6
Continuous
 62
     0
100
AcDbMText
 10
942.814026
 20
194.531198
 30
0.0
 40
1.6
 41
0.0
 46
0.0
 71
     1
 72
     1
  1
{\fArial|b0|i0;Bussola M5 11x11}
 73
     2
 44
0.99598
  0
LINE
  5
1C1
330
1BD
100
AcDbEntity
  8
0
  6
Continuous
 62
     0
100
AcDbLine
 10
961.035461
 20
185.788284
 30
0.0
 11
961.109863
 21
185.284424
 31
0.0
  0
LINE
  5
1C2
330
1BD
100
AcDbEntity
  8
0
  6
Continuous
 62
     0
100
AcDbLine
 10
961.109863
 20
185.284424
 30
0.0
 11
961.229248
 21
185.779556
 31
0.0
  0
LINE
  5
1C3
330
1BD
100
AcDbEntity
  8
0
  6
Continuous
 62
     0
100
AcDbLine
 10
961.229248
 20
185.779556
 30
0.0
 11
961.035461
 21
185.788284
 31
0.0
  0
ENDBLK
  5
1C5
330
1BD
100
AcDbEntity
  8
0
100
AcDbBlockEnd
  0
BLOCK
  5
1CD
330
1C7
100
AcDbEntity
  8
0
100
AcDbBlockBegin
  2
.TD_DIMENSION_6
 70
     0
 10
1865.915406
 20
352.432922
 30
0.0
  3
.TD_DIMENSION_6
  1

  0
LINE
  5
1C8
330
1C7
100
AcDbEntity
  8
0
  6
Continuous
 62
     0
100
AcDbLine
 10
954.064453
 20
178.276611
 30
0.0
 11
950.397705
 21
177.512451
 31
0.0
  0
MTEXT
  5
1C9
330
1C7
100
AcDbEntity
  8
0
  6
Continuous
 62
     0
100
AcDbMText
 10
932.957703
 20
178.312448
 30
0.0
 40
1.6
 41
0.0
 46
0.0
 71
     1
 72
     1
  1
{\fArial|b0|i0;Staffa di fissaggio}
 73
     2
 44
0.99598
  0
LINE
  5
1CA
330
1C7
100
AcDbEntity
  8
0
  6
Continuous
 62
     0
100
AcDbLine
 10
953.594788
 20
178.079636
 30
0.0
 11
954.064453
 21
178.276611
 31
0.0
  0
LINE
  5
1CB
330
1C7
100
AcDbEntity
  8
0
  6
Continuous
 62
     0
100
AcDbLine
 10
954.064453
 20
178.276611
 30
0.0
 11
953.555176
 21
178.269562
 31
0.0
  0
LINE
  5
1CC
330
1C7
100
AcDbEntity
  8
0
  6
Continuous
 62
     0
100
AcDbLine
 10
953.555176
 20
178.269562
 30
0.0
 11
953.594788
 21
178.079636
 31
0.0
  0
ENDBLK
  5
1CE
330
1C7
100
AcDbEntity
  8
0
100
AcDbBlockEnd
  0
BLOCK
  5
1D7
330
1D0
100
AcDbEntity
  8
0
100
AcDbBlockBegin
  2
.TD_DIMENSION_7
 70
     0
 10
1887.437622
 20
355.346496
 30
0.0
  3
.TD_DIMENSION_7
  1

  0
LINE
  5
1D1
330
1D0
100
AcDbEntity
  8
0
  6
Continuous
 62
     0
100
AcDbLine
 10
958.509766
 20
179.438232
 30
0.0
 11
953.498779
 21
184.5271
 31
0.0
  0
LINE
  5
1D2
330
1D0
100
AcDbEntity
  8
0
  6
Continuous
 62
     0
100
AcDbLine
 10
953.498779
 20
184.5271
 30
0.0
 11
952.998779
 21
184.5271
 31
0.0
  0
MTEXT
  5
1D3
330
1D0
100
AcDbEntity
  8
0
  6
Continuous
 62
     0
100
AcDbMText
 10
943.718811
 20
185.327097
 30
0.0
 40
1.6
 41
0.0
 46
0.0
 71
     1
 72
     1
  1
{\fArial|b0|i0;Vite 5x25}
 73
     2
 44
0.99598
  0
LINE
  5
1D4
330
1D0
100
AcDbEntity
  8
0
  6
Continuous
 62
     0
100
AcDbLine
 10
958.089844
 20
179.72644
 30
0.0
 11
958.509766
 21
179.438232
 31
0.0
  0
LINE
  5
1D5
330
1D0
100
AcDbEntity
  8
0
  6
Continuous
 62
     0
100
AcDbLine
 10
958.509766
 20
179.438232
 30
0.0
 11
958.228088
 21
179.862564
 31
0.0
  0
LINE
  5
1D6
330
1D0
100
AcDbEntity
  8
0
  6
Continuous
 62
     0
100
AcDbLine
 10
958.228088
 20
179.862564
 30
0.0
 11
958.089844
 21
179.72644
 31
0.0
  0
ENDBLK
  5
1D8
330
1D0
100
AcDbEntity
  8
0
100
AcDbBlockEnd
  0
BLOCK
  5
1EF
330
1E4
100
AcDbEntity
  8
0
100
AcDbBlockBegin
  2
.TD_DIMENSION_8
 70
     0
 10
2611.497802
 20
-396.930542
 30
0.0
  3
.TD_DIMENSION_8
  1

  0
LINE
  5
1E5
330
1E4
100
AcDbEntity
  8
0
  6
Continuous
 62
     0
100
AcDbLine
 10
1355.748901
 20
-148.465271
 30
0.0
 11
2193.749023
 21
-148.465271
 31
0.0
  0
LINE
  5
1E6
330
1E4
100
AcDbEntity
  8
0
  6
Continuous
 62
     0
100
AcDbLine
 10
1355.748901
 20
-163.465271
 30
0.0
 11
1355.748901
 21
-90.678879
 31
0.0
  0
LINE
  5
1E7
330
1E4
100
AcDbEntity
  8
0
  6
Continuous
 62
     0
100
AcDbLine
 10
2193.749023
 20
-163.465271
 30
0.0
 11
2193.749023
 21
-90.678879
 31
0.0
  0
MTEXT
  5
1E8
330
1E4
100
AcDbEntity
  8
0
  6
Continuous
 62
     0
100
AcDbMText
 10
1727.293701
 20
-110.965271
 30
0.0
 40
25.0
 41
0.0
 46
0.0
 71
     1
 72
     1
  1
{\fArial|b0|i0;838 (33")}
 73
     2
 44
0.99598
  0
LINE
  5
1E9
330
1E4
100
AcDbEntity
  8
0
  6
Continuous
 62
     0
100
AcDbLine
 10
1380.748901
 20
-143.615265
 30
0.0
 11
1355.748901
 21
-148.465271
 31
0.0
  0
LINE
  5
1EA
330
1E4
100
AcDbEntity
  8
0
  6
Continuous
 62
     0
100
AcDbLine
 10
1355.748901
 20
-148.465271
 30
0.0
 11
1380.748901
 21
-153.315277
 31
0.0
  0
LINE
  5
1EB
330
1E4
100
AcDbEntity
  8
0
  6
Continuous
 62
     0
100
AcDbLine
 10
1380.748901
 20
-153.315277
 30
0.0
 11
1380.748901
 21
-143.615265
 31
0.0
  0
LINE
  5
1EC
330
1E4
100
AcDbEntity
  8
0
  6
Continuous
 62
     0
100
AcDbLine
 10
2168.749023
 20
-143.615265
 30
0.0
 11
2193.749023
 21
-148.465271
 31
0.0
  0
LINE
  5
1ED
330
1E4
100
AcDbEntity
  8
0
  6
Continuous
 62
     0
100
AcDbLine
 10
2193.749023
 20
-148.465271
 30
0.0
 11
2168.749023
 21
-153.315277
 31
0.0
  0
LINE
  5
1EE
330
1E4
100
AcDbEntity
  8
0
  6
Continuous
 62
     0
100
AcDbLine
 10
2168.749023
 20
-153.315277
 30
0.0
 11
2168.749023
 21
-143.615265
 31
0.0
  0
ENDBLK
  5
1F0
330
1E4
100
AcDbEntity
  8
0
100
AcDbBlockEnd
  0
BLOCK
  5
1FD
330
1F2
100
AcDbEntity
  8
0
100
AcDbBlockBegin
  2
.TD_DIMENSION_9
 70
     0
 10
4442.498046
 20
-226.357758
 30
0.0
  3
.TD_DIMENSION_9
  1

  0
LINE
  5
1F3
330
1F2
100
AcDbEntity
  8
0
  6
Continuous
 62
     0
100
AcDbLine
 10
2301.124756
 20
-63.178879
 30
0.0
 11
2301.124756
 21
415.821106
 31
0.0
  0
LINE
  5
1F4
330
1F2
100
AcDbEntity
  8
0
  6
Continuous
 62
     0
100
AcDbLine
 10
2316.124756
 20
-63.178879
 30
0.0
 11
2221.249023
 21
-63.178879
 31
0.0
  0
LINE
  5
1F5
330
1F2
100
AcDbEntity
  8
0
  6
Continuous
 62
     0
100
AcDbLine
 10
2316.124756
 20
415.821106
 30
0.0
 11
2221.249023
 21
415.821106
 31
0.0
  0
MTEXT
  5
1F6
330
1F2
100
AcDbEntity
  8
0
  6
Continuous
 62
     0
100
AcDbMText
 10
2263.624755
 20
77.821121
 30
0.0
 40
25.0
 41
0.0
 46
0.0
 71
     1
 72
     1
  1
{\fArial|b0|i0;479 (18 7/8")}
 11
3.896499959564406E-12
 21
1.0
 31
0.0
 73
     2
 44
0.99598
  0
LINE
  5
1F7
330
1F2
100
AcDbEntity
  8
0
  6
Continuous
 62
     0
100
AcDbLine
 10
2296.274658
 20
-38.178879
 30
0.0
 11
2301.124756
 21
-63.178879
 31
0.0
  0
LINE
  5
1F8
330
1F2
100
AcDbEntity
  8
0
  6
Continuous
 62
     0
100
AcDbLine
 10
2301.124756
 20
-63.178879
 30
0.0
 11
2305.974854
 21
-38.178879
 31
0.0
  0
LINE
  5
1F9
330
1F2
100
AcDbEntity
  8
0
  6
Continuous
 62
     0
100
AcDbLine
 10
2305.974854
 20
-38.178879
 30
0.0
 11
2296.274658
 21
-38.178879
 31
0.0
  0
LINE
  5
1FA
330
1F2
100
AcDbEntity
  8
0
  6
Continuous
 62
     0
100
AcDbLine
 10
2296.274658
 20
390.821106
 30
0.0
 11
2301.124756
 21
415.821106
 31
0.0
  0
LINE
  5
1FB
330
1F2
100
AcDbEntity
  8
0
  6
Continuous
 62
     0
100
AcDbLine
 10
2301.124756
 20
415.821106
 30
0.0
 11
2305.974854
 21
390.821106
 31
0.0
  0
LINE
  5
1FC
330
1F2
100
AcDbEntity
  8
0
  6
Continuous
 62
     0
100
AcDbLine
 10
2305.974854
 20
390.821106
 30
0.0
 11
2296.274658
 21
390.821106
 31
0.0
  0
ENDBLK
  5
1FE
330
1F2
100
AcDbEntity
  8
0
100
AcDbBlockEnd
  0
BLOCK
  5
208
330
200
100
AcDbEntity
  8
0
100
AcDbBlockBegin
  2
.TD_DIMENSION_10
 70
     0
 10
2577.510742
 20
523.795594
 30
0.0
  3
.TD_DIMENSION_10
  1

  0
LINE
  5
201
330
200
100
AcDbEntity
  8
0
  6
Continuous
 62
     0
100
AcDbLine
 10
1359.250732
 20
413.422028
 30
0.0
 11
1365.748901
 21
405.821106
 31
0.0
  0
LINE
  5
202
330
200
100
AcDbEntity
  8
0
  6
Continuous
 62
     0
100
AcDbLine
 10
1365.748901
 20
405.821106
 30
0.0
 11
1488.791626
 21
261.897797
 31
0.0
  0
MTEXT
  5
203
330
200
100
AcDbEntity
  8
0
  6
Continuous
 62
     0
100
AcDbMText
 10
1413.746788
 20
407.38649
 30
0.0
 40
25.0
 41
0.0
 46
0.0
 71
     1
 72
     1
  1
{\fArial|b0|i0;R}
 11
0.6498161323807745
 21
-0.760091437984728
 31
0.0
 73
     2
 44
0.99598
  0
MTEXT
  5
204
330
200
100
AcDbEntity
  8
0
  6
Continuous
 62
     0
100
AcDbMText
 10
1429.992157
 20
388.384201
 30
0.0
 40
25.0
 41
0.0
 46
0.0
 71
     1
 72
     1
  1
{\fArial|b0|i0;10 (3/8")}
 11
0.6498161323807745
 21
-0.760091437984728
 31
0.0
 73
     2
 44
0.99598
  0
LINE
  5
205
330
200
100
AcDbEntity
  8
0
  6
Continuous
 62
     0
100
AcDbLine
 10
1379.182617
 20
397.57135
 30
0.0
 11
1359.250732
 21
413.422028
 31
0.0
  0
LINE
  5
206
330
200
100
AcDbEntity
  8
0
  6
Continuous
 62
     0
100
AcDbLine
 10
1359.250732
 20
413.422028
 30
0.0
 11
1371.809692
 21
391.268127
 31
0.0
  0
LINE
  5
207
330
200
100
AcDbEntity
  8
0
  6
Continuous
 62
     0
100
AcDbLine
 10
1371.809692
 20
391.268127
 30
0.0
 11
1379.182617
 21
397.57135
 31
0.0
  0
ENDBLK
  5
209
330
200
100
AcDbEntity
  8
0
100
AcDbBlockEnd
  0
BLOCK
  5
216
330
20C
100
AcDbEntity
  8
0
100
AcDbBlockBegin
  2
*D16
 70
     1
 10
0.0
 20
0.0
 30
0.0
  3
*D16
  1

  0
LINE
  5
20D
330
20C
100
AcDbEntity
  8
0
  6
Continuous
 62
    32
370
    -2
100
AcDbLine
 10
956.62785
 20
91.093779
 30
0.0
 11
956.62785
 21
85.478928
 31
0.0
  0
LINE
  5
20E
330
20C
100
AcDbEntity
  8
0
  6
Continuous
 62
    32
370
    -2
100
AcDbLine
 10
1010.37785
 20
91.093779
 30
0.0
 11
1010.37785
 21
85.478928
 31
0.0
  0
LINE
  5
20F
330
20C
100
AcDbEntity
  8
0
  6
Continuous
 62
    32
370
    -2
100
AcDbLine
 10
958.54785
 20
86.630928
 30
0.0
 11
1008.45785
 21
86.630928
 31
0.0
  0
INSERT
  5
210
330
20C
100
AcDbEntity
  8
0
 62
    32
370
    -2
100
AcDbBlockReference
  2
_CLOSED
 10
956.62785
 20
86.630928
 30
0.0
 41
1.92
 42
1.92
 43
1.92
 50
180.0
  0
INSERT
  5
211
330
20C
100
AcDbEntity
  8
0
 62
    32
370
    -2
100
AcDbBlockReference
  2
_CLOSED
 10
1010.37785
 20
86.630928
 30
0.0
 41
1.92
 42
1.92
 43
1.92
  0
MTEXT
  5
212
330
20C
100
AcDbEntity
  8
0
 62
     1
370
     0
100
AcDbMText
 10
983.50285
 20
88.571088
 30
0.0
 40
1.92
 41
0.0
 46
0.0
 71
     5
 72
     1
  1
\fArial|b0|i0|c0|p0;{\fArial|b0|i0;860}
 73
     1
 44
1.0
  0
POINT
  5
213
330
20C
100
AcDbEntity
  8
Defpoints
 62
     0
100
AcDbPoint
 10
956.62785
 20
93.973779
 30
0.0
  0
POINT
  5
214
330
20C
100
AcDbEntity
  8
Defpoints
 62
     0
100
AcDbPoint
 10
1010.37785
 20
93.973779
 30
0.0
  0
POINT
  5
215
330
20C
100
AcDbEntity
  8
Defpoints
 62
     0
100
AcDbPoint
 10
1010.37785
 20
86.630928
 30
0.0
  0
ENDBLK
  5
217
330
20C
100
AcDbEntity
  8
0
100
AcDbBlockEnd
  0
BLOCK
  5
223
330
219
100
AcDbEntity
  8
0
100
AcDbBlockBegin
  2
*D17
 70
     1
 10
0.0
 20
0.0
 30
0.0
  3
*D17
  1

  0
LINE
  5
21A
330
219
100
AcDbEntity
  8
3
  6
Continuous
 62
    32
370
    -2
100
AcDbLine
 10
1015.302847
 20
93.536279
 30
0.0
 11
1021.425781
 21
93.536279
 31
0.0
  0
LINE
  5
21B
330
219
100
AcDbEntity
  8
3
  6
Continuous
 62
    32
370
    -2
100
AcDbLine
 10
1015.302847
 20
124.786031
 30
0.0
 11
1021.425781
 21
124.786031
 31
0.0
  0
LINE
  5
21C
330
219
100
AcDbEntity
  8
3
  6
Continuous
 62
    32
370
    -2
100
AcDbLine
 10
1020.300781
 20
94.786279
 30
0.0
 11
1020.300781
 21
123.536031
 31
0.0
  0
INSERT
  5
21D
330
219
100
AcDbEntity
  8
3
 62
    32
370
    -2
100
AcDbBlockReference
  2
_CLOSED
 10
1020.300781
 20
93.536279
 30
0.0
 41
1.25
 42
1.25
 43
1.25
 50
270.0
  0
INSERT
  5
21E
330
219
100
AcDbEntity
  8
3
 62
    32
370
    -2
100
AcDbBlockReference
  2
_CLOSED
 10
1020.300781
 20
124.786031
 30
0.0
 41
1.25
 42
1.25
 43
1.25
 50
90.0
  0
MTEXT
  5
21F
330
219
100
AcDbEntity
  8
3
 62
     1
370
     0
100
AcDbMText
 10
1018.406095
 20
109.161155
 30
0.0
 40
1.874999
 41
0.0
 46
0.0
 71
     5
 72
     1
  1
\fArial|b0|i0|c0|p0;{\fArial|b0|i0;500}
 11
0.0
 21
1.0
 31
0.0
 73
     1
 44
1.0
  0
POINT
  5
220
330
219
100
AcDbEntity
  8
Defpoints
 62
     0
100
AcDbPoint
 10
1009.94035
 20
93.536279
 30
0.0
  0
POINT
  5
221
330
219
100
AcDbEntity
  8
Defpoints
 62
     0
100
AcDbPoint
 10
1009.94035
 20
124.786031
 30
0.0
  0
POINT
  5
222
330
219
100
AcDbEntity
  8
Defpoints
 62
     0
100
AcDbPoint
 10
1020.300781
 20
124.786031
 30
0.0
  0
ENDBLK
  5
224
330
219
100
AcDbEntity
  8
0
100
AcDbBlockEnd
  0
BLOCK
  5
230
330
226
100
AcDbEntity
  8
0
100
AcDbBlockBegin
  2
*D18
 70
     1
 10
0.0
 20
0.0
 30
0.0
  3
*D18
  1

  0
LINE
  5
227
330
226
100
AcDbEntity
  8
0
  6
Continuous
 62
    32
370
    -2
100
AcDbLine
 10
796.775773
 20
154.8455
 30
0.0
 11
796.775773
 21
144.575647
 31
0.0
  0
LINE
  5
228
330
226
100
AcDbEntity
  8
0
  6
Continuous
 62
    32
370
    -2
100
AcDbLine
 10
880.575773
 20
154.8455
 30
0.0
 11
880.575773
 21
144.575647
 31
0.0
  0
LINE
  5
229
330
226
100
AcDbEntity
  8
0
  6
Continuous
 62
    32
370
    -2
100
AcDbLine
 10
800.775773
 20
146.975647
 30
0.0
 11
876.575773
 21
146.975647
 31
0.0
  0
INSERT
  5
22A
330
226
100
AcDbEntity
  8
0
 62
    32
370
    -2
100
AcDbBlockReference
  2
_CLOSED
 10
796.775773
 20
146.975647
 30
0.0
 41
4.0
 42
4.0
 43
4.0
 50
180.0
  0
INSERT
  5
22B
330
226
100
AcDbEntity
  8
0
 62
    32
370
    -2
100
AcDbBlockReference
  2
_CLOSED
 10
880.575773
 20
146.975647
 30
0.0
 41
4.0
 42
4.0
 43
4.0
  0
MTEXT
  5
22C
330
226
100
AcDbEntity
  8
0
 62
     1
370
     0
100
AcDbMText
 10
838.675773
 20
151.595647
 30
0.0
 40
4.0
 41
0.0
 46
0.0
 71
     5
 72
     1
  1
\fArial|b0|i0|c0|p0;{\fArial|b0|i0;838 (33")}
 73
     1
 44
1.0
  0
POINT
  5
22D
330
226
100
AcDbEntity
  8
Defpoints
 62
     0
100
AcDbPoint
 10
796.775773
 20
160.8455
 30
0.0
  0
POINT
  5
22E
330
226
100
AcDbEntity
  8
Defpoints
 62
     0
100
AcDbPoint
 10
880.575773
 20
160.8455
 30
0.0
  0
POINT
  5
22F
330
226
100
AcDbEntity
  8
Defpoints
 62
     0
100
AcDbPoint
 10
880.575773
 20
146.975647
 30
0.0
  0
ENDBLK
  5
231
330
226
100
AcDbEntity
  8
0
100
AcDbBlockEnd
  0
BLOCK
  5
23D
330
233
100
AcDbEntity
  8
0
100
AcDbBlockBegin
  2
*D19
 70
     1
 10
0.0
 20
0.0
 30
0.0
  3
*D19
  1

  0
LINE
  5
234
330
233
100
AcDbEntity
  8
0
  6
Continuous
 62
    32
370
    -2
100
AcDbLine
 10
885.575773
 20
159.8455
 30
0.0
 11
893.713354
 21
159.8455
 31
0.0
  0
LINE
  5
235
330
233
100
AcDbEntity
  8
0
  6
Continuous
 62
    32
370
    -2
100
AcDbLine
 10
885.575773
 20
207.7455
 30
0.0
 11
893.713354
 21
207.7455
 31
0.0
  0
LINE
  5
236
330
233
100
AcDbEntity
  8
0
  6
Continuous
 62
    32
370
    -2
100
AcDbLine
 10
891.313354
 20
163.8455
 30
0.0
 11
891.313354
 21
203.7455
 31
0.0
  0
INSERT
  5
237
330
233
100
AcDbEntity
  8
0
 62
    32
370
    -2
100
AcDbBlockReference
  2
_CLOSED
 10
891.313354
 20
159.8455
 30
0.0
 41
4.0
 42
4.0
 43
4.0
 50
270.0
  0
INSERT
  5
238
330
233
100
AcDbEntity
  8
0
 62
    32
370
    -2
100
AcDbBlockReference
  2
_CLOSED
 10
891.313354
 20
207.7455
 30
0.0
 41
4.0
 42
4.0
 43
4.0
 50
90.0
  0
MTEXT
  5
239
330
233
100
AcDbEntity
  8
0
 62
     1
370
     0
100
AcDbMText
 10
886.693354
 20
183.7955
 30
0.0
 40
4.0
 41
0.0
 46
0.0
 71
     5
 72
     1
  1
\fArial|b0|i0|c0|p0;{\fArial|b0|i0;479 (18 7/8")}
 11
0.0
 21
1.0
 31
0.0
 73
     1
 44
1.0
  0
POINT
  5
23A
330
233
100
AcDbEntity
  8
Defpoints
 62
     0
100
AcDbPoint
 10
879.575773
 20
159.8455
 30
0.0
  0
POINT
  5
23B
330
233
100
AcDbEntity
  8
Defpoints
 62
     0
100
AcDbPoint
 10
879.575773
 20
207.7455
 30
0.0
  0
POINT
  5
23C
330
233
100
AcDbEntity
  8
Defpoints
 62
     0
100
AcDbPoint
 10
891.313354
 20
207.7455
 30
0.0
  0
ENDBLK
  5
23E
330
233
100
AcDbEntity
  8
0
100
AcDbBlockEnd
  0
BLOCK
  5
24A
330
240
100
AcDbEntity
  8
0
100
AcDbBlockBegin
  2
*D20
 70
     1
 10
0.0
 20
0.0
 30
0.0
  3
*D20
  1

  0
LINE
  5
241
330
240
100
AcDbEntity
  8
0
  6
Continuous
 62
     1
370
    -2
100
AcDbLine
 10
954.149259
 20
176.037749
 30
0.0
 11
954.149259
 21
169.378215
 31
0.0
  0
LINE
  5
242
330
240
100
AcDbEntity
  8
0
  6
Continuous
 62
     1
370
    -2
100
AcDbLine
 10
959.710159
 20
172.598493
 30
0.0
 11
959.710159
 21
169.378215
 31
0.0
  0
LINE
  5
243
330
240
100
AcDbEntity
  8
0
  6
Continuous
 62
     1
370
    -2
100
AcDbLine
 10
954.909259
 20
169.858215
 30
0.0
 11
958.950159
 21
169.858215
 31
0.0
  0
INSERT
  5
244
330
240
100
AcDbEntity
  8
0
 62
     1
370
    -2
100
AcDbBlockReference
  2
_CLOSED
 10
954.149259
 20
169.858215
 30
0.0
 41
0.76
 42
0.76
 43
0.76
 50
180.0
  0
INSERT
  5
245
330
240
100
AcDbEntity
  8
0
 62
     1
370
    -2
100
AcDbBlockReference
  2
_CLOSED
 10
959.710159
 20
169.858215
 30
0.0
 41
0.76
 42
0.76
 43
0.76
  0
MTEXT
  5
246
330
240
100
AcDbEntity
  8
0
 62
     2
370
     0
100
AcDbMText
 10
956.929709
 20
171.621415
 30
0.0
 40
1.6
 41
0.0
 46
0.0
 71
     5
 72
     1
  1
\fArial|b0|i0|c0|p0;{\fArial|b0|i0;14}
 73
     1
 44
1.0
  0
POINT
  5
247
330
240
100
AcDbEntity
  8
Defpoints
 62
     0
100
AcDbPoint
 10
954.149259
 20
176.437749
 30
0.0
  0
POINT
  5
248
330
240
100
AcDbEntity
  8
Defpoints
 62
     0
100
AcDbPoint
 10
959.710159
 20
172.998493
 30
0.0
  0
POINT
  5
249
330
240
100
AcDbEntity
  8
Defpoints
 62
     0
100
AcDbPoint
 10
959.710159
 20
169.858215
 30
0.0
  0
ENDBLK
  5
24B
330
240
100
AcDbEntity
  8
0
100
AcDbBlockEnd
  0
BLOCK
  5
257
330
24D
100
AcDbEntity
  8
0
100
AcDbBlockBegin
  2
*D21
 70
     1
 10
0.0
 20
0.0
 30
0.0
  3
*D21
  1

  0
LINE
  5
24E
330
24D
100
AcDbEntity
  8
0
  6
Continuous
 62
     1
370
    -2
100
AcDbLine
 10
954.149259
 20
176.037749
 30
0.0
 11
954.149259
 21
164.479534
 31
0.0
  0
LINE
  5
24F
330
24D
100
AcDbEntity
  8
0
  6
Continuous
 62
     1
370
    -2
100
AcDbLine
 10
965.333258
 20
176.66873
 30
0.0
 11
965.333258
 21
164.479534
 31
0.0
  0
LINE
  5
250
330
24D
100
AcDbEntity
  8
0
  6
Continuous
 62
     1
370
    -2
100
AcDbLine
 10
954.909259
 20
164.959534
 30
0.0
 11
964.573258
 21
164.959534
 31
0.0
  0
INSERT
  5
251
330
24D
100
AcDbEntity
  8
0
 62
     1
370
    -2
100
AcDbBlockReference
  2
_CLOSED
 10
954.149259
 20
164.959534
 30
0.0
 41
0.76
 42
0.76
 43
0.76
 50
180.0
  0
INSERT
  5
252
330
24D
100
AcDbEntity
  8
0
 62
     1
370
    -2
100
AcDbBlockReference
  2
_CLOSED
 10
965.333258
 20
164.959534
 30
0.0
 41
0.76
 42
0.76
 43
0.76
  0
MTEXT
  5
253
330
24D
100
AcDbEntity
  8
0
 62
     2
370
     0
100
AcDbMText
 10
959.741258
 20
166.736334
 30
0.0
 40
1.6
 41
0.0
 46
0.0
 71
     5
 72
     1
  1
\fArial|b0|i0|c0|p0;{\fArial|b0|i0;28}
 73
     1
 44
1.0
  0
POINT
  5
254
330
24D
100
AcDbEntity
  8
Defpoints
 62
     0
100
AcDbPoint
 10
954.149259
 20
176.437749
 30
0.0
  0
POINT
  5
255
330
24D
100
AcDbEntity
  8
Defpoints
 62
     0
100
AcDbPoint
 10
965.333258
 20
177.06873
 30
0.0
  0
POINT
  5
256
330
24D
100
AcDbEntity
  8
Defpoints
 62
     0
100
AcDbPoint
 10
965.333258
 20
164.959534
 30
0.0
  0
ENDBLK
  5
258
330
24D
100
AcDbEntity
  8
0
100
AcDbBlockEnd
  0
BLOCK
  5
264
330
25A
100
AcDbEntity
  8
0
100
AcDbBlockBegin
  2
*D22
 70
     1
 10
0.0
 20
0.0
 30
0.0
  3
*D22
  1

  0
LINE
  5
25B
330
25A
100
AcDbEntity
  8
0
  6
Continuous
 62
    32
370
    -2
100
AcDbLine
 10
956.56035
 20
122.598531
 30
0.0
 11
951.566994
 21
122.598531
 31
0.0
  0
LINE
  5
25C
330
25A
100
AcDbEntity
  8
0
  6
Continuous
 62
    32
370
    -2
100
AcDbLine
 10
956.56035
 20
95.723779
 30
0.0
 11
951.566994
 21
95.723779
 31
0.0
  0
LINE
  5
25D
330
25A
100
AcDbEntity
  8
0
  6
Continuous
 62
    32
370
    -2
100
AcDbLine
 10
952.718994
 20
120.678531
 30
0.0
 11
952.718994
 21
97.643779
 31
0.0
  0
INSERT
  5
25E
330
25A
100
AcDbEntity
  8
0
 62
    32
370
    -2
100
AcDbBlockReference
  2
_CLOSED
 10
952.718994
 20
122.598531
 30
0.0
 41
1.92
 42
1.92
 43
1.92
 50
90.0
  0
INSERT
  5
25F
330
25A
100
AcDbEntity
  8
0
 62
    32
370
    -2
100
AcDbBlockReference
  2
_CLOSED
 10
952.718994
 20
95.723779
 30
0.0
 41
1.92
 42
1.92
 43
1.92
 50
270.0
  0
MTEXT
  5
260
330
25A
100
AcDbEntity
  8
0
 62
     1
370
     0
100
AcDbMText
 10
950.778834
 20
109.161155
 30
0.0
 40
1.92
 41
0.0
 46
0.0
 71
     5
 72
     1
  1
\fArial|b0|i0|c0|p0;{\fArial|b0|i0;430}
 11
0.0
 21
1.0
 31
0.0
 73
     1
 44
1.0
  0
POINT
  5
261
330
25A
100
AcDbEntity
  8
Defpoints
 62
     0
100
AcDbPoint
 10
959.44035
 20
122.598531
 30
0.0
  0
POINT
  5
262
330
25A
100
AcDbEntity
  8
Defpoints
 62
     0
100
AcDbPoint
 10
959.44035
 20
95.723779
 30
0.0
  0
POINT
  5
263
330
25A
100
AcDbEntity
  8
Defpoints
 62
     0
100
AcDbPoint
 10
952.718994
 20
95.723779
 30
0.0
  0
ENDBLK
  5
265
330
25A
100
AcDbEntity
  8
0
100
AcDbBlockEnd
  0
BLOCK
  5
271
330
267
100
AcDbEntity
  8
0
100
AcDbBlockBegin
  2
*D23
 70
     1
 10
0.0
 20
0.0
 30
0.0
  3
*D23
  1

  0
LINE
  5
268
330
267
100
AcDbEntity
  8
3
  6
Continuous
 62
    32
370
    -2
100
AcDbLine
 10
958.81535
 20
127.336028
 30
0.0
 11
958.81535
 21
131.745666
 31
0.0
  0
LINE
  5
269
330
267
100
AcDbEntity
  8
3
  6
Continuous
 62
    32
370
    -2
100
AcDbLine
 10
982.565339
 20
124.871914
 30
0.0
 11
982.565339
 21
131.745666
 31
0.0
  0
LINE
  5
26A
330
267
100
AcDbEntity
  8
3
  6
Continuous
 62
    32
370
    -2
100
AcDbLine
 10
960.06535
 20
130.620667
 30
0.0
 11
981.315339
 21
130.620667
 31
0.0
  0
INSERT
  5
26B
330
267
100
AcDbEntity
  8
3
 62
    32
370
    -2
100
AcDbBlockReference
  2
_CLOSED
 10
958.81535
 20
130.620667
 30
0.0
 41
1.25
 42
1.25
 43
1.25
 50
180.0
  0
INSERT
  5
26C
330
267
100
AcDbEntity
  8
3
 62
    32
370
    -2
100
AcDbBlockReference
  2
_CLOSED
 10
982.565339
 20
130.620667
 30
0.0
 41
1.25
 42
1.25
 43
1.25
  0
MTEXT
  5
26D
330
267
100
AcDbEntity
  8
3
 62
     1
370
     0
100
AcDbMText
 10
970.690345
 20
132.515353
 30
0.0
 40
1.874999
 41
0.0
 46
0.0
 71
     5
 72
     1
  1
\fArial|b0|i0|c0|p0;{\fArial|b0|i0;380}
 73
     1
 44
1.0
  0
POINT
  5
26E
330
267
100
AcDbEntity
  8
Defpoints
 62
     0
100
AcDbPoint
 10
958.81535
 20
121.973531
 30
0.0
  0
POINT
  5
26F
330
267
100
AcDbEntity
  8
Defpoints
 62
     0
100
AcDbPoint
 10
982.565339
 20
119.509417
 30
0.0
  0
POINT
  5
270
330
267
100
AcDbEntity
  8
Defpoints
 62
     0
100
AcDbPoint
 10
982.565339
 20
130.620667
 30
0.0
  0
ENDBLK
  5
272
330
267
100
AcDbEntity
  8
0
100
AcDbBlockEnd
  0
BLOCK
  5
27E
330
274
100
AcDbEntity
  8
0
100
AcDbBlockBegin
  2
*D24
 70
     1
 10
0.0
 20
0.0
 30
0.0
  3
*D24
  1

  0
LINE
  5
275
330
274
100
AcDbEntity
  8
3
  6
Continuous
 62
    32
370
    -2
100
AcDbLine
 10
1008.190323
 20
127.336028
 30
0.0
 11
1008.190323
 21
131.717834
 31
0.0
  0
LINE
  5
276
330
274
100
AcDbEntity
  8
3
  6
Continuous
 62
    32
370
    -2
100
AcDbLine
 10
984.565294
 20
114.523652
 30
0.0
 11
984.565294
 21
131.717834
 31
0.0
  0
LINE
  5
277
330
274
100
AcDbEntity
  8
3
  6
Continuous
 62
    32
370
    -2
100
AcDbLine
 10
1006.940323
 20
130.592834
 30
0.0
 11
985.815294
 21
130.592834
 31
0.0
  0
INSERT
  5
278
330
274
100
AcDbEntity
  8
3
 62
    32
370
    -2
100
AcDbBlockReference
  2
_CLOSED
 10
1008.190323
 20
130.592834
 30
0.0
 41
1.25
 42
1.25
 43
1.25
  0
INSERT
  5
279
330
274
100
AcDbEntity
  8
3
 62
    32
370
    -2
100
AcDbBlockReference
  2
_CLOSED
 10
984.565294
 20
130.592834
 30
0.0
 41
1.25
 42
1.25
 43
1.25
 50
180.0
  0
MTEXT
  5
27A
330
274
100
AcDbEntity
  8
3
 62
     1
370
     0
100
AcDbMText
 10
996.377808
 20
132.487521
 30
0.0
 40
1.874999
 41
0.0
 46
0.0
 71
     5
 72
     1
  1
\fArial|b0|i0|c0|p0;{\fArial|b0|i0;380}
 73
     1
 44
1.0
  0
POINT
  5
27B
330
274
100
AcDbEntity
  8
Defpoints
 62
     0
100
AcDbPoint
 10
1008.190323
 20
121.973531
 30
0.0
  0
POINT
  5
27C
330
274
100
AcDbEntity
  8
Defpoints
 62
     0
100
AcDbPoint
 10
984.565294
 20
109.161155
 30
0.0
  0
POINT
  5
27D
330
274
100
AcDbEntity
  8
Defpoints
 62
     0
100
AcDbPoint
 10
984.565294
 20
130.592834
 30
0.0
  0
ENDBLK
  5
27F
330
274
100
AcDbEntity
  8
0
100
AcDbBlockEnd
  0
ENDSEC
  0
SECTION
  2
ENTITIES
  0
LINE
  5
64
330
1F
100
AcDbEntity
  8
0
  6
Continuous
 62
     4
420
    65535
370
     0
100
AcDbLine
 10
1035.995427
 20
74.171618
 30
0.0
 11
1035.995427
 21
268.992877
 31
0.0
  0
LINE
  5
65
330
1F
100
AcDbEntity
  8
0
  6
Continuous
 62
     4
420
    65535
370
     0
100
AcDbLine
 10
1035.995407
 20
74.171618
 30
0.0
 11
759.995407
 21
74.171618
 31
0.0
  0
LINE
  5
66
330
1F
100
AcDbEntity
  8
0
  6
Continuous
 62
    37
420
  8347455
370
     0
100
AcDbLine
 10
759.995407
 20
74.171618
 30
0.0
 11
759.995407
 21
267.171618
 31
0.0
  0
LINE
  5
67
330
1F
100
AcDbEntity
  8
0
  6
Continuous
 62
     4
420
    65535
370
     0
100
AcDbLine
 10
1035.080551
 20
75.171618
 30
0.0
 11
760.995407
 21
75.171618
 31
0.0
  0
LINE
  5
68
330
1F
100
AcDbEntity
  8
0
  6
Continuous
 62
     4
420
    65535
370
     0
100
AcDbLine
 10
759.995407
 20
74.171618
 30
0.0
 11
759.995407
 21
268.992877
 31
0.0
  0
LINE
  5
69
330
1F
100
AcDbEntity
  8
0
  6
Continuous
 62
     4
420
    65535
370
     0
100
AcDbLine
 10
760.995407
 20
75.171618
 30
0.0
 11
760.995407
 21
268.061968
 31
0.0
  0
LINE
  5
6A
330
1F
100
AcDbEntity
  8
0
  6
Continuous
 62
     4
420
    65535
370
     0
100
AcDbLine
 10
1035.080571
 20
75.171618
 30
0.0
 11
1035.080571
 21
268.061968
 31
0.0
  0
LINE
  5
6B
330
1F
100
AcDbEntity
  8
0
  6
Continuous
 62
     4
420
    65535
370
     0
100
AcDbLine
 10
759.995412
 20
268.992877
 30
0.0
 11
1035.995412
 21
268.992877
 31
0.0
  0
LINE
  5
6C
330
1F
100
AcDbEntity
  8
0
  6
Continuous
 62
     4
420
    65535
370
     0
100
AcDbLine
 10
760.995412
 20
268.061968
 30
0.0
 11
1035.080556
 21
268.061968
 31
0.0
  0
MTEXT
  5
8F
330
1F
100
AcDbEntity
  8
0
  6
Continuous
 62
     3
420
    65280
370
     0
100
AcDbMText
 10
829.230225
 20
262.381897
 30
0.0
 40
5.068799
 41
0.0
 46
0.0
 71
     1
 72
     1
  1
{\fArial|b0|i0;DIMA PER MONTAGGIO SOTTO/TOP CX0862}
 73
     2
 44
0.99598
  0
LINE
  5
90
330
1F
100
AcDbEntity
  8
0
  6
Continuous
 62
     3
420
    65280
370
     0
100
AcDbLine
 10
1009.94035
 20
93.536279
 30
0.0
 11
957.06535
 21
93.536279
 31
0.0
  0
LINE
  5
91
330
1F
100
AcDbEntity
  8
0
  6
Continuous
 62
     3
420
    65280
370
     0
100
AcDbLine
 10
956.62785
 20
93.973779
 30
0.0
 11
956.62785
 21
124.348531
 31
0.0
  0
LINE
  5
92
330
1F
100
AcDbEntity
  8
0
  6
Continuous
 62
     3
420
    65280
370
     0
100
AcDbLine
 10
957.06535
 20
124.786031
 30
0.0
 11
1009.94035
 21
124.786031
 31
0.0
  0
LINE
  5
93
330
1F
100
AcDbEntity
  8
0
  6
Continuous
 62
     3
420
    65280
370
     0
100
AcDbLine
 10
1010.37785
 20
93.973779
 30
0.0
 11
1010.37785
 21
124.348531
 31
0.0
  0
LINE
  5
94
330
1F
100
AcDbEntity
  8
0
  6
Continuous
 62
     3
420
    65280
370
     0
100
AcDbLine
 10
958.81535
 20
124.436656
 30
0.0
 11
958.81535
 21
109.161155
 31
0.0
  0
ARC
  5
95
330
1F
100
AcDbEntity
  8
0
  6
Continuous
 62
     3
420
    65280
370
     0
100
AcDbCircle
 10
957.06535
 20
124.348531
 30
0.0
 40
0.4375
100
AcDbArc
 50
90.0
 51
180.0
  0
ARC
  5
96
330
1F
100
AcDbEntity
  8
0
  6
Continuous
 62
     3
420
    65280
370
     0
100
AcDbCircle
 10
1009.94035
 20
124.348531
 30
0.0
 40
0.4375
100
AcDbArc
 50
0.0
 51
90.0
  0
ARC
  5
97
330
1F
100
AcDbEntity
  8
0
  6
Continuous
 62
     3
420
    65280
370
     0
100
AcDbCircle
 10
1009.94035
 20
93.973779
 30
0.0
 40
0.4375
100
AcDbArc
 50
270.0
 51
0.0
  0
ARC
  5
98
330
1F
100
AcDbEntity
  8
0
  6
Continuous
 62
     3
420
    65280
370
     0
100
AcDbCircle
 10
957.06535
 20
93.973779
 30
0.0
 40
0.4375
100
AcDbArc
 50
180.0
 51
270.0
  0
CIRCLE
  5
99
330
1F
100
AcDbEntity
  8
0
  6
Continuous
 62
     1
420
 16711680
370
     0
100
AcDbCircle
 10
975.857432
 20
109.161155
 30
0.0
 40
3.4375
  0
LINE
  5
9A
330
1F
100
AcDbEntity
  8
0
  6
Continuous
 62
     3
420
    65280
370
     0
100
AcDbLine
 10
1008.190323
 20
124.436656
 30
0.0
 11
1008.190323
 21
109.161155
 31
0.0
  0
CIRCLE
  5
9B
330
1F
100
AcDbEntity
  8
0
  6
Continuous
 62
     1
420
 16711680
370
     0
100
AcDbCircle
 10
991.148241
 20
109.161155
 30
0.0
 40
3.4375
  0
LINE
  5
9D
330
1F
100
AcDbEntity
  8
0
  6
CENTER2
 62
     2
420
 16776960
370
     0
100
AcDbLine
 10
991.148241
 20
105.236155
 30
0.0
 11
991.148241
 21
113.086155
 31
0.0
  0
LINE
  5
9E
330
1F
100
AcDbEntity
  8
1
  6
Continuous
 62
     1
420
 16711680
370
     0
100
AcDbLine
 10
1009.715975
 20
124.436656
 30
0.0
 11
957.289725
 21
124.436656
 31
0.0
  0
LINE
  5
9F
330
1F
100
AcDbEntity
  8
1
  6
Continuous
 62
     1
420
 16711680
370
     0
100
AcDbLine
 10
956.977225
 20
124.124156
 30
0.0
 11
956.977225
 21
94.198154
 31
0.0
  0
LINE
  5
A0
330
1F
100
AcDbEntity
  8
1
  6
Continuous
 62
     1
420
 16711680
370
     0
100
AcDbLine
 10
957.289725
 20
93.885654
 30
0.0
 11
1009.715975
 21
93.885654
 31
0.0
  0
LINE
  5
A1
330
1F
100
AcDbEntity
  8
1
  6
Continuous
 62
     1
420
 16711680
370
     0
100
AcDbLine
 10
1010.028475
 20
94.198154
 30
0.0
 11
1010.028475
 21
124.124156
 31
0.0
  0
ARC
  5
A2
330
1F
100
AcDbEntity
  8
1
  6
Continuous
 62
     1
420
 16711680
370
     0
100
AcDbCircle
 10
957.289725
 20
124.124156
 30
0.0
 40
0.3125
100
AcDbArc
 50
90.0
 51
180.0
  0
ARC
  5
A3
330
1F
100
AcDbEntity
  8
1
  6
Continuous
 62
     1
420
 16711680
370
     0
100
AcDbCircle
 10
957.289725
 20
94.198154
 30
0.0
 40
0.3125
100
AcDbArc
 50
180.0
 51
270.0
  0
ARC
  5
A4
330
1F
100
AcDbEntity
  8
1
  6
Continuous
 62
     1
420
 16711680
370
     0
100
AcDbCircle
 10
1009.715975
 20
94.198154
 30
0.0
 40
0.3125
100
AcDbArc
 50
270.0
 51
0.0
  0
ARC
  5
A5
330
1F
100
AcDbEntity
  8
1
  6
Continuous
 62
     1
420
 16711680
370
     0
100
AcDbCircle
 10
1009.715975
 20
124.124156
 30
0.0
 40
0.3125
100
AcDbArc
 50
0.0
 51
90.0
  0
LINE
  5
A6
330
1F
100
AcDbEntity
  8
0
  6
Continuous
 62
     3
420
    65280
370
     0
100
AcDbLine
 10
985.718602
 20
122.598531
 30
0.0
 11
1007.565323
 21
122.598531
 31
0.0
  0
ARC
  5
A7
330
1F
100
AcDbEntity
  8
0
  6
Continuous
 62
     3
420
    65280
370
     0
100
AcDbCircle
 10
959.44035
 20
121.973531
 30
0.0
 40
0.625
100
AcDbArc
 50
90.0
 51
180.0
  0
ARC
  5
A8
330
1F
100
AcDbEntity
  8
0
  6
Continuous
 62
     3
420
    65280
370
     0
100
AcDbCircle
 10
1007.565323
 20
121.973531
 30
0.0
 40
0.625
100
AcDbArc
 50
0.0
 51
90.0
  0
LINE
  5
A9
330
1F
100
AcDbEntity
  8
0
  6
Continuous
 62
     3
420
    65280
370
     0
100
AcDbLine
 10
985.718602
 20
95.723779
 30
0.0
 11
1007.565323
 21
95.723779
 31
0.0
  0
ARC
  5
AA
330
1F
100
AcDbEntity
  8
0
  6
Continuous
 62
     3
420
    65280
370
     0
100
AcDbCircle
 10
959.44035
 20
96.348779
 30
0.0
 40
0.625
100
AcDbArc
 50
180.0
 51
270.0
  0
LINE
  5
AB
330
1F
100
AcDbEntity
  8
0
  6
Continuous
 62
     3
420
    65280
370
     0
100
AcDbLine
 10
958.81535
 20
93.885654
 30
0.0
 11
958.81535
 21
109.161155
 31
0.0
  0
ARC
  5
AC
330
1F
100
AcDbEntity
  8
0
  6
Continuous
 62
     3
420
    65280
370
     0
100
AcDbCircle
 10
1007.565323
 20
96.348779
 30
0.0
 40
0.625
100
AcDbArc
 50
270.0
 51
0.0
  0
LINE
  5
AD
330
1F
100
AcDbEntity
  8
0
  6
Continuous
 62
     3
420
    65280
370
     0
100
AcDbLine
 10
1008.190323
 20
93.885654
 30
0.0
 11
1008.190323
 21
109.161155
 31
0.0
  0
LINE
  5
AE
330
1F
100
AcDbEntity
  8
0
  6
Continuous
 62
     3
420
    65280
370
     0
100
AcDbLine
 10
959.44035
 20
122.598531
 30
0.0
 11
974.657873
 21
122.598531
 31
0.0
  0
ARC
  5
AF
330
1F
100
AcDbEntity
  8
0
  6
Continuous
 62
     3
420
    65280
370
     0
100
AcDbCircle
 10
1140.815339
 20
109.161155
 30
0.0
 40
156.2500454096169
100
AcDbArc
 50
175.27758
 51
184.72242
  0
ARC
  5
B0
330
1F
100
AcDbEntity
  8
0
  6
Continuous
 62
     3
420
    65280
370
     0
100
AcDbCircle
 10
985.718602
 20
121.973531
 30
0.0
 40
0.625
100
AcDbArc
 50
90.0
 51
175.27758
  0
ARC
  5
B1
330
1F
100
AcDbEntity
  8
0
  6
Continuous
 62
     3
420
    65280
370
     0
100
AcDbCircle
 10
985.718602
 20
96.348779
 30
0.0
 40
0.625
100
AcDbArc
 50
184.72242
 51
270.0
  0
LINE
  5
B2
330
1F
100
AcDbEntity
  8
0
  6
Continuous
 62
     3
420
    65280
370
     0
100
AcDbLine
 10
982.788738
 20
119.473531
 30
0.0
 11
984.672134
 21
119.473531
 31
0.0
  0
ARC
  5
B3
330
1F
100
AcDbEntity
  8
0
  6
Continuous
 62
     3
420
    65280
370
     0
100
AcDbCircle
 10
984.672134
 20
119.723531
 30
0.0
 40
0.25
100
AcDbArc
 50
270.0
 51
356.130097
  0
LINE
  5
B4
330
1F
100
AcDbEntity
  8
0
  6
Continuous
 62
     3
420
    65280
370
     0
100
AcDbLine
 10
982.565339
 20
98.812894
 30
0.0
 11
982.565339
 21
109.161155
 31
0.0
  0
ARC
  5
B5
330
1F
100
AcDbEntity
  8
0
  6
Continuous
 62
     3
420
    65280
370
     0
100
AcDbCircle
 10
982.780291
 20
98.598779
 30
0.0
 40
0.25
100
AcDbArc
 50
90.0
 51
163.728578
  0
LINE
  5
B6
330
1F
100
AcDbEntity
  8
0
  6
Continuous
 62
     3
420
    65280
370
     0
100
AcDbLine
 10
982.780291
 20
98.848779
 30
0.0
 11
984.672134
 21
98.848779
 31
0.0
  0
LINE
  5
B7
330
1F
100
AcDbEntity
  8
1
  6
Continuous
 62
     1
420
 16711680
370
     0
100
AcDbLine
 10
975.42952
 20
121.009156
 30
0.0
 11
961.029725
 21
121.009156
 31
0.0
  0
LINE
  5
B8
330
1F
100
AcDbEntity
  8
1
  6
Continuous
 62
     1
420
 16711680
370
     0
100
AcDbLine
 10
960.404725
 20
120.384156
 30
0.0
 11
960.404725
 21
97.938154
 31
0.0
  0
LINE
  5
B9
330
1F
100
AcDbEntity
  8
1
  6
Continuous
 62
     1
420
 16711680
370
     0
100
AcDbLine
 10
1005.975948
 20
121.009156
 30
0.0
 11
987.189065
 21
121.009156
 31
0.0
  0
ARC
  5
BA
330
1F
100
AcDbEntity
  8
1
  6
Continuous
 62
     1
420
 16711680
370
     0
100
AcDbCircle
 10
1140.815339
 20
109.161155
 30
0.0
 40
154.6606704096169
100
AcDbArc
 50
175.821741
 51
184.178259
  0
LINE
  5
BB
330
1F
100
AcDbEntity
  8
1
  6
Continuous
 62
     1
420
 16711680
370
     0
100
AcDbLine
 10
987.189065
 20
97.313154
 30
0.0
 11
1005.975948
 21
97.313154
 31
0.0
  0
LINE
  5
BC
330
1F
100
AcDbEntity
  8
1
  6
Continuous
 62
     1
420
 16711680
370
     0
100
AcDbLine
 10
1006.600948
 20
120.384156
 30
0.0
 11
1006.600948
 21
97.938154
 31
0.0
  0
ARC
  5
BD
330
1F
100
AcDbEntity
  8
1
  6
Continuous
 62
     1
420
 16711680
370
     0
100
AcDbCircle
 10
961.029725
 20
120.384156
 30
0.0
 40
0.625
100
AcDbArc
 50
90.0
 51
180.0
  0
ARC
  5
BE
330
1F
100
AcDbEntity
  8
1
  6
Continuous
 62
     1
420
 16711680
370
     0
100
AcDbCircle
 10
961.029725
 20
97.938154
 30
0.0
 40
0.625
100
AcDbArc
 50
180.0
 51
270.0
  0
ARC
  5
BF
330
1F
100
AcDbEntity
  8
1
  6
Continuous
 62
     1
420
 16711680
370
     0
100
AcDbCircle
 10
987.189065
 20
97.938154
 30
0.0
 40
0.625
100
AcDbArc
 50
184.178259
 51
270.0
  0
ARC
  5
C0
330
1F
100
AcDbEntity
  8
1
  6
Continuous
 62
     1
420
 16711680
370
     0
100
AcDbCircle
 10
987.189065
 20
120.384156
 30
0.0
 40
0.625
100
AcDbArc
 50
90.0
 51
175.821741
  0
ARC
  5
C1
330
1F
100
AcDbEntity
  8
1
  6
Continuous
 62
     1
420
 16711680
370
     0
100
AcDbCircle
 10
1005.975948
 20
120.384156
 30
0.0
 40
0.625
100
AcDbArc
 50
0.0
 51
90.0
  0
ARC
  5
C2
330
1F
100
AcDbEntity
  8
1
  6
Continuous
 62
     1
420
 16711680
370
     0
100
AcDbCircle
 10
1005.975948
 20
97.938154
 30
0.0
 40
0.625
100
AcDbArc
 50
270.0
 51
0.0
  0
LINE
  5
C3
330
1F
100
AcDbEntity
  8
0
  6
CENTER2
 62
     2
420
 16776960
370
     0
100
AcDbLine
 10
987.223241
 20
109.161155
 30
0.0
 11
995.073241
 21
109.161155
 31
0.0
  0
LINE
  5
C4
330
1F
100
AcDbEntity
  8
0
  6
Continuous
 62
     2
420
 16776960
370
     0
100
AcDbLine
 10
974.657873
 20
122.598531
 30
0.0
 11
974.969287
 21
122.598531
 31
0.0
  0
LINE
  5
C5
330
1F
100
AcDbEntity
  8
0
  6
Continuous
 62
     3
420
    65280
370
     0
100
AcDbLine
 10
982.565339
 20
119.509417
 30
0.0
 11
982.565339
 21
109.161155
 31
0.0
  0
ARC
  5
C6
330
1F
100
AcDbEntity
  8
0
  6
Continuous
 62
     3
420
    65280
370
     0
100
AcDbCircle
 10
975.42952
 20
112.139852
 30
0.0
 40
10.45867989355393
100
AcDbArc
 50
48.540239
 51
90.0
  0
LINE
  5
C7
330
1F
100
AcDbEntity
  8
0
  6
Continuous
 62
     3
420
    65280
370
     0
100
AcDbLine
 10
974.657873
 20
122.598531
 30
0.0
 11
975.42952
 21
122.598531
 31
0.0
  0
ARC
  5
C8
330
1F
100
AcDbEntity
  8
1
  6
Continuous
 62
     1
420
 16711680
370
     0
100
AcDbCircle
 10
975.42952
 20
112.139852
 30
0.0
 40
8.869304893553934
100
AcDbArc
 50
53.348175
 51
90.0
  0
LINE
  5
C9
330
1F
100
AcDbEntity
  8
1
  6
Continuous
 62
     1
420
 16711680
370
     0
100
AcDbLine
 10
980.975964
 20
118.754075
 30
0.0
 11
980.975964
 21
109.161155
 31
0.0
  0
ARC
  5
CA
330
1F
100
AcDbEntity
  8
1
  6
Continuous
 62
     1
420
 16711680
370
     0
100
AcDbCircle
 10
980.350964
 20
118.754075
 30
0.0
 40
0.625
100
AcDbArc
 50
0.0
 51
53.348175
  0
ARC
  5
CB
330
1F
100
AcDbEntity
  8
0
  6
Continuous
 62
     3
420
    65280
370
     0
100
AcDbCircle
 10
982.788738
 20
119.723531
 30
0.0
 40
0.25
100
AcDbArc
 50
194.164253
 51
270.0
  0
ARC
  5
CC
330
1F
100
AcDbEntity
  8
0
  6
Continuous
 62
     3
420
    65280
370
     0
100
AcDbCircle
 10
981.940339
 20
119.509417
 30
0.0
 40
0.625
100
AcDbArc
 50
0.0
 51
48.540239
  0
ARC
  5
CD
330
1F
100
AcDbEntity
  8
0
  6
Continuous
 62
     3
420
    65280
370
     0
100
AcDbCircle
 10
984.672134
 20
98.598779
 30
0.0
 40
0.25
100
AcDbArc
 50
3.869903
 51
90.0
  0
ARC
  5
CE
330
1F
100
AcDbEntity
  8
1
  6
Continuous
 62
     1
420
 16711680
370
     0
100
AcDbCircle
 10
975.42952
 20
106.182459
 30
0.0
 40
8.869304893553934
100
AcDbArc
 50
270.0
 51
306.651825
  0
ARC
  5
CF
330
1F
100
AcDbEntity
  8
1
  6
Continuous
 62
     1
420
 16711680
370
     0
100
AcDbCircle
 10
980.350964
 20
99.568236
 30
0.0
 40
0.625
100
AcDbArc
 50
306.651825
 51
0.0
  0
LINE
  5
D0
330
1F
100
AcDbEntity
  8
1
  6
Continuous
 62
     1
420
 16711680
370
     0
100
AcDbLine
 10
980.975964
 20
99.568236
 30
0.0
 11
980.975964
 21
109.161155
 31
0.0
  0
LINE
  5
D1
330
1F
100
AcDbEntity
  8
1
  6
Continuous
 62
     1
420
 16711680
370
     0
100
AcDbLine
 10
975.42952
 20
97.313154
 30
0.0
 11
961.029725
 21
97.313154
 31
0.0
  0
ARC
  5
D2
330
1F
100
AcDbEntity
  8
0
  6
Continuous
 62
     3
420
    65280
370
     0
100
AcDbCircle
 10
975.42952
 20
106.182459
 30
0.0
 40
10.45867989355393
100
AcDbArc
 50
270.0
 51
311.459761
  0
ARC
  5
D3
330
1F
100
AcDbEntity
  8
0
  6
Continuous
 62
     3
420
    65280
370
     0
100
AcDbCircle
 10
981.940339
 20
98.812894
 30
0.0
 40
0.625
100
AcDbArc
 50
311.459761
 51
0.0
  0
LINE
  5
D4
330
1F
100
AcDbEntity
  8
0
  6
Continuous
 62
     3
420
    65280
370
     0
100
AcDbLine
 10
975.42952
 20
95.723779
 30
0.0
 11
959.44035
 21
95.723779
 31
0.0
  0
LINE
  5
D5
330
1F
100
AcDbEntity
  8
0
  6
CENTER2
 62
     2
420
 16776960
370
     0
100
AcDbLine
 10
975.857432
 20
105.236155
 30
0.0
 11
975.857432
 21
113.086155
 31
0.0
  0
LINE
  5
D6
330
1F
100
AcDbEntity
  8
0
  6
CENTER2
 62
     2
420
 16776960
370
     0
100
AcDbLine
 10
971.932432
 20
109.161155
 30
0.0
 11
979.782432
 21
109.161155
 31
0.0
  0
LINE
  5
D7
330
1F
100
AcDbEntity
  8
0
  6
Continuous
 62
     6
420
 16711935
370
     0
100
AcDbLine
 10
797.775773
 20
207.7455
 30
0.0
 11
879.575773
 21
207.7455
 31
0.0
  0
LINE
  5
D8
330
1F
100
AcDbEntity
  8
0
  6
Continuous
 62
     6
420
 16711935
370
     0
100
AcDbLine
 10
880.575773
 20
206.7455
 30
0.0
 11
880.575773
 21
160.8455
 31
0.0
  0
LINE
  5
D9
330
1F
100
AcDbEntity
  8
0
  6
Continuous
 62
     6
420
 16711935
370
     0
100
AcDbLine
 10
879.575773
 20
159.8455
 30
0.0
 11
797.775773
 21
159.8455
 31
0.0
  0
LINE
  5
DA
330
1F
100
AcDbEntity
  8
0
  6
Continuous
 62
     6
420
 16711935
370
     0
100
AcDbLine
 10
796.775773
 20
160.8455
 30
0.0
 11
796.775773
 21
206.7455
 31
0.0
  0
ARC
  5
DB
330
1F
100
AcDbEntity
  8
0
  6
Continuous
 62
     6
420
 16711935
370
     0
100
AcDbCircle
 10
797.775773
 20
206.7455
 30
0.0
 40
1.0
100
AcDbArc
 50
90.0
 51
180.0
  0
ARC
  5
DC
330
1F
100
AcDbEntity
  8
0
  6
Continuous
 62
     6
420
 16711935
370
     0
100
AcDbCircle
 10
797.775773
 20
160.8455
 30
0.0
 40
1.0
100
AcDbArc
 50
180.0
 51
270.0
  0
ARC
  5
DD
330
1F
100
AcDbEntity
  8
0
  6
Continuous
 62
     6
420
 16711935
370
     0
100
AcDbCircle
 10
879.575773
 20
160.8455
 30
0.0
 40
1.0
100
AcDbArc
 50
270.0
 51
0.0
  0
ARC
  5
DE
330
1F
100
AcDbEntity
  8
0
  6
Continuous
 62
     6
420
 16711935
370
     0
100
AcDbCircle
 10
879.575773
 20
206.7455
 30
0.0
 40
1.0
100
AcDbArc
 50
0.0
 51
90.0
  0
MTEXT
  5
DF
330
1F
100
AcDbEntity
  8
0
  6
Continuous
 62
     4
420
    65535
370
     0
100
AcDbMText
 10
822.306641
 20
169.785706
 30
0.0
 40
3.168
 41
0.0
 46
0.0
 71
     1
 72
     1
  1
{\W1.1;{\fArial|b0|i0;Code CX0862}}
 73
     2
 44
0.99598
  0
INSERT
  5
EA
330
1F
100
AcDbEntity
  8
0
  6
Continuous
 62
     1
420
 16711680
370
     0
100
AcDbBlockReference
  2
.TD_DIMENSION_1
 10
-1647.00222
 20
5927.4557
 30
0.0
  0
LINE
  5
EB
330
1F
100
AcDbEntity
  8
0
  6
Continuous
 62
     6
420
 16711935
370
     0
100
AcDbLine
 10
964.139452
 20
176.228591
 30
0.0
 11
964.265435
 21
177.668591
 31
0.0
  0
LINE
  5
EC
330
1F
100
AcDbEntity
  8
0
  6
Continuous
 62
     6
420
 16711935
370
     0
100
AcDbLine
 10
961.328715
 20
176.228591
 30
0.0
 11
961.53994
 21
178.642902
 31
0.0
  0
LINE
  5
ED
330
1F
100
AcDbEntity
  8
0
  6
Continuous
 62
     6
420
 16711935
370
     0
100
AcDbLine
 10
963.532329
 20
180.468591
 30
0.0
 11
973.881657
 21
180.468591
 31
0.0
  0
LINE
  5
EE
330
1F
100
AcDbEntity
  8
0
  6
Continuous
 62
     6
420
 16711935
370
     0
100
AcDbLine
 10
975.469731
 20
179.063582
 30
0.0
 11
977.092579
 21
165.846545
 31
0.0
  0
ARC
  5
EF
330
1F
100
AcDbEntity
  8
0
  6
Continuous
 62
     6
420
 16711935
370
     0
100
AcDbCircle
 10
963.532329
 20
178.468591
 30
0.0
 40
2.0
100
AcDbArc
 50
90.0
 51
175.0
  0
ARC
  5
F0
330
1F
100
AcDbEntity
  8
0
  6
Continuous
 62
     6
420
 16711935
370
     0
100
AcDbCircle
 10
973.881657
 20
178.868591
 30
0.0
 40
1.6
100
AcDbArc
 50
7.0
 51
90.0
  0
LINE
  5
F1
330
1F
100
AcDbEntity
  8
0
  6
Continuous
 62
     6
420
 16711935
370
     0
100
AcDbLine
 10
964.265435
 20
177.668591
 30
0.0
 11
972.112207
 21
177.668591
 31
0.0
  0
LINE
  5
F2
330
1F
100
AcDbEntity
  8
0
  6
Continuous
 62
     6
420
 16711935
370
     0
100
AcDbLine
 10
972.906244
 20
176.966086
 30
0.0
 11
974.313454
 21
165.505277
 31
0.0
  0
SPLINE
  5
F3
330
1F
100
AcDbEntity
  8
0
  6
Continuous
 62
     2
420
 16776960
370
     0
100
AcDbSpline
210
0.0
220
0.0
230
1.0
 70
     8
 71
     3
 72
    10
 73
     6
 74
     0
 42
0.0
 43
0.0
 40
0.0
 40
0.0
 40
0.0
 40
0.0
 40
3.063651955952331
 40
4.870798388250345
 40
7.298006686107962
 40
7.298006686107962
 40
7.298006686107962
 40
7.298006686107962
 10
974.3134960221714
 20
165.5053260589807
 30
0.0
 10
974.5781792950675
 20
165.8164600091618
 30
0.0
 10
975.3108536185205
 20
166.1830490303337
 30
0.0
 10
976.1815421401345
 20
165.6354572109826
 30
0.0
 10
976.7860701547984
 20
165.7428350673476
 30
0.0
 10
977.0926252433524
 20
165.8465602483257
 30
0.0
  0
LINE
  5
F4
330
1F
100
AcDbEntity
  8
0
  6
Continuous
 62
     4
420
    65535
370
     0
100
AcDbLine
 10
929.78588
 20
196.868574
 30
0.0
 11
964.543707
 21
196.868574
 31
0.0
  0
LINE
  5
F5
330
1F
100
AcDbEntity
  8
0
  6
Continuous
 62
     4
420
    65535
370
     0
100
AcDbLine
 10
966.143707
 20
180.868574
 30
0.0
 11
930.064672
 21
180.868574
 31
0.0
  0
LINE
  5
F6
330
1F
100
AcDbEntity
  8
0
  6
Continuous
 62
     4
420
    65535
370
     0
100
AcDbLine
 10
966.143707
 20
195.268574
 30
0.0
 11
966.143707
 21
180.868574
 31
0.0
  0
LINE
  5
F7
330
1F
100
AcDbEntity
  8
0
  6
Continuous
 62
     2
420
 16776960
370
     0
100
AcDbLine
 10
961.110169
 20
174.996871
 30
0.0
 11
958.310169
 21
174.996871
 31
0.0
  0
LINE
  5
F8
330
1F
100
AcDbEntity
  8
0
  6
Continuous
 62
     3
420
    65280
370
     0
100
AcDbLine
 10
960.710206
 20
175.089309
 30
0.0
 11
963.803731
 21
175.208471
 31
0.0
  0
LINE
  5
F9
330
1F
100
AcDbEntity
  8
0
  6
Continuous
 62
     3
420
    65280
370
     0
100
AcDbLine
 10
965.325559
 20
177.268578
 30
0.0
 11
965.340958
 21
176.868883
 31
0.0
  0
ARC
  5
FA
330
1F
100
AcDbEntity
  8
0
  6
Continuous
 62
     3
420
    65280
370
     0
100
AcDbCircle
 10
963.742145
 20
176.807285
 30
0.0
 40
1.6
100
AcDbArc
 50
272.205934
 51
2.206366
  0
ARC
  5
FB
330
1F
100
AcDbEntity
  8
0
  6
Continuous
 62
     3
420
    65280
370
     0
100
AcDbCircle
 10
955.748073
 20
176.499348
 30
0.0
 40
1.6
100
AcDbArc
 50
182.206366
 51
272.205934
  0
LINE
  5
FC
330
1F
100
AcDbEntity
  8
0
  6
Continuous
 62
     3
420
    65280
370
     0
100
AcDbLine
 10
964.524966
 20
177.268578
 30
0.0
 11
964.541551
 21
176.838084
 31
0.0
  0
ARC
  5
FD
330
1F
100
AcDbEntity
  8
0
  6
Continuous
 62
     3
420
    65280
370
     0
100
AcDbCircle
 10
963.742145
 20
176.807285
 30
0.0
 40
0.8
100
AcDbArc
 50
272.205934
 51
2.206366
  0
LINE
  5
FE
330
1F
100
AcDbEntity
  8
0
  6
Continuous
 62
     3
420
    65280
370
     0
100
AcDbLine
 10
958.710206
 20
175.812862
 30
0.0
 11
955.778866
 21
175.699948
 31
0.0
  0
ARC
  5
FF
330
1F
100
AcDbEntity
  8
0
  6
Continuous
 62
     3
420
    65280
370
     0
100
AcDbCircle
 10
955.748073
 20
176.499348
 30
0.0
 40
0.8
100
AcDbArc
 50
182.206366
 51
272.205934
  0
LINE
  5
100
330
1F
100
AcDbEntity
  8
0
  6
Continuous
 62
     3
420
    65280
370
     0
100
AcDbLine
 10
957.777389
 20
175.776927
 30
0.0
 11
957.808188
 21
174.97752
 31
0.0
  0
LINE
  5
101
330
1F
100
AcDbEntity
  8
0
  6
Continuous
 62
     3
420
    65280
370
     0
100
AcDbLine
 10
961.774425
 20
175.930892
 30
0.0
 11
961.805224
 21
175.131485
 31
0.0
  0
LINE
  5
102
330
1F
100
AcDbEntity
  8
0
  6
Continuous
 62
     3
420
    65280
370
     0
100
AcDbLine
 10
953.979864
 20
180.834494
 30
0.0
 11
954.14926
 21
176.43775
 31
0.0
  0
LINE
  5
103
330
1F
100
AcDbEntity
  8
0
  6
Continuous
 62
     3
420
    65280
370
     0
100
AcDbLine
 10
954.948666
 20
176.468549
 30
0.0
 11
954.779271
 21
180.865291
 31
0.0
  0
LINE
  5
104
330
1F
100
AcDbEntity
  8
0
  6
Continuous
 62
     3
420
    65280
370
     0
100
AcDbLine
 10
954.779246
 20
180.865323
 30
0.0
 11
953.97984
 21
180.834526
 31
0.0
  0
LINE
  5
105
330
1F
100
AcDbEntity
  8
0
  6
Continuous
 62
     3
420
    65280
370
     0
100
AcDbLine
 10
955.809659
 20
174.90054
 30
0.0
 11
958.710206
 21
175.012269
 31
0.0
  0
LINE
  5
106
330
1F
100
AcDbEntity
  8
0
  6
Continuous
 62
     3
420
    65280
370
     0
100
AcDbLine
 10
966.143707
 20
180.868574
 30
0.0
 11
966.143707
 21
180.468574
 31
0.0
  0
LINE
  5
107
330
1F
100
AcDbEntity
  8
0
  6
Continuous
 62
     3
420
    65280
370
     0
100
AcDbLine
 10
963.532329
 20
180.468591
 30
0.0
 11
963.532329
 21
180.868591
 31
0.0
  0
LINE
  5
108
330
1F
100
AcDbEntity
  8
0
  6
Continuous
 62
     1
420
 16711680
370
     0
100
AcDbLine
 10
975.788358
 20
176.468573
 30
0.0
 11
988.268785
 21
176.468573
 31
0.0
  0
SPLINE
  5
109
330
1F
100
AcDbEntity
  8
0
  6
Continuous
 62
     2
420
 16776960
370
     0
100
AcDbSpline
210
0.0
220
0.0
230
1.0
 70
     8
 71
     3
 72
    13
 73
     9
 74
     0
 42
0.0
 43
0.0
 40
-0.5148188455667682
 40
-0.5148188455667682
 40
-0.5148188455667682
 40
-0.5148188455667682
 40
7.250081439773017
 40
10.3300103484621
 40
16.25293800114949
 40
20.49602013345007
 40
30.4960201334501
 40
40.49602013345009
 40
40.49602013345009
 40
40.49602013345009
 40
40.49602013345009
 10
989.8447506786945
 20
180.4685458021108
 30
0.0
 10
989.0066128722895
 20
179.8868338084858
 30
0.0
 10
988.0733876459574
 20
178.4384096925105
 30
0.0
 10
988.4069211857134
 20
176.2180432092268
 30
0.0
 10
988.1921343604033
 20
174.3847227302717
 30
0.0
 10
986.0275837797753
 20
172.2496846040726
 30
0.0
 10
989.1548656975174
 20
169.1122835850215
 30
0.0
 10
988.3646439682384
 20
166.3575038631739
 30
0.0
 10
987.9637029022324
 20
165.0858812621755
 30
0.0
  0
LINE
  5
10A
330
1F
100
AcDbEntity
  8
0
  6
Continuous
 62
     1
420
 16711680
370
     0
100
AcDbLine
 10
973.881692
 20
180.468546
 30
0.0
 11
989.844751
 21
180.468546
 31
0.0
  0
LINE
  5
10B
330
1F
100
AcDbEntity
  8
0
  6
Continuous
 62
     1
420
 16711680
370
     0
100
AcDbLine
 10
964.543707
 20
196.868574
 30
0.0
 11
987.085843
 21
196.868574
 31
0.0
  0
SPLINE
  5
10C
330
1F
100
AcDbEntity
  8
0
  6
Continuous
 62
     2
420
 16776960
370
     0
100
AcDbSpline
210
0.0
220
0.0
230
1.0
 70
     8
 71
     3
 72
    13
 73
     9
 74
     0
 42
0.0
 43
0.0
 40
0.0
 40
0.0
 40
0.0
 40
0.0
 40
11.01796464947087
 40
19.48207401254901
 40
31.03889535057917
 40
37.27093309049644
 40
43.42827434468884
 40
45.11076883252824
 40
45.11076883252824
 40
45.11076883252824
 40
45.11076883252824
 10
987.0858424636704
 20
196.8685740051787
 30
0.0
 10
985.9666507822544
 20
195.9169685182387
 30
0.0
 10
984.4019840041044
 20
192.7507663247866
 30
0.0
 10
988.7609377168865
 20
189.6674069475507
 30
0.0
 10
985.2991296997905
 20
186.1402998282006
 30
0.0
 10
987.4149823708995
 20
182.7155908837849
 30
0.0
 10
985.3034296630315
 20
181.5937089815088
 30
0.0
 10
984.8272157976094
 20
180.6489861576515
 30
0.0
 10
984.7475597979485
 20
180.4375730021106
 30
0.0
  0
SPLINE
  5
10D
330
1F
100
AcDbEntity
  8
0
  6
Continuous
 62
     7
420
 16777215
370
     0
100
AcDbSpline
210
0.0
220
0.0
230
1.0
 70
     8
 71
     5
 72
    19
 73
    13
 74
     0
 42
0.0
 43
0.0
 40
0.0072201183211512
 40
0.0072201183211512
 40
0.0072201183211512
 40
0.0072201183211512
 40
0.0072201183211512
 40
0.0072201183211512
 40
0.1245045311168207
 40
0.2414575781015408
 40
0.3680382363143277
 40
0.4861846869599722
 40
0.60004979600133
 40
0.7529360498999071
 40
0.8702981071870692
 40
0.9406349871821242
 40
0.9406349871821242
 40
0.9406349871821242
 40
0.9406349871821242
 40
0.9406349871821242
 40
0.9406349871821242
 10
929.7858793158305
 20
196.8685740051787
 30
0.0
 10
930.5768492942384
 20
194.2961991139446
 30
0.0
 10
930.4820971111853
 20
194.1589121013467
 30
0.0
 10
928.8790664114565
 20
191.7536767699089
 30
0.0
 10
931.6780714143854
 20
190.1888356403088
 30
0.0
 10
928.5548873134744
 20
189.9532674526185
 30
0.0
 10
931.8950449227304
 20
187.0323915456488
 30
0.0
 10
928.8531169996775
 20
186.4959020607107
 30
0.0
 10
930.9067388080484
 20
184.8755993574077
 30
0.0
 10
928.3421581139273
 20
184.4006026864927
 30
0.0
 10
930.4124958145594
 20
182.2116724934699
 30
0.0
 10
930.2118876823583
 20
181.2510011056147
 30
0.0
 10
930.0646712797663
 20
180.8685740051496
 30
0.0
  0
LINE
  5
10E
330
1F
100
AcDbEntity
  8
0
  6
CENTER2
 62
     2
420
 16776960
370
     0
100
AcDbLine
 10
959.710179
 20
185.468578
 30
0.0
 11
959.710159
 21
172.998493
 31
0.0
  0
LINE
  5
10F
330
1F
100
AcDbEntity
  8
0
  6
Continuous
 62
     2
420
 16776960
370
     0
100
AcDbLine
 10
961.110169
 20
173.947872
 30
0.0
 11
961.110169
 21
174.996882
 31
0.0
  0
LINE
  5
110
330
1F
100
AcDbEntity
  8
0
  6
Continuous
 62
     2
420
 16776960
370
     0
100
AcDbLine
 10
958.310169
 20
173.947855
 30
0.0
 11
958.310169
 21
174.99686
 31
0.0
  0
LINE
  5
111
330
1F
100
AcDbEntity
  8
0
  6
Continuous
 62
     2
420
 16776960
370
     0
100
AcDbLine
 10
959.309125
 20
173.778709
 30
0.0
 11
959.223991
 21
173.460986
 31
0.0
  0
LINE
  5
112
330
1F
100
AcDbEntity
  8
0
  6
Continuous
 62
     2
420
 16776960
370
     0
100
AcDbLine
 10
960.109125
 20
173.778709
 30
0.0
 11
959.309125
 21
173.778709
 31
0.0
  0
LINE
  5
113
330
1F
100
AcDbEntity
  8
0
  6
Continuous
 62
     2
420
 16776960
370
     0
100
AcDbLine
 10
960.109125
 20
173.778709
 30
0.0
 11
960.19431
 21
173.460792
 31
0.0
  0
SPLINE
  5
114
330
1F
100
AcDbEntity
  8
0
  6
Continuous
 62
     2
420
 16776960
370
     0
100
AcDbSpline
210
0.0
220
0.0
230
1.0
 70
     8
 71
     3
 72
     9
 73
     5
 74
     0
 42
0.0
 43
0.0
 40
0.111930166760687
 40
0.111930166760687
 40
0.111930166760687
 40
0.111930166760687
 40
0.4999994462716648
 40
0.8880717423756219
 40
0.8880717423756219
 40
0.8880717423756219
 40
0.8880717423756219
 10
958.6235733553883
 20
173.5573402294326
 30
0.0
 10
958.9857719735703
 20
173.4770241775577
 30
0.0
 10
959.7101714014534
 20
173.3967105700299
 30
0.0
 10
960.4345695813854
 20
173.4770358279357
 30
0.0
 10
960.7967697671015
 20
173.5573586415208
 30
0.0
  0
ARC
  5
115
330
1F
100
AcDbEntity
  8
0
  6
Continuous
 62
     2
420
 16776960
370
     0
100
AcDbCircle
 10
960.710169
 20
173.947872
 30
0.0
 40
0.4
100
AcDbArc
 50
282.503764
 51
0.000001
  0
ARC
  5
116
330
1F
100
AcDbEntity
  8
0
  6
Continuous
 62
     2
420
 16776960
370
     0
100
AcDbCircle
 10
958.710169
 20
173.947855
 30
0.0
 40
0.4
100
AcDbArc
 50
180.000001
 51
257.497203
  0
LINE
  5
117
330
1F
100
AcDbEntity
  8
0
  6
Continuous
 62
     2
420
 16776960
370
     0
100
AcDbLine
 10
958.710206
 20
174.996863
 30
0.0
 11
958.710206
 21
180.868578
 31
0.0
  0
LINE
  5
118
330
1F
100
AcDbEntity
  8
0
  6
Continuous
 62
     2
420
 16776960
370
     0
100
AcDbLine
 10
960.710206
 20
180.868578
 30
0.0
 11
960.710206
 21
174.996879
 31
0.0
  0
LINE
  5
119
330
1F
100
AcDbEntity
  8
0
  6
Continuous
 62
     2
420
 16776960
370
     0
100
AcDbLine
 10
958.510206
 20
176.530432
 30
0.0
 11
960.910206
 21
175.887439
 31
0.0
  0
LINE
  5
11A
330
1F
100
AcDbEntity
  8
0
  6
Continuous
 62
     2
420
 16776960
370
     0
100
AcDbLine
 10
958.510206
 20
176.010432
 30
0.0
 11
960.910206
 21
175.367439
 31
0.0
  0
LINE
  5
11B
330
1F
100
AcDbEntity
  8
0
  6
Continuous
 62
     2
420
 16776960
370
     0
100
AcDbLine
 10
958.510206
 20
177.050434
 30
0.0
 11
960.910206
 21
176.407442
 31
0.0
  0
LINE
  5
11C
330
1F
100
AcDbEntity
  8
0
  6
Continuous
 62
     3
420
    65280
370
     0
100
AcDbLine
 10
963.772938
 20
176.007878
 30
0.0
 11
960.710206
 21
175.889902
 31
0.0
  0
LINE
  5
11D
330
1F
100
AcDbEntity
  8
0
  6
Continuous
 62
     4
420
    65535
370
     0
100
AcDbLine
 10
958.310172
 20
181.668577
 30
0.0
 11
957.510172
 21
180.868577
 31
0.0
  0
LINE
  5
11E
330
1F
100
AcDbEntity
  8
0
  6
Continuous
 62
     4
420
    65535
370
     0
100
AcDbLine
 10
961.910172
 20
181.668579
 30
0.0
 11
957.510172
 21
181.668577
 31
0.0
  0
LINE
  5
11F
330
1F
100
AcDbEntity
  8
0
  6
Continuous
 62
     4
420
    65535
370
     0
100
AcDbLine
 10
958.310172
 20
182.868577
 30
0.0
 11
957.510172
 21
181.668577
 31
0.0
  0
LINE
  5
120
330
1F
100
AcDbEntity
  8
0
  6
Continuous
 62
     4
420
    65535
370
     0
100
AcDbLine
 10
957.510172
 20
182.868577
 30
0.0
 11
961.910172
 21
182.868579
 31
0.0
  0
LINE
  5
121
330
1F
100
AcDbEntity
  8
0
  6
Continuous
 62
     4
420
    65535
370
     0
100
AcDbLine
 10
958.310172
 20
184.068577
 30
0.0
 11
957.510172
 21
182.868577
 31
0.0
  0
LINE
  5
122
330
1F
100
AcDbEntity
  8
0
  6
Continuous
 62
     4
420
    65535
370
     0
100
AcDbLine
 10
957.510172
 20
184.068577
 30
0.0
 11
961.910172
 21
184.068579
 31
0.0
  0
LINE
  5
123
330
1F
100
AcDbEntity
  8
0
  6
Continuous
 62
     4
420
    65535
370
     0
100
AcDbLine
 10
957.510172
 20
184.068577
 30
0.0
 11
958.310172
 21
185.268577
 31
0.0
  0
LINE
  5
124
330
1F
100
AcDbEntity
  8
0
  6
Continuous
 62
     4
420
    65535
370
     0
100
AcDbLine
 10
959.310179
 20
185.268578
 30
0.0
 11
958.310172
 21
185.268577
 31
0.0
  0
LINE
  5
125
330
1F
100
AcDbEntity
  8
0
  6
Continuous
 62
     4
420
    65535
370
     0
100
AcDbLine
 10
959.310177
 20
184.388578
 30
0.0
 11
959.310179
 21
185.268578
 31
0.0
  0
LINE
  5
126
330
1F
100
AcDbEntity
  8
0
  6
Continuous
 62
     4
420
    65535
370
     0
100
AcDbLine
 10
960.110177
 20
184.388578
 30
0.0
 11
959.310177
 21
184.388578
 31
0.0
  0
LINE
  5
127
330
1F
100
AcDbEntity
  8
0
  6
Continuous
 62
     4
420
    65535
370
     0
100
AcDbLine
 10
960.110179
 20
185.268578
 30
0.0
 11
960.110177
 21
184.388578
 31
0.0
  0
LINE
  5
128
330
1F
100
AcDbEntity
  8
0
  6
Continuous
 62
     4
420
    65535
370
     0
100
AcDbLine
 10
961.110172
 20
185.268578
 30
0.0
 11
960.110179
 21
185.268578
 31
0.0
  0
LINE
  5
129
330
1F
100
AcDbEntity
  8
0
  6
Continuous
 62
     4
420
    65535
370
     0
100
AcDbLine
 10
961.910172
 20
184.068579
 30
0.0
 11
961.110172
 21
185.268578
 31
0.0
  0
LINE
  5
12A
330
1F
100
AcDbEntity
  8
0
  6
Continuous
 62
     4
420
    65535
370
     0
100
AcDbLine
 10
961.110172
 20
184.068578
 30
0.0
 11
961.910172
 21
182.868579
 31
0.0
  0
LINE
  5
12B
330
1F
100
AcDbEntity
  8
0
  6
Continuous
 62
     4
420
    65535
370
     0
100
AcDbLine
 10
961.110172
 20
182.868578
 30
0.0
 11
961.910172
 21
181.668579
 31
0.0
  0
LINE
  5
12C
330
1F
100
AcDbEntity
  8
0
  6
Continuous
 62
     4
420
    65535
370
     0
100
AcDbLine
 10
961.110172
 20
181.668578
 30
0.0
 11
961.910172
 21
180.868579
 31
0.0
  0
LINE
  5
12D
330
1F
100
AcDbEntity
  8
0
  6
Continuous
 62
     2
420
 16776960
370
     0
100
AcDbLine
 10
958.510206
 20
177.570434
 30
0.0
 11
960.910206
 21
176.927442
 31
0.0
  0
LINE
  5
12E
330
1F
100
AcDbEntity
  8
0
  6
Continuous
 62
     2
420
 16776960
370
     0
100
AcDbLine
 10
958.510206
 20
178.090437
 30
0.0
 11
960.910206
 21
177.447444
 31
0.0
  0
LINE
  5
12F
330
1F
100
AcDbEntity
  8
0
  6
Continuous
 62
     2
420
 16776960
370
     0
100
AcDbLine
 10
958.510206
 20
178.610437
 30
0.0
 11
960.910206
 21
177.967444
 31
0.0
  0
LINE
  5
130
330
1F
100
AcDbEntity
  8
0
  6
Continuous
 62
     2
420
 16776960
370
     0
100
AcDbLine
 10
958.510206
 20
179.130439
 30
0.0
 11
960.910206
 21
178.487447
 31
0.0
  0
LINE
  5
131
330
1F
100
AcDbEntity
  8
0
  6
Continuous
 62
     2
420
 16776960
370
     0
100
AcDbLine
 10
958.510206
 20
179.650439
 30
0.0
 11
960.910206
 21
179.007447
 31
0.0
  0
LINE
  5
132
330
1F
100
AcDbEntity
  8
0
  6
Continuous
 62
     2
420
 16776960
370
     0
100
AcDbLine
 10
958.510206
 20
180.170442
 30
0.0
 11
960.910206
 21
179.527449
 31
0.0
  0
LINE
  5
133
330
1F
100
AcDbEntity
  8
0
  6
Continuous
 62
     2
420
 16776960
370
     0
100
AcDbLine
 10
958.510206
 20
180.690442
 30
0.0
 11
960.910206
 21
180.047449
 31
0.0
  0
LINE
  5
134
330
1F
100
AcDbEntity
  8
0
  6
Continuous
 62
     2
420
 16776960
370
     0
100
AcDbLine
 10
959.786238
 20
180.868578
 30
0.0
 11
960.910206
 21
180.567452
 31
0.0
  0
LINE
  5
135
330
1F
100
AcDbEntity
  8
0
  6
Continuous
 62
     2
420
 16776960
370
     0
100
AcDbLine
 10
958.710209
 20
185.268577
 30
0.0
 11
958.910209
 21
185.468578
 31
0.0
  0
LINE
  5
136
330
1F
100
AcDbEntity
  8
0
  6
Continuous
 62
     2
420
 16776960
370
     0
100
AcDbLine
 10
960.510209
 20
185.468578
 30
0.0
 11
958.910209
 21
185.468578
 31
0.0
  0
LINE
  5
137
330
1F
100
AcDbEntity
  8
0
  6
Continuous
 62
     2
420
 16776960
370
     0
100
AcDbLine
 10
960.710209
 20
185.268578
 30
0.0
 11
960.510209
 21
185.468578
 31
0.0
  0
LINE
  5
138
330
1F
100
AcDbEntity
  8
0
  6
Continuous
 62
     2
420
 16776960
370
     0
100
AcDbLine
 10
958.858413
 20
185.416781
 30
0.0
 11
960.110179
 21
185.081416
 31
0.0
  0
ARC
  5
139
330
1F
100
AcDbEntity
  8
0
  6
Continuous
 62
     4
420
    65535
370
     0
100
AcDbCircle
 10
964.543707
 20
195.268574
 30
0.0
 40
1.6
100
AcDbArc
 50
0.0
 51
90.0
  0
MTEXT
  5
13A
330
1F
100
AcDbEntity
  8
0
  6
Continuous
 62
     4
420
    65535
370
     0
100
AcDbMText
 10
941.029785
 20
191.79718
 30
0.0
 40
1.6
 41
0.0
 46
0.0
 71
     1
 72
     1
  1
{\fArial|b0|i0;(foro diam.10x13)}
 73
     2
 44
0.99598
  0
LINE
  5
13B
330
1F
100
AcDbEntity
  8
0
  6
Continuous
 62
     3
420
    65280
370
     0
100
AcDbLine
 10
964.524966
 20
177.268578
 30
0.0
 11
965.325559
 21
177.268578
 31
0.0
  0
LINE
  5
13C
330
1F
100
AcDbEntity
  8
0
  6
Continuous
 62
     6
420
 16711935
370
     0
100
AcDbLine
 10
964.139452
 20
176.228591
 30
0.0
 11
961.328715
 21
176.228591
 31
0.0
  0
ARC
  5
13D
330
1F
100
AcDbEntity
  8
0
  6
Continuous
 62
     6
420
 16711935
370
     0
100
AcDbCircle
 10
972.112207
 20
176.868591
 30
0.0
 40
0.8
100
AcDbArc
 50
7.0
 51
90.0
  0
LINE
  5
13E
330
1F
100
AcDbEntity
  8
0
  6
Continuous
 62
     2
420
 16776960
370
     0
100
AcDbLine
 10
987.963703
 20
165.085882
 30
0.0
 11
977.092529
 21
165.846528
 31
0.0
  0
LINE
  5
13F
330
1F
100
AcDbEntity
  8
0
  6
Continuous
 62
     3
420
    65280
370
     0
100
AcDbLine
 10
926.502574
 20
208.61201
 30
0.0
 11
1003.562724
 21
208.61201
 31
0.0
  0
LINE
  5
140
330
1F
100
AcDbEntity
  8
0
  6
Continuous
 62
     3
420
    65280
370
     0
100
AcDbLine
 10
926.502574
 20
159.657359
 30
0.0
 11
926.502574
 21
208.61201
 31
0.0
  0
LINE
  5
141
330
1F
100
AcDbEntity
  8
0
  6
Continuous
 62
     3
420
    65280
370
     0
100
AcDbLine
 10
1003.562724
 20
159.657359
 30
0.0
 11
926.502574
 21
159.657359
 31
0.0
  0
LINE
  5
142
330
1F
100
AcDbEntity
  8
0
  6
Continuous
 62
     3
420
    65280
370
     0
100
AcDbLine
 10
1003.562724
 20
208.61201
 30
0.0
 11
1003.562724
 21
159.657359
 31
0.0
  0
INSERT
  5
150
330
1F
100
AcDbEntity
  8
0
  6
Continuous
370
     0
100
AcDbBlockReference
  2
.Hatch_13
 10
4807.30784
 20
-5158.0443
 30
0.0
  0
INSERT
  5
162
330
1F
100
AcDbEntity
  8
0
  6
Continuous
370
     0
100
AcDbBlockReference
  2
.Hatch_14
 10
4807.30784
 20
-5158.0443
 30
0.0
  0
INSERT
  5
171
330
1F
100
AcDbEntity
  8
0
  6
Continuous
 62
     2
420
 16776960
370
     0
100
AcDbBlockReference
  2
.TD_XHATCH_40
 10
-953.178488
 20
5879.918592
 30
0.0
  0
INSERT
  5
196
330
1F
100
AcDbEntity
  8
0
  6
Continuous
370
     0
100
AcDbBlockReference
  2
.Hatch_15
 10
4807.30784
 20
-5158.0443
 30
0.0
  0
CIRCLE
  5
197
330
1F
100
AcDbEntity
  8
0
  6
Continuous
 62
     2
420
 16776960
370
     0
100
AcDbCircle
 10
975.857443
 20
109.161468
 30
0.0
 40
2.161028649548736
  0
CIRCLE
  5
198
330
1F
100
AcDbEntity
  8
0
  6
Continuous
 62
     2
420
 16776960
370
     0
100
AcDbCircle
 10
991.148252
 20
109.161468
 30
0.0
 40
2.161028649548736
  0
MTEXT
  5
199
330
1F
100
AcDbEntity
  8
0
  6
Continuous
 62
     5
420
      255
370
     0
100
AcDbMText
 10
944.279419
 20
220.33429
 30
0.0
 40
3.8016
 41
0.0
 46
0.0
 71
     1
 72
     1
  1
{\W1.05;{\fArial|b0|i0;SOLUTION  "C"}}
 73
     2
 44
0.99598
  0
MTEXT
  5
19A
330
1F
100
AcDbEntity
  8
0
  6
Continuous
 62
     5
420
      255
370
     0
100
AcDbMText
 10
927.31311
 20
213.587952
 30
0.0
 40
2.64
 41
0.0
 46
0.0
 71
     1
 72
     1
  1
{\W1.14;{\fArial|b0|i0;With the edge of the sink partially visible}}
 73
     2
 44
0.99598
  0
MTEXT
  5
19B
330
1F
100
AcDbEntity
  8
0
  6
Continuous
 62
     3
420
    65280
370
     0
100
AcDbMText
 10
808.334595
 20
185.578186
 30
0.0
 40
3.168
 41
0.0
 46
0.0
 71
     1
 72
     1
  1
{\W1.1;{\fArial|b0|i0;Dima for mounting under top}}
 73
     2
 44
0.99598
  0
MTEXT
  5
19C
330
1F
100
AcDbEntity
  8
0
  6
Continuous
 62
     5
420
      255
370
     0
100
AcDbMText
 10
942.222778
 20
231.956604
 30
0.0
 40
3.8016
 41
0.0
 46
0.0
 71
     1
 72
     1
  1
{\W1.04;{\fArial|b0|i0;SOLUZIONE  "C"}}
 73
     2
 44
0.99598
  0
MTEXT
  5
19D
330
1F
100
AcDbEntity
  8
0
  6
Continuous
 62
     5
420
      255
370
     0
100
AcDbMText
 10
924.521973
 20
225.210266
 30
0.0
 40
2.64
 41
0.0
 46
0.0
 71
     1
 72
     1
  1
{\W1.13;{\fArial|b0|i0;Con il bordo del lavello parzialmente a vista}}
 73
     2
 44
0.99598
  0
MTEXT
  5
19E
330
1F
100
AcDbEntity
  8
0
  6
Continuous
 62
     3
420
    65280
370
     0
100
AcDbMText
 10
831.183594
 20
254.473694
 30
0.0
 40
5.068799
 41
0.0
 46
0.0
 71
     1
 72
     1
  1
{\fArial|b0|i0;DIMA FOR MOUNTING UNDER TOP CX0862}
 73
     2
 44
0.99598
  0
INSERT
  5
1A8
330
1F
100
AcDbEntity
  8
0
  6
Continuous
 62
     3
420
    65280
370
     0
100
AcDbBlockReference
  2
.TD_DIMENSION_2
 10
1932.345458
 20
355.104064
 30
0.0
  0
INSERT
  5
1B2
330
1F
100
AcDbEntity
  8
0
  6
Continuous
 62
     3
420
    65280
370
     0
100
AcDbBlockReference
  2
.TD_DIMENSION_3
 10
1928.742676
 20
358.743928
 30
0.0
  0
INSERT
  5
1BC
330
1F
100
AcDbEntity
  8
0
  6
Continuous
 62
     3
420
    65280
370
     0
100
AcDbBlockReference
  2
.TD_DIMENSION_4
 10
1924.069214
 20
391.511596
 30
0.0
  0
INSERT
  5
1C6
330
1F
100
AcDbEntity
  8
0
  6
Continuous
 62
     3
420
    65280
370
     0
100
AcDbBlockReference
  2
.TD_DIMENSION_5
 10
1885.628052
 20
368.480958
 30
0.0
  0
INSERT
  5
1CF
330
1F
100
AcDbEntity
  8
0
  6
Continuous
 62
     3
420
    65280
370
     0
100
AcDbBlockReference
  2
.TD_DIMENSION_6
 10
1865.915406
 20
352.432922
 30
0.0
  0
INSERT
  5
1D9
330
1F
100
AcDbEntity
  8
0
  6
Continuous
 62
     3
420
    65280
370
     0
100
AcDbBlockReference
  2
.TD_DIMENSION_7
 10
1887.437622
 20
355.346496
 30
0.0
  0
LINE
  5
1DA
330
1F
100
AcDbEntity
  8
0
  6
Continuous
 62
     4
420
    65535
370
     0
100
AcDbLine
 10
1365.748912
 20
415.821123
 30
0.0
 11
2183.748912
 21
415.821123
 31
0.0
  0
LINE
  5
1DB
330
1F
100
AcDbEntity
  8
0
  6
Continuous
 62
     4
420
    65535
370
     0
100
AcDbLine
 10
2193.748912
 20
405.821123
 30
0.0
 11
2193.748912
 21
-53.178877
 31
0.0
  0
LINE
  5
1DC
330
1F
100
AcDbEntity
  8
0
  6
Continuous
 62
     4
420
    65535
370
     0
100
AcDbLine
 10
2183.748912
 20
-63.178877
 30
0.0
 11
1365.748912
 21
-63.178877
 31
0.0
  0
LINE
  5
1DD
330
1F
100
AcDbEntity
  8
0
  6
Continuous
 62
     4
420
    65535
370
     0
100
AcDbLine
 10
1355.748912
 20
-53.178877
 30
0.0
 11
1355.748912
 21
405.821123
 31
0.0
  0
ARC
  5
1DE
330
1F
100
AcDbEntity
  8
0
  6
Continuous
 62
     4
420
    65535
370
     0
100
AcDbCircle
 10
1365.748912
 20
405.821123
 30
0.0
 40
10.0
100
AcDbArc
 50
90.0
 51
180.0
  0
ARC
  5
1DF
330
1F
100
AcDbEntity
  8
0
  6
Continuous
 62
     4
420
    65535
370
     0
100
AcDbCircle
 10
1365.748912
 20
-53.178877
 30
0.0
 40
10.0
100
AcDbArc
 50
180.0
 51
270.0
  0
ARC
  5
1E0
330
1F
100
AcDbEntity
  8
0
  6
Continuous
 62
     4
420
    65535
370
     0
100
AcDbCircle
 10
2183.748912
 20
-53.178877
 30
0.0
 40
10.0
100
AcDbArc
 50
270.0
 51
0.0
  0
ARC
  5
1E1
330
1F
100
AcDbEntity
  8
0
  6
Continuous
 62
     4
420
    65535
370
     0
100
AcDbCircle
 10
2183.748912
 20
405.821123
 30
0.0
 40
10.0
100
AcDbArc
 50
0.0
 51
90.0
  0
MTEXT
  5
1E2
330
1F
100
AcDbEntity
  8
0
  6
Continuous
 62
     4
420
    65535
370
     0
100
AcDbMText
 10
1695.762939
 20
25.894682
 30
0.0
 40
20.0
 41
0.0
 46
0.0
 71
     1
 72
     1
  1
{\W1.11;{\fArial|b0|i0;Code CX0862}}
 73
     2
 44
0.99598
  0
MTEXT
  5
1E3
330
1F
100
AcDbEntity
  8
0
  6
Continuous
 62
     3
420
    65280
370
     0
100
AcDbMText
 10
1677.619629
 20
99.476234
 30
0.0
 40
20.0
 41
0.0
 46
0.0
 71
     1
 72
     1
  1
{\W1.1;{\fArial|b0|i0;UNDERMOUNT}}
 73
     2
 44
0.99598
  0
INSERT
  5
1F1
330
1F
100
AcDbEntity
  8
0
  6
Continuous
 62
     1
420
 16711680
370
     0
100
AcDbBlockReference
  2
.TD_DIMENSION_8
 10
2611.497802
 20
-396.930542
 30
0.0
  0
INSERT
  5
1FF
330
1F
100
AcDbEntity
  8
0
  6
Continuous
 62
     1
420
 16711680
370
     0
100
AcDbBlockReference
  2
.TD_DIMENSION_9
 10
4442.498046
 20
-226.357758
 30
0.0
  0
INSERT
  5
20A
330
1F
100
AcDbEntity
  8
0
  6
Continuous
 62
     1
420
 16711680
370
     0
100
AcDbBlockReference
  2
.TD_DIMENSION_10
 10
2577.510742
 20
523.795594
 30
0.0
  0
DIMENSION
  5
20B
330
1F
100
AcDbEntity
  8
0
  6
Continuous
 62
     3
420
    65280
370
     0
100
AcDbDimension
280
     0
  2
*D16
 10
1010.37785
 20
86.630928
 30
0.0
 11
983.50285
 21
88.571088
 31
0.0
 70
    33
  1
\fArial|b0|i0|c0|p0;{\fArial|b0|i0;860}
 71
     5
 42
53.75
 73
     0
 74
     0
 75
     0
  3
ISO-25
100
AcDbAlignedDimension
 13
956.62785
 23
93.973779
 33
0.0
 14
1010.37785
 24
93.973779
 34
0.0
1001
ACAD
1000
DSTYLE
1002
{
1070
    41
1040
1.92
1070
   342
1005
4F
1070
   176
1070
    32
1070
   177
1070
    32
1070
   178
1070
     1
1070
   278
1070
    46
1070
    44
1040
1.152
1070
    42
1040
2.88
1070
   147
1040
0.96
1070
   272
1070
     3
1070
   146
1040
0.4
1070
   140
1040
1.92
1002
}
  0
DIMENSION
  5
218
330
1F
100
AcDbEntity
  8
3
  6
Continuous
 62
     7
420
 16777215
370
     0
100
AcDbDimension
280
     0
  2
*D17
 10
1020.300781
 20
124.786031
 30
0.0
 11
1018.406095
 21
109.161155
 31
0.0
 70
    33
  1
\fArial|b0|i0|c0|p0;{\fArial|b0|i0;500}
 71
     5
 42
31.249752
 73
     0
 74
     0
 75
     0
  3
ISO-25
100
AcDbAlignedDimension
 13
1009.94035
 23
93.536279
 33
0.0
 14
1009.94035
 24
124.786031
 34
0.0
1001
ACAD
1000
DSTYLE
1002
{
1070
    41
1040
1.25
1070
   342
1005
4F
1070
   176
1070
    32
1070
   177
1070
    32
1070
   178
1070
     1
1070
   278
1070
    46
1070
    44
1040
1.124999
1070
    42
1040
5.362497
1070
   147
1040
0.9375
1070
   272
1070
     3
1070
   146
1040
0.4
1070
   140
1040
1.874999
1002
}
  0
DIMENSION
  5
225
330
1F
100
AcDbEntity
  8
0
  6
Continuous
 62
     1
420
 16711680
370
     0
100
AcDbDimension
280
     0
  2
*D18
 10
880.575773
 20
146.975647
 30
0.0
 11
838.675773
 21
151.595647
 31
0.0
 70
    33
  1
\fArial|b0|i0|c0|p0;{\fArial|b0|i0;838 (33")}
 71
     5
 42
83.8
 73
     0
 74
     0
 75
     0
  3
ISO-25
100
AcDbAlignedDimension
 13
796.775773
 23
160.8455
 33
0.0
 14
880.575773
 24
160.8455
 34
0.0
1001
ACAD
1000
DSTYLE
1002
{
1070
    41
1040
4.0
1070
   342
1005
4F
1070
   176
1070
    32
1070
   177
1070
    32
1070
   178
1070
     1
1070
   278
1070
    46
1070
    44
1040
2.4
1070
    42
1040
6.0
1070
   147
1040
2.0
1070
   272
1070
     3
1070
   146
1040
0.4
1070
   140
1040
4.0
1002
}
  0
DIMENSION
  5
232
330
1F
100
AcDbEntity
  8
0
  6
Continuous
 62
     1
420
 16711680
370
     0
100
AcDbDimension
280
     0
  2
*D19
 10
891.313354
 20
207.7455
 30
0.0
 11
886.693354
 21
183.7955
 31
0.0
 70
    33
  1
\fArial|b0|i0|c0|p0;{\fArial|b0|i0;479 (18 7/8")}
 71
     5
 42
479.0
 73
     0
 74
     0
 75
     0
  3
ISO-25
100
AcDbAlignedDimension
 13
879.575773
 23
159.8455
 33
0.0
 14
879.575773
 24
207.7455
 34
0.0
1001
ACAD
1000
DSTYLE
1002
{
1070
    41
1040
4.0
1070
   342
1005
4F
1070
   176
1070
    32
1070
   177
1070
    32
1070
   178
1070
     1
1070
   278
1070
    46
1070
    44
1040
2.4
1070
    42
1040
6.0
1070
   147
1040
2.0
1070
   144
1040
10.0
1070
   272
1070
     3
1070
   146
1040
0.4
1070
   140
1040
4.0
1002
}
  0
DIMENSION
  5
23F
330
1F
100
AcDbEntity
  8
0
  6
Continuous
 62
     4
420
    65535
370
     0
100
AcDbDimension
280
     0
  2
*D20
 10
959.710159
 20
169.858215
 30
0.0
 11
956.929709
 21
171.621415
 31
0.0
 70
    32
  1
\fArial|b0|i0|c0|p0;{\fArial|b0|i0;14}
 71
     5
 42
5.5609
 73
     0
 74
     0
 75
     0
  3
ISO-25
100
AcDbAlignedDimension
 13
954.149259
 23
176.437749
 33
0.0
 14
959.710159
 24
172.998493
 34
0.0
100
AcDbRotatedDimension
1001
ACAD
1000
DSTYLE
1002
{
1070
    41
1040
0.76
1070
   342
1005
4F
1070
   176
1070
     1
1070
   177
1070
     1
1070
   178
1070
     2
1070
   278
1070
    46
1070
    44
1040
0.48
1070
    42
1040
0.4
1070
   147
1040
0.96
1070
   272
1070
     3
1070
   146
1040
0.4
1070
   140
1040
1.6
1002
}
  0
DIMENSION
  5
24C
330
1F
100
AcDbEntity
  8
0
  6
Continuous
 62
     4
420
    65535
370
     0
100
AcDbDimension
280
     0
  2
*D21
 10
965.333258
 20
164.959534
 30
0.0
 11
959.741258
 21
166.736334
 31
0.0
 70
    32
  1
\fArial|b0|i0|c0|p0;{\fArial|b0|i0;28}
 71
     5
 42
11.183999
 73
     0
 74
     0
 75
     0
  3
ISO-25
100
AcDbAlignedDimension
 13
954.149259
 23
176.437749
 33
0.0
 14
965.333258
 24
177.06873
 34
0.0
100
AcDbRotatedDimension
1001
ACAD
1000
DSTYLE
1002
{
1070
    41
1040
0.76
1070
   342
1005
4F
1070
   176
1070
     1
1070
   177
1070
     1
1070
   178
1070
     2
1070
   278
1070
    46
1070
    44
1040
0.48
1070
    42
1040
0.4
1070
   147
1040
0.96
1070
   272
1070
     3
1070
   146
1040
0.4
1070
   140
1040
1.6
1002
}
  0
DIMENSION
  5
259
330
1F
100
AcDbEntity
  8
0
  6
Continuous
 62
     3
420
    65280
370
     0
100
AcDbDimension
280
     0
  2
*D22
 10
952.718994
 20
95.723779
 30
0.0
 11
950.778834
 21
109.161155
 31
0.0
 70
    33
  1
\fArial|b0|i0|c0|p0;{\fArial|b0|i0;430}
 71
     5
 42
26.874752
 73
     0
 74
     0
 75
     0
  3
ISO-25
100
AcDbAlignedDimension
 13
959.44035
 23
122.598531
 33
0.0
 14
959.44035
 24
95.723779
 34
0.0
1001
ACAD
1000
DSTYLE
1002
{
1070
   280
1070
     0
1070
   344
1005
0
1070
   343
1005
0
1070
    76
1070
     0
1070
    75
1070
     0
1070
    41
1040
1.92
1070
   342
1005
4F
1070
   176
1070
    32
1070
   177
1070
    32
1070
   178
1070
     1
1070
   278
1070
    46
1070
    44
1040
1.152
1070
    42
1040
2.88
1070
   147
1040
0.96
1070
   272
1070
     3
1070
   146
1040
0.4
1070
   140
1040
1.92
1002
}
  0
DIMENSION
  5
266
330
1F
100
AcDbEntity
  8
3
  6
Continuous
 62
     7
420
 16777215
370
     0
100
AcDbDimension
280
     0
  2
*D23
 10
982.565339
 20
130.620667
 30
0.0
 11
970.690345
 21
132.515353
 31
0.0
 70
    32
  1
\fArial|b0|i0|c0|p0;{\fArial|b0|i0;380}
 71
     5
 42
23.749989
 73
     0
 74
     0
 75
     0
  3
ISO-25
100
AcDbAlignedDimension
 13
958.81535
 23
121.973531
 33
0.0
 14
982.565339
 24
119.509417
 34
0.0
100
AcDbRotatedDimension
1001
ACAD
1000
DSTYLE
1002
{
1070
    41
1040
1.25
1070
   342
1005
4F
1070
   176
1070
    32
1070
   177
1070
    32
1070
   178
1070
     1
1070
   278
1070
    46
1070
    44
1040
1.124999
1070
    42
1040
5.362497
1070
   147
1040
0.9375
1070
   272
1070
     3
1070
   146
1040
0.4
1070
   140
1040
1.874999
1070
   284
1070
    12
1002
}
  0
DIMENSION
  5
273
330
1F
100
AcDbEntity
  8
3
  6
Continuous
 62
     7
420
 16777215
370
     0
100
AcDbDimension
280
     0
  2
*D24
 10
984.565294
 20
130.592834
 30
0.0
 11
996.377808
 21
132.487521
 31
0.0
 70
    32
  1
\fArial|b0|i0|c0|p0;{\fArial|b0|i0;380}
 71
     5
 42
23.625029
 73
     0
 74
     0
 75
     0
  3
ISO-25
100
AcDbAlignedDimension
 13
1008.190323
 23
121.973531
 33
0.0
 14
984.565294
 24
109.161155
 34
0.0
100
AcDbRotatedDimension
1001
ACAD
1000
DSTYLE
1002
{
1070
   280
1070
     0
1070
   344
1005
0
1070
   343
1005
0
1070
    76
1070
     0
1070
    75
1070
     0
1070
    41
1040
1.25
1070
   342
1005
4F
1070
   176
1070
    32
1070
   177
1070
    32
1070
   178
1070
     1
1070
   278
1070
    46
1070
    44
1040
1.124999
1070
    42
1040
5.362497
1070
   147
1040
0.9375
1070
   272
1070
     3
1070
   146
1040
0.4
1070
   140
1040
1.874999
1070
   284
1070
    12
1002
}
  0
ENDSEC
  0
SECTION
  2
OBJECTS
  0
DICTIONARY
  5
C
330
0
100
AcDbDictionary
281
     1
  3
ACAD_GROUP
350
D
  3
ACAD_LAYOUT
350
1A
  3
ACAD_MATERIAL
350
3B
  3
ACAD_MLEADERSTYLE
350
283
  3
ACAD_MLINESTYLE
350
17
  3
ACAD_PLOTSETTINGS
350
19
  3
ACAD_PLOTSTYLENAME
350
E
  3
ACAD_SCALELIST
350
6D
  3
ACAD_TABLESTYLE
350
282
  3
ACAD_VISUALSTYLE
350
2A
  3
AcDbVariableDictionary
350
280
  0
DICTIONARY
  5
D
102
{ACAD_REACTORS
330
C
102
}
330
C
100
AcDbDictionary
281
     1
  0
DICTIONARY
  5
1A
102
{ACAD_REACTORS
330
C
102
}
330
C
100
AcDbDictionary
281
     1
  3
Layout1
350
1E
  3
Layout2
350
26
  3
Model
350
22
  0
DICTIONARY
  5
3B
102
{ACAD_REACTORS
330
C
102
}
330
C
100
AcDbDictionary
281
     1
  3
ByBlock
350
3D
  3
ByLayer
350
3C
  3
Global
350
3E
  0
DICTIONARY
  5
283
102
{ACAD_REACTORS
330
C
102
}
330
C
100
AcDbDictionary
281
     1
  0
DICTIONARY
  5
17
102
{ACAD_REACTORS
330
C
102
}
330
C
100
AcDbDictionary
281
     1
  3
Standard
350
18
  0
DICTIONARY
  5
19
102
{ACAD_REACTORS
330
C
102
}
330
C
100
AcDbDictionary
281
     1
  0
ACDBDICTIONARYWDFLT
  5
E
102
{ACAD_REACTORS
330
C
102
}
330
C
100
AcDbDictionary
281
     1
  3
Normal
350
F
100
AcDbDictionaryWithDefault
340
F
  0
DICTIONARY
  5
6D
102
{ACAD_REACTORS
330
C
102
}
330
C
100
AcDbDictionary
281
     1
  3
A0
350
6E
  3
A1
350
6F
  3
A2
350
70
  3
A3
350
71
  3
A4
350
72
  3
A5
350
73
  3
A6
350
74
  3
A7
350
75
  3
A8
350
76
  3
A9
350
77
  3
B0
350
78
  3
B1
350
79
  3
B2
350
7A
  3
B3
350
7B
  3
B4
350
7C
  3
B5
350
7D
  3
B6
350
7E
  3
B7
350
7F
  3
B8
350
80
  3
B9
350
81
  3
C0
350
82
  3
C1
350
83
  3
C2
350
84
  3
C3
350
85
  3
C4
350
86
  3
C5
350
87
  3
C6
350
88
  3
C7
350
89
  3
C8
350
8A
  3
C9
350
8B
  3
D0
350
8C
  3
D1
350
8D
  3
D2
350
8E
  0
DICTIONARY
  5
282
102
{ACAD_REACTORS
330
C
102
}
330
C
100
AcDbDictionary
281
     1
  0
DICTIONARY
  5
2A
102
{ACAD_REACTORS
330
C
102
}
330
C
100
AcDbDictionary
281
     1
  3
2dWireframe
350
2F
  3
3D Hidden
350
31
  3
3dWireframe
350
30
  3
Basic
350
32
  3
Brighten
350
36
  3
ColorChange
350
3A
  3
Conceptual
350
34
  3
Dim
350
35
  3
Facepattern
350
39
  3
Flat
350
2B
  3
FlatWithEdges
350
2C
  3
Gouraud
350
2D
  3
GouraudWithEdges
350
2E
  3
Linepattern
350
38
  3
Realistic
350
33
  3
Thicken
350
37
  0
DICTIONARY
  5
280
102
{ACAD_REACTORS
330
C
102
}
330
C
100
AcDbDictionary
281
     1
  3
CANNOSCALE
350
281
  0
LAYOUT
  5
1E
102
{ACAD_REACTORS
330
1A
102
}
330
1A
100
AcDbPlotSettings
  1

  2
none_device
  4

  6

 40
0.0
 41
0.0
 42
0.0
 43
0.0
 44
0.0
 45
0.0
 46
0.0
 47
0.0
 48
0.0
 49
0.0
140
0.0
141
0.0
142
1.0
143
1.0
 70
   688
 72
     0
 73
     0
 74
     5
  7

 75
    16
 76
     0
 77
     2
 78
   300
147
1.0
148
0.0
149
0.0
100
AcDbLayout
  1
Layout1
 70
     1
 71
     1
 10
0.0
 20
0.0
 11
420.0
 21
297.0
 12
0.0
 22
0.0
 32
0.0
 14
1.000000E+20
 24
1.000000E+20
 34
1.000000E+20
 15
-1.000000E+20
 25
-1.000000E+20
 35
-1.000000E+20
146
0.0
 13
0.0
 23
0.0
 33
0.0
 16
1.0
 26
0.0
 36
0.0
 17
0.0
 27
1.0
 37
0.0
 76
     0
330
1B
  0
LAYOUT
  5
26
102
{ACAD_REACTORS
330
1A
102
}
330
1A
100
AcDbPlotSettings
  1

  2
none_device
  4

  6

 40
0.0
 41
0.0
 42
0.0
 43
0.0
 44
0.0
 45
0.0
 46
0.0
 47
0.0
 48
0.0
 49
0.0
140
0.0
141
0.0
142
1.0
143
1.0
 70
   688
 72
     0
 73
     0
 74
     5
  7

 75
    16
 76
     0
 77
     2
 78
   300
147
1.0
148
0.0
149
0.0
100
AcDbLayout
  1
Layout2
 70
     1
 71
     2
 10
0.0
 20
0.0
 11
0.0
 21
0.0
 12
0.0
 22
0.0
 32
0.0
 14
0.0
 24
0.0
 34
0.0
 15
0.0
 25
0.0
 35
0.0
146
0.0
 13
0.0
 23
0.0
 33
0.0
 16
1.0
 26
0.0
 36
0.0
 17
0.0
 27
1.0
 37
0.0
 76
     0
330
23
  0
LAYOUT
  5
22
102
{ACAD_REACTORS
330
1A
102
}
330
1A
100
AcDbPlotSettings
  1

  2
none_device
  4

  6

 40
0.0
 41
0.0
 42
0.0
 43
0.0
 44
0.0
 45
0.0
 46
0.0
 47
0.0
 48
0.0
 49
0.0
140
0.0
141
0.0
142
1.0
143
1.0
 70
  1712
 72
     0
 73
     0
 74
     0
  7

 75
     0
 76
     0
 77
     2
 78
   300
147
1.0
148
0.0
149
0.0
100
AcDbLayout
  1
Model
 70
     1
 71
     0
 10
0.0
 20
0.0
 11
420.0
 21
297.0
 12
0.0
 22
0.0
 32
0.0
 14
1.000000E+20
 24
1.000000E+20
 34
1.000000E+20
 15
-1.000000E+20
 25
-1.000000E+20
 35
-1.000000E+20
146
0.0
 13
0.0
 23
0.0
 33
0.0
 16
1.0
 26
0.0
 36
0.0
 17
0.0
 27
1.0
 37
0.0
 76
     0
330
1F
331
29
  0
MATERIAL
  5
3D
102
{ACAD_REACTORS
330
3B
102
}
330
3B
100
AcDbMaterial
  1
ByBlock
 72
     1
 94
      127
  0
MATERIAL
  5
3C
102
{ACAD_REACTORS
330
3B
102
}
330
3B
100
AcDbMaterial
  1
ByLayer
 72
     1
 94
      127
  0
MATERIAL
  5
3E
102
{ACAD_REACTORS
330
3B
102
}
330
3B
100
AcDbMaterial
  1
Global
 72
     1
 94
      127
  0
MLINESTYLE
  5
18
102
{ACAD_REACTORS
330
17
102
}
330
17
100
AcDbMlineStyle
  2
Standard
 70
     0
  3

 62
   256
 51
90.0
 52
90.0
 71
     2
 49
0.5
 62
   256
  6
BYLAYER
 49
-0.5
 62
   256
  6
BYLAYER
  0
ACDBPLACEHOLDER
  5
F
102
{ACAD_REACTORS
330
E
102
}
330
E
  0
SCALE
  5
6E
102
{ACAD_REACTORS
330
6D
102
}
330
6D
100
AcDbScale
 70
     0
300
1:1
140
1.0
141
1.0
290
     1
  0
SCALE
  5
6F
102
{ACAD_REACTORS
330
6D
102
}
330
6D
100
AcDbScale
 70
     0
300
1:2
140
1.0
141
2.0
290
     0
  0
SCALE
  5
70
102
{ACAD_REACTORS
330
6D
102
}
330
6D
100
AcDbScale
 70
     0
300
1:4
140
1.0
141
4.0
290
     0
  0
SCALE
  5
71
102
{ACAD_REACTORS
330
6D
102
}
330
6D
100
AcDbScale
 70
     0
300
1:5
140
1.0
141
5.0
290
     0
  0
SCALE
  5
72
102
{ACAD_REACTORS
330
6D
102
}
330
6D
100
AcDbScale
 70
     0
300
1:8
140
1.0
141
8.0
290
     0
  0
SCALE
  5
73
102
{ACAD_REACTORS
330
6D
102
}
330
6D
100
AcDbScale
 70
     0
300
1:10
140
1.0
141
10.0
290
     0
  0
SCALE
  5
74
102
{ACAD_REACTORS
330
6D
102
}
330
6D
100
AcDbScale
 70
     0
300
1:16
140
1.0
141
16.0
290
     0
  0
SCALE
  5
75
102
{ACAD_REACTORS
330
6D
102
}
330
6D
100
AcDbScale
 70
     0
300
1:20
140
1.0
141
20.0
290
     0
  0
SCALE
  5
76
102
{ACAD_REACTORS
330
6D
102
}
330
6D
100
AcDbScale
 70
     0
300
1:30
140
1.0
141
30.0
290
     0
  0
SCALE
  5
77
102
{ACAD_REACTORS
330
6D
102
}
330
6D
100
AcDbScale
 70
     0
300
1:40
140
1.0
141
40.0
290
     0
  0
SCALE
  5
78
102
{ACAD_REACTORS
330
6D
102
}
330
6D
100
AcDbScale
 70
     0
300
1:50
140
1.0
141
50.0
290
     0
  0
SCALE
  5
79
102
{ACAD_REACTORS
330
6D
102
}
330
6D
100
AcDbScale
 70
     0
300
1:100
140
1.0
141
100.0
290
     0
  0
SCALE
  5
7A
102
{ACAD_REACTORS
330
6D
102
}
330
6D
100
AcDbScale
 70
     0
300
2:1
140
2.0
141
1.0
290
     0
  0
SCALE
  5
7B
102
{ACAD_REACTORS
330
6D
102
}
330
6D
100
AcDbScale
 70
     0
300
4:1
140
4.0
141
1.0
290
     0
  0
SCALE
  5
7C
102
{ACAD_REACTORS
330
6D
102
}
330
6D
100
AcDbScale
 70
     0
300
8:1
140
8.0
141
1.0
290
     0
  0
SCALE
  5
7D
102
{ACAD_REACTORS
330
6D
102
}
330
6D
100
AcDbScale
 70
     0
300
10:1
140
10.0
141
1.0
290
     0
  0
SCALE
  5
7E
102
{ACAD_REACTORS
330
6D
102
}
330
6D
100
AcDbScale
 70
     0
300
100:1
140
100.0
141
1.0
290
     0
  0
SCALE
  5
7F
102
{ACAD_REACTORS
330
6D
102
}
330
6D
100
AcDbScale
 70
     0
300
1/128" = 1'-0"
140
0.007812
141
12.0
290
     0
  0
SCALE
  5
80
102
{ACAD_REACTORS
330
6D
102
}
330
6D
100
AcDbScale
 70
     0
300
1/64" = 1'-0"
140
0.015625
141
12.0
290
     0
  0
SCALE
  5
81
102
{ACAD_REACTORS
330
6D
102
}
330
6D
100
AcDbScale
 70
     0
300
1/32" = 1'-0"
140
0.03125
141
12.0
290
     0
  0
SCALE
  5
82
102
{ACAD_REACTORS
330
6D
102
}
330
6D
100
AcDbScale
 70
     0
300
1/16" = 1'-0"
140
0.0625
141
12.0
290
     0
  0
SCALE
  5
83
102
{ACAD_REACTORS
330
6D
102
}
330
6D
100
AcDbScale
 70
     0
300
3/32" = 1'-0"
140
0.09375
141
12.0
290
     0
  0
SCALE
  5
84
102
{ACAD_REACTORS
330
6D
102
}
330
6D
100
AcDbScale
 70
     0
300
1/8" = 1'-0"
140
0.125
141
12.0
290
     0
  0
SCALE
  5
85
102
{ACAD_REACTORS
330
6D
102
}
330
6D
100
AcDbScale
 70
     0
300
3/16" = 1'-0"
140
0.1875
141
12.0
290
     0
  0
SCALE
  5
86
102
{ACAD_REACTORS
330
6D
102
}
330
6D
100
AcDbScale
 70
     0
300
1/4" = 1'-0"
140
0.25
141
12.0
290
     0
  0
SCALE
  5
87
102
{ACAD_REACTORS
330
6D
102
}
330
6D
100
AcDbScale
 70
     0
300
3/8" = 1'-0"
140
0.375
141
12.0
290
     0
  0
SCALE
  5
88
102
{ACAD_REACTORS
330
6D
102
}
330
6D
100
AcDbScale
 70
     0
300
1/2" = 1'-0"
140
0.5
141
12.0
290
     0
  0
SCALE
  5
89
102
{ACAD_REACTORS
330
6D
102
}
330
6D
100
AcDbScale
 70
     0
300
3/4" = 1'-0"
140
0.75
141
12.0
290
     0
  0
SCALE
  5
8A
102
{ACAD_REACTORS
330
6D
102
}
330
6D
100
AcDbScale
 70
     0
300
1" = 1'-0"
140
1.0
141
12.0
290
     0
  0
SCALE
  5
8B
102
{ACAD_REACTORS
330
6D
102
}
330
6D
100
AcDbScale
 70
     0
300
1-1/2" = 1'-0"
140
1.5
141
12.0
290
     0
  0
SCALE
  5
8C
102
{ACAD_REACTORS
330
6D
102
}
330
6D
100
AcDbScale
 70
     0
300
3" = 1'-0"
140
3.0
141
12.0
290
     0
  0
SCALE
  5
8D
102
{ACAD_REACTORS
330
6D
102
}
330
6D
100
AcDbScale
 70
     0
300
6" = 1'-0"
140
6.0
141
12.0
290
     0
  0
SCALE
  5
8E
102
{ACAD_REACTORS
330
6D
102
}
330
6D
100
AcDbScale
 70
     0
300
1'-0" = 1'-0"
140
12.0
141
12.0
290
     0
  0
VISUALSTYLE
  5
2F
102
{ACAD_REACTORS
330
2A
102
}
330
2A
100
AcDbVisualStyle
  2
2dWireframe
 70
     4
177
     2
291
     0
 71
     0
176
     1
 72
     2
176
     1
 73
     0
176
     1
 90
        0
176
     1
 40
-0.6
176
     1
 41
-30.0
176
     1
 62
     5
 63
     7
421
 16777215
176
     1
 74
     1
176
     1
 91
        4
176
     1
 64
     7
176
     1
 65
   257
176
     1
 75
     1
176
     1
175
     1
176
     1
 42
1.0
176
     1
 92
        0
176
     1
 66
   257
176
     1
 43
1.0
176
     1
 76
     1
176
     1
 77
     6
176
     1
 78
     2
176
     1
 67
     7
176
     1
 79
     5
176
     1
170
     0
176
     1
171
     0
176
     1
290
     0
176
     1
 93
        1
176
     1
 44
0.0
176
     1
173
     0
176
     1
  0
VISUALSTYLE
  5
31
102
{ACAD_REACTORS
330
2A
102
}
330
2A
100
AcDbVisualStyle
  2
3D Hidden
 70
     6
177
     2
291
     0
 71
     1
176
     1
 72
     2
176
     1
 73
     2
176
     1
 90
        0
176
     1
 40
-0.6
176
     1
 41
-30.0
176
     1
 62
     5
 63
     7
421
 16777215
176
     1
 74
     2
176
     1
 91
        2
176
     1
 64
     7
176
     1
 65
   257
176
     1
 75
     2
176
     1
175
     1
176
     1
 42
40.0
176
     1
 92
        0
176
     1
 66
   257
176
     1
 43
1.0
176
     1
 76
     1
176
     1
 77
     6
176
     1
 78
     2
176
     1
 67
     7
176
     1
 79
     3
176
     1
170
     0
176
     1
171
     0
176
     1
290
     0
176
     1
 93
        1
176
     1
 44
0.0
176
     1
173
     0
176
     1
  0
VISUALSTYLE
  5
30
102
{ACAD_REACTORS
330
2A
102
}
330
2A
100
AcDbVisualStyle
  2
3dWireframe
 70
     5
177
     2
291
     0
 71
     0
176
     1
 72
     2
176
     1
 73
     0
176
     1
 90
        0
176
     1
 40
-0.6
176
     1
 41
-30.0
176
     1
 62
     5
 63
     7
421
 16777215
176
     1
 74
     1
176
     1
 91
        4
176
     1
 64
     7
176
     1
 65
   257
176
     1
 75
     1
176
     1
175
     1
176
     1
 42
1.0
176
     1
 92
        0
176
     1
 66
   257
176
     1
 43
1.0
176
     1
 76
     1
176
     1
 77
     6
176
     1
 78
     2
176
     1
 67
     7
176
     1
 79
     5
176
     1
170
     0
176
     1
171
     0
176
     1
290
     0
176
     1
 93
        1
176
     1
 44
0.0
176
     1
173
     0
176
     1
  0
VISUALSTYLE
  5
32
102
{ACAD_REACTORS
330
2A
102
}
330
2A
100
AcDbVisualStyle
  2
Basic
 70
     7
177
     2
291
     1
 71
     1
176
     1
 72
     0
176
     1
 73
     1
176
     1
 90
        0
176
     1
 40
-0.6
176
     1
 41
-30.0
176
     1
 62
     5
 63
     7
421
 16777215
176
     1
 74
     0
176
     1
 91
        4
176
     1
 64
     7
176
     1
 65
   257
176
     1
 75
     1
176
     1
175
     1
176
     1
 42
1.0
176
     1
 92
        8
176
     1
 66
     7
176
     1
 43
1.0
176
     1
 76
     1
176
     1
 77
     6
176
     1
 78
     2
176
     1
 67
     7
176
     1
 79
     5
176
     1
170
     0
176
     1
171
     0
176
     1
290
     0
176
     1
 93
        1
176
     1
 44
0.0
176
     1
173
     0
176
     1
  0
VISUALSTYLE
  5
36
102
{ACAD_REACTORS
330
2A
102
}
330
2A
100
AcDbVisualStyle
  2
Brighten
 70
    12
177
     2
291
     1
 71
     2
176
     1
 72
     2
176
     1
 73
     0
176
     1
 90
        0
176
     1
 40
-0.6
176
     1
 41
-30.0
176
     1
 62
     5
 63
     7
421
 16777215
176
     1
 74
     1
176
     1
 91
        4
176
     1
 64
     7
176
     1
 65
   257
176
     1
 75
     1
176
     1
175
     1
176
     1
 42
1.0
176
     1
 92
        8
176
     1
 66
     7
176
     1
 43
1.0
176
     1
 76
     1
176
     1
 77
     6
176
     1
 78
     2
176
     1
 67
     7
176
     1
 79
     5
176
     1
170
     0
176
     1
171
     0
176
     1
290
     0
176
     1
 93
        1
176
     1
 44
50.0
176
     1
173
     0
176
     1
  0
VISUALSTYLE
  5
3A
102
{ACAD_REACTORS
330
2A
102
}
330
2A
100
AcDbVisualStyle
  2
ColorChange
 70
    16
177
     2
291
     1
 71
     2
176
     1
 72
     2
176
     1
 73
     3
176
     1
 90
        0
176
     1
 40
-0.6
176
     1
 41
-30.0
176
     1
 62
     5
 63
     8
421
  8421504
176
     1
 74
     1
176
     1
 91
        4
176
     1
 64
     7
176
     1
 65
   257
176
     1
 75
     1
176
     1
175
     1
176
     1
 42
1.0
176
     1
 92
        8
176
     1
 66
     8
424
  8421504
176
     1
 43
1.0
176
     1
 76
     1
176
     1
 77
     6
176
     1
 78
     2
176
     1
 67
     7
176
     1
 79
     5
176
     1
170
     0
176
     1
171
     0
176
     1
290
     0
176
     1
 93
        1
176
     1
 44
0.0
176
     1
173
     0
176
     1
  0
VISUALSTYLE
  5
34
102
{ACAD_REACTORS
330
2A
102
}
330
2A
100
AcDbVisualStyle
  2
Conceptual
 70
     9
177
     2
291
     0
 71
     3
176
     1
 72
     2
176
     1
 73
     0
176
     1
 90
        0
176
     1
 40
-0.6
176
     1
 41
-30.0
176
     1
 62
     5
 63
     7
421
 16777215
176
     1
 74
     2
176
     1
 91
        2
176
     1
 64
     7
176
     1
 65
   257
176
     1
 75
     1
176
     1
175
     1
176
     1
 42
40.0
176
     1
 92
        8
176
     1
 66
     7
176
     1
 43
1.0
176
     1
 76
     1
176
     1
 77
     6
176
     1
 78
     2
176
     1
 67
     7
176
     1
 79
     3
176
     1
170
     0
176
     1
171
     0
176
     1
290
     0
176
     1
 93
        1
176
     1
 44
0.0
176
     1
173
     0
176
     1
  0
VISUALSTYLE
  5
35
102
{ACAD_REACTORS
330
2A
102
}
330
2A
100
AcDbVisualStyle
  2
Dim
 70
    11
177
     2
291
     1
 71
     2
176
     1
 72
     2
176
     1
 73
     0
176
     1
 90
        0
176
     1
 40
-0.6
176
     1
 41
-30.0
176
     1
 62
     5
 63
     7
421
 16777215
176
     1
 74
     1
176
     1
 91
        4
176
     1
 64
     7
176
     1
 65
   257
176
     1
 75
     1
176
     1
175
     1
176
     1
 42
1.0
176
     1
 92
        8
176
     1
 66
     7
176
     1
 43
1.0
176
     1
 76
     1
176
     1
 77
     6
176
     1
 78
     2
176
     1
 67
     7
176
     1
 79
     5
176
     1
170
     0
176
     1
171
     0
176
     1
290
     0
176
     1
 93
        1
176
     1
 44
-50.0
176
     1
173
     0
176
     1
  0
VISUALSTYLE
  5
39
102
{ACAD_REACTORS
330
2A
102
}
330
2A
100
AcDbVisualStyle
  2
Facepattern
 70
    15
177
     2
291
     1
 71
     2
176
     1
 72
     2
176
     1
 73
     0
176
     1
 90
        0
176
     1
 40
-0.6
176
     1
 41
-30.0
176
     1
 62
     5
 63
     7
421
 16777215
176
     1
 74
     1
176
     1
 91
        4
176
     1
 64
     7
176
     1
 65
   257
176
     1
 75
     1
176
     1
175
     1
176
     1
 42
1.0
176
     1
 92
        8
176
     1
 66
     7
176
     1
 43
1.0
176
     1
 76
     1
176
     1
 77
     6
176
     1
 78
     2
176
     1
 67
     7
176
     1
 79
     5
176
     1
170
     0
176
     1
171
     0
176
     1
290
     0
176
     1
 93
        1
176
     1
 44
0.0
176
     1
173
     0
176
     1
  0
VISUALSTYLE
  5
2B
102
{ACAD_REACTORS
330
2A
102
}
330
2A
100
AcDbVisualStyle
  2
Flat
 70
     0
177
     2
291
     1
 71
     2
176
     1
 72
     1
176
     1
 73
     1
176
     1
 90
        2
176
     1
 40
-0.6
176
     1
 41
30.0
176
     1
 62
     5
 63
     7
421
 16777215
176
     1
 74
     0
176
     1
 91
        4
176
     1
 64
     7
176
     1
 65
   257
176
     1
 75
     1
176
     1
175
     1
176
     1
 42
1.0
176
     1
 92
        8
176
     1
 66
     7
176
     1
 43
1.0
176
     1
 76
     1
176
     1
 77
     6
176
     1
 78
     2
176
     1
 67
     7
176
     1
 79
     5
176
     1
170
     0
176
     1
171
     0
176
     1
290
     0
176
     1
 93
       13
176
     1
 44
0.0
176
     1
173
     0
176
     1
  0
VISUALSTYLE
  5
2C
102
{ACAD_REACTORS
330
2A
102
}
330
2A
100
AcDbVisualStyle
  2
FlatWithEdges
 70
     1
177
     2
291
     1
 71
     2
176
     1
 72
     1
176
     1
 73
     1
176
     1
 90
        2
176
     1
 40
-0.6
176
     1
 41
30.0
176
     1
 62
     5
 63
     7
421
 16777215
176
     1
 74
     1
176
     1
 91
        4
176
     1
 64
     7
176
     1
 65
   257
176
     1
 75
     1
176
     1
175
     1
176
     1
 42
1.0
176
     1
 92
        0
176
     1
 66
   257
176
     1
 43
1.0
176
     1
 76
     1
176
     1
 77
     6
176
     1
 78
     2
176
     1
 67
     7
176
     1
 79
     5
176
     1
170
     0
176
     1
171
     0
176
     1
290
     0
176
     1
 93
       13
176
     1
 44
0.0
176
     1
173
     0
176
     1
  0
VISUALSTYLE
  5
2D
102
{ACAD_REACTORS
330
2A
102
}
330
2A
100
AcDbVisualStyle
  2
Gouraud
 70
     2
177
     2
291
     1
 71
     2
176
     1
 72
     2
176
     1
 73
     1
176
     1
 90
        2
176
     1
 40
-0.6
176
     1
 41
30.0
176
     1
 62
     5
 63
     7
421
 16777215
176
     1
 74
     0
176
     1
 91
        4
176
     1
 64
     7
176
     1
 65
   257
176
     1
 75
     1
176
     1
175
     1
176
     1
 42
1.0
176
     1
 92
        0
176
     1
 66
     7
176
     1
 43
1.0
176
     1
 76
     1
176
     1
 77
     6
176
     1
 78
     2
176
     1
 67
     7
176
     1
 79
     5
176
     1
170
     0
176
     1
171
     0
176
     1
290
     0
176
     1
 93
       13
176
     1
 44
0.0
176
     1
173
     0
176
     1
  0
VISUALSTYLE
  5
2E
102
{ACAD_REACTORS
330
2A
102
}
330
2A
100
AcDbVisualStyle
  2
GouraudWithEdges
 70
     3
177
     2
291
     1
 71
     2
176
     1
 72
     2
176
     1
 73
     1
176
     1
 90
        2
176
     1
 40
-0.6
176
     1
 41
30.0
176
     1
 62
     5
 63
     7
421
 16777215
176
     1
 74
     1
176
     1
 91
        4
176
     1
 64
     7
176
     1
 65
   257
176
     1
 75
     1
176
     1
175
     1
176
     1
 42
1.0
176
     1
 92
        0
176
     1
 66
   257
176
     1
 43
1.0
176
     1
 76
     1
176
     1
 77
     6
176
     1
 78
     2
176
     1
 67
     7
176
     1
 79
     5
176
     1
170
     0
176
     1
171
     0
176
     1
290
     0
176
     1
 93
       13
176
     1
 44
0.0
176
     1
173
     0
176
     1
  0
VISUALSTYLE
  5
38
102
{ACAD_REACTORS
330
2A
102
}
330
2A
100
AcDbVisualStyle
  2
Linepattern
 70
    14
177
     2
291
     1
 71
     2
176
     1
 72
     2
176
     1
 73
     0
176
     1
 90
        0
176
     1
 40
-0.6
176
     1
 41
-30.0
176
     1
 62
     5
 63
     7
421
 16777215
176
     1
 74
     1
176
     1
 91
        4
176
     1
 64
     7
176
     1
 65
   257
176
     1
 75
     7
176
     1
175
     7
176
     1
 42
1.0
176
     1
 92
        8
176
     1
 66
     7
176
     1
 43
1.0
176
     1
 76
     1
176
     1
 77
     6
176
     1
 78
     2
176
     1
 67
     7
176
     1
 79
     5
176
     1
170
     0
176
     1
171
     0
176
     1
290
     0
176
     1
 93
        1
176
     1
 44
0.0
176
     1
173
     0
176
     1
  0
VISUALSTYLE
  5
33
102
{ACAD_REACTORS
330
2A
102
}
330
2A
100
AcDbVisualStyle
  2
Realistic
 70
     8
177
     2
291
     0
 71
     2
176
     1
 72
     2
176
     1
 73
     0
176
     1
 90
        0
176
     1
 40
-0.6
176
     1
 41
-30.0
176
     1
 62
     5
 63
     7
421
 16777215
176
     1
 74
     1
176
     1
 91
        0
176
     1
 64
     7
176
     1
 65
   257
176
     1
 75
     1
176
     1
175
     1
176
     1
 42
1.0
176
     1
 92
        8
176
     1
 66
     8
424
  7895160
176
     1
 43
1.0
176
     1
 76
     1
176
     1
 77
     6
176
     1
 78
     2
176
     1
 67
     7
176
     1
 79
     5
176
     1
170
     0
176
     1
171
     0
176
     1
290
     0
176
     1
 93
       13
176
     1
 44
0.0
176
     1
173
     0
176
     1
  0
VISUALSTYLE
  5
37
102
{ACAD_REACTORS
330
2A
102
}
330
2A
100
AcDbVisualStyle
  2
Thicken
 70
    13
177
     2
291
     1
 71
     2
176
     1
 72
     2
176
     1
 73
     0
176
     1
 90
        0
176
     1
 40
-0.6
176
     1
 41
-30.0
176
     1
 62
     5
 63
     7
421
 16777215
176
     1
 74
     1
176
     1
 91
        4
176
     1
 64
     7
176
     1
 65
   257
176
     1
 75
     1
176
     1
175
     1
176
     1
 42
1.0
176
     1
 92
       12
176
     1
 66
     7
176
     1
 43
1.0
176
     1
 76
     1
176
     1
 77
     6
176
     1
 78
     2
176
     1
 67
     7
176
     1
 79
     5
176
     1
170
     0
176
     1
171
     0
176
     1
290
     0
176
     1
 93
        1
176
     1
 44
0.0
176
     1
173
     0
176
     1
  0
DICTIONARYVAR
  5
281
102
{ACAD_REACTORS
330
280
102
}
330
280
100
DictionaryVariables
280
     0
  1
1:1
  0
ENDSEC
  0
EOF
