  0
SECTION
  2
HEADER
  9
$ACADVER
  1
AC1024
  9
$ACADMAINTVER
 70
     6
  9
$DWGCODEPAGE
  3
ANSI_1252
  9
$INSBASE
 10
0.0
 20
0.0
 30
0.0
  9
$EXTMIN
 10
1.000000E+20
 20
1.000000E+20
 30
1.000000E+20
  9
$EXTMAX
 10
-1.000000E+20
 20
-1.000000E+20
 30
-1.000000E+20
  9
$LIMMIN
 10
0.0
 20
0.0
  9
$LIMMAX
 10
420.0
 20
297.0
  9
$ORTHOMODE
 70
     0
  9
$REGENMODE
 70
     1
  9
$FILLMODE
 70
     1
  9
$QTEXTMODE
 70
     0
  9
$MIRRTEXT
 70
     1
  9
$LTSCALE
 40
1.0
  9
$ATTMODE
 70
     1
  9
$TEXTSIZE
 40
2.5
  9
$TRACEWID
 40
1.0
  9
$TEXTSTYLE
  7
Standard
  9
$CLAYER
  8
0
  9
$CELTYPE
  6
ByLayer
  9
$CECOLOR
 62
   256
  9
$CELTSCALE
 40
1.0
  9
$DISPSILH
 70
     0
  9
$DIMSCALE
 40
1.0
  9
$DIMASZ
 40
2.5
  9
$DIMEXO
 40
0.625
  9
$DIMDLI
 40
3.75
  9
$DIMRND
 40
0.0
  9
$DIMDLE
 40
0.0
  9
$DIMEXE
 40
1.25
  9
$DIMTP
 40
0.0
  9
$DIMTM
 40
0.0
  9
$DIMTXT
 40
2.5
  9
$DIMCEN
 40
2.5
  9
$DIMTSZ
 40
0.0
  9
$DIMTOL
 70
     0
  9
$DIMLIM
 70
     0
  9
$DIMTIH
 70
     0
  9
$DIMTOH
 70
     0
  9
$DIMSE1
 70
     0
  9
$DIMSE2
 70
     0
  9
$DIMTAD
 70
     1
  9
$DIMZIN
 70
     8
  9
$DIMBLK
  1

  9
$DIMASO
 70
     1
  9
$DIMSHO
 70
     1
  9
$DIMPOST
  1

  9
$DIMAPOST
  1

  9
$DIMALT
 70
     0
  9
$DIMALTD
 70
     3
  9
$DIMALTF
 40
0.03937
  9
$DIMLFAC
 40
1.0
  9
$DIMTOFL
 70
     1
  9
$DIMTVP
 40
0.0
  9
$DIMTIX
 70
     0
  9
$DIMSOXD
 70
     0
  9
$DIMSAH
 70
     0
  9
$DIMBLK1
  1

  9
$DIMBLK2
  1

  9
$DIMSTYLE
  2
ISO-25
  9
$DIMCLRD
 70
     0
  9
$DIMCLRE
 70
     0
  9
$DIMCLRT
 70
     0
  9
$DIMTFAC
 40
1.0
  9
$DIMGAP
 40
0.625
  9
$DIMJUST
 70
     0
  9
$DIMSD1
 70
     0
  9
$DIMSD2
 70
     0
  9
$DIMTOLJ
 70
     0
  9
$DIMTZIN
 70
     8
  9
$DIMALTZ
 70
     0
  9
$DIMALTTZ
 70
     0
  9
$DIMUPT
 70
     0
  9
$DIMDEC
 70
     2
  9
$DIMTDEC
 70
     2
  9
$DIMALTU
 70
     2
  9
$DIMALTTD
 70
     3
  9
$DIMTXSTY
  7
Standard
  9
$DIMAUNIT
 70
     0
  9
$DIMADEC
 70
     0
  9
$DIMALTRND
 40
0.0
  9
$DIMAZIN
 70
     0
  9
$DIMDSEP
 70
    44
  9
$DIMATFIT
 70
     3
  9
$DIMFRAC
 70
     0
  9
$DIMLDRBLK
  1

  9
$DIMLUNIT
 70
     2
  9
$DIMLWD
 70
    -2
  9
$DIMLWE
 70
    -2
  9
$DIMTMOVE
 70
     0
  9
$DIMFXL
 40
1.0
  9
$DIMFXLON
 70
     0
  9
$DIMJOGANG
 40
0.785398
  9
$DIMTFILL
 70
     0
  9
$DIMTFILLCLR
 70
     0
  9
$DIMARCSYM
 70
     0
  9
$DIMLTYPE
  6

  9
$DIMLTEX1
  6

  9
$DIMLTEX2
  6

  9
$DIMTXTDIRECTION
 70
     0
  9
$LUNITS
 70
     2
  9
$LUPREC
 70
     4
  9
$SKETCHINC
 40
1.0
  9
$FILLETRAD
 40
10.0
  9
$AUNITS
 70
     0
  9
$AUPREC
 70
     0
  9
$MENU
  1
.
  9
$ELEVATION
 40
0.0
  9
$PELEVATION
 40
0.0
  9
$THICKNESS
 40
0.0
  9
$LIMCHECK
 70
     0
  9
$CHAMFERA
 40
10.0
  9
$CHAMFERB
 40
10.0
  9
$CHAMFERC
 40
20.0
  9
$CHAMFERD
 40
0.0
  9
$SKPOLY
 70
     0
  9
$TDCREATE
 40
2458641.644292616
  9
$TDUCREATE
 40
2458641.560959282
  9
$TDUPDATE
 40
2458641.644292627
  9
$TDUUPDATE
 40
2458641.560959294
  9
$TDINDWG
 40
0.0000000116
  9
$TDUSRTIMER
 40
0.0000000116
  9
$USRTIMER
 70
     1
  9
$ANGBASE
 50
0.0
  9
$ANGDIR
 70
     0
  9
$PDMODE
 70
     0
  9
$PDSIZE
 40
0.0
  9
$PLINEWID
 40
0.0
  9
$SPLFRAME
 70
     0
  9
$SPLINETYPE
 70
     6
  9
$SPLINESEGS
 70
     8
  9
$HANDSEED
  5
1E8
  9
$SURFTAB1
 70
     6
  9
$SURFTAB2
 70
     6
  9
$SURFTYPE
 70
     6
  9
$SURFU
 70
     6
  9
$SURFV
 70
     6
  9
$UCSBASE
  2

  9
$UCSNAME
  2

  9
$UCSORG
 10
0.0
 20
0.0
 30
0.0
  9
$UCSXDIR
 10
1.0
 20
0.0
 30
0.0
  9
$UCSYDIR
 10
0.0
 20
1.0
 30
0.0
  9
$UCSORTHOREF
  2

  9
$UCSORTHOVIEW
 70
     0
  9
$UCSORGTOP
 10
0.0
 20
0.0
 30
0.0
  9
$UCSORGBOTTOM
 10
0.0
 20
0.0
 30
0.0
  9
$UCSORGLEFT
 10
0.0
 20
0.0
 30
0.0
  9
$UCSORGRIGHT
 10
0.0
 20
0.0
 30
0.0
  9
$UCSORGFRONT
 10
0.0
 20
0.0
 30
0.0
  9
$UCSORGBACK
 10
0.0
 20
0.0
 30
0.0
  9
$PUCSBASE
  2

  9
$PUCSNAME
  2

  9
$PUCSORG
 10
0.0
 20
0.0
 30
0.0
  9
$PUCSXDIR
 10
1.0
 20
0.0
 30
0.0
  9
$PUCSYDIR
 10
0.0
 20
1.0
 30
0.0
  9
$PUCSORTHOREF
  2

  9
$PUCSORTHOVIEW
 70
     0
  9
$PUCSORGTOP
 10
0.0
 20
0.0
 30
0.0
  9
$PUCSORGBOTTOM
 10
0.0
 20
0.0
 30
0.0
  9
$PUCSORGLEFT
 10
0.0
 20
0.0
 30
0.0
  9
$PUCSORGRIGHT
 10
0.0
 20
0.0
 30
0.0
  9
$PUCSORGFRONT
 10
0.0
 20
0.0
 30
0.0
  9
$PUCSORGBACK
 10
0.0
 20
0.0
 30
0.0
  9
$USERI1
 70
     0
  9
$USERI2
 70
     0
  9
$USERI3
 70
     0
  9
$USERI4
 70
     0
  9
$USERI5
 70
     0
  9
$USERR1
 40
0.0
  9
$USERR2
 40
0.0
  9
$USERR3
 40
0.0
  9
$USERR4
 40
0.0
  9
$USERR5
 40
0.0
  9
$WORLDVIEW
 70
     1
  9
$SHADEDGE
 70
     3
  9
$SHADEDIF
 70
    70
  9
$TILEMODE
 70
     1
  9
$MAXACTVP
 70
    64
  9
$PINSBASE
 10
0.0
 20
0.0
 30
0.0
  9
$PLIMCHECK
 70
     0
  9
$PEXTMIN
 10
1.000000E+20
 20
1.000000E+20
 30
1.000000E+20
  9
$PEXTMAX
 10
-1.000000E+20
 20
-1.000000E+20
 30
-1.000000E+20
  9
$PLIMMIN
 10
0.0
 20
0.0
  9
$PLIMMAX
 10
420.0
 20
297.0
  9
$UNITMODE
 70
     0
  9
$VISRETAIN
 70
     1
  9
$PLINEGEN
 70
     0
  9
$PSLTSCALE
 70
     1
  9
$TREEDEPTH
 70
  3020
  9
$CMLSTYLE
  2
Standard
  9
$CMLJUST
 70
     0
  9
$CMLSCALE
 40
20.0
  9
$PROXYGRAPHICS
 70
     1
  9
$MEASUREMENT
 70
     1
  9
$CELWEIGHT
370
    -1
  9
$ENDCAPS
280
     0
  9
$JOINSTYLE
280
     0
  9
$LWDISPLAY
290
     0
  9
$INSUNITS
 70
     4
  9
$HYPERLINKBASE
  1

  9
$STYLESHEET
  1

  9
$XEDIT
290
     1
  9
$CEPSNTYPE
380
     0
  9
$PSTYLEMODE
290
     1
  9
$FINGERPRINTGUID
  2
{0DE027AA-8298-482B-95C4-F71B9433473A}
  9
$VERSIONGUID
  2
{FAEB1C32-E019-11D5-929B-00C0DF256EC4}
  9
$EXTNAMES
290
     1
  9
$PSVPSCALE
 40
0.0
  9
$OLESTARTUP
290
     0
  9
$SORTENTS
280
   127
  9
$INDEXCTL
280
     0
  9
$HIDETEXT
280
     1
  9
$XCLIPFRAME
280
     2
  9
$HALOGAP
280
     0
  9
$OBSCOLOR
 70
   257
  9
$OBSLTYPE
280
     0
  9
$INTERSECTIONDISPLAY
280
     0
  9
$INTERSECTIONCOLOR
 70
   257
  9
$DIMASSOC
280
     2
  9
$PROJECTNAME
  1

  9
$CAMERADISPLAY
290
     0
  9
$LENSLENGTH
 40
50.0
  9
$CAMERAHEIGHT
 40
0.0
  9
$STEPSPERSEC
 40
2.0
  9
$STEPSIZE
 40
6.0
  9
$3DDWFPREC
 40
2.0
  9
$PSOLWIDTH
 40
5.0
  9
$PSOLHEIGHT
 40
80.0
  9
$LOFTANG1
 40
1.570796
  9
$LOFTANG2
 40
1.570796
  9
$LOFTMAG1
 40
0.0
  9
$LOFTMAG2
 40
0.0
  9
$LOFTPARAM
 70
     7
  9
$LOFTNORMALS
280
     1
  9
$LATITUDE
 40
37.795
  9
$LONGITUDE
 40
-122.394
  9
$NORTHDIRECTION
 40
0.0
  9
$TIMEZONE
 70
 -8000
  9
$LIGHTGLYPHDISPLAY
280
     1
  9
$TILEMODELIGHTSYNCH
280
     1
  9
$SOLIDHIST
280
     1
  9
$SHOWHIST
280
     1
  9
$DWFFRAME
280
     2
  9
$DGNFRAME
280
     2
  9
$REALWORLDSCALE
290
     1
  9
$INTERFERECOLOR
 62
   256
  9
$CSHADOW
280
     0
  9
$SHADOWPLANELOCATION
 40
0.0
  0
ENDSEC
  0
SECTION
  2
CLASSES
  0
CLASS
  1
ACDBDICTIONARYWDFLT
  2
AcDbDictionaryWithDefault
  3
ObjectDBX Classes
 90
        0
 91
        4
280
     0
281
     0
  0
CLASS
  1
VISUALSTYLE
  2
AcDbVisualStyle
  3
ObjectDBX Classes
 90
     4095
 91
        4
280
     0
281
     0
  0
CLASS
  1
MATERIAL
  2
AcDbMaterial
  3
ObjectDBX Classes
 90
     1153
 91
        4
280
     0
281
     0
  0
CLASS
  1
SCALE
  2
AcDbScale
  3
ObjectDBX Classes
 90
     1153
 91
        4
280
     0
281
     0
  0
CLASS
  1
DICTIONARYVAR
  2
AcDbDictionaryVar
  3
ObjectDBX Classes
 90
        0
 91
        4
280
     0
281
     0
  0
ENDSEC
  0
SECTION
  2
TABLES
  0
TABLE
  2
VPORT
  5
8
330
0
100
AcDbSymbolTable
 70
     1
  0
VPORT
  5
29
330
8
100
AcDbSymbolTableRecord
100
AcDbViewportTableRecord
  2
*Active
 70
     0
 10
0.0
 20
0.0
 11
1.0
 21
1.0
 12
344.186916
 22
148.5
 13
0.0
 23
0.0
 14
10.0
 24
10.0
 15
10.0
 25
10.0
 16
0.0
 26
0.0
 36
1.0
 17
0.0
 27
0.0
 37
0.0
 40
297.0
 41
1.972973
 42
50.0
 43
0.0
 44
0.0
 50
0.0
 51
0.0
 71
     0
 72
   100
 73
     1
 74
     3
 75
     0
 76
     0
 77
     0
 78
     0
281
     0
 65
     1
110
0.0
120
0.0
130
0.0
111
1.0
121
0.0
131
0.0
112
0.0
122
1.0
132
0.0
 79
     0
146
0.0
 60
     3
 61
     5
292
     1
282
     1
141
0.0
142
0.0
 63
   250
  0
ENDTAB
  0
TABLE
  2
LTYPE
  5
5
330
0
100
AcDbSymbolTable
 70
     3
  0
LTYPE
  5
14
330
5
100
AcDbSymbolTableRecord
100
AcDbLinetypeTableRecord
  2
ByBlock
 70
     0
  3

 72
    65
 73
     0
 40
0.0
  0
LTYPE
  5
15
330
5
100
AcDbSymbolTableRecord
100
AcDbLinetypeTableRecord
  2
ByLayer
 70
     0
  3

 72
    65
 73
     0
 40
0.0
  0
LTYPE
  5
16
330
5
100
AcDbSymbolTableRecord
100
AcDbLinetypeTableRecord
  2
Continuous
 70
     0
  3
Solid line
 72
    65
 73
     0
 40
0.0
  0
LTYPE
  5
91
330
5
100
AcDbSymbolTableRecord
100
AcDbLinetypeTableRecord
  2
CENTER2
 70
     0
  3
Center (.5x) ___ _ ___ _ ___ _ ___ _ ___ _ ___
 72
    65
 73
     4
 40
28.575
 49
19.05
 74
     0
 49
-3.175
 74
     0
 49
3.175
 74
     0
 49
-3.175
 74
     0
  0
LTYPE
  5
94
330
5
100
AcDbSymbolTableRecord
100
AcDbLinetypeTableRecord
  2
HIDDEN2
 70
     0
  3
Hidden (.5x) _ _ _ _ _ _ _ _ _ _ _ _ _ _ _ _ _ 
 72
    65
 73
     2
 40
4.7625
 49
3.175
 74
     0
 49
-1.5875
 74
     0
  0
ENDTAB
  0
TABLE
  2
LAYER
  5
2
330
0
100
AcDbSymbolTable
 70
    21
  0
LAYER
  5
10
330
2
100
AcDbSymbolTableRecord
100
AcDbLayerTableRecord
  2
0
 70
     0
 62
     7
  6
Continuous
370
     0
390
F
347
3E
  0
LAYER
  5
3F
330
2
100
AcDbSymbolTableRecord
100
AcDbLayerTableRecord
  2
1
 70
     0
 62
     7
  6
Continuous
370
     0
390
F
347
3E
1001
AcAecLayerStandard
1000

1000
1
  0
LAYER
  5
41
330
2
100
AcDbSymbolTableRecord
100
AcDbLayerTableRecord
  2
2
 70
     0
 62
     7
  6
Continuous
370
     0
390
F
347
3E
1001
AcAecLayerStandard
1000

1000
2
  0
LAYER
  5
42
330
2
100
AcDbSymbolTableRecord
100
AcDbLayerTableRecord
  2
3
 70
     0
 62
     7
  6
Continuous
370
     0
390
F
347
3E
1001
AcAecLayerStandard
1000

1000
255
  0
LAYER
  5
43
330
2
100
AcDbSymbolTableRecord
100
AcDbLayerTableRecord
  2
4
 70
     0
 62
     7
  6
Continuous
370
     0
390
F
347
3E
1001
AcAecLayerStandard
1000

1000
DEFPOINTS
  0
LAYER
  5
44
330
2
100
AcDbSymbolTableRecord
100
AcDbLayerTableRecord
  2
5
 70
     0
 62
     7
  6
Continuous
370
     0
390
F
347
3E
1001
AcAecLayerStandard
1000

1000
__BYBLOCK
  0
LAYER
  5
45
330
2
100
AcDbSymbolTableRecord
100
AcDbLayerTableRecord
  2
6
 70
     0
 62
     7
  6
Continuous
370
     0
390
F
347
3E
1001
AcAecLayerStandard
1000

1000
255_1
  0
LAYER
  5
46
330
2
100
AcDbSymbolTableRecord
100
AcDbLayerTableRecord
  2
7
 70
     0
 62
     7
  6
Continuous
370
     0
390
F
347
3E
1001
AcAecLayerStandard
1000

1000
255_2
  0
LAYER
  5
47
330
2
100
AcDbSymbolTableRecord
100
AcDbLayerTableRecord
  2
8
 70
     0
 62
     7
  6
Continuous
370
     0
390
F
347
3E
1001
AcAecLayerStandard
1000

1000
quote
  0
LAYER
  5
48
330
2
100
AcDbSymbolTableRecord
100
AcDbLayerTableRecord
  2
9
 70
     0
 62
     7
  6
Continuous
370
     0
390
F
347
3E
  0
LAYER
  5
49
330
2
100
AcDbSymbolTableRecord
100
AcDbLayerTableRecord
  2
taglio
 70
     0
 62
     7
  6
Continuous
370
     0
390
F
347
3E
  0
LAYER
  5
4A
330
2
100
AcDbSymbolTableRecord
100
AcDbLayerTableRecord
  2
cordone
 70
     0
 62
     7
  6
Continuous
370
     0
390
F
347
3E
  0
LAYER
  5
4B
330
2
100
AcDbSymbolTableRecord
100
AcDbLayerTableRecord
  2
Design
 70
     0
 62
     7
  6
Continuous
370
     0
390
F
347
3E
  0
LAYER
  5
4C
330
2
100
AcDbSymbolTableRecord
100
AcDbLayerTableRecord
  2
Immaginedistampa
 70
     0
 62
     7
  6
Continuous
370
     0
390
F
347
3E
  0
LAYER
  5
4D
330
2
100
AcDbSymbolTableRecord
100
AcDbLayerTableRecord
  2
Annotation1
 70
     0
 62
     7
  6
Continuous
370
     0
390
F
347
3E
  0
LAYER
  5
4E
330
2
100
AcDbSymbolTableRecord
100
AcDbLayerTableRecord
  2
Unknown
 70
     0
 62
     7
  6
Continuous
370
     0
390
F
347
3E
  0
LAYER
  5
4F
330
2
100
AcDbSymbolTableRecord
100
AcDbLayerTableRecord
  2
255
 70
     0
 62
     1
  6
Continuous
370
     0
390
F
347
3E
  0
LAYER
  5
50
330
2
100
AcDbSymbolTableRecord
100
AcDbLayerTableRecord
  2
DEFPOINTS
 70
     0
 62
     1
  6
Continuous
290
     0
370
     0
390
F
347
3E
  0
LAYER
  5
51
330
2
100
AcDbSymbolTableRecord
100
AcDbLayerTableRecord
  2
255_1
 70
     0
 62
     1
  6
Continuous
370
     0
390
F
347
3E
  0
LAYER
  5
52
330
2
100
AcDbSymbolTableRecord
100
AcDbLayerTableRecord
  2
255_2
 70
     0
 62
     1
  6
Continuous
370
     0
390
F
347
3E
  0
LAYER
  5
53
330
2
100
AcDbSymbolTableRecord
100
AcDbLayerTableRecord
  2
255_3
 70
     0
 62
     1
  6
Continuous
370
     0
390
F
347
3E
  0
ENDTAB
  0
TABLE
  2
STYLE
  5
3
330
0
100
AcDbSymbolTable
 70
     6
  0
STYLE
  5
11
330
3
100
AcDbSymbolTableRecord
100
AcDbTextStyleTableRecord
  2
Standard
 70
     0
 40
0.0
 41
1.0
 50
0.0
 71
     0
 42
2.5
  3
txt
  4

1001
ACAD
1000
txt
1071
        0
  0
STYLE
  5
54
330
3
100
AcDbSymbolTableRecord
100
AcDbTextStyleTableRecord
  2
Default
 70
     0
 40
0.0
 41
1.0
 50
0.0
 71
     0
 42
0.2
  3

  4

1001
ACAD
1000
txt
1071
        0
  0
STYLE
  5
55
330
3
100
AcDbSymbolTableRecord
100
AcDbTextStyleTableRecord
  2
ANSI
 70
     0
 40
0.0
 41
1.0
 50
0.0
 71
     0
 42
0.2
  3

  4

1001
ACAD
1000
txt
1071
        0
  0
STYLE
  5
56
330
3
100
AcDbSymbolTableRecord
100
AcDbTextStyleTableRecord
  2
Testo nota (ISO)
 70
     0
 40
0.0
 41
1.0
 50
0.0
 71
     0
 42
0.2
  3

  4

1001
ACAD
1000
Tahoma
1071
        0
  0
STYLE
  5
57
330
3
100
AcDbSymbolTableRecord
100
AcDbTextStyleTableRecord
  2
SEACAD_arial_ttf
 70
     0
 40
0.0
 41
1.0
 50
0.0
 71
     0
 42
0.2
  3

  4

1001
ACAD
1000
arial
1071
        0
  0
STYLE
  5
58
330
3
100
AcDbSymbolTableRecord
100
AcDbTextStyleTableRecord
  2
ISO
 70
     0
 40
0.0
 41
1.0
 50
0.0
 71
     0
 42
0.2
  3

  4

1001
ACAD
1000
txt
1071
        0
  0
ENDTAB
  0
TABLE
  2
VIEW
  5
6
330
0
100
AcDbSymbolTable
 70
     0
  0
ENDTAB
  0
TABLE
  2
UCS
  5
7
330
0
100
AcDbSymbolTable
 70
     0
  0
ENDTAB
  0
TABLE
  2
APPID
  5
9
330
0
100
AcDbSymbolTable
 70
     2
  0
APPID
  5
12
330
9
100
AcDbSymbolTableRecord
100
AcDbRegAppTableRecord
  2
ACAD
 70
     0
  0
APPID
  5
40
330
9
100
AcDbSymbolTableRecord
100
AcDbRegAppTableRecord
  2
AcAecLayerStandard
 70
     0
  0
ENDTAB
  0
TABLE
  2
DIMSTYLE
  5
A
330
0
100
AcDbSymbolTable
 70
     7
100
AcDbDimStyleTable
  0
DIMSTYLE
105
27
102
{ACAD_REACTORS
330
128
330
135
330
142
330
14F
330
15C
330
169
330
176
330
183
330
193
330
1A0
330
1B0
330
1BD
330
1CA
330
1D7
102
}
330
A
100
AcDbSymbolTableRecord
100
AcDbDimStyleTableRecord
  2
ISO-25
 70
     0
 41
2.5
 42
0.625
 43
3.75
 44
1.25
 73
     0
 74
     0
 77
     1
 78
     8
140
2.5
141
2.5
143
0.03937
147
0.625
171
     3
172
     1
271
     2
272
     2
274
     3
278
    44
283
     0
284
     8
340
11
  0
DIMSTYLE
105
59
330
A
100
AcDbSymbolTableRecord
100
AcDbDimStyleTableRecord
  2
Default
 70
     0
  3
<>
 41
4.375
 42
1.05
 44
2.1
 49
10.01
 73
     0
 74
     0
 77
     1
 78
     8
140
3.5
146
0.4
147
1.75
172
     1
178
     2
271
     2
272
     3
284
     8
340
54
341
5A
342
5A
  0
DIMSTYLE
105
61
330
A
100
AcDbSymbolTableRecord
100
AcDbDimStyleTableRecord
  2
faultDimensionStyle
 70
     0
  3
<>
 41
2.5
 42
0.875
 44
1.75
 49
10.01
 73
     0
 74
     0
 77
     1
 78
     8
140
3.5
147
1.75
172
     1
178
     2
271
     2
272
     2
278
    44
284
     8
340
11
  0
DIMSTYLE
105
62
330
A
100
AcDbSymbolTableRecord
100
AcDbDimStyleTableRecord
  2
DefaultDimensionStyle
 70
     0
  3
<>
 41
2.5
 42
0.875
 44
1.75
 49
10.01
 73
     0
 74
     0
 77
     1
 78
     8
140
3.5
147
1.75
172
     1
178
     2
271
     2
272
     2
278
    44
284
     8
340
11
  0
DIMSTYLE
105
63
330
A
100
AcDbSymbolTableRecord
100
AcDbDimStyleTableRecord
  2
ANSI
 70
     0
  3
<>
 41
2.0
 42
3.5
 44
2.03
 49
10.01
 73
     0
 74
     0
 77
     1
 78
     8
140
3.5
146
0.4
147
1.75
172
     1
178
     2
271
     2
272
     3
284
    12
340
55
341
5A
342
5A
  0
DIMSTYLE
105
64
330
A
100
AcDbSymbolTableRecord
100
AcDbDimStyleTableRecord
  2
Default (ISO)
 70
     0
  3
<>
 41
5.0
 42
0.035
 44
6.35
 49
10.01
 73
     0
 74
     0
 77
     1
140
3.5
146
1.001486
147
1.524
172
     1
178
     2
271
     2
272
     2
278
    44
340
56
  0
DIMSTYLE
105
65
330
A
100
AcDbSymbolTableRecord
100
AcDbDimStyleTableRecord
  2
DSTYLE1
 70
     0
  3
<>
 41
35.0
 42
9.2414
 44
1.166665
 49
10.01
 73
     0
 74
     0
 78
     8
140
3.5
146
0.6
147
1.225
172
     1
178
     2
340
11
  0
ENDTAB
  0
TABLE
  2
BLOCK_RECORD
  5
1
330
0
100
AcDbSymbolTable
 70
    20
  0
BLOCK_RECORD
  5
1F
330
1
100
AcDbSymbolTableRecord
100
AcDbBlockTableRecord
  2
*Model_Space
340
22
 70
     0
280
     1
281
     0
  0
BLOCK_RECORD
  5
1B
330
1
100
AcDbSymbolTableRecord
100
AcDbBlockTableRecord
  2
*Paper_Space
340
1E
 70
     0
280
     1
281
     0
  0
BLOCK_RECORD
  5
23
330
1
100
AcDbSymbolTableRecord
100
AcDbBlockTableRecord
  2
*Paper_Space0
340
26
 70
     0
280
     1
281
     0
  0
BLOCK_RECORD
  5
5A
330
1
100
AcDbSymbolTableRecord
100
AcDbBlockTableRecord
  2
_CLOSED
340
0
102
{BLKREFS
331
12E
331
12D
331
13B
331
13A
331
148
331
147
331
155
331
154
331
162
331
161
331
16F
331
16E
331
17C
331
17B
331
18C
331
18B
331
199
331
198
331
1A9
331
1A8
331
1B6
331
1B5
331
1C3
331
1C2
331
1D0
331
1CF
331
1DD
331
1DC
102
}
 70
     0
280
     1
281
     0
  0
BLOCK_RECORD
  5
FE
330
1
100
AcDbSymbolTableRecord
100
AcDbBlockTableRecord
  2
.TD_DIMENSION_1
340
0
102
{BLKREFS
331
108
102
}
 70
     0
280
     1
281
     0
  0
BLOCK_RECORD
  5
109
330
1
100
AcDbSymbolTableRecord
100
AcDbBlockTableRecord
  2
.TD_DIMENSION_2
340
0
102
{BLKREFS
331
113
102
}
 70
     0
280
     1
281
     0
  0
BLOCK_RECORD
  5
114
330
1
100
AcDbSymbolTableRecord
100
AcDbBlockTableRecord
  2
.TD_DIMENSION_3
340
0
102
{BLKREFS
331
11D
102
}
 70
     0
280
     1
281
     0
  0
BLOCK_RECORD
  5
11E
330
1
100
AcDbSymbolTableRecord
100
AcDbBlockTableRecord
  2
.TD_DIMENSION_4
340
0
102
{BLKREFS
331
127
102
}
 70
     0
280
     1
281
     0
  0
BLOCK_RECORD
  5
129
330
1
100
AcDbSymbolTableRecord
100
AcDbBlockTableRecord
  2
*D6
340
0
 70
     0
280
     1
281
     0
  0
BLOCK_RECORD
  5
136
330
1
100
AcDbSymbolTableRecord
100
AcDbBlockTableRecord
  2
*D7
340
0
 70
     0
280
     1
281
     0
  0
BLOCK_RECORD
  5
143
330
1
100
AcDbSymbolTableRecord
100
AcDbBlockTableRecord
  2
*D8
340
0
 70
     0
280
     1
281
     0
  0
BLOCK_RECORD
  5
150
330
1
100
AcDbSymbolTableRecord
100
AcDbBlockTableRecord
  2
*D9
340
0
 70
     0
280
     1
281
     0
  0
BLOCK_RECORD
  5
15D
330
1
100
AcDbSymbolTableRecord
100
AcDbBlockTableRecord
  2
*D10
340
0
 70
     0
280
     1
281
     0
  0
BLOCK_RECORD
  5
16A
330
1
100
AcDbSymbolTableRecord
100
AcDbBlockTableRecord
  2
*D11
340
0
 70
     0
280
     1
281
     0
  0
BLOCK_RECORD
  5
177
330
1
100
AcDbSymbolTableRecord
100
AcDbBlockTableRecord
  2
*D12
340
0
 70
     0
280
     1
281
     0
  0
BLOCK_RECORD
  5
184
330
1
100
AcDbSymbolTableRecord
100
AcDbBlockTableRecord
  2
*D13
340
0
 70
     0
280
     1
281
     0
  0
BLOCK_RECORD
  5
194
330
1
100
AcDbSymbolTableRecord
100
AcDbBlockTableRecord
  2
*D14
340
0
 70
     0
280
     1
281
     0
  0
BLOCK_RECORD
  5
1A1
330
1
100
AcDbSymbolTableRecord
100
AcDbBlockTableRecord
  2
*D15
340
0
 70
     0
280
     1
281
     0
  0
BLOCK_RECORD
  5
1B1
330
1
100
AcDbSymbolTableRecord
100
AcDbBlockTableRecord
  2
*D16
340
0
 70
     0
280
     1
281
     0
  0
BLOCK_RECORD
  5
1BE
330
1
100
AcDbSymbolTableRecord
100
AcDbBlockTableRecord
  2
*D17
340
0
 70
     0
280
     1
281
     0
  0
BLOCK_RECORD
  5
1CB
330
1
100
AcDbSymbolTableRecord
100
AcDbBlockTableRecord
  2
*D18
340
0
 70
     0
280
     1
281
     0
  0
BLOCK_RECORD
  5
1D8
330
1
100
AcDbSymbolTableRecord
100
AcDbBlockTableRecord
  2
*D19
340
0
 70
     0
280
     1
281
     0
  0
ENDTAB
  0
ENDSEC
  0
SECTION
  2
BLOCKS
  0
BLOCK
  5
20
330
1F
100
AcDbEntity
  8
0
100
AcDbBlockBegin
  2
*Model_Space
 70
     0
 10
0.0
 20
0.0
 30
0.0
  3
*Model_Space
  1

  0
ENDBLK
  5
21
330
1F
100
AcDbEntity
  8
0
100
AcDbBlockEnd
  0
BLOCK
  5
1C
330
1B
100
AcDbEntity
 67
     1
  8
0
100
AcDbBlockBegin
  2
*Paper_Space
 70
     0
 10
0.0
 20
0.0
 30
0.0
  3
*Paper_Space
  1

  0
ENDBLK
  5
1D
330
1B
100
AcDbEntity
 67
     1
  8
0
100
AcDbBlockEnd
  0
BLOCK
  5
24
330
23
100
AcDbEntity
  8
0
100
AcDbBlockBegin
  2
*Paper_Space0
 70
     0
 10
0.0
 20
0.0
 30
0.0
  3
*Paper_Space0
  1

  0
ENDBLK
  5
25
330
23
100
AcDbEntity
  8
0
100
AcDbBlockEnd
  0
BLOCK
  5
5B
330
5A
100
AcDbEntity
  8
0
100
AcDbBlockBegin
  2
_CLOSED
 70
     0
 10
0.0
 20
0.0
 30
0.0
  3
_CLOSED
  1

  0
LINE
  5
5D
330
5A
100
AcDbEntity
  8
0
  6
ByBlock
 62
     0
370
    -2
100
AcDbLine
 10
-1.0
 20
0.166667
 30
0.0
 11
0.0
 21
0.0
 31
0.0
  0
LINE
  5
5E
330
5A
100
AcDbEntity
  8
0
  6
ByBlock
 62
     0
370
    -2
100
AcDbLine
 10
0.0
 20
0.0
 30
0.0
 11
-1.0
 21
-0.166667
 31
0.0
  0
LINE
  5
5F
330
5A
100
AcDbEntity
  8
0
  6
ByBlock
 62
     0
370
    -2
100
AcDbLine
 10
-1.0
 20
0.166667
 30
0.0
 11
-1.0
 21
-0.166667
 31
0.0
  0
LINE
  5
60
330
5A
100
AcDbEntity
  8
0
  6
ByBlock
 62
     0
370
    -2
100
AcDbLine
 10
0.0
 20
0.0
 30
0.0
 11
-1.0
 21
0.0
 31
0.0
  0
ENDBLK
  5
5C
330
5A
100
AcDbEntity
  8
0
100
AcDbBlockEnd
  0
BLOCK
  5
106
330
FE
100
AcDbEntity
  8
0
100
AcDbBlockBegin
  2
.TD_DIMENSION_1
 70
     0
 10
6663.353516
 20
19735.67578
 30
0.0
  3
.TD_DIMENSION_1
  1

  0
LINE
  5
FF
330
FE
100
AcDbEntity
  8
0
  6
Continuous
 62
     0
100
AcDbLine
 10
1724.87561
 20
5044.067383
 30
0.0
 11
1731.126831
 21
5036.262207
 31
0.0
  0
LINE
  5
100
330
FE
100
AcDbEntity
  8
0
  6
Continuous
 62
     0
100
AcDbLine
 10
1731.126831
 20
5036.262207
 30
0.0
 11
1813.092407
 21
4933.918945
 31
0.0
  0
MTEXT
  5
101
330
FE
100
AcDbEntity
  8
0
  6
Continuous
 62
     0
100
AcDbMText
 10
1781.56604
 20
5045.269042
 30
0.0
 40
30.0
 41
0.0
 46
0.0
 71
     1
 72
     1
  1
{\fArial|b0|i0;R}
 11
0.6251189413949644
 21
-0.7805295055981158
 31
0.0
 73
     2
 44
0.99598
  0
MTEXT
  5
102
330
FE
100
AcDbEntity
  8
0
  6
Continuous
 62
     0
100
AcDbMText
 10
1800.31958
 20
5021.853027
 30
0.0
 40
30.0
 41
0.0
 46
0.0
 71
     1
 72
     1
  1
{\W1.08;{\W1.1664;{\W1.25971;{\fArial|b0|i0;1/2"}}}}
 11
0.6251189413949644
 21
-0.7805295055981158
 31
0.0
 73
     2
 44
0.99598
  0
LINE
  5
103
330
FE
100
AcDbEntity
  8
0
  6
Continuous
 62
     0
100
AcDbLine
 10
1741.182983
 20
5030.223145
 30
0.0
 11
1724.87561
 21
5044.067383
 31
0.0
  0
LINE
  5
104
330
FE
100
AcDbEntity
  8
0
  6
Continuous
 62
     0
100
AcDbLine
 10
1724.87561
 20
5044.067383
 30
0.0
 11
1734.823242
 21
5025.129395
 31
0.0
  0
LINE
  5
105
330
FE
100
AcDbEntity
  8
0
  6
Continuous
 62
     0
100
AcDbLine
 10
1734.823242
 20
5025.129395
 30
0.0
 11
1741.182983
 21
5030.223145
 31
0.0
  0
ENDBLK
  5
107
330
FE
100
AcDbEntity
  8
0
100
AcDbBlockEnd
  0
BLOCK
  5
111
330
109
100
AcDbEntity
  8
0
100
AcDbBlockBegin
  2
.TD_DIMENSION_2
 70
     0
 10
6599.894532
 20
17799.765624
 30
0.0
  3
.TD_DIMENSION_2
  1

  0
LINE
  5
10A
330
109
100
AcDbEntity
  8
0
  6
Continuous
 62
     0
100
AcDbLine
 10
1723.921631
 20
4509.327637
 30
0.0
 11
1731.126831
 21
4516.262207
 31
0.0
  0
LINE
  5
10B
330
109
100
AcDbEntity
  8
0
  6
Continuous
 62
     0
100
AcDbLine
 10
1731.126831
 20
4516.262207
 30
0.0
 11
1825.602417
 21
4607.184082
 31
0.0
  0
MTEXT
  5
10C
330
109
100
AcDbEntity
  8
0
  6
Continuous
 62
     0
100
AcDbMText
 10
1717.575562
 20
4565.674804
 30
0.0
 40
30.0
 41
0.0
 46
0.0
 71
     1
 72
     1
  1
{\fArial|b0|i0;R}
 11
0.7205269941173832
 21
0.6934268892595444
 31
0.0
 73
     2
 44
0.99598
  0
MTEXT
  5
10D
330
109
100
AcDbEntity
  8
0
  6
Continuous
 62
     0
100
AcDbMText
 10
1739.191407
 20
4586.477539
 30
0.0
 40
30.0
 41
0.0
 46
0.0
 71
     1
 72
     1
  1
{\W1.08;{\W1.1664;{\W1.25971;{\fArial|b0|i0;1/2"}}}}
 11
0.7205269941173832
 21
0.6934268892595444
 31
0.0
 73
     2
 44
0.99598
  0
LINE
  5
10E
330
109
100
AcDbEntity
  8
0
  6
Continuous
 62
     0
100
AcDbLine
 10
1736.227661
 20
4526.825195
 30
0.0
 11
1723.921631
 21
4509.327637
 31
0.0
  0
LINE
  5
10F
330
109
100
AcDbEntity
  8
0
  6
Continuous
 62
     0
100
AcDbLine
 10
1723.921631
 20
4509.327637
 30
0.0
 11
1741.877686
 21
4520.954102
 31
0.0
  0
LINE
  5
110
330
109
100
AcDbEntity
  8
0
  6
Continuous
 62
     0
100
AcDbLine
 10
1741.877686
 20
4520.954102
 30
0.0
 11
1736.227661
 21
4526.825195
 31
0.0
  0
ENDBLK
  5
112
330
109
100
AcDbEntity
  8
0
100
AcDbBlockEnd
  0
BLOCK
  5
11B
330
114
100
AcDbEntity
  8
0
100
AcDbBlockBegin
  2
.TD_DIMENSION_3
 70
     0
 10
4779.342286
 20
8875.404296
 30
0.0
  3
.TD_DIMENSION_3
  1

  0
LINE
  5
115
330
114
100
AcDbEntity
  8
0
  6
Continuous
 62
     0
100
AcDbLine
 10
2531.126953
 20
4516.262207
 30
0.0
 11
2540.288574
 21
4512.253906
 31
0.0
  0
LINE
  5
116
330
114
100
AcDbEntity
  8
0
  6
Continuous
 62
     0
100
AcDbLine
 10
2389.671143
 20
4578.145996
 30
0.0
 11
2531.126953
 21
4516.262207
 31
0.0
  0
TEXT
  5
117
330
114
100
AcDbEntity
  8
0
  6
Continuous
 62
     0
100
AcDbText
 10
2398.431641
 20
4590.686035
 30
0.0
 40
30.0
  1
R1/2"
 50
336.371643
 41
1.09
100
AcDbText
  0
LINE
  5
118
330
114
100
AcDbEntity
  8
0
  6
Continuous
 62
     0
100
AcDbLine
 10
2519.41626
 20
4516.938477
 30
0.0
 11
2540.288574
 21
4512.253906
 31
0.0
  0
LINE
  5
119
330
114
100
AcDbEntity
  8
0
  6
Continuous
 62
     0
100
AcDbLine
 10
2540.288574
 20
4512.253906
 30
0.0
 11
2522.681885
 21
4524.40332
 31
0.0
  0
LINE
  5
11A
330
114
100
AcDbEntity
  8
0
  6
Continuous
 62
     0
100
AcDbLine
 10
2522.681885
 20
4524.40332
 30
0.0
 11
2519.41626
 21
4516.938477
 31
0.0
  0
ENDBLK
  5
11C
330
114
100
AcDbEntity
  8
0
100
AcDbBlockEnd
  0
BLOCK
  5
125
330
11E
100
AcDbEntity
  8
0
100
AcDbBlockBegin
  2
.TD_DIMENSION_4
 70
     0
 10
4778.162598
 20
9852.21289
 30
0.0
  3
.TD_DIMENSION_4
  1

  0
LINE
  5
11F
330
11E
100
AcDbEntity
  8
0
  6
Continuous
 62
     0
100
AcDbLine
 10
2531.126953
 20
5036.262207
 30
0.0
 11
2538.134033
 21
5043.396484
 31
0.0
  0
LINE
  5
120
330
11E
100
AcDbEntity
  8
0
  6
Continuous
 62
     0
100
AcDbLine
 10
2422.936768
 20
4926.106445
 30
0.0
 11
2531.126953
 21
5036.262207
 31
0.0
  0
TEXT
  5
121
330
11E
100
AcDbEntity
  8
0
  6
Continuous
 62
     0
100
AcDbText
 10
2414.337158
 20
4938.757324
 30
0.0
 40
30.0
  1
R1/2"
 50
45.515762
 41
1.09
100
AcDbText
  0
LINE
  5
122
330
11E
100
AcDbEntity
  8
0
  6
Continuous
 62
     0
100
AcDbLine
 10
2526.325684
 20
5025.55957
 30
0.0
 11
2538.134033
 21
5043.396484
 31
0.0
  0
LINE
  5
123
330
11E
100
AcDbEntity
  8
0
  6
Continuous
 62
     0
100
AcDbLine
 10
2538.134033
 20
5043.396484
 30
0.0
 11
2520.512451
 21
5031.269043
 31
0.0
  0
LINE
  5
124
330
11E
100
AcDbEntity
  8
0
  6
Continuous
 62
     0
100
AcDbLine
 10
2520.512451
 20
5031.269043
 30
0.0
 11
2526.325684
 21
5025.55957
 31
0.0
  0
ENDBLK
  5
126
330
11E
100
AcDbEntity
  8
0
100
AcDbBlockEnd
  0
BLOCK
  5
133
330
129
100
AcDbEntity
  8
0
100
AcDbBlockBegin
  2
*D6
 70
     1
 10
0.0
 20
0.0
 30
0.0
  3
*D6
  1

  0
LINE
  5
12A
330
129
100
AcDbEntity
  8
0
  6
Continuous
 62
     7
370
    -2
100
AcDbLine
 10
1673.071838
 20
5305.859196
 30
0.0
 11
1673.071837
 21
5203.141609
 31
0.0
  0
LINE
  5
12B
330
129
100
AcDbEntity
  8
0
  6
Continuous
 62
     7
370
    -2
100
AcDbLine
 10
2587.471838
 20
5305.859186
 30
0.0
 11
2587.471837
 21
5203.141599
 31
0.0
  0
LINE
  5
12C
330
129
100
AcDbEntity
  8
0
  6
Continuous
 62
     7
370
    -2
100
AcDbLine
 10
1708.071838
 20
5223.141609
 30
0.0
 11
2552.471838
 21
5223.141599
 31
0.0
  0
INSERT
  5
12D
330
129
100
AcDbEntity
  8
0
 62
     7
370
    -2
100
AcDbBlockReference
  2
_CLOSED
 10
1673.071838
 20
5223.141609
 30
0.0
 41
35.0
 42
35.0
 43
35.0
 50
179.999999
  0
INSERT
  5
12E
330
129
100
AcDbEntity
  8
0
 62
     7
370
    -2
100
AcDbBlockReference
  2
_CLOSED
 10
2587.471838
 20
5223.141599
 30
0.0
 41
35.0
 42
35.0
 43
35.0
 50
359.999999
  0
MTEXT
  5
12F
330
129
100
AcDbEntity
  8
0
 62
     2
370
     0
100
AcDbMText
 10
2353.271973
 20
5273.991602
 30
0.0
 40
50.0
 41
0.0
 46
0.0
 71
     5
 72
     1
  1
\fArial|b0|i0|c0|p0;{\fArial|b0|i0;CABINET 36"}
 11
1.0
 21
-1.093613370174262E-8
 31
0.0
 73
     1
 44
1.0
  0
POINT
  5
130
330
129
100
AcDbEntity
  8
DEFPOINTS
 62
     0
100
AcDbPoint
 10
1673.071839
 20
5355.859196
 30
0.0
  0
POINT
  5
131
330
129
100
AcDbEntity
  8
DEFPOINTS
 62
     0
100
AcDbPoint
 10
2587.471839
 20
5355.859186
 30
0.0
  0
POINT
  5
132
330
129
100
AcDbEntity
  8
DEFPOINTS
 62
     0
100
AcDbPoint
 10
2587.471838
 20
5223.141599
 30
0.0
  0
ENDBLK
  5
134
330
129
100
AcDbEntity
  8
0
100
AcDbBlockEnd
  0
BLOCK
  5
140
330
136
100
AcDbEntity
  8
0
100
AcDbBlockBegin
  2
*D7
 70
     1
 10
0.0
 20
0.0
 30
0.0
  3
*D7
  1

  0
LINE
  5
137
330
136
100
AcDbEntity
  8
0
  6
Continuous
 62
     7
370
    -2
100
AcDbLine
 10
1711.126839
 20
6553.140577
 30
0.0
 11
1711.126839
 21
6660.500489
 31
0.0
  0
LINE
  5
138
330
136
100
AcDbEntity
  8
0
  6
Continuous
 62
     7
370
    -2
100
AcDbLine
 10
2549.326839
 20
6553.140577
 30
0.0
 11
2549.326839
 21
6660.500489
 31
0.0
  0
LINE
  5
139
330
136
100
AcDbEntity
  8
0
  6
Continuous
 62
     7
370
    -2
100
AcDbLine
 10
1746.126839
 20
6640.500488
 30
0.0
 11
2514.326839
 21
6640.500488
 31
0.0
  0
INSERT
  5
13A
330
136
100
AcDbEntity
  8
0
 62
     7
370
    -2
100
AcDbBlockReference
  2
_CLOSED
 10
1711.126839
 20
6640.500488
 30
0.0
 41
35.0
 42
35.0
 43
35.0
 50
180.0
  0
INSERT
  5
13B
330
136
100
AcDbEntity
  8
0
 62
     7
370
    -2
100
AcDbBlockReference
  2
_CLOSED
 10
2549.326839
 20
6640.500488
 30
0.0
 41
35.0
 42
35.0
 43
35.0
  0
MTEXT
  5
13C
330
136
100
AcDbEntity
  8
0
 62
     2
370
     0
100
AcDbMText
 10
2021.226807
 20
6691.025488
 30
0.0
 40
50.0
 41
0.0
 46
0.0
 71
     5
 72
     1
  1
\fArial|b0|i0|c0|p0;{\fArial|b0|i0;33"}
 73
     1
 44
1.0
  0
POINT
  5
13D
330
136
100
AcDbEntity
  8
DEFPOINTS
 62
     0
100
AcDbPoint
 10
1711.126839
 20
6503.140577
 30
0.0
  0
POINT
  5
13E
330
136
100
AcDbEntity
  8
DEFPOINTS
 62
     0
100
AcDbPoint
 10
2549.326839
 20
6503.140577
 30
0.0
  0
POINT
  5
13F
330
136
100
AcDbEntity
  8
DEFPOINTS
 62
     0
100
AcDbPoint
 10
2549.326839
 20
6640.500488
 30
0.0
  0
ENDBLK
  5
141
330
136
100
AcDbEntity
  8
0
100
AcDbBlockEnd
  0
BLOCK
  5
14D
330
143
100
AcDbEntity
  8
0
100
AcDbBlockBegin
  2
*D8
 70
     1
 10
0.0
 20
0.0
 30
0.0
  3
*D8
  1

  0
LINE
  5
144
330
143
100
AcDbEntity
  8
0
  6
Continuous
 62
     7
370
    -2
100
AcDbLine
 10
2619.326839
 20
6509.140577
 30
0.0
 11
2738.962891
 21
6509.140577
 31
0.0
  0
LINE
  5
145
330
143
100
AcDbEntity
  8
0
  6
Continuous
 62
     7
370
    -2
100
AcDbLine
 10
2619.326839
 20
5950.140577
 30
0.0
 11
2738.962891
 21
5950.140577
 31
0.0
  0
LINE
  5
146
330
143
100
AcDbEntity
  8
0
  6
Continuous
 62
     7
370
    -2
100
AcDbLine
 10
2718.962891
 20
6474.140577
 30
0.0
 11
2718.962891
 21
5985.140577
 31
0.0
  0
INSERT
  5
147
330
143
100
AcDbEntity
  8
0
 62
     7
370
    -2
100
AcDbBlockReference
  2
_CLOSED
 10
2718.962891
 20
6509.140577
 30
0.0
 41
35.0
 42
35.0
 43
35.0
 50
90.0
  0
INSERT
  5
148
330
143
100
AcDbEntity
  8
0
 62
     7
370
    -2
100
AcDbBlockReference
  2
_CLOSED
 10
2718.962891
 20
5950.140577
 30
0.0
 41
35.0
 42
35.0
 43
35.0
 50
270.0
  0
MTEXT
  5
149
330
143
100
AcDbEntity
  8
0
 62
     2
370
     0
100
AcDbMText
 10
2668.862891
 20
6229.640577
 30
0.0
 40
50.0
 41
0.0
 46
0.0
 71
     5
 72
     1
  1
\fArial|b0|i0|c0|p0;{\fArial|b0|i0;22"}
 11
0.0
 21
1.0
 31
0.0
 73
     1
 44
1.0
  0
POINT
  5
14A
330
143
100
AcDbEntity
  8
DEFPOINTS
 62
     0
100
AcDbPoint
 10
2544.326839
 20
6509.140577
 30
0.0
  0
POINT
  5
14B
330
143
100
AcDbEntity
  8
DEFPOINTS
 62
     0
100
AcDbPoint
 10
2544.326839
 20
5950.140577
 30
0.0
  0
POINT
  5
14C
330
143
100
AcDbEntity
  8
DEFPOINTS
 62
     0
100
AcDbPoint
 10
2718.962891
 20
5950.140577
 30
0.0
  0
ENDBLK
  5
14E
330
143
100
AcDbEntity
  8
0
100
AcDbBlockEnd
  0
BLOCK
  5
15A
330
150
100
AcDbEntity
  8
0
100
AcDbBlockBegin
  2
*D9
 70
     1
 10
0.0
 20
0.0
 30
0.0
  3
*D9
  1

  0
LINE
  5
151
330
150
100
AcDbEntity
  8
0
  6
Continuous
 62
     7
370
    -2
100
AcDbLine
 10
2132.726839
 20
6519.140577
 30
0.0
 11
2132.726839
 21
6557.163574
 31
0.0
  0
LINE
  5
152
330
150
100
AcDbEntity
  8
0
  6
Continuous
 62
     7
370
    -2
100
AcDbLine
 10
2234.326839
 20
6519.140577
 30
0.0
 11
2234.326839
 21
6557.163574
 31
0.0
  0
LINE
  5
153
330
150
100
AcDbEntity
  8
0
  6
Continuous
 62
     7
370
    -2
100
AcDbLine
 10
2153.726839
 20
6545.163574
 30
0.0
 11
2213.326839
 21
6545.163574
 31
0.0
  0
INSERT
  5
154
330
150
100
AcDbEntity
  8
0
 62
     7
370
    -2
100
AcDbBlockReference
  2
_CLOSED
 10
2132.726839
 20
6545.163574
 30
0.0
 41
21.0
 42
21.0
 43
21.0
 50
180.0
  0
INSERT
  5
155
330
150
100
AcDbEntity
  8
0
 62
     7
370
    -2
100
AcDbBlockReference
  2
_CLOSED
 10
2234.326839
 20
6545.163574
 30
0.0
 41
21.0
 42
21.0
 43
21.0
  0
MTEXT
  5
156
330
150
100
AcDbEntity
  8
0
 62
     2
370
     0
100
AcDbMText
 10
2183.526839
 20
6575.163574
 30
0.0
 40
30.0
 41
0.0
 46
0.0
 71
     5
 72
     1
  1
\fArial|b0|i0|c0|p0;{\fArial|b0|i0;4"}
 73
     1
 44
1.0
  0
POINT
  5
157
330
150
100
AcDbEntity
  8
DEFPOINTS
 62
     0
100
AcDbPoint
 10
2132.726839
 20
6474.140577
 30
0.0
  0
POINT
  5
158
330
150
100
AcDbEntity
  8
DEFPOINTS
 62
     0
100
AcDbPoint
 10
2234.326839
 20
6474.140577
 30
0.0
  0
POINT
  5
159
330
150
100
AcDbEntity
  8
DEFPOINTS
 62
     0
100
AcDbPoint
 10
2234.326839
 20
6545.163574
 30
0.0
  0
ENDBLK
  5
15B
330
150
100
AcDbEntity
  8
0
100
AcDbBlockEnd
  0
BLOCK
  5
167
330
15D
100
AcDbEntity
  8
0
100
AcDbBlockBegin
  2
*D10
 70
     1
 10
0.0
 20
0.0
 30
0.0
  3
*D10
  1

  0
LINE
  5
15E
330
15D
100
AcDbEntity
  8
0
  6
Continuous
 62
     7
370
    -2
100
AcDbLine
 10
2234.326839
 20
6519.140577
 30
0.0
 11
2234.326839
 21
6557.163574
 31
0.0
  0
LINE
  5
15F
330
15D
100
AcDbEntity
  8
0
  6
Continuous
 62
     7
370
    -2
100
AcDbLine
 10
2335.926839
 20
6519.140577
 30
0.0
 11
2335.926839
 21
6557.163574
 31
0.0
  0
LINE
  5
160
330
15D
100
AcDbEntity
  8
0
  6
Continuous
 62
     7
370
    -2
100
AcDbLine
 10
2255.326839
 20
6545.163574
 30
0.0
 11
2314.926839
 21
6545.163574
 31
0.0
  0
INSERT
  5
161
330
15D
100
AcDbEntity
  8
0
 62
     7
370
    -2
100
AcDbBlockReference
  2
_CLOSED
 10
2234.326839
 20
6545.163574
 30
0.0
 41
21.0
 42
21.0
 43
21.0
 50
180.0
  0
INSERT
  5
162
330
15D
100
AcDbEntity
  8
0
 62
     7
370
    -2
100
AcDbBlockReference
  2
_CLOSED
 10
2335.926839
 20
6545.163574
 30
0.0
 41
21.0
 42
21.0
 43
21.0
  0
MTEXT
  5
163
330
15D
100
AcDbEntity
  8
0
 62
     2
370
     0
100
AcDbMText
 10
2285.126839
 20
6575.163574
 30
0.0
 40
30.0
 41
0.0
 46
0.0
 71
     5
 72
     1
  1
\fArial|b0|i0|c0|p0;{\fArial|b0|i0;4"}
 73
     1
 44
1.0
  0
POINT
  5
164
330
15D
100
AcDbEntity
  8
DEFPOINTS
 62
     0
100
AcDbPoint
 10
2234.326839
 20
6474.140577
 30
0.0
  0
POINT
  5
165
330
15D
100
AcDbEntity
  8
DEFPOINTS
 62
     0
100
AcDbPoint
 10
2335.926839
 20
6474.140577
 30
0.0
  0
POINT
  5
166
330
15D
100
AcDbEntity
  8
DEFPOINTS
 62
     0
100
AcDbPoint
 10
2335.926839
 20
6545.163574
 30
0.0
  0
ENDBLK
  5
168
330
15D
100
AcDbEntity
  8
0
100
AcDbBlockEnd
  0
BLOCK
  5
174
330
16A
100
AcDbEntity
  8
0
100
AcDbBlockBegin
  2
*D11
 70
     1
 10
0.0
 20
0.0
 30
0.0
  3
*D11
  1

  0
LINE
  5
16B
330
16A
100
AcDbEntity
  8
0
  6
Continuous
 62
     7
370
    -2
100
AcDbLine
 10
2132.726839
 20
6519.140577
 30
0.0
 11
2132.726839
 21
6557.163574
 31
0.0
  0
LINE
  5
16C
330
16A
100
AcDbEntity
  8
0
  6
Continuous
 62
     7
370
    -2
100
AcDbLine
 10
2031.126839
 20
6519.140577
 30
0.0
 11
2031.126839
 21
6557.163574
 31
0.0
  0
LINE
  5
16D
330
16A
100
AcDbEntity
  8
0
  6
Continuous
 62
     7
370
    -2
100
AcDbLine
 10
2111.726839
 20
6545.163574
 30
0.0
 11
2052.126839
 21
6545.163574
 31
0.0
  0
INSERT
  5
16E
330
16A
100
AcDbEntity
  8
0
 62
     7
370
    -2
100
AcDbBlockReference
  2
_CLOSED
 10
2132.726839
 20
6545.163574
 30
0.0
 41
21.0
 42
21.0
 43
21.0
  0
INSERT
  5
16F
330
16A
100
AcDbEntity
  8
0
 62
     7
370
    -2
100
AcDbBlockReference
  2
_CLOSED
 10
2031.126839
 20
6545.163574
 30
0.0
 41
21.0
 42
21.0
 43
21.0
 50
180.0
  0
MTEXT
  5
170
330
16A
100
AcDbEntity
  8
0
 62
     2
370
     0
100
AcDbMText
 10
2081.926839
 20
6575.163574
 30
0.0
 40
30.0
 41
0.0
 46
0.0
 71
     5
 72
     1
  1
\fArial|b0|i0|c0|p0;{\fArial|b0|i0;4"}
 73
     1
 44
1.0
  0
POINT
  5
171
330
16A
100
AcDbEntity
  8
DEFPOINTS
 62
     0
100
AcDbPoint
 10
2132.726839
 20
6474.140577
 30
0.0
  0
POINT
  5
172
330
16A
100
AcDbEntity
  8
DEFPOINTS
 62
     0
100
AcDbPoint
 10
2031.126839
 20
6474.140577
 30
0.0
  0
POINT
  5
173
330
16A
100
AcDbEntity
  8
DEFPOINTS
 62
     0
100
AcDbPoint
 10
2031.126839
 20
6545.163574
 30
0.0
  0
ENDBLK
  5
175
330
16A
100
AcDbEntity
  8
0
100
AcDbBlockEnd
  0
BLOCK
  5
181
330
177
100
AcDbEntity
  8
0
100
AcDbBlockBegin
  2
*D12
 70
     1
 10
0.0
 20
0.0
 30
0.0
  3
*D12
  1

  0
LINE
  5
178
330
177
100
AcDbEntity
  8
0
  6
Continuous
 62
     7
370
    -2
100
AcDbLine
 10
2031.126839
 20
6519.140577
 30
0.0
 11
2031.126839
 21
6557.163574
 31
0.0
  0
LINE
  5
179
330
177
100
AcDbEntity
  8
0
  6
Continuous
 62
     7
370
    -2
100
AcDbLine
 10
1929.526839
 20
6519.140577
 30
0.0
 11
1929.526839
 21
6557.163574
 31
0.0
  0
LINE
  5
17A
330
177
100
AcDbEntity
  8
0
  6
Continuous
 62
     7
370
    -2
100
AcDbLine
 10
2010.126839
 20
6545.163574
 30
0.0
 11
1950.526839
 21
6545.163574
 31
0.0
  0
INSERT
  5
17B
330
177
100
AcDbEntity
  8
0
 62
     7
370
    -2
100
AcDbBlockReference
  2
_CLOSED
 10
2031.126839
 20
6545.163574
 30
0.0
 41
21.0
 42
21.0
 43
21.0
  0
INSERT
  5
17C
330
177
100
AcDbEntity
  8
0
 62
     7
370
    -2
100
AcDbBlockReference
  2
_CLOSED
 10
1929.526839
 20
6545.163574
 30
0.0
 41
21.0
 42
21.0
 43
21.0
 50
180.0
  0
MTEXT
  5
17D
330
177
100
AcDbEntity
  8
0
 62
     2
370
     0
100
AcDbMText
 10
1980.326839
 20
6575.163574
 30
0.0
 40
30.0
 41
0.0
 46
0.0
 71
     5
 72
     1
  1
\fArial|b0|i0|c0|p0;{\fArial|b0|i0;4"}
 73
     1
 44
1.0
  0
POINT
  5
17E
330
177
100
AcDbEntity
  8
DEFPOINTS
 62
     0
100
AcDbPoint
 10
2031.126839
 20
6474.140577
 30
0.0
  0
POINT
  5
17F
330
177
100
AcDbEntity
  8
DEFPOINTS
 62
     0
100
AcDbPoint
 10
1929.526839
 20
6474.140577
 30
0.0
  0
POINT
  5
180
330
177
100
AcDbEntity
  8
DEFPOINTS
 62
     0
100
AcDbPoint
 10
1929.526839
 20
6545.163574
 30
0.0
  0
ENDBLK
  5
182
330
177
100
AcDbEntity
  8
0
100
AcDbBlockEnd
  0
BLOCK
  5
191
330
184
100
AcDbEntity
  8
0
100
AcDbBlockBegin
  2
*D13
 70
     1
 10
0.0
 20
0.0
 30
0.0
  3
*D13
  1

  0
LINE
  5
185
330
184
100
AcDbEntity
  8
0
  6
Continuous
 62
     7
370
    -2
100
AcDbLine
 10
1677.126839
 20
6428.140577
 30
0.0
 11
1519.162109
 21
6428.140577
 31
0.0
  0
LINE
  5
186
330
184
100
AcDbEntity
  8
0
  6
Continuous
 62
     7
370
    -2
100
AcDbLine
 10
1642.126839
 20
6509.140577
 30
0.0
 11
1519.162109
 21
6509.140577
 31
0.0
  0
LINE
  5
187
330
184
100
AcDbEntity
  8
0
  6
Continuous
 62
     7
370
    -2
100
AcDbLine
 10
1539.162109
 20
6509.140577
 30
0.0
 11
1539.162109
 21
7057.190527
 31
0.0
  0
LINE
  5
188
330
184
100
AcDbEntity
  8
0
  6
Continuous
 62
     7
370
    -2
100
AcDbLine
 10
1539.162109
 20
6428.140577
 30
0.0
 11
1539.162109
 21
6509.140577
 31
0.0
  0
LINE
  5
189
330
184
100
AcDbEntity
  8
0
  6
Continuous
 62
     7
370
    -2
100
AcDbLine
 10
1539.162109
 20
6393.140577
 30
0.0
 11
1539.162109
 21
6358.140577
 31
0.0
  0
LINE
  5
18A
330
184
100
AcDbEntity
  8
0
  6
Continuous
 62
     7
370
    -2
100
AcDbLine
 10
1539.162109
 20
6544.140577
 30
0.0
 11
1539.162109
 21
6579.140577
 31
0.0
  0
INSERT
  5
18B
330
184
100
AcDbEntity
  8
0
 62
     7
370
    -2
100
AcDbBlockReference
  2
_CLOSED
 10
1539.162109
 20
6428.140577
 30
0.0
 41
35.0
 42
35.0
 43
35.0
 50
90.0
  0
INSERT
  5
18C
330
184
100
AcDbEntity
  8
0
 62
     7
370
    -2
100
AcDbBlockReference
  2
_CLOSED
 10
1539.162109
 20
6509.140577
 30
0.0
 41
35.0
 42
35.0
 43
35.0
 50
270.0
  0
MTEXT
  5
18D
330
184
100
AcDbEntity
  8
0
 62
     2
370
     0
100
AcDbMText
 10
1488.337109
 20
6925.915527
 30
0.0
 40
50.0
 41
0.0
 46
0.0
 71
     5
 72
     1
  1
\fArial|b0|i0|c0|p0;{\fArial|b0|i0;3 3/16"}
 11
0.0
 21
1.0
 31
0.0
 73
     1
 44
1.0
  0
POINT
  5
18E
330
184
100
AcDbEntity
  8
DEFPOINTS
 62
     0
100
AcDbPoint
 10
1752.126839
 20
6428.140577
 30
0.0
  0
POINT
  5
18F
330
184
100
AcDbEntity
  8
DEFPOINTS
 62
     0
100
AcDbPoint
 10
1717.126839
 20
6509.140577
 30
0.0
  0
POINT
  5
190
330
184
100
AcDbEntity
  8
DEFPOINTS
 62
     0
100
AcDbPoint
 10
1539.162109
 20
6509.140577
 30
0.0
  0
ENDBLK
  5
192
330
184
100
AcDbEntity
  8
0
100
AcDbBlockEnd
  0
BLOCK
  5
19E
330
194
100
AcDbEntity
  8
0
100
AcDbBlockBegin
  2
*D14
 70
     1
 10
0.0
 20
0.0
 30
0.0
  3
*D14
  1

  0
LINE
  5
195
330
194
100
AcDbEntity
  8
0
  6
Continuous
 62
     7
370
    -2
100
AcDbLine
 10
1677.126839
 20
6428.140577
 30
0.0
 11
1519.163208
 21
6428.140577
 31
0.0
  0
LINE
  5
196
330
194
100
AcDbEntity
  8
0
  6
Continuous
 62
     7
370
    -2
100
AcDbLine
 10
1677.126839
 20
5985.140577
 30
0.0
 11
1519.163208
 21
5985.140577
 31
0.0
  0
LINE
  5
197
330
194
100
AcDbEntity
  8
0
  6
Continuous
 62
     7
370
    -2
100
AcDbLine
 10
1539.163208
 20
6393.140577
 30
0.0
 11
1539.163208
 21
6020.140577
 31
0.0
  0
INSERT
  5
198
330
194
100
AcDbEntity
  8
0
 62
     7
370
    -2
100
AcDbBlockReference
  2
_CLOSED
 10
1539.163208
 20
6428.140577
 30
0.0
 41
35.0
 42
35.0
 43
35.0
 50
90.0
  0
INSERT
  5
199
330
194
100
AcDbEntity
  8
0
 62
     7
370
    -2
100
AcDbBlockReference
  2
_CLOSED
 10
1539.163208
 20
5985.140577
 30
0.0
 41
35.0
 42
35.0
 43
35.0
 50
270.0
  0
MTEXT
  5
19A
330
194
100
AcDbEntity
  8
0
 62
     2
370
     0
100
AcDbMText
 10
1488.338208
 20
6206.640577
 30
0.0
 40
50.0
 41
0.0
 46
0.0
 71
     5
 72
     1
  1
\fArial|b0|i0|c0|p0;{\fArial|b0|i0;17  7/16"}
 11
0.0
 21
1.0
 31
0.0
 73
     1
 44
1.0
  0
POINT
  5
19B
330
194
100
AcDbEntity
  8
DEFPOINTS
 62
     0
100
AcDbPoint
 10
1752.126839
 20
6428.140577
 30
0.0
  0
POINT
  5
19C
330
194
100
AcDbEntity
  8
DEFPOINTS
 62
     0
100
AcDbPoint
 10
1752.126839
 20
5985.140577
 30
0.0
  0
POINT
  5
19D
330
194
100
AcDbEntity
  8
DEFPOINTS
 62
     0
100
AcDbPoint
 10
1539.163208
 20
5985.140577
 30
0.0
  0
ENDBLK
  5
19F
330
194
100
AcDbEntity
  8
0
100
AcDbBlockEnd
  0
BLOCK
  5
1AE
330
1A1
100
AcDbEntity
  8
0
100
AcDbBlockBegin
  2
*D15
 70
     1
 10
0.0
 20
0.0
 30
0.0
  3
*D15
  1

  0
LINE
  5
1A2
330
1A1
100
AcDbEntity
  8
0
  6
Continuous
 62
     7
370
    -2
100
AcDbLine
 10
1677.126839
 20
5985.140577
 30
0.0
 11
1519.162109
 21
5985.140577
 31
0.0
  0
LINE
  5
1A3
330
1A1
100
AcDbEntity
  8
0
  6
Continuous
 62
     7
370
    -2
100
AcDbLine
 10
1642.126839
 20
5950.140577
 30
0.0
 11
1519.162109
 21
5950.140577
 31
0.0
  0
LINE
  5
1A4
330
1A1
100
AcDbEntity
  8
0
  6
Continuous
 62
     7
370
    -2
100
AcDbLine
 10
1539.162109
 20
5950.140577
 30
0.0
 11
1539.162109
 21
5675.740577
 31
0.0
  0
LINE
  5
1A5
330
1A1
100
AcDbEntity
  8
0
  6
Continuous
 62
     7
370
    -2
100
AcDbLine
 10
1539.162109
 20
5985.140577
 30
0.0
 11
1539.162109
 21
5950.140577
 31
0.0
  0
LINE
  5
1A6
330
1A1
100
AcDbEntity
  8
0
  6
Continuous
 62
     7
370
    -2
100
AcDbLine
 10
1539.162109
 20
6020.140577
 30
0.0
 11
1539.162109
 21
6055.140577
 31
0.0
  0
LINE
  5
1A7
330
1A1
100
AcDbEntity
  8
0
  6
Continuous
 62
     7
370
    -2
100
AcDbLine
 10
1539.162109
 20
5915.140577
 30
0.0
 11
1539.162109
 21
5880.140577
 31
0.0
  0
INSERT
  5
1A8
330
1A1
100
AcDbEntity
  8
0
 62
     7
370
    -2
100
AcDbBlockReference
  2
_CLOSED
 10
1539.162109
 20
5985.140577
 30
0.0
 41
35.0
 42
35.0
 43
35.0
 50
270.0
  0
INSERT
  5
1A9
330
1A1
100
AcDbEntity
  8
0
 62
     7
370
    -2
100
AcDbBlockReference
  2
_CLOSED
 10
1539.162109
 20
5950.140577
 30
0.0
 41
35.0
 42
35.0
 43
35.0
 50
90.0
  0
MTEXT
  5
1AA
330
1A1
100
AcDbEntity
  8
0
 62
     2
370
     0
100
AcDbMText
 10
1488.337109
 20
5777.940577
 30
0.0
 40
50.0
 41
0.0
 46
0.0
 71
     5
 72
     1
  1
\fArial|b0|i0|c0|p0;{\fArial|b0|i0;9/64"}
 11
0.0
 21
1.0
 31
0.0
 73
     1
 44
1.0
  0
POINT
  5
1AB
330
1A1
100
AcDbEntity
  8
DEFPOINTS
 62
     0
100
AcDbPoint
 10
1752.126839
 20
5985.140577
 30
0.0
  0
POINT
  5
1AC
330
1A1
100
AcDbEntity
  8
DEFPOINTS
 62
     0
100
AcDbPoint
 10
1717.126839
 20
5950.140577
 30
0.0
  0
POINT
  5
1AD
330
1A1
100
AcDbEntity
  8
DEFPOINTS
 62
     0
100
AcDbPoint
 10
1539.162109
 20
5950.140577
 30
0.0
  0
ENDBLK
  5
1AF
330
1A1
100
AcDbEntity
  8
0
100
AcDbBlockEnd
  0
BLOCK
  5
1BB
330
1B1
100
AcDbEntity
  8
0
100
AcDbBlockBegin
  2
*D16
 70
     1
 10
0.0
 20
0.0
 30
0.0
  3
*D16
  1

  0
LINE
  5
1B2
330
1B1
100
AcDbEntity
  8
0
  6
Continuous
 62
     7
370
    -2
100
AcDbLine
 10
1746.126839
 20
5915.140577
 30
0.0
 11
1746.126839
 21
5801.368652
 31
0.0
  0
LINE
  5
1B3
330
1B1
100
AcDbEntity
  8
0
  6
Continuous
 62
     7
370
    -2
100
AcDbLine
 10
2514.326839
 20
5915.140577
 30
0.0
 11
2514.326839
 21
5801.368652
 31
0.0
  0
LINE
  5
1B4
330
1B1
100
AcDbEntity
  8
0
  6
Continuous
 62
     7
370
    -2
100
AcDbLine
 10
1781.126839
 20
5821.368652
 30
0.0
 11
2479.326839
 21
5821.368652
 31
0.0
  0
INSERT
  5
1B5
330
1B1
100
AcDbEntity
  8
0
 62
     7
370
    -2
100
AcDbBlockReference
  2
_CLOSED
 10
1746.126839
 20
5821.368652
 30
0.0
 41
35.0
 42
35.0
 43
35.0
 50
180.0
  0
INSERT
  5
1B6
330
1B1
100
AcDbEntity
  8
0
 62
     7
370
    -2
100
AcDbBlockReference
  2
_CLOSED
 10
2514.326839
 20
5821.368652
 30
0.0
 41
35.0
 42
35.0
 43
35.0
  0
MTEXT
  5
1B7
330
1B1
100
AcDbEntity
  8
0
 62
     2
370
     0
100
AcDbMText
 10
2130.226839
 20
5872.193652
 30
0.0
 40
50.0
 41
0.0
 46
0.0
 71
     5
 72
     1
  1
\fArial|b0|i0|c0|p0;{\fArial|b0|i0;30 1/4"}
 73
     1
 44
1.0
  0
POINT
  5
1B8
330
1B1
100
AcDbEntity
  8
DEFPOINTS
 62
     0
100
AcDbPoint
 10
1746.126839
 20
5990.140577
 30
0.0
  0
POINT
  5
1B9
330
1B1
100
AcDbEntity
  8
DEFPOINTS
 62
     0
100
AcDbPoint
 10
2514.326839
 20
5990.140577
 30
0.0
  0
POINT
  5
1BA
330
1B1
100
AcDbEntity
  8
DEFPOINTS
 62
     0
100
AcDbPoint
 10
2514.326839
 20
5821.368652
 30
0.0
  0
ENDBLK
  5
1BC
330
1B1
100
AcDbEntity
  8
0
100
AcDbBlockEnd
  0
BLOCK
  5
1C8
330
1BE
100
AcDbEntity
  8
0
100
AcDbBlockBegin
  2
*D17
 70
     1
 10
0.0
 20
0.0
 30
0.0
  3
*D17
  1

  0
LINE
  5
1BF
330
1BE
100
AcDbEntity
  8
0
  6
Continuous
 62
     7
370
    -2
100
AcDbLine
 10
2045.230043
 20
5433.159206
 30
0.0
 11
2085.169922
 21
5433.159206
 31
0.0
  0
LINE
  5
1C0
330
1BE
100
AcDbEntity
  8
0
  6
Continuous
 62
     7
370
    -2
100
AcDbLine
 10
2045.230043
 20
5672.859206
 30
0.0
 11
2085.169922
 21
5672.859206
 31
0.0
  0
LINE
  5
1C1
330
1BE
100
AcDbEntity
  8
0
  6
Continuous
 62
     7
370
    -2
100
AcDbLine
 10
2103.169922
 20
5464.659204
 30
0.0
 11
2103.169922
 21
5641.359208
 31
0.0
  0
INSERT
  5
1C2
330
1BE
100
AcDbEntity
  8
0
 62
     7
370
    -2
100
AcDbBlockReference
  2
_CLOSED
 10
2103.169922
 20
5433.159206
 30
0.0
 41
31.499998
 42
31.499998
 43
31.499998
 50
270.0
  0
INSERT
  5
1C3
330
1BE
100
AcDbEntity
  8
0
 62
     7
370
    -2
100
AcDbBlockReference
  2
_CLOSED
 10
2103.169922
 20
5672.859206
 30
0.0
 41
31.499998
 42
31.499998
 43
31.499998
 50
90.0
  0
MTEXT
  5
1C4
330
1BE
100
AcDbEntity
  8
0
 62
     2
370
     0
100
AcDbMText
 10
2057.427422
 20
5553.009206
 30
0.0
 40
45.0
 41
0.0
 46
0.0
 71
     5
 72
     1
  1
\fArial|b0|i0|c0|p0;{\fArial|b0|i0;9 7/16"}
 11
0.0
 21
1.0
 31
0.0
 73
     1
 44
1.0
  0
POINT
  5
1C5
330
1BE
100
AcDbEntity
  8
DEFPOINTS
 62
     0
100
AcDbPoint
 10
2112.730043
 20
5433.159206
 30
0.0
  0
POINT
  5
1C6
330
1BE
100
AcDbEntity
  8
DEFPOINTS
 62
     0
100
AcDbPoint
 10
2112.730043
 20
5672.859206
 30
0.0
  0
POINT
  5
1C7
330
1BE
100
AcDbEntity
  8
DEFPOINTS
 62
     0
100
AcDbPoint
 10
2103.169922
 20
5672.859206
 30
0.0
  0
ENDBLK
  5
1C9
330
1BE
100
AcDbEntity
  8
0
100
AcDbBlockEnd
  0
BLOCK
  5
1D5
330
1CB
100
AcDbEntity
  8
0
100
AcDbBlockBegin
  2
*D18
 70
     1
 10
0.0
 20
0.0
 30
0.0
  3
*D18
  1

  0
LINE
  5
1CC
330
1CB
100
AcDbEntity
  8
0
  6
Continuous
 62
     7
370
    -2
100
AcDbLine
 10
1721.126839
 20
4441.261985
 30
0.0
 11
1721.126839
 21
4353.512207
 31
0.0
  0
LINE
  5
1CD
330
1CB
100
AcDbEntity
  8
0
  6
Continuous
 62
     7
370
    -2
100
AcDbLine
 10
2541.126839
 20
4441.261985
 30
0.0
 11
2541.126839
 21
4353.512207
 31
0.0
  0
LINE
  5
1CE
330
1CB
100
AcDbEntity
  8
0
  6
Continuous
 62
     7
370
    -2
100
AcDbLine
 10
1756.126839
 20
4373.512207
 30
0.0
 11
2506.126839
 21
4373.512207
 31
0.0
  0
INSERT
  5
1CF
330
1CB
100
AcDbEntity
  8
0
 62
     7
370
    -2
100
AcDbBlockReference
  2
_CLOSED
 10
1721.126839
 20
4373.512207
 30
0.0
 41
35.0
 42
35.0
 43
35.0
 50
180.0
  0
INSERT
  5
1D0
330
1CB
100
AcDbEntity
  8
0
 62
     7
370
    -2
100
AcDbBlockReference
  2
_CLOSED
 10
2541.126839
 20
4373.512207
 30
0.0
 41
35.0
 42
35.0
 43
35.0
  0
MTEXT
  5
1D1
330
1CB
100
AcDbEntity
  8
0
 62
     2
370
     0
100
AcDbMText
 10
2131.126839
 20
4424.337207
 30
0.0
 40
50.0
 41
0.0
 46
0.0
 71
     5
 72
     1
  1
\fArial|b0|i0|c0|p0;{\fArial|b0|i0;32 1/4"}
 73
     1
 44
1.0
  0
POINT
  5
1D2
330
1CB
100
AcDbEntity
  8
DEFPOINTS
 62
     0
100
AcDbPoint
 10
1721.126839
 20
4516.261985
 30
0.0
  0
POINT
  5
1D3
330
1CB
100
AcDbEntity
  8
DEFPOINTS
 62
     0
100
AcDbPoint
 10
2541.126839
 20
4516.261985
 30
0.0
  0
POINT
  5
1D4
330
1CB
100
AcDbEntity
  8
DEFPOINTS
 62
     0
100
AcDbPoint
 10
2541.126839
 20
4373.512207
 30
0.0
  0
ENDBLK
  5
1D6
330
1CB
100
AcDbEntity
  8
0
100
AcDbBlockEnd
  0
BLOCK
  5
1E2
330
1D8
100
AcDbEntity
  8
0
100
AcDbBlockBegin
  2
*D19
 70
     1
 10
0.0
 20
0.0
 30
0.0
  3
*D19
  1

  0
LINE
  5
1D9
330
1D8
100
AcDbEntity
  8
0
  6
Continuous
 62
     7
370
    -2
100
AcDbLine
 10
2606.126839
 20
4506.261985
 30
0.0
 11
2722.131104
 21
4506.261985
 31
0.0
  0
LINE
  5
1DA
330
1D8
100
AcDbEntity
  8
0
  6
Continuous
 62
     7
370
    -2
100
AcDbLine
 10
2606.126839
 20
5046.261985
 30
0.0
 11
2722.131104
 21
5046.261985
 31
0.0
  0
LINE
  5
1DB
330
1D8
100
AcDbEntity
  8
0
  6
Continuous
 62
     7
370
    -2
100
AcDbLine
 10
2702.131104
 20
4541.261985
 30
0.0
 11
2702.131104
 21
5011.261985
 31
0.0
  0
INSERT
  5
1DC
330
1D8
100
AcDbEntity
  8
0
 62
     7
370
    -2
100
AcDbBlockReference
  2
_CLOSED
 10
2702.131104
 20
4506.261985
 30
0.0
 41
35.0
 42
35.0
 43
35.0
 50
270.0
  0
INSERT
  5
1DD
330
1D8
100
AcDbEntity
  8
0
 62
     7
370
    -2
100
AcDbBlockReference
  2
_CLOSED
 10
2702.131104
 20
5046.261985
 30
0.0
 41
35.0
 42
35.0
 43
35.0
 50
90.0
  0
MTEXT
  5
1DE
330
1D8
100
AcDbEntity
  8
0
 62
     2
370
     0
100
AcDbMText
 10
2651.306104
 20
4776.261985
 30
0.0
 40
50.0
 41
0.0
 46
0.0
 71
     5
 72
     1
  1
\fArial|b0|i0|c0|p0;{\fArial|b0|i0;21 1/4"}
 11
0.0
 21
1.0
 31
0.0
 73
     1
 44
1.0
  0
POINT
  5
1DF
330
1D8
100
AcDbEntity
  8
DEFPOINTS
 62
     0
100
AcDbPoint
 10
2531.126839
 20
4506.261985
 30
0.0
  0
POINT
  5
1E0
330
1D8
100
AcDbEntity
  8
DEFPOINTS
 62
     0
100
AcDbPoint
 10
2531.126839
 20
5046.261985
 30
0.0
  0
POINT
  5
1E1
330
1D8
100
AcDbEntity
  8
DEFPOINTS
 62
     0
100
AcDbPoint
 10
2702.131104
 20
5046.261985
 30
0.0
  0
ENDBLK
  5
1E3
330
1D8
100
AcDbEntity
  8
0
100
AcDbBlockEnd
  0
ENDSEC
  0
SECTION
  2
ENTITIES
  0
LINE
  5
66
330
1F
100
AcDbEntity
  8
0
  6
Continuous
 62
     6
420
 16711935
370
     0
100
AcDbLine
 10
2542.326839
 20
5661.859196
 30
0.0
 11
2549.326839
 21
5661.859196
 31
0.0
  0
LINE
  5
67
330
1F
100
AcDbEntity
  8
0
  6
Continuous
 62
     6
420
 16711935
370
     0
100
AcDbLine
 10
2549.326839
 20
5661.859196
 30
0.0
 11
2549.326839
 21
5667.859196
 31
0.0
  0
LINE
  5
68
330
1F
100
AcDbEntity
  8
0
  6
Continuous
 62
     6
420
 16711935
370
     0
100
AcDbLine
 10
2513.847658
 20
5667.38213
 30
0.0
 11
2495.403798
 21
5456.567843
 31
0.0
  0
LINE
  5
69
330
1F
100
AcDbEntity
  8
0
  6
Continuous
 62
     6
420
 16711935
370
     0
100
AcDbLine
 10
2072.226839
 20
5437.859206
 30
0.0
 11
1779.723368
 21
5442.964873
 31
0.0
  0
LINE
  5
6A
330
1F
100
AcDbEntity
  8
0
  6
Continuous
 62
     6
420
 16711935
370
     0
100
AcDbLine
 10
1765.042234
 20
5456.655252
 30
0.0
 11
1746.60602
 21
5667.38214
 31
0.0
  0
LINE
  5
6B
330
1F
100
AcDbEntity
  8
0
  6
Continuous
 62
     6
420
 16711935
370
     0
100
AcDbLine
 10
1740.628852
 20
5672.859206
 30
0.0
 11
1716.126839
 21
5672.859206
 31
0.0
  0
LINE
  5
6C
330
1F
100
AcDbEntity
  8
0
  6
Continuous
 62
     6
420
 16711935
370
     0
100
AcDbLine
 10
1711.126839
 20
5667.859206
 30
0.0
 11
1711.126839
 21
5661.859206
 31
0.0
  0
LINE
  5
6D
330
1F
100
AcDbEntity
  8
0
  6
Continuous
 62
     6
420
 16711935
370
     0
100
AcDbLine
 10
1711.126839
 20
5661.859206
 30
0.0
 11
1718.126839
 21
5661.859206
 31
0.0
  0
LINE
  5
6E
330
1F
100
AcDbEntity
  8
0
  6
Continuous
 62
     6
420
 16711935
370
     0
100
AcDbLine
 10
1718.126839
 20
5661.859206
 30
0.0
 11
1718.126839
 21
5662.859206
 31
0.0
  0
LINE
  5
6F
330
1F
100
AcDbEntity
  8
0
  6
Continuous
 62
     6
420
 16711935
370
     0
100
AcDbLine
 10
1721.126839
 20
5665.859206
 30
0.0
 11
1736.047196
 21
5665.859206
 31
0.0
  0
LINE
  5
70
330
1F
100
AcDbEntity
  8
0
  6
Continuous
 62
     6
420
 16711935
370
     0
100
AcDbLine
 10
1740.031975
 20
5662.207829
 30
0.0
 11
1757.969655
 21
5457.179211
 31
0.0
  0
LINE
  5
71
330
1F
100
AcDbEntity
  8
0
  6
Continuous
 62
     6
420
 16711935
370
     0
100
AcDbLine
 10
2502.476377
 20
5457.091803
 30
0.0
 11
2520.421703
 21
5662.207818
 31
0.0
  0
LINE
  5
72
330
1F
100
AcDbEntity
  8
0
  6
Continuous
 62
     6
420
 16711935
370
     0
100
AcDbLine
 10
2524.406482
 20
5665.859196
 30
0.0
 11
2539.326839
 21
5665.859196
 31
0.0
  0
LINE
  5
73
330
1F
100
AcDbEntity
  8
0
  6
Continuous
 62
     6
420
 16711935
370
     0
100
AcDbLine
 10
2542.326839
 20
5662.859196
 30
0.0
 11
2542.326839
 21
5661.859196
 31
0.0
  0
LINE
  5
74
330
1F
100
AcDbEntity
  8
7
  6
Continuous
 62
     7
420
 16777215
370
     0
100
AcDbLine
 10
2519.824826
 20
5672.859206
 30
0.0
 11
1740.628852
 21
5672.859206
 31
0.0
  0
LINE
  5
75
330
1F
100
AcDbEntity
  8
0
  6
Continuous
 62
     4
420
    65535
370
     0
100
AcDbLine
 10
1195.1616
 20
4258.41281
 30
0.0
 11
1195.1616
 21
6896.234344
 31
0.0
  0
LINE
  5
76
330
1F
100
AcDbEntity
  8
0
  6
Continuous
 62
     4
420
    65535
370
     0
100
AcDbLine
 10
1195.1616
 20
6896.234344
 30
0.0
 11
3019.542094
 21
6896.234344
 31
0.0
  0
LINE
  5
77
330
1F
100
AcDbEntity
  8
0
  6
Continuous
 62
     4
420
    65535
370
     0
100
AcDbLine
 10
3019.542094
 20
6896.234344
 30
0.0
 11
3019.542094
 21
4258.41281
 31
0.0
  0
LINE
  5
78
330
1F
100
AcDbEntity
  8
0
  6
Continuous
 62
     4
420
    65535
370
     0
100
AcDbLine
 10
3019.542094
 20
4258.41281
 30
0.0
 11
1195.1616
 21
4258.41281
 31
0.0
  0
LINE
  5
79
330
1F
100
AcDbEntity
  8
0
  6
Continuous
 62
     7
420
 16777215
370
     0
100
AcDbLine
 10
1691.071839
 20
5631.859196
 30
0.0
 11
1691.071839
 21
5355.859196
 31
0.0
  0
LINE
  5
7A
330
1F
100
AcDbEntity
  8
0
  6
Continuous
 62
     7
420
 16777215
370
     0
100
AcDbLine
 10
1673.071839
 20
5355.859196
 30
0.0
 11
1673.071839
 21
5631.859196
 31
0.0
  0
LINE
  5
7B
330
1F
100
AcDbEntity
  8
0
  6
Continuous
 62
     7
420
 16777215
370
     0
100
AcDbLine
 10
1691.071839
 20
5355.859196
 30
0.0
 11
1673.071839
 21
5355.859196
 31
0.0
  0
LINE
  5
7C
330
1F
100
AcDbEntity
  8
0
  6
Continuous
 62
     7
420
 16777215
370
     0
100
AcDbLine
 10
1721.126839
 20
5631.859196
 30
0.0
 11
1635.711118
 21
5631.859196
 31
0.0
  0
SPLINE
  5
7D
330
1F
100
AcDbEntity
  8
0
  6
Continuous
 62
     7
420
 16777215
370
     0
100
AcDbSpline
210
0.0
220
0.0
230
1.0
 70
     8
 71
     3
 72
     8
 73
     4
 74
     0
 42
0.0
 43
0.0
 40
0.0
 40
0.0
 40
0.0
 40
0.0
 40
1.0
 40
1.0
 40
1.0
 40
1.0
 10
1635.711117740393
 20
5631.859195523813
 30
0.0
 10
1641.007771619486
 20
5642.892102874297
 30
0.0
 10
1634.313967612819
 20
5654.317809673446
 30
0.0
 10
1632.946678667424
 20
5661.859195523813
 30
0.0
  0
LINE
  5
7E
330
1F
100
AcDbEntity
  8
0
  6
Continuous
 62
     7
420
 16777215
370
     0
100
AcDbLine
 10
1721.126839
 20
5661.859196
 30
0.0
 11
1721.126839
 21
5631.859196
 31
0.0
  0
LINE
  5
7F
330
1F
100
AcDbEntity
  8
0
  6
Continuous
 62
     7
420
 16777215
370
     0
100
AcDbLine
 10
1691.071839
 20
5631.859195
 30
0.0
 11
1673.071839
 21
5631.859196
 31
0.0
  0
LINE
  5
80
330
1F
100
AcDbEntity
  8
0
  6
Continuous
 62
     7
420
 16777215
370
     0
100
AcDbLine
 10
1632.946679
 20
5661.859196
 30
0.0
 11
1721.126839
 21
5661.859196
 31
0.0
  0
LINE
  5
81
330
1F
100
AcDbEntity
  8
0
  6
Continuous
 62
     7
420
 16777215
370
     0
100
AcDbLine
 10
2569.471839
 20
5631.859186
 30
0.0
 11
2569.471839
 21
5355.859186
 31
0.0
  0
LINE
  5
82
330
1F
100
AcDbEntity
  8
0
  6
Continuous
 62
     7
420
 16777215
370
     0
100
AcDbLine
 10
2587.471839
 20
5355.859186
 30
0.0
 11
2587.471839
 21
5631.859186
 31
0.0
  0
LINE
  5
83
330
1F
100
AcDbEntity
  8
0
  6
Continuous
 62
     7
420
 16777215
370
     0
100
AcDbLine
 10
2569.471839
 20
5355.859186
 30
0.0
 11
2587.471839
 21
5355.859186
 31
0.0
  0
LINE
  5
84
330
1F
100
AcDbEntity
  8
0
  6
Continuous
 62
     7
420
 16777215
370
     0
100
AcDbLine
 10
2539.326839
 20
5631.859185
 30
0.0
 11
2624.742561
 21
5631.859185
 31
0.0
  0
SPLINE
  5
85
330
1F
100
AcDbEntity
  8
0
  6
Continuous
 62
     7
420
 16777215
370
     0
100
AcDbSpline
210
0.0
220
0.0
230
1.0
 70
     8
 71
     3
 72
     8
 73
     4
 74
     0
 42
0.0
 43
0.0
 40
0.0
 40
0.0
 40
0.0
 40
0.0
 40
1.0
 40
1.0
 40
1.0
 40
1.0
 10
2624.74256051597
 20
5631.859185195606
 30
0.0
 10
2619.445906636876
 20
5642.89209254609
 30
0.0
 10
2626.139710643543
 20
5654.317799345239
 30
0.0
 10
2627.506999588935
 20
5661.859185195606
 30
0.0
  0
LINE
  5
86
330
1F
100
AcDbEntity
  8
0
  6
Continuous
 62
     7
420
 16777215
370
     0
100
AcDbLine
 10
2627.507
 20
5661.859185
 30
0.0
 11
2539.326839
 21
5661.859185
 31
0.0
  0
LINE
  5
87
330
1F
100
AcDbEntity
  8
0
  6
Continuous
 62
     7
420
 16777215
370
     0
100
AcDbLine
 10
2539.326839
 20
5661.859185
 30
0.0
 11
2539.326839
 21
5631.859185
 31
0.0
  0
LINE
  5
88
330
1F
100
AcDbEntity
  8
0
  6
Continuous
 62
     7
420
 16777215
370
     0
100
AcDbLine
 10
1696.126839
 20
5631.859196
 30
0.0
 11
1714.126839
 21
5631.859196
 31
0.0
  0
LINE
  5
89
330
1F
100
AcDbEntity
  8
0
  6
Continuous
 62
     7
420
 16777215
370
     0
100
AcDbLine
 10
2574.871839
 20
5631.859186
 30
0.0
 11
2592.871839
 21
5631.859186
 31
0.0
  0
LINE
  5
8A
330
1F
100
AcDbEntity
  8
0
  6
Continuous
 62
     6
420
 16711935
370
     0
100
AcDbLine
 10
2519.824826
 20
5672.859196
 30
0.0
 11
2544.326839
 21
5672.859196
 31
0.0
  0
ARC
  5
8B
330
1F
100
AcDbEntity
  8
0
  6
Continuous
 62
     6
420
 16711935
370
     0
100
AcDbCircle
 10
1721.126839
 20
5662.859206
 30
0.0
 40
3.0
100
AcDbArc
 50
90.0
 51
180.0
  0
ARC
  5
8C
330
1F
100
AcDbEntity
  8
0
  6
Continuous
 62
     6
420
 16711935
370
     0
100
AcDbCircle
 10
2539.326839
 20
5662.859196
 30
0.0
 40
3.0
100
AcDbArc
 50
0.0
 51
90.0
  0
LINE
  5
8D
330
1F
100
AcDbEntity
  8
0
  6
Continuous
 62
     6
420
 16711935
370
     0
100
AcDbLine
 10
1717.126839
 20
5950.140577
 30
0.0
 11
2543.326839
 21
5950.140577
 31
0.0
  0
LINE
  5
8E
330
1F
100
AcDbEntity
  8
0
  6
Continuous
 62
     6
420
 16711935
370
     0
100
AcDbLine
 10
2549.326839
 20
5956.140577
 30
0.0
 11
2549.326839
 21
6503.140577
 31
0.0
  0
LINE
  5
8F
330
1F
100
AcDbEntity
  8
0
  6
Continuous
 62
     6
420
 16711935
370
     0
100
AcDbLine
 10
1711.126839
 20
6503.140577
 30
0.0
 11
1711.126839
 21
5956.140577
 31
0.0
  0
LINE
  5
90
330
1F
100
AcDbEntity
  8
0
  6
Continuous
 62
     6
420
 16711935
370
     0
100
AcDbLine
 10
2543.326839
 20
6509.140577
 30
0.0
 11
1717.126839
 21
6509.140577
 31
0.0
  0
LINE
  5
92
330
1F
100
AcDbEntity
  8
0
  6
CENTER2
 62
    47
420
  8351551
370
     0
100
AcDbLine
 10
2132.726839
 20
6361.140577
 30
0.0
 11
2132.726839
 21
6241.140577
 31
0.0
  0
LINE
  5
93
330
1F
100
AcDbEntity
  8
0
  6
CENTER2
 62
    47
420
  8351551
370
     0
100
AcDbLine
 10
2192.726839
 20
6301.140577
 30
0.0
 11
2072.726839
 21
6301.140577
 31
0.0
  0
CIRCLE
  5
95
330
1F
100
AcDbEntity
  8
0
  6
HIDDEN2
 62
     7
420
 16777215
370
     0
100
AcDbCircle
 10
2132.726839
 20
6474.140577
 30
0.0
 40
17.0
  0
LINE
  5
96
330
1F
100
AcDbEntity
  8
0
  6
Continuous
 62
     6
420
 16711935
370
     0
100
AcDbLine
 10
1746.126839
 20
5991.140577
 30
0.0
 11
1746.126839
 21
6422.140577
 31
0.0
  0
LINE
  5
97
330
1F
100
AcDbEntity
  8
0
  6
Continuous
 62
     6
420
 16711935
370
     0
100
AcDbLine
 10
1752.126839
 20
6428.140577
 30
0.0
 11
2508.326839
 21
6428.140577
 31
0.0
  0
LINE
  5
98
330
1F
100
AcDbEntity
  8
0
  6
Continuous
 62
     6
420
 16711935
370
     0
100
AcDbLine
 10
2514.326839
 20
6422.140577
 30
0.0
 11
2514.326839
 21
5991.140577
 31
0.0
  0
LINE
  5
99
330
1F
100
AcDbEntity
  8
0
  6
Continuous
 62
     6
420
 16711935
370
     0
100
AcDbLine
 10
2508.326839
 20
5985.140577
 30
0.0
 11
1752.126839
 21
5985.140577
 31
0.0
  0
LINE
  5
9A
330
1F
100
AcDbEntity
  8
0
  6
Continuous
 62
     4
420
    65535
370
     0
100
AcDbLine
 10
3009.542094
 20
6886.234344
 30
0.0
 11
1205.1616
 21
6886.234344
 31
0.0
  0
LINE
  5
9B
330
1F
100
AcDbEntity
  8
0
  6
Continuous
 62
     4
420
    65535
370
     0
100
AcDbLine
 10
1205.1616
 20
6886.234344
 30
0.0
 11
1205.1616
 21
4268.41281
 31
0.0
  0
LINE
  5
9C
330
1F
100
AcDbEntity
  8
0
  6
Continuous
 62
     4
420
    65535
370
     0
100
AcDbLine
 10
1205.1616
 20
4268.41281
 30
0.0
 11
3009.542094
 21
4268.41281
 31
0.0
  0
LINE
  5
9D
330
1F
100
AcDbEntity
  8
0
  6
Continuous
 62
     4
420
    65535
370
     0
100
AcDbLine
 10
3009.542094
 20
4268.41281
 30
0.0
 11
3009.542094
 21
6886.234344
 31
0.0
  0
CIRCLE
  5
9E
330
1F
100
AcDbEntity
  8
0
  6
HIDDEN2
 62
     7
420
 16777215
370
     0
100
AcDbCircle
 10
1929.526839
 20
6474.140577
 30
0.0
 40
17.0
  0
CIRCLE
  5
9F
330
1F
100
AcDbEntity
  8
0
  6
HIDDEN2
 62
     7
420
 16777215
370
     0
100
AcDbCircle
 10
2031.126839
 20
6474.140577
 30
0.0
 40
17.0
  0
CIRCLE
  5
A0
330
1F
100
AcDbEntity
  8
0
  6
HIDDEN2
 62
     7
420
 16777215
370
     0
100
AcDbCircle
 10
2335.926839
 20
6474.140577
 30
0.0
 40
17.0
  0
CIRCLE
  5
A1
330
1F
100
AcDbEntity
  8
0
  6
HIDDEN2
 62
     7
420
 16777215
370
     0
100
AcDbCircle
 10
2234.326839
 20
6474.140577
 30
0.0
 40
17.0
  0
CIRCLE
  5
A2
330
1F
100
AcDbEntity
  8
0
  6
Continuous
 62
     1
420
 16711680
370
     0
100
AcDbCircle
 10
2132.726839
 20
6301.140577
 30
0.0
 40
47.0
  0
LINE
  5
A3
330
1F
100
AcDbEntity
  8
0
  6
Continuous
 62
     6
420
 16711935
370
     0
100
AcDbLine
 10
2085.726839
 20
5434.859206
 30
0.0
 11
2085.726839
 21
5430.859206
 31
0.0
  0
CIRCLE
  5
A4
330
1F
100
AcDbEntity
  8
0
  6
Continuous
 62
     7
420
 16777215
370
     0
100
AcDbCircle
 10
2132.726839
 20
6301.140577
 30
0.0
 40
58.5
  0
LINE
  5
A5
330
1F
100
AcDbEntity
  8
0
  6
Continuous
 62
     6
420
 16711935
370
     0
100
AcDbLine
 10
2074.226839
 20
5435.859206
 30
0.0
 11
2084.726839
 21
5435.859206
 31
0.0
  0
ARC
  5
A6
330
1F
100
AcDbEntity
  8
0
  6
Continuous
 62
     6
420
 16711935
370
     0
100
AcDbCircle
 10
2072.226839
 20
5435.859206
 30
0.0
 40
2.0
100
AcDbArc
 50
0.0
 51
90.0
  0
LINE
  5
A7
330
1F
100
AcDbEntity
  8
0
  6
Continuous
 62
     6
420
 16711935
370
     0
100
AcDbLine
 10
1780.480727
 20
5436.187297
 30
0.0
 11
2085.726839
 21
5430.859206
 31
0.0
  0
LINE
  5
A8
330
1F
100
AcDbEntity
  8
0
  6
Continuous
 62
     6
420
 16711935
370
     0
100
AcDbLine
 10
2193.226839
 20
5437.859206
 30
0.0
 11
2480.722663
 21
5442.877464
 31
0.0
  0
LINE
  5
A9
330
1F
100
AcDbEntity
  8
0
  6
Continuous
 62
     6
420
 16711935
370
     0
100
AcDbLine
 10
2179.726839
 20
5434.859206
 30
0.0
 11
2179.726839
 21
5430.859206
 31
0.0
  0
LINE
  5
AA
330
1F
100
AcDbEntity
  8
0
  6
Continuous
 62
     6
420
 16711935
370
     0
100
AcDbLine
 10
2191.226839
 20
5435.859206
 30
0.0
 11
2180.726839
 21
5435.859206
 31
0.0
  0
ARC
  5
AB
330
1F
100
AcDbEntity
  8
0
  6
Continuous
 62
     6
420
 16711935
370
     0
100
AcDbCircle
 10
2193.226839
 20
5435.859206
 30
0.0
 40
2.0
100
AcDbArc
 50
90.0
 51
180.0
  0
LINE
  5
AC
330
1F
100
AcDbEntity
  8
0
  6
Continuous
 62
     6
420
 16711935
370
     0
100
AcDbLine
 10
2479.965304
 20
5436.099888
 30
0.0
 11
2179.726839
 21
5430.859206
 31
0.0
  0
LINE
  5
AD
330
1F
100
AcDbEntity
  8
0
  6
Continuous
 62
     7
420
 16777215
370
     0
100
AcDbLine
 10
2072.226839
 20
5437.859206
 30
0.0
 11
2193.226839
 21
5437.859206
 31
0.0
  0
LINE
  5
AE
330
1F
100
AcDbEntity
  8
0
  6
Continuous
 62
     7
420
 16777215
370
     0
100
AcDbLine
 10
2085.726839
 20
5430.859206
 30
0.0
 11
2179.726839
 21
5430.859206
 31
0.0
  0
LINE
  5
AF
330
1F
100
AcDbEntity
  8
0
  6
Continuous
 62
     7
420
 16777215
370
     0
100
AcDbLine
 10
2083.726839
 20
5435.859206
 30
0.0
 11
2181.726839
 21
5435.859206
 31
0.0
  0
ARC
  5
B0
330
1F
100
AcDbEntity
  8
0
  6
Continuous
 62
     6
420
 16711935
370
     0
100
AcDbCircle
 10
2084.726839
 20
5434.859206
 30
0.0
 40
1.0
100
AcDbArc
 50
0.0
 51
90.0
  0
ARC
  5
B1
330
1F
100
AcDbEntity
  8
0
  6
Continuous
 62
     6
420
 16711935
370
     0
100
AcDbCircle
 10
2180.726839
 20
5434.859206
 30
0.0
 40
1.0
100
AcDbArc
 50
90.0
 51
180.0
  0
MTEXT
  5
D4
330
1F
100
AcDbEntity
  8
0
  6
Continuous
 62
     7
420
 16777215
370
     0
100
AcDbMText
 10
1759.2146
 20
7631.078125
 30
0.0
 40
162.0
 41
0.0
 46
0.0
 71
     1
 72
     1
  1
{\fArial|b0|i0;33"x22"}
  7
ANSI
 73
     2
 44
0.99598
  0
MTEXT
  5
D5
330
1F
100
AcDbEntity
  8
0
  6
Continuous
 62
     7
420
 16777215
370
     0
100
AcDbMText
 10
1483.310059
 20
7956.765137
 30
0.0
 40
162.0
 41
0.0
 46
0.0
 71
     1
 72
     1
  1
{\fArial|b0|i0;Quote in inch}
  7
ANSI
 73
     2
 44
0.99598
  0
ARC
  5
D6
330
1F
100
AcDbEntity
  8
0
  6
Continuous
 62
     6
420
 16711935
370
     0
100
AcDbCircle
 10
1717.126839
 20
6503.140577
 30
0.0
 40
6.0
100
AcDbArc
 50
90.0
 51
180.0
  0
ARC
  5
D7
330
1F
100
AcDbEntity
  8
0
  6
Continuous
 62
     6
420
 16711935
370
     0
100
AcDbCircle
 10
2543.326839
 20
6503.140577
 30
0.0
 40
6.0
100
AcDbArc
 50
0.0
 51
90.0
  0
ARC
  5
D8
330
1F
100
AcDbEntity
  8
0
  6
Continuous
 62
     6
420
 16711935
370
     0
100
AcDbCircle
 10
2543.326839
 20
5956.140577
 30
0.0
 40
6.0
100
AcDbArc
 50
270.0
 51
0.0
  0
ARC
  5
D9
330
1F
100
AcDbEntity
  8
0
  6
Continuous
 62
     6
420
 16711935
370
     0
100
AcDbCircle
 10
1717.126839
 20
5956.140577
 30
0.0
 40
6.0
100
AcDbArc
 50
180.0
 51
270.0
  0
ARC
  5
DA
330
1F
100
AcDbEntity
  8
0
  6
Continuous
 62
     6
420
 16711935
370
     0
100
AcDbCircle
 10
1752.126839
 20
6422.140577
 30
0.0
 40
6.0
100
AcDbArc
 50
90.0
 51
180.0
  0
ARC
  5
DB
330
1F
100
AcDbEntity
  8
0
  6
Continuous
 62
     6
420
 16711935
370
     0
100
AcDbCircle
 10
2508.326839
 20
6422.140577
 30
0.0
 40
6.0
100
AcDbArc
 50
0.0
 51
90.0
  0
ARC
  5
DC
330
1F
100
AcDbEntity
  8
0
  6
Continuous
 62
     6
420
 16711935
370
     0
100
AcDbCircle
 10
2508.326839
 20
5991.140577
 30
0.0
 40
6.0
100
AcDbArc
 50
270.0
 51
0.0
  0
ARC
  5
DD
330
1F
100
AcDbEntity
  8
0
  6
Continuous
 62
     6
420
 16711935
370
     0
100
AcDbCircle
 10
1752.126839
 20
5991.140577
 30
0.0
 40
6.0
100
AcDbArc
 50
180.0
 51
270.0
  0
ARC
  5
DE
330
1F
100
AcDbEntity
  8
0
  6
Continuous
 62
     6
420
 16711935
370
     0
100
AcDbCircle
 10
2519.824826
 20
5666.859196
 30
0.0
 40
6.0
100
AcDbArc
 50
90.0
 51
175.0
  0
ARC
  5
DF
330
1F
100
AcDbEntity
  8
0
  6
Continuous
 62
     6
420
 16711935
370
     0
100
AcDbCircle
 10
2544.326839
 20
5667.859196
 30
0.0
 40
5.0
100
AcDbArc
 50
0.0
 51
90.0
  0
ARC
  5
E0
330
1F
100
AcDbEntity
  8
0
  6
Continuous
 62
     6
420
 16711935
370
     0
100
AcDbCircle
 10
2524.406482
 20
5661.859196
 30
0.0
 40
4.0
100
AcDbArc
 50
90.0
 51
175.0
  0
ARC
  5
E1
330
1F
100
AcDbEntity
  8
0
  6
Continuous
 62
     6
420
 16711935
370
     0
100
AcDbCircle
 10
1736.047196
 20
5661.859206
 30
0.0
 40
4.0
100
AcDbArc
 50
5.0
 51
90.0
  0
ARC
  5
E2
330
1F
100
AcDbEntity
  8
0
  6
Continuous
 62
     6
420
 16711935
370
     0
100
AcDbCircle
 10
1740.628852
 20
5666.859206
 30
0.0
 40
6.0
100
AcDbArc
 50
5.0
 51
90.0
  0
ARC
  5
E3
330
1F
100
AcDbEntity
  8
0
  6
Continuous
 62
     6
420
 16711935
370
     0
100
AcDbCircle
 10
1716.126839
 20
5667.859206
 30
0.0
 40
5.0
100
AcDbArc
 50
90.0
 51
180.0
  0
ARC
  5
E4
330
1F
100
AcDbEntity
  8
0
  6
Continuous
 62
     6
420
 16711935
370
     0
100
AcDbCircle
 10
1779.985155
 20
5457.962588
 30
0.0
 40
15.0
100
AcDbArc
 50
185.0
 51
269.0
  0
ARC
  5
E5
330
1F
100
AcDbEntity
  8
0
  6
Continuous
 62
     6
420
 16711935
370
     0
100
AcDbCircle
 10
1780.882133
 20
5459.183794
 30
0.0
 40
23.0
100
AcDbArc
 50
185.0
 51
269.0
  0
ARC
  5
E6
330
1F
100
AcDbEntity
  8
0
  6
Continuous
 62
     6
420
 16711935
370
     0
100
AcDbCircle
 10
2480.460877
 20
5457.87518
 30
0.0
 40
15.0
100
AcDbArc
 50
271.0
 51
355.0
  0
ARC
  5
E7
330
1F
100
AcDbEntity
  8
0
  6
Continuous
 62
     6
420
 16711935
370
     0
100
AcDbCircle
 10
2479.563899
 20
5459.096385
 30
0.0
 40
23.0
100
AcDbArc
 50
271.0
 51
355.0
  0
ARC
  5
E8
330
1F
100
AcDbEntity
  8
0
  6
Continuous
 62
     7
420
 16777215
370
     0
100
AcDbCircle
 10
1803.090886
 20
6371.180577
 30
0.0
 40
15.0
100
AcDbArc
 50
90.0
 51
180.0
  0
LINE
  5
E9
330
1F
100
AcDbEntity
  8
0
  6
Continuous
 62
     7
420
 16777215
370
     0
100
AcDbLine
 10
1803.090886
 20
6386.180577
 30
0.0
 11
2457.362687
 21
6386.180577
 31
0.0
  0
LINE
  5
EA
330
1F
100
AcDbEntity
  8
0
  6
Continuous
 62
     7
420
 16777215
370
     0
100
AcDbLine
 10
1788.090886
 20
6371.180577
 30
0.0
 11
1788.090886
 21
6042.300577
 31
0.0
  0
ARC
  5
EB
330
1F
100
AcDbEntity
  8
0
  6
Continuous
 62
     7
420
 16777215
370
     0
100
AcDbCircle
 10
1803.090886
 20
6042.300577
 30
0.0
 40
15.0
100
AcDbArc
 50
180.0
 51
270.0
  0
LINE
  5
EC
330
1F
100
AcDbEntity
  8
0
  6
Continuous
 62
     7
420
 16777215
370
     0
100
AcDbLine
 10
2457.362687
 20
6027.300577
 30
0.0
 11
1803.090886
 21
6027.300577
 31
0.0
  0
ARC
  5
ED
330
1F
100
AcDbEntity
  8
0
  6
Continuous
 62
     7
420
 16777215
370
     0
100
AcDbCircle
 10
2457.362687
 20
6042.300577
 30
0.0
 40
15.0
100
AcDbArc
 50
270.0
 51
0.0
  0
LINE
  5
EE
330
1F
100
AcDbEntity
  8
0
  6
Continuous
 62
     7
420
 16777215
370
     0
100
AcDbLine
 10
2472.362687
 20
6371.180577
 30
0.0
 11
2472.362687
 21
6042.300577
 31
0.0
  0
ARC
  5
EF
330
1F
100
AcDbEntity
  8
0
  6
Continuous
 62
     7
420
 16777215
370
     0
100
AcDbCircle
 10
2457.362687
 20
6371.180577
 30
0.0
 40
15.0
100
AcDbArc
 50
0.0
 51
90.0
  0
LINE
  5
F0
330
1F
100
AcDbEntity
  8
0
  6
Continuous
 62
     7
420
 16777215
370
     0
100
AcDbLine
 10
1803.626839
 20
6464.140577
 30
0.0
 11
1803.626839
 21
6473.140577
 31
0.0
  0
LINE
  5
F1
330
1F
100
AcDbEntity
  8
0
  6
Continuous
 62
     7
420
 16777215
370
     0
100
AcDbLine
 10
1764.126839
 20
6473.140577
 30
0.0
 11
1764.126839
 21
6464.140577
 31
0.0
  0
LINE
  5
F2
330
1F
100
AcDbEntity
  8
0
  6
Continuous
 62
     7
420
 16777215
370
     0
100
AcDbLine
 10
1803.626839
 20
6473.140577
 30
0.0
 11
1764.126839
 21
6473.140577
 31
0.0
  0
LINE
  5
F3
330
1F
100
AcDbEntity
  8
0
  6
Continuous
 62
     7
420
 16777215
370
     0
100
AcDbLine
 10
1764.126839
 20
6464.140577
 30
0.0
 11
1803.626839
 21
6464.140577
 31
0.0
  0
MTEXT
  5
F4
330
1F
100
AcDbEntity
  8
0
  6
Continuous
 62
     7
420
 16777215
370
     0
100
AcDbMText
 10
2460.793701
 20
7127.881836
 30
0.0
 40
104.999992
 41
0.0
 46
0.0
 71
     3
 72
     1
  1
{\fArial|b0|i0;ONE 8410}
  7
ANSI
 73
     2
 44
0.99598
  0
LINE
  5
F5
330
1F
100
AcDbEntity
  8
0
  6
Continuous
 62
     6
420
 16711935
370
     0
100
AcDbLine
 10
1731.126839
 20
5046.261985
 30
0.0
 11
2531.126839
 21
5046.261985
 31
0.0
  0
LINE
  5
F6
330
1F
100
AcDbEntity
  8
0
  6
Continuous
 62
     6
420
 16711935
370
     0
100
AcDbLine
 10
2541.126839
 20
5036.261985
 30
0.0
 11
2541.126839
 21
4516.261985
 31
0.0
  0
LINE
  5
F7
330
1F
100
AcDbEntity
  8
0
  6
Continuous
 62
     6
420
 16711935
370
     0
100
AcDbLine
 10
2531.126839
 20
4506.261985
 30
0.0
 11
1731.126839
 21
4506.261985
 31
0.0
  0
LINE
  5
F8
330
1F
100
AcDbEntity
  8
0
  6
Continuous
 62
     6
420
 16711935
370
     0
100
AcDbLine
 10
1721.126839
 20
4516.261985
 30
0.0
 11
1721.126839
 21
5036.261985
 31
0.0
  0
ARC
  5
F9
330
1F
100
AcDbEntity
  8
0
  6
Continuous
 62
     6
420
 16711935
370
     0
100
AcDbCircle
 10
1731.126839
 20
5036.261985
 30
0.0
 40
10.0
100
AcDbArc
 50
90.0
 51
180.0
  0
ARC
  5
FA
330
1F
100
AcDbEntity
  8
0
  6
Continuous
 62
     6
420
 16711935
370
     0
100
AcDbCircle
 10
2531.126839
 20
5036.261985
 30
0.0
 40
10.0
100
AcDbArc
 50
0.0
 51
90.0
  0
ARC
  5
FB
330
1F
100
AcDbEntity
  8
0
  6
Continuous
 62
     6
420
 16711935
370
     0
100
AcDbCircle
 10
2531.126839
 20
4516.261985
 30
0.0
 40
10.0
100
AcDbArc
 50
270.0
 51
0.0
  0
ARC
  5
FC
330
1F
100
AcDbEntity
  8
0
  6
Continuous
 62
     6
420
 16711935
370
     0
100
AcDbCircle
 10
1731.126839
 20
4516.261985
 30
0.0
 40
10.0
100
AcDbArc
 50
180.0
 51
270.0
  0
MTEXT
  5
FD
330
1F
100
AcDbEntity
  8
0
  6
Continuous
 62
     7
420
 16777215
370
     0
100
AcDbMText
 10
2388.959961
 20
4792.297363
 30
0.0
 40
52.799999
 41
0.0
 46
0.0
 71
     3
 72
     1
  1
{\fArial|b0|i0;Countertop Hole}
  7
ANSI
 73
     2
 44
0.99598
  0
INSERT
  5
108
330
1F
100
AcDbEntity
  8
0
  6
Continuous
 62
     7
420
 16777215
370
     0
100
AcDbBlockReference
  2
.TD_DIMENSION_1
 10
6663.353516
 20
19735.67578
 30
0.0
  0
INSERT
  5
113
330
1F
100
AcDbEntity
  8
0
  6
Continuous
 62
     7
420
 16777215
370
     0
100
AcDbBlockReference
  2
.TD_DIMENSION_2
 10
6599.894532
 20
17799.765624
 30
0.0
  0
INSERT
  5
11D
330
1F
100
AcDbEntity
  8
0
  6
Continuous
 62
     7
420
 16777215
370
     0
100
AcDbBlockReference
  2
.TD_DIMENSION_3
 10
4779.342286
 20
8875.404296
 30
0.0
  0
INSERT
  5
127
330
1F
100
AcDbEntity
  8
0
  6
Continuous
 62
     7
420
 16777215
370
     0
100
AcDbBlockReference
  2
.TD_DIMENSION_4
 10
4778.162598
 20
9852.21289
 30
0.0
  0
DIMENSION
  5
128
330
1F
100
AcDbEntity
  8
0
  6
Continuous
 62
     7
420
 16777215
370
     0
100
AcDbDimension
280
     0
  2
*D6
 10
2587.471838
 20
5223.141599
 30
0.0
 11
2353.271973
 21
5223.141602
 31
0.0
 70
   161
  1
\fArial|b0|i0|c0|p0;{\fArial|b0|i0;CABINET 36"}
 71
     5
 42
914.4
 73
     0
 74
     0
 75
     0
  3
ISO-25
100
AcDbAlignedDimension
 13
1673.071839
 23
5355.859196
 33
0.0
 14
2587.471839
 24
5355.859186
 34
0.0
1001
ACAD
1000
DSTYLE
1002
{
1070
   279
1070
     0
1070
    41
1040
35.0
1070
   342
1005
5A
1070
   176
1070
     7
1070
   177
1070
     7
1070
   178
1070
     2
1070
   278
1070
    46
1070
    44
1040
20.0
1070
    42
1040
50.0
1070
   147
1040
25.0
1070
   272
1070
     3
1070
   146
1040
0.4
1070
   140
1040
50.0
1002
}
  0
DIMENSION
  5
135
330
1F
100
AcDbEntity
  8
0
  6
Continuous
 62
     7
420
 16777215
370
     0
100
AcDbDimension
280
     0
  2
*D7
 10
2549.326839
 20
6640.500488
 30
0.0
 11
2021.226807
 21
6640.500488
 31
0.0
 70
   161
  1
\fArial|b0|i0|c0|p0;{\fArial|b0|i0;33"}
 71
     5
 42
838.2
 73
     0
 74
     0
 75
     0
  3
ISO-25
100
AcDbAlignedDimension
 13
1711.126839
 23
6503.140577
 33
0.0
 14
2549.326839
 24
6503.140577
 34
0.0
1001
ACAD
1000
DSTYLE
1002
{
1070
   279
1070
     0
1070
    41
1040
35.0
1070
   342
1005
5A
1070
   176
1070
     7
1070
   177
1070
     7
1070
   178
1070
     2
1070
   278
1070
    46
1070
    44
1040
20.0
1070
    42
1040
50.0
1070
   147
1040
25.0
1070
   272
1070
     3
1070
   146
1040
0.4
1070
   140
1040
50.0
1002
}
  0
DIMENSION
  5
142
330
1F
100
AcDbEntity
  8
0
  6
Continuous
 62
     7
420
 16777215
370
     0
100
AcDbDimension
280
     0
  2
*D8
 10
2718.962891
 20
5950.140577
 30
0.0
 11
2668.862891
 21
6229.640577
 31
0.0
 70
    33
  1
\fArial|b0|i0|c0|p0;{\fArial|b0|i0;22"}
 71
     5
 42
559.0
 73
     0
 74
     0
 75
     0
  3
ISO-25
100
AcDbAlignedDimension
 13
2544.326839
 23
6509.140577
 33
0.0
 14
2544.326839
 24
5950.140577
 34
0.0
1001
ACAD
1000
DSTYLE
1002
{
1070
   280
1070
     0
1070
   344
1005
0
1070
   343
1005
0
1070
    76
1070
     0
1070
    75
1070
     0
1070
    41
1040
35.0
1070
   342
1005
5A
1070
   176
1070
     7
1070
   177
1070
     7
1070
   178
1070
     2
1070
   278
1070
    46
1070
    44
1040
20.0
1070
    42
1040
75.0
1070
   147
1040
25.0
1070
   272
1070
     3
1070
   146
1040
0.4
1070
   140
1040
50.0
1002
}
  0
DIMENSION
  5
14F
330
1F
100
AcDbEntity
  8
0
  6
Continuous
 62
     7
420
 16777215
370
     0
100
AcDbDimension
280
     0
  2
*D9
 10
2234.326839
 20
6545.163574
 30
0.0
 11
2183.526839
 21
6575.163574
 31
0.0
 70
    33
  1
\fArial|b0|i0|c0|p0;{\fArial|b0|i0;4"}
 71
     5
 42
101.6
 73
     0
 74
     0
 75
     0
  3
ISO-25
100
AcDbAlignedDimension
 13
2132.726839
 23
6474.140577
 33
0.0
 14
2234.326839
 24
6474.140577
 34
0.0
1001
ACAD
1000
DSTYLE
1002
{
1070
    41
1040
21.0
1070
   342
1005
5A
1070
   176
1070
     7
1070
   177
1070
     7
1070
   178
1070
     2
1070
   278
1070
    46
1070
    44
1040
12.0
1070
    42
1040
45.0
1070
   147
1040
15.0
1070
   272
1070
     3
1070
   146
1040
0.4
1070
   140
1040
30.0
1002
}
  0
DIMENSION
  5
15C
330
1F
100
AcDbEntity
  8
0
  6
Continuous
 62
     7
420
 16777215
370
     0
100
AcDbDimension
280
     0
  2
*D10
 10
2335.926839
 20
6545.163574
 30
0.0
 11
2285.126839
 21
6575.163574
 31
0.0
 70
    33
  1
\fArial|b0|i0|c0|p0;{\fArial|b0|i0;4"}
 71
     5
 42
101.6
 73
     0
 74
     0
 75
     0
  3
ISO-25
100
AcDbAlignedDimension
 13
2234.326839
 23
6474.140577
 33
0.0
 14
2335.926839
 24
6474.140577
 34
0.0
1001
ACAD
1000
DSTYLE
1002
{
1070
    41
1040
21.0
1070
   342
1005
5A
1070
   176
1070
     7
1070
   177
1070
     7
1070
   178
1070
     2
1070
   278
1070
    46
1070
    44
1040
12.0
1070
    42
1040
45.0
1070
   147
1040
15.0
1070
   272
1070
     3
1070
   146
1040
0.4
1070
   140
1040
30.0
1002
}
  0
DIMENSION
  5
169
330
1F
100
AcDbEntity
  8
0
  6
Continuous
 62
     7
420
 16777215
370
     0
100
AcDbDimension
280
     0
  2
*D11
 10
2031.126839
 20
6545.163574
 30
0.0
 11
2081.926839
 21
6575.163574
 31
0.0
 70
    33
  1
\fArial|b0|i0|c0|p0;{\fArial|b0|i0;4"}
 71
     5
 42
101.6
 73
     0
 74
     0
 75
     0
  3
ISO-25
100
AcDbAlignedDimension
 13
2132.726839
 23
6474.140577
 33
0.0
 14
2031.126839
 24
6474.140577
 34
0.0
1001
ACAD
1000
DSTYLE
1002
{
1070
   280
1070
     0
1070
   344
1005
0
1070
   343
1005
0
1070
    76
1070
     0
1070
    75
1070
     0
1070
    41
1040
21.0
1070
   342
1005
5A
1070
   176
1070
     7
1070
   177
1070
     7
1070
   178
1070
     2
1070
   278
1070
    46
1070
    44
1040
12.0
1070
    42
1040
45.0
1070
   147
1040
15.0
1070
   272
1070
     3
1070
   146
1040
0.4
1070
   140
1040
30.0
1002
}
  0
DIMENSION
  5
176
330
1F
100
AcDbEntity
  8
0
  6
Continuous
 62
     7
420
 16777215
370
     0
100
AcDbDimension
280
     0
  2
*D12
 10
1929.526839
 20
6545.163574
 30
0.0
 11
1980.326839
 21
6575.163574
 31
0.0
 70
    33
  1
\fArial|b0|i0|c0|p0;{\fArial|b0|i0;4"}
 71
     5
 42
101.6
 73
     0
 74
     0
 75
     0
  3
ISO-25
100
AcDbAlignedDimension
 13
2031.126839
 23
6474.140577
 33
0.0
 14
1929.526839
 24
6474.140577
 34
0.0
1001
ACAD
1000
DSTYLE
1002
{
1070
   280
1070
     0
1070
   344
1005
0
1070
   343
1005
0
1070
    76
1070
     0
1070
    75
1070
     0
1070
    41
1040
21.0
1070
   342
1005
5A
1070
   176
1070
     7
1070
   177
1070
     7
1070
   178
1070
     2
1070
   278
1070
    46
1070
    44
1040
12.0
1070
    42
1040
45.0
1070
   147
1040
15.0
1070
   272
1070
     3
1070
   146
1040
0.4
1070
   140
1040
30.0
1002
}
  0
DIMENSION
  5
183
330
1F
100
AcDbEntity
  8
0
  6
Continuous
 62
     7
420
 16777215
370
     0
100
AcDbDimension
280
     0
  2
*D13
 10
1539.162109
 20
6509.140577
 30
0.0
 11
1539.162109
 21
6925.915527
 31
0.0
 70
   160
  1
\fArial|b0|i0|c0|p0;{\fArial|b0|i0;3 3/16"}
 71
     5
 42
81.0
 73
     0
 74
     0
 75
     0
  3
ISO-25
100
AcDbAlignedDimension
 13
1752.126839
 23
6428.140577
 33
0.0
 14
1717.126839
 24
6509.140577
 34
0.0
 50
90.0
100
AcDbRotatedDimension
1001
ACAD
1000
DSTYLE
1002
{
1070
   279
1070
     0
1070
    41
1040
35.0
1070
   342
1005
5A
1070
   176
1070
     7
1070
   177
1070
     7
1070
   178
1070
     2
1070
   278
1070
    46
1070
    44
1040
20.0
1070
    42
1040
75.0
1070
   147
1040
25.0
1070
   272
1070
     3
1070
   146
1040
0.4
1070
   140
1040
50.0
1002
}
  0
DIMENSION
  5
193
330
1F
100
AcDbEntity
  8
0
  6
Continuous
 62
     7
420
 16777215
370
     0
100
AcDbDimension
280
     0
  2
*D14
 10
1539.163208
 20
5985.140577
 30
0.0
 11
1488.338208
 21
6206.640577
 31
0.0
 70
    33
  1
\fArial|b0|i0|c0|p0;{\fArial|b0|i0;17  7/16"}
 71
     5
 42
443.0
 73
     0
 74
     0
 75
     0
  3
ISO-25
100
AcDbAlignedDimension
 13
1752.126839
 23
6428.140577
 33
0.0
 14
1752.126839
 24
5985.140577
 34
0.0
1001
ACAD
1000
DSTYLE
1002
{
1070
   280
1070
     0
1070
   344
1005
0
1070
   343
1005
0
1070
    76
1070
     0
1070
    75
1070
     0
1070
    41
1040
35.0
1070
   342
1005
5A
1070
   176
1070
     7
1070
   177
1070
     7
1070
   178
1070
     2
1070
   278
1070
    46
1070
    44
1040
20.0
1070
    42
1040
75.0
1070
   147
1040
25.0
1070
   272
1070
     3
1070
   146
1040
0.4
1070
   140
1040
50.0
1002
}
  0
DIMENSION
  5
1A0
330
1F
100
AcDbEntity
  8
0
  6
Continuous
 62
     7
420
 16777215
370
     0
100
AcDbDimension
280
     0
  2
*D15
 10
1539.162109
 20
5950.140577
 30
0.0
 11
1539.162109
 21
5777.940577
 31
0.0
 70
   160
  1
\fArial|b0|i0|c0|p0;{\fArial|b0|i0;9/64"}
 71
     5
 42
35.0
 73
     0
 74
     0
 75
     0
  3
ISO-25
100
AcDbAlignedDimension
 13
1752.126839
 23
5985.140577
 33
0.0
 14
1717.126839
 24
5950.140577
 34
0.0
 50
90.0
100
AcDbRotatedDimension
1001
ACAD
1000
DSTYLE
1002
{
1070
   280
1070
     0
1070
   344
1005
0
1070
   343
1005
0
1070
    76
1070
     0
1070
    75
1070
     0
1070
   279
1070
     0
1070
    41
1040
35.0
1070
   342
1005
5A
1070
   176
1070
     7
1070
   177
1070
     7
1070
   178
1070
     2
1070
   278
1070
    46
1070
    44
1040
20.0
1070
    42
1040
75.0
1070
   147
1040
25.0
1070
   272
1070
     3
1070
   146
1040
0.4
1070
   140
1040
50.0
1002
}
  0
DIMENSION
  5
1B0
330
1F
100
AcDbEntity
  8
0
  6
Continuous
 62
     7
420
 16777215
370
     0
100
AcDbDimension
280
     0
  2
*D16
 10
2514.326839
 20
5821.368652
 30
0.0
 11
2130.226839
 21
5872.193652
 31
0.0
 70
    33
  1
\fArial|b0|i0|c0|p0;{\fArial|b0|i0;30 1/4"}
 71
     5
 42
768.2
 73
     0
 74
     0
 75
     0
  3
ISO-25
100
AcDbAlignedDimension
 13
1746.126839
 23
5990.140577
 33
0.0
 14
2514.326839
 24
5990.140577
 34
0.0
1001
ACAD
1000
DSTYLE
1002
{
1070
    41
1040
35.0
1070
   342
1005
5A
1070
   176
1070
     7
1070
   177
1070
     7
1070
   178
1070
     2
1070
   278
1070
    46
1070
    44
1040
20.0
1070
    42
1040
75.0
1070
   147
1040
25.0
1070
   272
1070
     3
1070
   146
1040
0.4
1070
   140
1040
50.0
1002
}
  0
DIMENSION
  5
1BD
330
1F
100
AcDbEntity
  8
0
  6
Continuous
 62
     7
420
 16777215
370
     0
100
AcDbDimension
280
     0
  2
*D17
 10
2103.169922
 20
5672.859206
 30
0.0
 11
2057.427422
 21
5553.009206
 31
0.0
 70
    33
  1
\fArial|b0|i0|c0|p0;{\fArial|b0|i0;9 7/16"}
 71
     5
 42
239.7
 73
     0
 74
     0
 75
     0
  3
ISO-25
100
AcDbAlignedDimension
 13
2112.730043
 23
5433.159206
 33
0.0
 14
2112.730043
 24
5672.859206
 34
0.0
1001
ACAD
1000
DSTYLE
1002
{
1070
    41
1040
31.499998
1070
   342
1005
5A
1070
   176
1070
     7
1070
   177
1070
     7
1070
   178
1070
     2
1070
   278
1070
    46
1070
    44
1040
18.0
1070
    42
1040
67.5
1070
   147
1040
22.5
1070
   272
1070
     3
1070
   146
1040
0.4
1070
   140
1040
45.0
1002
}
  0
DIMENSION
  5
1CA
330
1F
100
AcDbEntity
  8
0
  6
Continuous
 62
     7
420
 16777215
370
     0
100
AcDbDimension
280
     0
  2
*D18
 10
2541.126839
 20
4373.512207
 30
0.0
 11
2131.126839
 21
4424.337207
 31
0.0
 70
    33
  1
\fArial|b0|i0|c0|p0;{\fArial|b0|i0;32 1/4"}
 71
     5
 42
820.0
 73
     0
 74
     0
 75
     0
  3
ISO-25
100
AcDbAlignedDimension
 13
1721.126839
 23
4516.261985
 33
0.0
 14
2541.126839
 24
4516.261985
 34
0.0
1001
ACAD
1000
DSTYLE
1002
{
1070
    41
1040
35.0
1070
   342
1005
5A
1070
   176
1070
     7
1070
   177
1070
     7
1070
   178
1070
     2
1070
   278
1070
    46
1070
    44
1040
20.0
1070
    42
1040
75.0
1070
   147
1040
25.0
1070
   272
1070
     3
1070
   146
1040
0.4
1070
   140
1040
50.0
1002
}
  0
DIMENSION
  5
1D7
330
1F
100
AcDbEntity
  8
0
  6
Continuous
 62
     7
420
 16777215
370
     0
100
AcDbDimension
280
     0
  2
*D19
 10
2702.131104
 20
5046.261985
 30
0.0
 11
2651.306104
 21
4776.261985
 31
0.0
 70
    33
  1
\fArial|b0|i0|c0|p0;{\fArial|b0|i0;21 1/4"}
 71
     5
 42
540.0
 73
     0
 74
     0
 75
     0
  3
ISO-25
100
AcDbAlignedDimension
 13
2531.126839
 23
4506.261985
 33
0.0
 14
2531.126839
 24
5046.261985
 34
0.0
1001
ACAD
1000
DSTYLE
1002
{
1070
    41
1040
35.0
1070
   342
1005
5A
1070
   176
1070
     7
1070
   177
1070
     7
1070
   178
1070
     2
1070
   278
1070
    46
1070
    44
1040
20.0
1070
    42
1040
75.0
1070
   147
1040
25.0
1070
   272
1070
     3
1070
   146
1040
0.4
1070
   140
1040
50.0
1002
}
  0
ENDSEC
  0
SECTION
  2
OBJECTS
  0
DICTIONARY
  5
C
330
0
100
AcDbDictionary
281
     1
  3
ACAD_GROUP
350
D
  3
ACAD_LAYOUT
350
1A
  3
ACAD_MATERIAL
350
3B
  3
ACAD_MLEADERSTYLE
350
1E7
  3
ACAD_MLINESTYLE
350
17
  3
ACAD_PLOTSETTINGS
350
19
  3
ACAD_PLOTSTYLENAME
350
E
  3
ACAD_SCALELIST
350
B2
  3
ACAD_TABLESTYLE
350
1E6
  3
ACAD_VISUALSTYLE
350
2A
  3
AcDbVariableDictionary
350
1E4
  0
DICTIONARY
  5
D
102
{ACAD_REACTORS
330
C
102
}
330
C
100
AcDbDictionary
281
     1
  0
DICTIONARY
  5
1A
102
{ACAD_REACTORS
330
C
102
}
330
C
100
AcDbDictionary
281
     1
  3
Layout1
350
1E
  3
Layout2
350
26
  3
Model
350
22
  0
DICTIONARY
  5
3B
102
{ACAD_REACTORS
330
C
102
}
330
C
100
AcDbDictionary
281
     1
  3
ByBlock
350
3D
  3
ByLayer
350
3C
  3
Global
350
3E
  0
DICTIONARY
  5
1E7
102
{ACAD_REACTORS
330
C
102
}
330
C
100
AcDbDictionary
281
     1
  0
DICTIONARY
  5
17
102
{ACAD_REACTORS
330
C
102
}
330
C
100
AcDbDictionary
281
     1
  3
Standard
350
18
  0
DICTIONARY
  5
19
102
{ACAD_REACTORS
330
C
102
}
330
C
100
AcDbDictionary
281
     1
  0
ACDBDICTIONARYWDFLT
  5
E
102
{ACAD_REACTORS
330
C
102
}
330
C
100
AcDbDictionary
281
     1
  3
Normal
350
F
100
AcDbDictionaryWithDefault
340
F
  0
DICTIONARY
  5
B2
102
{ACAD_REACTORS
330
C
102
}
330
C
100
AcDbDictionary
281
     1
  3
A0
350
B3
  3
A1
350
B4
  3
A2
350
B5
  3
A3
350
B6
  3
A4
350
B7
  3
A5
350
B8
  3
A6
350
B9
  3
A7
350
BA
  3
A8
350
BB
  3
A9
350
BC
  3
B0
350
BD
  3
B1
350
BE
  3
B2
350
BF
  3
B3
350
C0
  3
B4
350
C1
  3
B5
350
C2
  3
B6
350
C3
  3
B7
350
C4
  3
B8
350
C5
  3
B9
350
C6
  3
C0
350
C7
  3
C1
350
C8
  3
C2
350
C9
  3
C3
350
CA
  3
C4
350
CB
  3
C5
350
CC
  3
C6
350
CD
  3
C7
350
CE
  3
C8
350
CF
  3
C9
350
D0
  3
D0
350
D1
  3
D1
350
D2
  3
D2
350
D3
  0
DICTIONARY
  5
1E6
102
{ACAD_REACTORS
330
C
102
}
330
C
100
AcDbDictionary
281
     1
  0
DICTIONARY
  5
2A
102
{ACAD_REACTORS
330
C
102
}
330
C
100
AcDbDictionary
281
     1
  3
2dWireframe
350
2F
  3
3D Hidden
350
31
  3
3dWireframe
350
30
  3
Basic
350
32
  3
Brighten
350
36
  3
ColorChange
350
3A
  3
Conceptual
350
34
  3
Dim
350
35
  3
Facepattern
350
39
  3
Flat
350
2B
  3
FlatWithEdges
350
2C
  3
Gouraud
350
2D
  3
GouraudWithEdges
350
2E
  3
Linepattern
350
38
  3
Realistic
350
33
  3
Thicken
350
37
  0
DICTIONARY
  5
1E4
102
{ACAD_REACTORS
330
C
102
}
330
C
100
AcDbDictionary
281
     1
  3
CANNOSCALE
350
1E5
  0
LAYOUT
  5
1E
102
{ACAD_REACTORS
330
1A
102
}
330
1A
100
AcDbPlotSettings
  1

  2
none_device
  4

  6

 40
0.0
 41
0.0
 42
0.0
 43
0.0
 44
0.0
 45
0.0
 46
0.0
 47
0.0
 48
0.0
 49
0.0
140
0.0
141
0.0
142
1.0
143
1.0
 70
   688
 72
     0
 73
     0
 74
     5
  7

 75
    16
 76
     0
 77
     2
 78
   300
147
1.0
148
0.0
149
0.0
100
AcDbLayout
  1
Layout1
 70
     1
 71
     1
 10
0.0
 20
0.0
 11
420.0
 21
297.0
 12
0.0
 22
0.0
 32
0.0
 14
1.000000E+20
 24
1.000000E+20
 34
1.000000E+20
 15
-1.000000E+20
 25
-1.000000E+20
 35
-1.000000E+20
146
0.0
 13
0.0
 23
0.0
 33
0.0
 16
1.0
 26
0.0
 36
0.0
 17
0.0
 27
1.0
 37
0.0
 76
     0
330
1B
  0
LAYOUT
  5
26
102
{ACAD_REACTORS
330
1A
102
}
330
1A
100
AcDbPlotSettings
  1

  2
none_device
  4

  6

 40
0.0
 41
0.0
 42
0.0
 43
0.0
 44
0.0
 45
0.0
 46
0.0
 47
0.0
 48
0.0
 49
0.0
140
0.0
141
0.0
142
1.0
143
1.0
 70
   688
 72
     0
 73
     0
 74
     5
  7

 75
    16
 76
     0
 77
     2
 78
   300
147
1.0
148
0.0
149
0.0
100
AcDbLayout
  1
Layout2
 70
     1
 71
     2
 10
0.0
 20
0.0
 11
0.0
 21
0.0
 12
0.0
 22
0.0
 32
0.0
 14
0.0
 24
0.0
 34
0.0
 15
0.0
 25
0.0
 35
0.0
146
0.0
 13
0.0
 23
0.0
 33
0.0
 16
1.0
 26
0.0
 36
0.0
 17
0.0
 27
1.0
 37
0.0
 76
     0
330
23
  0
LAYOUT
  5
22
102
{ACAD_REACTORS
330
1A
102
}
330
1A
100
AcDbPlotSettings
  1

  2
none_device
  4

  6

 40
0.0
 41
0.0
 42
0.0
 43
0.0
 44
0.0
 45
0.0
 46
0.0
 47
0.0
 48
0.0
 49
0.0
140
0.0
141
0.0
142
1.0
143
1.0
 70
  1712
 72
     0
 73
     0
 74
     0
  7

 75
     0
 76
     0
 77
     2
 78
   300
147
1.0
148
0.0
149
0.0
100
AcDbLayout
  1
Model
 70
     1
 71
     0
 10
0.0
 20
0.0
 11
420.0
 21
297.0
 12
0.0
 22
0.0
 32
0.0
 14
1.000000E+20
 24
1.000000E+20
 34
1.000000E+20
 15
-1.000000E+20
 25
-1.000000E+20
 35
-1.000000E+20
146
0.0
 13
0.0
 23
0.0
 33
0.0
 16
1.0
 26
0.0
 36
0.0
 17
0.0
 27
1.0
 37
0.0
 76
     0
330
1F
331
29
  0
MATERIAL
  5
3D
102
{ACAD_REACTORS
330
3B
102
}
330
3B
100
AcDbMaterial
  1
ByBlock
 72
     1
 94
      127
  0
MATERIAL
  5
3C
102
{ACAD_REACTORS
330
3B
102
}
330
3B
100
AcDbMaterial
  1
ByLayer
 72
     1
 94
      127
  0
MATERIAL
  5
3E
102
{ACAD_REACTORS
330
3B
102
}
330
3B
100
AcDbMaterial
  1
Global
 72
     1
 94
      127
  0
MLINESTYLE
  5
18
102
{ACAD_REACTORS
330
17
102
}
330
17
100
AcDbMlineStyle
  2
Standard
 70
     0
  3

 62
   256
 51
90.0
 52
90.0
 71
     2
 49
0.5
 62
   256
  6
BYLAYER
 49
-0.5
 62
   256
  6
BYLAYER
  0
ACDBPLACEHOLDER
  5
F
102
{ACAD_REACTORS
330
E
102
}
330
E
  0
SCALE
  5
B3
102
{ACAD_REACTORS
330
B2
102
}
330
B2
100
AcDbScale
 70
     0
300
1:1
140
1.0
141
1.0
290
     1
  0
SCALE
  5
B4
102
{ACAD_REACTORS
330
B2
102
}
330
B2
100
AcDbScale
 70
     0
300
1:2
140
1.0
141
2.0
290
     0
  0
SCALE
  5
B5
102
{ACAD_REACTORS
330
B2
102
}
330
B2
100
AcDbScale
 70
     0
300
1:4
140
1.0
141
4.0
290
     0
  0
SCALE
  5
B6
102
{ACAD_REACTORS
330
B2
102
}
330
B2
100
AcDbScale
 70
     0
300
1:5
140
1.0
141
5.0
290
     0
  0
SCALE
  5
B7
102
{ACAD_REACTORS
330
B2
102
}
330
B2
100
AcDbScale
 70
     0
300
1:8
140
1.0
141
8.0
290
     0
  0
SCALE
  5
B8
102
{ACAD_REACTORS
330
B2
102
}
330
B2
100
AcDbScale
 70
     0
300
1:10
140
1.0
141
10.0
290
     0
  0
SCALE
  5
B9
102
{ACAD_REACTORS
330
B2
102
}
330
B2
100
AcDbScale
 70
     0
300
1:16
140
1.0
141
16.0
290
     0
  0
SCALE
  5
BA
102
{ACAD_REACTORS
330
B2
102
}
330
B2
100
AcDbScale
 70
     0
300
1:20
140
1.0
141
20.0
290
     0
  0
SCALE
  5
BB
102
{ACAD_REACTORS
330
B2
102
}
330
B2
100
AcDbScale
 70
     0
300
1:30
140
1.0
141
30.0
290
     0
  0
SCALE
  5
BC
102
{ACAD_REACTORS
330
B2
102
}
330
B2
100
AcDbScale
 70
     0
300
1:40
140
1.0
141
40.0
290
     0
  0
SCALE
  5
BD
102
{ACAD_REACTORS
330
B2
102
}
330
B2
100
AcDbScale
 70
     0
300
1:50
140
1.0
141
50.0
290
     0
  0
SCALE
  5
BE
102
{ACAD_REACTORS
330
B2
102
}
330
B2
100
AcDbScale
 70
     0
300
1:100
140
1.0
141
100.0
290
     0
  0
SCALE
  5
BF
102
{ACAD_REACTORS
330
B2
102
}
330
B2
100
AcDbScale
 70
     0
300
2:1
140
2.0
141
1.0
290
     0
  0
SCALE
  5
C0
102
{ACAD_REACTORS
330
B2
102
}
330
B2
100
AcDbScale
 70
     0
300
4:1
140
4.0
141
1.0
290
     0
  0
SCALE
  5
C1
102
{ACAD_REACTORS
330
B2
102
}
330
B2
100
AcDbScale
 70
     0
300
8:1
140
8.0
141
1.0
290
     0
  0
SCALE
  5
C2
102
{ACAD_REACTORS
330
B2
102
}
330
B2
100
AcDbScale
 70
     0
300
10:1
140
10.0
141
1.0
290
     0
  0
SCALE
  5
C3
102
{ACAD_REACTORS
330
B2
102
}
330
B2
100
AcDbScale
 70
     0
300
100:1
140
100.0
141
1.0
290
     0
  0
SCALE
  5
C4
102
{ACAD_REACTORS
330
B2
102
}
330
B2
100
AcDbScale
 70
     0
300
1/128" = 1'-0"
140
0.007812
141
12.0
290
     0
  0
SCALE
  5
C5
102
{ACAD_REACTORS
330
B2
102
}
330
B2
100
AcDbScale
 70
     0
300
1/64" = 1'-0"
140
0.015625
141
12.0
290
     0
  0
SCALE
  5
C6
102
{ACAD_REACTORS
330
B2
102
}
330
B2
100
AcDbScale
 70
     0
300
1/32" = 1'-0"
140
0.03125
141
12.0
290
     0
  0
SCALE
  5
C7
102
{ACAD_REACTORS
330
B2
102
}
330
B2
100
AcDbScale
 70
     0
300
1/16" = 1'-0"
140
0.0625
141
12.0
290
     0
  0
SCALE
  5
C8
102
{ACAD_REACTORS
330
B2
102
}
330
B2
100
AcDbScale
 70
     0
300
3/32" = 1'-0"
140
0.09375
141
12.0
290
     0
  0
SCALE
  5
C9
102
{ACAD_REACTORS
330
B2
102
}
330
B2
100
AcDbScale
 70
     0
300
1/8" = 1'-0"
140
0.125
141
12.0
290
     0
  0
SCALE
  5
CA
102
{ACAD_REACTORS
330
B2
102
}
330
B2
100
AcDbScale
 70
     0
300
3/16" = 1'-0"
140
0.1875
141
12.0
290
     0
  0
SCALE
  5
CB
102
{ACAD_REACTORS
330
B2
102
}
330
B2
100
AcDbScale
 70
     0
300
1/4" = 1'-0"
140
0.25
141
12.0
290
     0
  0
SCALE
  5
CC
102
{ACAD_REACTORS
330
B2
102
}
330
B2
100
AcDbScale
 70
     0
300
3/8" = 1'-0"
140
0.375
141
12.0
290
     0
  0
SCALE
  5
CD
102
{ACAD_REACTORS
330
B2
102
}
330
B2
100
AcDbScale
 70
     0
300
1/2" = 1'-0"
140
0.5
141
12.0
290
     0
  0
SCALE
  5
CE
102
{ACAD_REACTORS
330
B2
102
}
330
B2
100
AcDbScale
 70
     0
300
3/4" = 1'-0"
140
0.75
141
12.0
290
     0
  0
SCALE
  5
CF
102
{ACAD_REACTORS
330
B2
102
}
330
B2
100
AcDbScale
 70
     0
300
1" = 1'-0"
140
1.0
141
12.0
290
     0
  0
SCALE
  5
D0
102
{ACAD_REACTORS
330
B2
102
}
330
B2
100
AcDbScale
 70
     0
300
1-1/2" = 1'-0"
140
1.5
141
12.0
290
     0
  0
SCALE
  5
D1
102
{ACAD_REACTORS
330
B2
102
}
330
B2
100
AcDbScale
 70
     0
300
3" = 1'-0"
140
3.0
141
12.0
290
     0
  0
SCALE
  5
D2
102
{ACAD_REACTORS
330
B2
102
}
330
B2
100
AcDbScale
 70
     0
300
6" = 1'-0"
140
6.0
141
12.0
290
     0
  0
SCALE
  5
D3
102
{ACAD_REACTORS
330
B2
102
}
330
B2
100
AcDbScale
 70
     0
300
1'-0" = 1'-0"
140
12.0
141
12.0
290
     0
  0
VISUALSTYLE
  5
2F
102
{ACAD_REACTORS
330
2A
102
}
330
2A
100
AcDbVisualStyle
  2
2dWireframe
 70
     4
177
     2
291
     0
 71
     0
176
     1
 72
     2
176
     1
 73
     0
176
     1
 90
        0
176
     1
 40
-0.6
176
     1
 41
-30.0
176
     1
 62
     5
 63
     7
421
 16777215
176
     1
 74
     1
176
     1
 91
        4
176
     1
 64
     7
176
     1
 65
   257
176
     1
 75
     1
176
     1
175
     1
176
     1
 42
1.0
176
     1
 92
        0
176
     1
 66
   257
176
     1
 43
1.0
176
     1
 76
     1
176
     1
 77
     6
176
     1
 78
     2
176
     1
 67
     7
176
     1
 79
     5
176
     1
170
     0
176
     1
171
     0
176
     1
290
     0
176
     1
 93
        1
176
     1
 44
0.0
176
     1
173
     0
176
     1
  0
VISUALSTYLE
  5
31
102
{ACAD_REACTORS
330
2A
102
}
330
2A
100
AcDbVisualStyle
  2
3D Hidden
 70
     6
177
     2
291
     0
 71
     1
176
     1
 72
     2
176
     1
 73
     2
176
     1
 90
        0
176
     1
 40
-0.6
176
     1
 41
-30.0
176
     1
 62
     5
 63
     7
421
 16777215
176
     1
 74
     2
176
     1
 91
        2
176
     1
 64
     7
176
     1
 65
   257
176
     1
 75
     2
176
     1
175
     1
176
     1
 42
40.0
176
     1
 92
        0
176
     1
 66
   257
176
     1
 43
1.0
176
     1
 76
     1
176
     1
 77
     6
176
     1
 78
     2
176
     1
 67
     7
176
     1
 79
     3
176
     1
170
     0
176
     1
171
     0
176
     1
290
     0
176
     1
 93
        1
176
     1
 44
0.0
176
     1
173
     0
176
     1
  0
VISUALSTYLE
  5
30
102
{ACAD_REACTORS
330
2A
102
}
330
2A
100
AcDbVisualStyle
  2
3dWireframe
 70
     5
177
     2
291
     0
 71
     0
176
     1
 72
     2
176
     1
 73
     0
176
     1
 90
        0
176
     1
 40
-0.6
176
     1
 41
-30.0
176
     1
 62
     5
 63
     7
421
 16777215
176
     1
 74
     1
176
     1
 91
        4
176
     1
 64
     7
176
     1
 65
   257
176
     1
 75
     1
176
     1
175
     1
176
     1
 42
1.0
176
     1
 92
        0
176
     1
 66
   257
176
     1
 43
1.0
176
     1
 76
     1
176
     1
 77
     6
176
     1
 78
     2
176
     1
 67
     7
176
     1
 79
     5
176
     1
170
     0
176
     1
171
     0
176
     1
290
     0
176
     1
 93
        1
176
     1
 44
0.0
176
     1
173
     0
176
     1
  0
VISUALSTYLE
  5
32
102
{ACAD_REACTORS
330
2A
102
}
330
2A
100
AcDbVisualStyle
  2
Basic
 70
     7
177
     2
291
     1
 71
     1
176
     1
 72
     0
176
     1
 73
     1
176
     1
 90
        0
176
     1
 40
-0.6
176
     1
 41
-30.0
176
     1
 62
     5
 63
     7
421
 16777215
176
     1
 74
     0
176
     1
 91
        4
176
     1
 64
     7
176
     1
 65
   257
176
     1
 75
     1
176
     1
175
     1
176
     1
 42
1.0
176
     1
 92
        8
176
     1
 66
     7
176
     1
 43
1.0
176
     1
 76
     1
176
     1
 77
     6
176
     1
 78
     2
176
     1
 67
     7
176
     1
 79
     5
176
     1
170
     0
176
     1
171
     0
176
     1
290
     0
176
     1
 93
        1
176
     1
 44
0.0
176
     1
173
     0
176
     1
  0
VISUALSTYLE
  5
36
102
{ACAD_REACTORS
330
2A
102
}
330
2A
100
AcDbVisualStyle
  2
Brighten
 70
    12
177
     2
291
     1
 71
     2
176
     1
 72
     2
176
     1
 73
     0
176
     1
 90
        0
176
     1
 40
-0.6
176
     1
 41
-30.0
176
     1
 62
     5
 63
     7
421
 16777215
176
     1
 74
     1
176
     1
 91
        4
176
     1
 64
     7
176
     1
 65
   257
176
     1
 75
     1
176
     1
175
     1
176
     1
 42
1.0
176
     1
 92
        8
176
     1
 66
     7
176
     1
 43
1.0
176
     1
 76
     1
176
     1
 77
     6
176
     1
 78
     2
176
     1
 67
     7
176
     1
 79
     5
176
     1
170
     0
176
     1
171
     0
176
     1
290
     0
176
     1
 93
        1
176
     1
 44
50.0
176
     1
173
     0
176
     1
  0
VISUALSTYLE
  5
3A
102
{ACAD_REACTORS
330
2A
102
}
330
2A
100
AcDbVisualStyle
  2
ColorChange
 70
    16
177
     2
291
     1
 71
     2
176
     1
 72
     2
176
     1
 73
     3
176
     1
 90
        0
176
     1
 40
-0.6
176
     1
 41
-30.0
176
     1
 62
     5
 63
     8
421
  8421504
176
     1
 74
     1
176
     1
 91
        4
176
     1
 64
     7
176
     1
 65
   257
176
     1
 75
     1
176
     1
175
     1
176
     1
 42
1.0
176
     1
 92
        8
176
     1
 66
     8
424
  8421504
176
     1
 43
1.0
176
     1
 76
     1
176
     1
 77
     6
176
     1
 78
     2
176
     1
 67
     7
176
     1
 79
     5
176
     1
170
     0
176
     1
171
     0
176
     1
290
     0
176
     1
 93
        1
176
     1
 44
0.0
176
     1
173
     0
176
     1
  0
VISUALSTYLE
  5
34
102
{ACAD_REACTORS
330
2A
102
}
330
2A
100
AcDbVisualStyle
  2
Conceptual
 70
     9
177
     2
291
     0
 71
     3
176
     1
 72
     2
176
     1
 73
     0
176
     1
 90
        0
176
     1
 40
-0.6
176
     1
 41
-30.0
176
     1
 62
     5
 63
     7
421
 16777215
176
     1
 74
     2
176
     1
 91
        2
176
     1
 64
     7
176
     1
 65
   257
176
     1
 75
     1
176
     1
175
     1
176
     1
 42
40.0
176
     1
 92
        8
176
     1
 66
     7
176
     1
 43
1.0
176
     1
 76
     1
176
     1
 77
     6
176
     1
 78
     2
176
     1
 67
     7
176
     1
 79
     3
176
     1
170
     0
176
     1
171
     0
176
     1
290
     0
176
     1
 93
        1
176
     1
 44
0.0
176
     1
173
     0
176
     1
  0
VISUALSTYLE
  5
35
102
{ACAD_REACTORS
330
2A
102
}
330
2A
100
AcDbVisualStyle
  2
Dim
 70
    11
177
     2
291
     1
 71
     2
176
     1
 72
     2
176
     1
 73
     0
176
     1
 90
        0
176
     1
 40
-0.6
176
     1
 41
-30.0
176
     1
 62
     5
 63
     7
421
 16777215
176
     1
 74
     1
176
     1
 91
        4
176
     1
 64
     7
176
     1
 65
   257
176
     1
 75
     1
176
     1
175
     1
176
     1
 42
1.0
176
     1
 92
        8
176
     1
 66
     7
176
     1
 43
1.0
176
     1
 76
     1
176
     1
 77
     6
176
     1
 78
     2
176
     1
 67
     7
176
     1
 79
     5
176
     1
170
     0
176
     1
171
     0
176
     1
290
     0
176
     1
 93
        1
176
     1
 44
-50.0
176
     1
173
     0
176
     1
  0
VISUALSTYLE
  5
39
102
{ACAD_REACTORS
330
2A
102
}
330
2A
100
AcDbVisualStyle
  2
Facepattern
 70
    15
177
     2
291
     1
 71
     2
176
     1
 72
     2
176
     1
 73
     0
176
     1
 90
        0
176
     1
 40
-0.6
176
     1
 41
-30.0
176
     1
 62
     5
 63
     7
421
 16777215
176
     1
 74
     1
176
     1
 91
        4
176
     1
 64
     7
176
     1
 65
   257
176
     1
 75
     1
176
     1
175
     1
176
     1
 42
1.0
176
     1
 92
        8
176
     1
 66
     7
176
     1
 43
1.0
176
     1
 76
     1
176
     1
 77
     6
176
     1
 78
     2
176
     1
 67
     7
176
     1
 79
     5
176
     1
170
     0
176
     1
171
     0
176
     1
290
     0
176
     1
 93
        1
176
     1
 44
0.0
176
     1
173
     0
176
     1
  0
VISUALSTYLE
  5
2B
102
{ACAD_REACTORS
330
2A
102
}
330
2A
100
AcDbVisualStyle
  2
Flat
 70
     0
177
     2
291
     1
 71
     2
176
     1
 72
     1
176
     1
 73
     1
176
     1
 90
        2
176
     1
 40
-0.6
176
     1
 41
30.0
176
     1
 62
     5
 63
     7
421
 16777215
176
     1
 74
     0
176
     1
 91
        4
176
     1
 64
     7
176
     1
 65
   257
176
     1
 75
     1
176
     1
175
     1
176
     1
 42
1.0
176
     1
 92
        8
176
     1
 66
     7
176
     1
 43
1.0
176
     1
 76
     1
176
     1
 77
     6
176
     1
 78
     2
176
     1
 67
     7
176
     1
 79
     5
176
     1
170
     0
176
     1
171
     0
176
     1
290
     0
176
     1
 93
       13
176
     1
 44
0.0
176
     1
173
     0
176
     1
  0
VISUALSTYLE
  5
2C
102
{ACAD_REACTORS
330
2A
102
}
330
2A
100
AcDbVisualStyle
  2
FlatWithEdges
 70
     1
177
     2
291
     1
 71
     2
176
     1
 72
     1
176
     1
 73
     1
176
     1
 90
        2
176
     1
 40
-0.6
176
     1
 41
30.0
176
     1
 62
     5
 63
     7
421
 16777215
176
     1
 74
     1
176
     1
 91
        4
176
     1
 64
     7
176
     1
 65
   257
176
     1
 75
     1
176
     1
175
     1
176
     1
 42
1.0
176
     1
 92
        0
176
     1
 66
   257
176
     1
 43
1.0
176
     1
 76
     1
176
     1
 77
     6
176
     1
 78
     2
176
     1
 67
     7
176
     1
 79
     5
176
     1
170
     0
176
     1
171
     0
176
     1
290
     0
176
     1
 93
       13
176
     1
 44
0.0
176
     1
173
     0
176
     1
  0
VISUALSTYLE
  5
2D
102
{ACAD_REACTORS
330
2A
102
}
330
2A
100
AcDbVisualStyle
  2
Gouraud
 70
     2
177
     2
291
     1
 71
     2
176
     1
 72
     2
176
     1
 73
     1
176
     1
 90
        2
176
     1
 40
-0.6
176
     1
 41
30.0
176
     1
 62
     5
 63
     7
421
 16777215
176
     1
 74
     0
176
     1
 91
        4
176
     1
 64
     7
176
     1
 65
   257
176
     1
 75
     1
176
     1
175
     1
176
     1
 42
1.0
176
     1
 92
        0
176
     1
 66
     7
176
     1
 43
1.0
176
     1
 76
     1
176
     1
 77
     6
176
     1
 78
     2
176
     1
 67
     7
176
     1
 79
     5
176
     1
170
     0
176
     1
171
     0
176
     1
290
     0
176
     1
 93
       13
176
     1
 44
0.0
176
     1
173
     0
176
     1
  0
VISUALSTYLE
  5
2E
102
{ACAD_REACTORS
330
2A
102
}
330
2A
100
AcDbVisualStyle
  2
GouraudWithEdges
 70
     3
177
     2
291
     1
 71
     2
176
     1
 72
     2
176
     1
 73
     1
176
     1
 90
        2
176
     1
 40
-0.6
176
     1
 41
30.0
176
     1
 62
     5
 63
     7
421
 16777215
176
     1
 74
     1
176
     1
 91
        4
176
     1
 64
     7
176
     1
 65
   257
176
     1
 75
     1
176
     1
175
     1
176
     1
 42
1.0
176
     1
 92
        0
176
     1
 66
   257
176
     1
 43
1.0
176
     1
 76
     1
176
     1
 77
     6
176
     1
 78
     2
176
     1
 67
     7
176
     1
 79
     5
176
     1
170
     0
176
     1
171
     0
176
     1
290
     0
176
     1
 93
       13
176
     1
 44
0.0
176
     1
173
     0
176
     1
  0
VISUALSTYLE
  5
38
102
{ACAD_REACTORS
330
2A
102
}
330
2A
100
AcDbVisualStyle
  2
Linepattern
 70
    14
177
     2
291
     1
 71
     2
176
     1
 72
     2
176
     1
 73
     0
176
     1
 90
        0
176
     1
 40
-0.6
176
     1
 41
-30.0
176
     1
 62
     5
 63
     7
421
 16777215
176
     1
 74
     1
176
     1
 91
        4
176
     1
 64
     7
176
     1
 65
   257
176
     1
 75
     7
176
     1
175
     7
176
     1
 42
1.0
176
     1
 92
        8
176
     1
 66
     7
176
     1
 43
1.0
176
     1
 76
     1
176
     1
 77
     6
176
     1
 78
     2
176
     1
 67
     7
176
     1
 79
     5
176
     1
170
     0
176
     1
171
     0
176
     1
290
     0
176
     1
 93
        1
176
     1
 44
0.0
176
     1
173
     0
176
     1
  0
VISUALSTYLE
  5
33
102
{ACAD_REACTORS
330
2A
102
}
330
2A
100
AcDbVisualStyle
  2
Realistic
 70
     8
177
     2
291
     0
 71
     2
176
     1
 72
     2
176
     1
 73
     0
176
     1
 90
        0
176
     1
 40
-0.6
176
     1
 41
-30.0
176
     1
 62
     5
 63
     7
421
 16777215
176
     1
 74
     1
176
     1
 91
        0
176
     1
 64
     7
176
     1
 65
   257
176
     1
 75
     1
176
     1
175
     1
176
     1
 42
1.0
176
     1
 92
        8
176
     1
 66
     8
424
  7895160
176
     1
 43
1.0
176
     1
 76
     1
176
     1
 77
     6
176
     1
 78
     2
176
     1
 67
     7
176
     1
 79
     5
176
     1
170
     0
176
     1
171
     0
176
     1
290
     0
176
     1
 93
       13
176
     1
 44
0.0
176
     1
173
     0
176
     1
  0
VISUALSTYLE
  5
37
102
{ACAD_REACTORS
330
2A
102
}
330
2A
100
AcDbVisualStyle
  2
Thicken
 70
    13
177
     2
291
     1
 71
     2
176
     1
 72
     2
176
     1
 73
     0
176
     1
 90
        0
176
     1
 40
-0.6
176
     1
 41
-30.0
176
     1
 62
     5
 63
     7
421
 16777215
176
     1
 74
     1
176
     1
 91
        4
176
     1
 64
     7
176
     1
 65
   257
176
     1
 75
     1
176
     1
175
     1
176
     1
 42
1.0
176
     1
 92
       12
176
     1
 66
     7
176
     1
 43
1.0
176
     1
 76
     1
176
     1
 77
     6
176
     1
 78
     2
176
     1
 67
     7
176
     1
 79
     5
176
     1
170
     0
176
     1
171
     0
176
     1
290
     0
176
     1
 93
        1
176
     1
 44
0.0
176
     1
173
     0
176
     1
  0
DICTIONARYVAR
  5
1E5
102
{ACAD_REACTORS
330
1E4
102
}
330
1E4
100
DictionaryVariables
280
     0
  1
1:1
  0
ENDSEC
  0
EOF
