  0
SECTION
  2
HEADER
  9
$ACADVER
  1
AC1024
  9
$ACADMAINTVER
 70
     6
  9
$DWGCODEPAGE
  3
ANSI_1252
  9
$INSBASE
 10
0.0
 20
0.0
 30
0.0
  9
$EXTMIN
 10
1.000000E+20
 20
1.000000E+20
 30
1.000000E+20
  9
$EXTMAX
 10
-1.000000E+20
 20
-1.000000E+20
 30
-1.000000E+20
  9
$LIMMIN
 10
0.0
 20
0.0
  9
$LIMMAX
 10
420.0
 20
297.0
  9
$ORTHOMODE
 70
     0
  9
$REGENMODE
 70
     1
  9
$FILLMODE
 70
     1
  9
$QTEXTMODE
 70
     0
  9
$MIRRTEXT
 70
     1
  9
$LTSCALE
 40
1.0
  9
$ATTMODE
 70
     1
  9
$TEXTSIZE
 40
2.5
  9
$TRACEWID
 40
1.0
  9
$TEXTSTYLE
  7
Standard
  9
$CLAYER
  8
0
  9
$CELTYPE
  6
ByLayer
  9
$CECOLOR
 62
   256
  9
$CELTSCALE
 40
1.0
  9
$DISPSILH
 70
     0
  9
$DIMSCALE
 40
1.0
  9
$DIMASZ
 40
2.5
  9
$DIMEXO
 40
0.625
  9
$DIMDLI
 40
3.75
  9
$DIMRND
 40
0.0
  9
$DIMDLE
 40
0.0
  9
$DIMEXE
 40
1.25
  9
$DIMTP
 40
0.0
  9
$DIMTM
 40
0.0
  9
$DIMTXT
 40
2.5
  9
$DIMCEN
 40
2.5
  9
$DIMTSZ
 40
0.0
  9
$DIMTOL
 70
     0
  9
$DIMLIM
 70
     0
  9
$DIMTIH
 70
     0
  9
$DIMTOH
 70
     0
  9
$DIMSE1
 70
     0
  9
$DIMSE2
 70
     0
  9
$DIMTAD
 70
     1
  9
$DIMZIN
 70
     8
  9
$DIMBLK
  1

  9
$DIMASO
 70
     1
  9
$DIMSHO
 70
     1
  9
$DIMPOST
  1

  9
$DIMAPOST
  1

  9
$DIMALT
 70
     0
  9
$DIMALTD
 70
     3
  9
$DIMALTF
 40
0.03937
  9
$DIMLFAC
 40
1.0
  9
$DIMTOFL
 70
     1
  9
$DIMTVP
 40
0.0
  9
$DIMTIX
 70
     0
  9
$DIMSOXD
 70
     0
  9
$DIMSAH
 70
     0
  9
$DIMBLK1
  1

  9
$DIMBLK2
  1

  9
$DIMSTYLE
  2
ISO-25
  9
$DIMCLRD
 70
     0
  9
$DIMCLRE
 70
     0
  9
$DIMCLRT
 70
     0
  9
$DIMTFAC
 40
1.0
  9
$DIMGAP
 40
0.625
  9
$DIMJUST
 70
     0
  9
$DIMSD1
 70
     0
  9
$DIMSD2
 70
     0
  9
$DIMTOLJ
 70
     0
  9
$DIMTZIN
 70
     8
  9
$DIMALTZ
 70
     0
  9
$DIMALTTZ
 70
     0
  9
$DIMUPT
 70
     0
  9
$DIMDEC
 70
     2
  9
$DIMTDEC
 70
     2
  9
$DIMALTU
 70
     2
  9
$DIMALTTD
 70
     3
  9
$DIMTXSTY
  7
Standard
  9
$DIMAUNIT
 70
     0
  9
$DIMADEC
 70
     0
  9
$DIMALTRND
 40
0.0
  9
$DIMAZIN
 70
     0
  9
$DIMDSEP
 70
    44
  9
$DIMATFIT
 70
     3
  9
$DIMFRAC
 70
     0
  9
$DIMLDRBLK
  1

  9
$DIMLUNIT
 70
     2
  9
$DIMLWD
 70
    -2
  9
$DIMLWE
 70
    -2
  9
$DIMTMOVE
 70
     0
  9
$DIMFXL
 40
1.0
  9
$DIMFXLON
 70
     0
  9
$DIMJOGANG
 40
0.785398
  9
$DIMTFILL
 70
     0
  9
$DIMTFILLCLR
 70
     0
  9
$DIMARCSYM
 70
     0
  9
$DIMLTYPE
  6

  9
$DIMLTEX1
  6

  9
$DIMLTEX2
  6

  9
$DIMTXTDIRECTION
 70
     0
  9
$LUNITS
 70
     2
  9
$LUPREC
 70
     4
  9
$SKETCHINC
 40
1.0
  9
$FILLETRAD
 40
10.0
  9
$AUNITS
 70
     0
  9
$AUPREC
 70
     0
  9
$MENU
  1
.
  9
$ELEVATION
 40
0.0
  9
$PELEVATION
 40
0.0
  9
$THICKNESS
 40
0.0
  9
$LIMCHECK
 70
     0
  9
$CHAMFERA
 40
10.0
  9
$CHAMFERB
 40
10.0
  9
$CHAMFERC
 40
20.0
  9
$CHAMFERD
 40
0.0
  9
$SKPOLY
 70
     0
  9
$TDCREATE
 40
2458732.599270937
  9
$TDUCREATE
 40
2458732.515937604
  9
$TDUPDATE
 40
2458732.599270949
  9
$TDUUPDATE
 40
2458732.515937616
  9
$TDINDWG
 40
0.0000000116
  9
$TDUSRTIMER
 40
0.0000000116
  9
$USRTIMER
 70
     1
  9
$ANGBASE
 50
0.0
  9
$ANGDIR
 70
     0
  9
$PDMODE
 70
     0
  9
$PDSIZE
 40
0.0
  9
$PLINEWID
 40
0.0
  9
$SPLFRAME
 70
     0
  9
$SPLINETYPE
 70
     6
  9
$SPLINESEGS
 70
     8
  9
$HANDSEED
  5
21D
  9
$SURFTAB1
 70
     6
  9
$SURFTAB2
 70
     6
  9
$SURFTYPE
 70
     6
  9
$SURFU
 70
     6
  9
$SURFV
 70
     6
  9
$UCSBASE
  2

  9
$UCSNAME
  2

  9
$UCSORG
 10
0.0
 20
0.0
 30
0.0
  9
$UCSXDIR
 10
1.0
 20
0.0
 30
0.0
  9
$UCSYDIR
 10
0.0
 20
1.0
 30
0.0
  9
$UCSORTHOREF
  2

  9
$UCSORTHOVIEW
 70
     0
  9
$UCSORGTOP
 10
0.0
 20
0.0
 30
0.0
  9
$UCSORGBOTTOM
 10
0.0
 20
0.0
 30
0.0
  9
$UCSORGLEFT
 10
0.0
 20
0.0
 30
0.0
  9
$UCSORGRIGHT
 10
0.0
 20
0.0
 30
0.0
  9
$UCSORGFRONT
 10
0.0
 20
0.0
 30
0.0
  9
$UCSORGBACK
 10
0.0
 20
0.0
 30
0.0
  9
$PUCSBASE
  2

  9
$PUCSNAME
  2

  9
$PUCSORG
 10
0.0
 20
0.0
 30
0.0
  9
$PUCSXDIR
 10
1.0
 20
0.0
 30
0.0
  9
$PUCSYDIR
 10
0.0
 20
1.0
 30
0.0
  9
$PUCSORTHOREF
  2

  9
$PUCSORTHOVIEW
 70
     0
  9
$PUCSORGTOP
 10
0.0
 20
0.0
 30
0.0
  9
$PUCSORGBOTTOM
 10
0.0
 20
0.0
 30
0.0
  9
$PUCSORGLEFT
 10
0.0
 20
0.0
 30
0.0
  9
$PUCSORGRIGHT
 10
0.0
 20
0.0
 30
0.0
  9
$PUCSORGFRONT
 10
0.0
 20
0.0
 30
0.0
  9
$PUCSORGBACK
 10
0.0
 20
0.0
 30
0.0
  9
$USERI1
 70
     0
  9
$USERI2
 70
     0
  9
$USERI3
 70
     0
  9
$USERI4
 70
     0
  9
$USERI5
 70
     0
  9
$USERR1
 40
0.0
  9
$USERR2
 40
0.0
  9
$USERR3
 40
0.0
  9
$USERR4
 40
0.0
  9
$USERR5
 40
0.0
  9
$WORLDVIEW
 70
     1
  9
$SHADEDGE
 70
     3
  9
$SHADEDIF
 70
    70
  9
$TILEMODE
 70
     1
  9
$MAXACTVP
 70
    64
  9
$PINSBASE
 10
0.0
 20
0.0
 30
0.0
  9
$PLIMCHECK
 70
     0
  9
$PEXTMIN
 10
1.000000E+20
 20
1.000000E+20
 30
1.000000E+20
  9
$PEXTMAX
 10
-1.000000E+20
 20
-1.000000E+20
 30
-1.000000E+20
  9
$PLIMMIN
 10
0.0
 20
0.0
  9
$PLIMMAX
 10
420.0
 20
297.0
  9
$UNITMODE
 70
     0
  9
$VISRETAIN
 70
     1
  9
$PLINEGEN
 70
     0
  9
$PSLTSCALE
 70
     1
  9
$TREEDEPTH
 70
  3020
  9
$CMLSTYLE
  2
Standard
  9
$CMLJUST
 70
     0
  9
$CMLSCALE
 40
20.0
  9
$PROXYGRAPHICS
 70
     1
  9
$MEASUREMENT
 70
     1
  9
$CELWEIGHT
370
    -1
  9
$ENDCAPS
280
     0
  9
$JOINSTYLE
280
     0
  9
$LWDISPLAY
290
     0
  9
$INSUNITS
 70
     4
  9
$HYPERLINKBASE
  1

  9
$STYLESHEET
  1

  9
$XEDIT
290
     1
  9
$CEPSNTYPE
380
     0
  9
$PSTYLEMODE
290
     1
  9
$FINGERPRINTGUID
  2
{F81BBDFF-56D0-40B1-B0CE-0790FC5C26B6}
  9
$VERSIONGUID
  2
{FAEB1C32-E019-11D5-929B-00C0DF256EC4}
  9
$EXTNAMES
290
     1
  9
$PSVPSCALE
 40
0.0
  9
$OLESTARTUP
290
     0
  9
$SORTENTS
280
   127
  9
$INDEXCTL
280
     0
  9
$HIDETEXT
280
     1
  9
$XCLIPFRAME
280
     2
  9
$HALOGAP
280
     0
  9
$OBSCOLOR
 70
   257
  9
$OBSLTYPE
280
     0
  9
$INTERSECTIONDISPLAY
280
     0
  9
$INTERSECTIONCOLOR
 70
   257
  9
$DIMASSOC
280
     2
  9
$PROJECTNAME
  1

  9
$CAMERADISPLAY
290
     0
  9
$LENSLENGTH
 40
50.0
  9
$CAMERAHEIGHT
 40
0.0
  9
$STEPSPERSEC
 40
2.0
  9
$STEPSIZE
 40
6.0
  9
$3DDWFPREC
 40
2.0
  9
$PSOLWIDTH
 40
5.0
  9
$PSOLHEIGHT
 40
80.0
  9
$LOFTANG1
 40
1.570796
  9
$LOFTANG2
 40
1.570796
  9
$LOFTMAG1
 40
0.0
  9
$LOFTMAG2
 40
0.0
  9
$LOFTPARAM
 70
     7
  9
$LOFTNORMALS
280
     1
  9
$LATITUDE
 40
37.795
  9
$LONGITUDE
 40
-122.394
  9
$NORTHDIRECTION
 40
0.0
  9
$TIMEZONE
 70
 -8000
  9
$LIGHTGLYPHDISPLAY
280
     1
  9
$TILEMODELIGHTSYNCH
280
     1
  9
$SOLIDHIST
280
     1
  9
$SHOWHIST
280
     1
  9
$DWFFRAME
280
     2
  9
$DGNFRAME
280
     2
  9
$REALWORLDSCALE
290
     1
  9
$INTERFERECOLOR
 62
   256
  9
$CSHADOW
280
     0
  9
$SHADOWPLANELOCATION
 40
0.0
  0
ENDSEC
  0
SECTION
  2
CLASSES
  0
CLASS
  1
ACDBDICTIONARYWDFLT
  2
AcDbDictionaryWithDefault
  3
ObjectDBX Classes
 90
        0
 91
        4
280
     0
281
     0
  0
CLASS
  1
VISUALSTYLE
  2
AcDbVisualStyle
  3
ObjectDBX Classes
 90
     4095
 91
        4
280
     0
281
     0
  0
CLASS
  1
MATERIAL
  2
AcDbMaterial
  3
ObjectDBX Classes
 90
     1153
 91
        4
280
     0
281
     0
  0
CLASS
  1
SCALE
  2
AcDbScale
  3
ObjectDBX Classes
 90
     1153
 91
        4
280
     0
281
     0
  0
CLASS
  1
DICTIONARYVAR
  2
AcDbDictionaryVar
  3
ObjectDBX Classes
 90
        0
 91
        4
280
     0
281
     0
  0
ENDSEC
  0
SECTION
  2
TABLES
  0
TABLE
  2
VPORT
  5
8
330
0
100
AcDbSymbolTable
 70
     1
  0
VPORT
  5
29
330
8
100
AcDbSymbolTableRecord
100
AcDbViewportTableRecord
  2
*Active
 70
     0
 10
0.0
 20
0.0
 11
1.0
 21
1.0
 12
344.186916
 22
148.5
 13
0.0
 23
0.0
 14
10.0
 24
10.0
 15
10.0
 25
10.0
 16
0.0
 26
0.0
 36
1.0
 17
0.0
 27
0.0
 37
0.0
 40
297.0
 41
1.972973
 42
50.0
 43
0.0
 44
0.0
 50
0.0
 51
0.0
 71
     0
 72
   100
 73
     1
 74
     3
 75
     0
 76
     0
 77
     0
 78
     0
281
     0
 65
     1
110
0.0
120
0.0
130
0.0
111
1.0
121
0.0
131
0.0
112
0.0
122
1.0
132
0.0
 79
     0
146
0.0
 60
     3
 61
     5
292
     1
282
     1
141
0.0
142
0.0
 63
   250
  0
ENDTAB
  0
TABLE
  2
LTYPE
  5
5
330
0
100
AcDbSymbolTable
 70
     3
  0
LTYPE
  5
14
330
5
100
AcDbSymbolTableRecord
100
AcDbLinetypeTableRecord
  2
ByBlock
 70
     0
  3

 72
    65
 73
     0
 40
0.0
  0
LTYPE
  5
15
330
5
100
AcDbSymbolTableRecord
100
AcDbLinetypeTableRecord
  2
ByLayer
 70
     0
  3

 72
    65
 73
     0
 40
0.0
  0
LTYPE
  5
16
330
5
100
AcDbSymbolTableRecord
100
AcDbLinetypeTableRecord
  2
Continuous
 70
     0
  3
Solid line
 72
    65
 73
     0
 40
0.0
  0
LTYPE
  5
96
330
5
100
AcDbSymbolTableRecord
100
AcDbLinetypeTableRecord
  2
CENTER2
 70
     0
  3
Center (.5x) ___ _ ___ _ ___ _ ___ _ ___ _ ___
 72
    65
 73
     4
 40
28.575
 49
19.05
 74
     0
 49
-3.175
 74
     0
 49
3.175
 74
     0
 49
-3.175
 74
     0
  0
LTYPE
  5
D6
330
5
100
AcDbSymbolTableRecord
100
AcDbLinetypeTableRecord
  2
HIDDEN2
 70
     0
  3
Hidden (.5x) _ _ _ _ _ _ _ _ _ _ _ _ _ _ _ _ _ 
 72
    65
 73
     2
 40
4.7625
 49
3.175
 74
     0
 49
-1.5875
 74
     0
  0
ENDTAB
  0
TABLE
  2
LAYER
  5
2
330
0
100
AcDbSymbolTable
 70
     4
  0
LAYER
  5
10
330
2
100
AcDbSymbolTableRecord
100
AcDbLayerTableRecord
  2
0
 70
     0
 62
     1
  6
Continuous
370
     0
390
F
347
3E
  0
LAYER
  5
3F
330
2
100
AcDbSymbolTableRecord
100
AcDbLayerTableRecord
  2
3
 70
     0
 62
     1
  6
Continuous
370
     0
390
F
347
3E
  0
LAYER
  5
40
330
2
100
AcDbSymbolTableRecord
100
AcDbLayerTableRecord
  2
255
 70
     0
 62
     1
  6
Continuous
370
     0
390
F
347
3E
  0
LAYER
  5
41
330
2
100
AcDbSymbolTableRecord
100
AcDbLayerTableRecord
  2
DEFPOINTS
 70
     0
 62
     1
  6
Continuous
290
     0
370
     0
390
F
347
3E
  0
ENDTAB
  0
TABLE
  2
STYLE
  5
3
330
0
100
AcDbSymbolTable
 70
    17
  0
STYLE
  5
11
330
3
100
AcDbSymbolTableRecord
100
AcDbTextStyleTableRecord
  2
Standard
 70
     0
 40
0.0
 41
1.0
 50
0.0
 71
     0
 42
2.5
  3
txt
  4

1001
ACAD
1000
txt
1071
        0
  0
STYLE
  5
42
330
3
100
AcDbSymbolTableRecord
100
AcDbTextStyleTableRecord
  2
Default
 70
     0
 40
0.0
 41
1.0
 50
0.0
 71
     0
 42
0.2
  3

  4

1001
ACAD
1000
txt
1071
        0
  0
STYLE
  5
43
330
3
100
AcDbSymbolTableRecord
100
AcDbTextStyleTableRecord
  2
TSTYLE1
 70
     0
 40
0.0
 41
1.0
 50
0.0
 71
     0
 42
0.2
  3

  4

1001
ACAD
1000
Times New Roman
1071
        0
  0
STYLE
  5
44
330
3
100
AcDbSymbolTableRecord
100
AcDbTextStyleTableRecord
  2
TSTYLE2
 70
     0
 40
0.0
 41
1.0
 50
0.0
 71
     0
 42
0.2
  3

  4

1001
ACAD
1000
Times New Roman
1071
        0
  0
STYLE
  5
45
330
3
100
AcDbSymbolTableRecord
100
AcDbTextStyleTableRecord
  2
TSTYLE3
 70
     0
 40
0.0
 41
1.0
 50
0.0
 71
     0
 42
0.2
  3

  4

1001
ACAD
1000
Times New Roman
1071
        0
  0
STYLE
  5
46
330
3
100
AcDbSymbolTableRecord
100
AcDbTextStyleTableRecord
  2
TSTYLE4
 70
     0
 40
0.0
 41
1.0
 50
0.0
 71
     0
 42
0.2
  3

  4

1001
ACAD
1000
Arial
1071
        0
  0
STYLE
  5
47
330
3
100
AcDbSymbolTableRecord
100
AcDbTextStyleTableRecord
  2
TSTYLE5
 70
     0
 40
0.0
 41
1.0
 50
0.0
 71
     0
 42
0.2
  3

  4

1001
ACAD
1000
Times New Roman
1071
        0
  0
STYLE
  5
48
330
3
100
AcDbSymbolTableRecord
100
AcDbTextStyleTableRecord
  2
TSTYLE6
 70
     0
 40
0.0
 41
1.0
 50
0.0
 71
     0
 42
0.2
  3

  4

1001
ACAD
1000
Times New Roman
1071
        0
  0
STYLE
  5
49
330
3
100
AcDbSymbolTableRecord
100
AcDbTextStyleTableRecord
  2
TSTYLE7
 70
     0
 40
0.0
 41
1.0
 50
0.0
 71
     0
 42
0.2
  3

  4

1001
ACAD
1000
Futura Lt BT
1071
        0
  0
STYLE
  5
4A
330
3
100
AcDbSymbolTableRecord
100
AcDbTextStyleTableRecord
  2
TSTYLE8
 70
     0
 40
0.0
 41
1.0
 50
0.0
 71
     0
 42
0.2
  3

  4

1001
ACAD
1000
Arial
1071
        0
  0
STYLE
  5
4B
330
3
100
AcDbSymbolTableRecord
100
AcDbTextStyleTableRecord
  2
TSTYLE9
 70
     0
 40
0.0
 41
1.0
 50
0.0
 71
     0
 42
0.2
  3

  4

1001
ACAD
1000
Arial
1071
        0
  0
STYLE
  5
4C
330
3
100
AcDbSymbolTableRecord
100
AcDbTextStyleTableRecord
  2
TSTYLE10
 70
     0
 40
0.0
 41
1.0
 50
0.0
 71
     0
 42
0.2
  3

  4

1001
ACAD
1000
Arial
1071
        0
  0
STYLE
  5
4D
330
3
100
AcDbSymbolTableRecord
100
AcDbTextStyleTableRecord
  2
TSTYLE11
 70
     0
 40
0.0
 41
1.0
 50
0.0
 71
     0
 42
0.2
  3

  4

1001
ACAD
1000
Arial
1071
        0
  0
STYLE
  5
4E
330
3
100
AcDbSymbolTableRecord
100
AcDbTextStyleTableRecord
  2
TSTYLE12
 70
     0
 40
0.0
 41
1.0
 50
0.0
 71
     0
 42
0.2
  3

  4

1001
ACAD
1000
Arial
1071
        0
  0
STYLE
  5
4F
330
3
100
AcDbSymbolTableRecord
100
AcDbTextStyleTableRecord
  2
TSTYLE13
 70
     0
 40
0.0
 41
1.0
 50
0.0
 71
     0
 42
0.2
  3

  4

1001
ACAD
1000
Arial
1071
        0
  0
STYLE
  5
50
330
3
100
AcDbSymbolTableRecord
100
AcDbTextStyleTableRecord
  2
TSTYLE14
 70
     0
 40
0.0
 41
1.0
 50
0.0
 71
     0
 42
0.2
  3

  4

1001
ACAD
1000
Arial
1071
        0
  0
STYLE
  5
51
330
3
100
AcDbSymbolTableRecord
100
AcDbTextStyleTableRecord
  2
TSTYLE15
 70
     0
 40
0.0
 41
1.0
 50
0.0
 71
     0
 42
0.2
  3

  4

1001
ACAD
1000
Arial
1071
        0
  0
ENDTAB
  0
TABLE
  2
VIEW
  5
6
330
0
100
AcDbSymbolTable
 70
     0
  0
ENDTAB
  0
TABLE
  2
UCS
  5
7
330
0
100
AcDbSymbolTable
 70
     0
  0
ENDTAB
  0
TABLE
  2
APPID
  5
9
330
0
100
AcDbSymbolTable
 70
     1
  0
APPID
  5
12
330
9
100
AcDbSymbolTableRecord
100
AcDbRegAppTableRecord
  2
ACAD
 70
     0
  0
ENDTAB
  0
TABLE
  2
DIMSTYLE
  5
A
330
0
100
AcDbSymbolTable
 70
     7
100
AcDbDimStyleTable
  0
DIMSTYLE
105
27
330
A
100
AcDbSymbolTableRecord
100
AcDbDimStyleTableRecord
  2
ISO-25
 70
     0
 41
2.5
 42
0.625
 43
3.75
 44
1.25
 73
     0
 74
     0
 77
     1
 78
     8
140
2.5
141
2.5
143
0.03937
147
0.625
171
     3
172
     1
271
     2
272
     2
274
     3
278
    44
283
     0
284
     8
340
11
  0
DIMSTYLE
105
52
330
A
100
AcDbSymbolTableRecord
100
AcDbDimStyleTableRecord
  2
Default
 70
     0
  3
<>
 41
4.375
 42
1.05
 44
2.1
 49
10.01
 73
     0
 74
     0
 77
     1
 78
     8
140
3.5
146
0.4
147
1.75
172
     1
178
     2
271
     2
272
     3
284
     8
340
42
341
53
342
53
  0
DIMSTYLE
105
5A
330
A
100
AcDbSymbolTableRecord
100
AcDbDimStyleTableRecord
  2
faultDimensionStyle
 70
     0
  3
<>
 41
2.5
 42
0.875
 44
1.75
 49
10.01
 73
     0
 74
     0
 77
     1
 78
     8
140
3.5
147
1.75
172
     1
178
     2
271
     2
272
     2
278
    44
284
     8
340
11
  0
DIMSTYLE
105
5B
330
A
100
AcDbSymbolTableRecord
100
AcDbDimStyleTableRecord
  2
DefaultDimensionStyle
 70
     0
  3
<>
 42
1.215278
 44
3.5
 49
10.01
140
3.5
147
3.5
172
     1
178
     2
278
    44
340
11
  0
DIMSTYLE
105
5C
102
{ACAD_REACTORS
330
1E4
330
1F1
102
}
330
A
100
AcDbSymbolTableRecord
100
AcDbDimStyleTableRecord
  2
DSTYLE1
 70
     0
  3
<>
 41
3.75
 42
1.05
 44
1.166667
 49
10.01
 73
     0
 74
     0
 77
     1
 78
     8
140
3.5
146
0.6
147
1.225
172
     1
178
     2
271
     3
340
4F
  0
DIMSTYLE
105
5D
102
{ACAD_REACTORS
330
1FE
102
}
330
A
100
AcDbSymbolTableRecord
100
AcDbDimStyleTableRecord
  2
DSTYLE2
 70
     0
  3
<>
 41
1.25
 42
7.037597
 44
1.166667
 49
10.01
 73
     0
 74
     0
 77
     1
 78
     8
140
3.5
146
0.6
147
2.450001
172
     1
178
     2
271
     3
340
51
  0
DIMSTYLE
105
5E
102
{ACAD_REACTORS
330
20C
102
}
330
A
100
AcDbSymbolTableRecord
100
AcDbDimStyleTableRecord
  2
DSTYLE3
 70
     0
  3
<>
 41
1.25
 42
8.234188
 44
1.166667
 49
10.01
 73
     0
 74
     0
 77
     1
 78
     8
140
3.5
146
0.6
147
2.450001
172
     1
178
     2
271
     3
340
51
  0
ENDTAB
  0
TABLE
  2
BLOCK_RECORD
  5
1
330
0
100
AcDbSymbolTable
 70
    24
  0
BLOCK_RECORD
  5
1F
330
1
100
AcDbSymbolTableRecord
100
AcDbBlockTableRecord
  2
*Model_Space
340
22
 70
     0
280
     1
281
     0
  0
BLOCK_RECORD
  5
1B
330
1
100
AcDbSymbolTableRecord
100
AcDbBlockTableRecord
  2
*Paper_Space
340
1E
 70
     0
280
     1
281
     0
  0
BLOCK_RECORD
  5
23
330
1
100
AcDbSymbolTableRecord
100
AcDbBlockTableRecord
  2
*Paper_Space0
340
26
 70
     0
280
     1
281
     0
  0
BLOCK_RECORD
  5
53
330
1
100
AcDbSymbolTableRecord
100
AcDbBlockTableRecord
  2
_CLOSED
340
0
 70
     0
280
     1
281
     0
  0
BLOCK_RECORD
  5
DF
330
1
100
AcDbSymbolTableRecord
100
AcDbBlockTableRecord
  2
.Hatch_7
340
0
102
{BLKREFS
331
E3
102
}
 70
     0
280
     1
281
     0
  0
BLOCK_RECORD
  5
E4
330
1
100
AcDbSymbolTableRecord
100
AcDbBlockTableRecord
  2
.Hatch_8
340
0
102
{BLKREFS
331
E9
102
}
 70
     0
280
     1
281
     0
  0
BLOCK_RECORD
  5
EA
330
1
100
AcDbSymbolTableRecord
100
AcDbBlockTableRecord
  2
.Hatch_9
340
0
102
{BLKREFS
331
108
102
}
 70
     0
280
     1
281
     0
  0
BLOCK_RECORD
  5
109
330
1
100
AcDbSymbolTableRecord
100
AcDbBlockTableRecord
  2
.Hatch_10
340
0
102
{BLKREFS
331
11B
102
}
 70
     0
280
     1
281
     0
  0
BLOCK_RECORD
  5
11C
330
1
100
AcDbSymbolTableRecord
100
AcDbBlockTableRecord
  2
.Hatch_11
340
0
102
{BLKREFS
331
120
102
}
 70
     0
280
     1
281
     0
  0
BLOCK_RECORD
  5
145
330
1
100
AcDbSymbolTableRecord
100
AcDbBlockTableRecord
  2
_G_Q_1
340
0
102
{BLKREFS
331
14D
102
}
 70
     0
280
     1
281
     0
  0
BLOCK_RECORD
  5
14E
330
1
100
AcDbSymbolTableRecord
100
AcDbBlockTableRecord
  2
_G_Q_2
340
0
102
{BLKREFS
331
156
102
}
 70
     0
280
     1
281
     0
  0
BLOCK_RECORD
  5
157
330
1
100
AcDbSymbolTableRecord
100
AcDbBlockTableRecord
  2
_G_Q_3
340
0
102
{BLKREFS
331
15F
102
}
 70
     0
280
     1
281
     0
  0
BLOCK_RECORD
  5
160
330
1
100
AcDbSymbolTableRecord
100
AcDbBlockTableRecord
  2
_G_Q_4
340
0
102
{BLKREFS
331
168
102
}
 70
     0
280
     1
281
     0
  0
BLOCK_RECORD
  5
169
330
1
100
AcDbSymbolTableRecord
100
AcDbBlockTableRecord
  2
_G_Q_5
340
0
102
{BLKREFS
331
171
102
}
 70
     0
280
     1
281
     0
  0
BLOCK_RECORD
  5
172
330
1
100
AcDbSymbolTableRecord
100
AcDbBlockTableRecord
  2
_G_Q_6
340
0
102
{BLKREFS
331
17A
102
}
 70
     0
280
     1
281
     0
  0
BLOCK_RECORD
  5
17B
330
1
100
AcDbSymbolTableRecord
100
AcDbBlockTableRecord
  2
_G_Q_7
340
0
102
{BLKREFS
331
185
102
}
 70
     0
280
     1
281
     0
  0
BLOCK_RECORD
  5
186
330
1
100
AcDbSymbolTableRecord
100
AcDbBlockTableRecord
  2
_G_Q_8
340
0
102
{BLKREFS
331
190
102
}
 70
     0
280
     1
281
     0
  0
BLOCK_RECORD
  5
191
330
1
100
AcDbSymbolTableRecord
100
AcDbBlockTableRecord
  2
_G_Q_9
340
0
102
{BLKREFS
331
19B
102
}
 70
     0
280
     1
281
     0
  0
BLOCK_RECORD
  5
19C
330
1
100
AcDbSymbolTableRecord
100
AcDbBlockTableRecord
  2
_G_Q_10
340
0
102
{BLKREFS
331
1A6
102
}
 70
     0
280
     1
281
     0
  0
BLOCK_RECORD
  5
1BA
330
1
100
AcDbSymbolTableRecord
100
AcDbBlockTableRecord
  2
.TD_DIMENSION_1
340
0
102
{BLKREFS
331
1C9
102
}
 70
     0
280
     1
281
     0
  0
BLOCK_RECORD
  5
1CA
330
1
100
AcDbSymbolTableRecord
100
AcDbBlockTableRecord
  2
.TD_DIMENSION_2
340
0
102
{BLKREFS
331
1D9
102
}
 70
     0
280
     1
281
     0
  0
BLOCK_RECORD
  5
1DA
330
1
100
AcDbSymbolTableRecord
100
AcDbBlockTableRecord
  2
.TD_DIMENSION_3
340
0
102
{BLKREFS
331
1E3
102
}
 70
     0
280
     1
281
     0
  0
BLOCK_RECORD
  5
1E5
330
1
100
AcDbSymbolTableRecord
100
AcDbBlockTableRecord
  2
*D20
340
0
 70
     0
280
     1
281
     0
  0
BLOCK_RECORD
  5
1F2
330
1
100
AcDbSymbolTableRecord
100
AcDbBlockTableRecord
  2
*D21
340
0
 70
     0
280
     1
281
     0
  0
BLOCK_RECORD
  5
1FF
330
1
100
AcDbSymbolTableRecord
100
AcDbBlockTableRecord
  2
*D22
340
0
 70
     0
280
     1
281
     0
  0
BLOCK_RECORD
  5
20D
330
1
100
AcDbSymbolTableRecord
100
AcDbBlockTableRecord
  2
*D23
340
0
 70
     0
280
     1
281
     0
  0
ENDTAB
  0
ENDSEC
  0
SECTION
  2
BLOCKS
  0
BLOCK
  5
20
330
1F
100
AcDbEntity
  8
0
100
AcDbBlockBegin
  2
*Model_Space
 70
     0
 10
0.0
 20
0.0
 30
0.0
  3
*Model_Space
  1

  0
ENDBLK
  5
21
330
1F
100
AcDbEntity
  8
0
100
AcDbBlockEnd
  0
BLOCK
  5
1C
330
1B
100
AcDbEntity
 67
     1
  8
0
100
AcDbBlockBegin
  2
*Paper_Space
 70
     0
 10
0.0
 20
0.0
 30
0.0
  3
*Paper_Space
  1

  0
ENDBLK
  5
1D
330
1B
100
AcDbEntity
 67
     1
  8
0
100
AcDbBlockEnd
  0
BLOCK
  5
24
330
23
100
AcDbEntity
  8
0
100
AcDbBlockBegin
  2
*Paper_Space0
 70
     0
 10
0.0
 20
0.0
 30
0.0
  3
*Paper_Space0
  1

  0
ENDBLK
  5
25
330
23
100
AcDbEntity
  8
0
100
AcDbBlockEnd
  0
BLOCK
  5
54
330
53
100
AcDbEntity
  8
0
100
AcDbBlockBegin
  2
_CLOSED
 70
     0
 10
0.0
 20
0.0
 30
0.0
  3
_CLOSED
  1

  0
LINE
  5
56
330
53
100
AcDbEntity
  8
0
  6
ByBlock
 62
     0
370
    -2
100
AcDbLine
 10
-1.0
 20
0.166667
 30
0.0
 11
0.0
 21
0.0
 31
0.0
  0
LINE
  5
57
330
53
100
AcDbEntity
  8
0
  6
ByBlock
 62
     0
370
    -2
100
AcDbLine
 10
0.0
 20
0.0
 30
0.0
 11
-1.0
 21
-0.166667
 31
0.0
  0
LINE
  5
58
330
53
100
AcDbEntity
  8
0
  6
ByBlock
 62
     0
370
    -2
100
AcDbLine
 10
-1.0
 20
0.166667
 30
0.0
 11
-1.0
 21
-0.166667
 31
0.0
  0
LINE
  5
59
330
53
100
AcDbEntity
  8
0
  6
ByBlock
 62
     0
370
    -2
100
AcDbLine
 10
0.0
 20
0.0
 30
0.0
 11
-1.0
 21
0.0
 31
0.0
  0
ENDBLK
  5
55
330
53
100
AcDbEntity
  8
0
100
AcDbBlockEnd
  0
BLOCK
  5
E1
330
DF
100
AcDbEntity
  8
0
100
AcDbBlockBegin
  2
.Hatch_7
 70
     0
 10
0.0
 20
0.0
 30
0.0
  3
.Hatch_7
  1

  0
LINE
  5
E0
330
DF
100
AcDbEntity
  8
0
  6
Continuous
 62
     0
100
AcDbLine
 10
-460.0
 20
2338.782225
 30
0.0
 11
-460.0
 21
2338.417193
 31
0.0
  0
ENDBLK
  5
E2
330
DF
100
AcDbEntity
  8
0
100
AcDbBlockEnd
  0
BLOCK
  5
E7
330
E4
100
AcDbEntity
  8
0
100
AcDbBlockBegin
  2
.Hatch_8
 70
     0
 10
0.0
 20
0.0
 30
0.0
  3
.Hatch_8
  1

  0
LINE
  5
E5
330
E4
100
AcDbEntity
  8
0
  6
Continuous
 62
     0
100
AcDbLine
 10
-456.0
 20
2341.802726
 30
0.0
 11
-456.0
 21
2342.167766
 31
0.0
  0
LINE
  5
E6
330
E4
100
AcDbEntity
  8
0
  6
Continuous
 62
     0
100
AcDbLine
 10
-452.0
 20
2341.802726
 30
0.0
 11
-452.0
 21
2342.167766
 31
0.0
  0
ENDBLK
  5
E8
330
E4
100
AcDbEntity
  8
0
100
AcDbBlockEnd
  0
BLOCK
  5
106
330
EA
100
AcDbEntity
  8
0
100
AcDbBlockBegin
  2
.Hatch_9
 70
     0
 10
0.0
 20
0.0
 30
0.0
  3
.Hatch_9
  1

  0
LINE
  5
EB
330
EA
100
AcDbEntity
  8
0
  6
HIDDEN2
 62
     0
100
AcDbLine
 10
-466.452163
 20
2338.517366
 30
0.0
 11
-466.921574
 21
2338.986777
 31
0.0
  0
LINE
  5
EC
330
EA
100
AcDbEntity
  8
0
  6
HIDDEN2
 62
     0
100
AcDbLine
 10
-465.479404
 20
2338.605268
 30
0.0
 11
-466.868755
 21
2339.994618
 31
0.0
  0
LINE
  5
ED
330
EA
100
AcDbEntity
  8
0
  6
HIDDEN2
 62
     0
100
AcDbLine
 10
-464.695882
 20
2338.882406
 30
0.0
 11
-466.794237
 21
2340.980761
 31
0.0
  0
LINE
  5
EE
330
EA
100
AcDbEntity
  8
0
  6
HIDDEN2
 62
     0
100
AcDbLine
 10
-463.635222
 20
2338.882406
 30
0.0
 11
-466.357471
 21
2341.604655
 31
0.0
  0
LINE
  5
EF
330
EA
100
AcDbEntity
  8
0
  6
HIDDEN2
 62
     0
100
AcDbLine
 10
-462.574562
 20
2338.882406
 30
0.0
 11
-465.494882
 21
2341.802726
 31
0.0
  0
LINE
  5
F0
330
EA
100
AcDbEntity
  8
0
  6
HIDDEN2
 62
     0
100
AcDbLine
 10
-461.513902
 20
2338.882406
 30
0.0
 11
-464.434222
 21
2341.802726
 31
0.0
  0
LINE
  5
F1
330
EA
100
AcDbEntity
  8
0
  6
HIDDEN2
 62
     0
100
AcDbLine
 10
-450.142277
 20
2328.571442
 30
0.0
 11
-450.838462
 21
2329.267626
 31
0.0
  0
LINE
  5
F2
330
EA
100
AcDbEntity
  8
0
  6
HIDDEN2
 62
     0
100
AcDbLine
 10
-460.453242
 20
2338.882406
 30
0.0
 11
-463.373562
 21
2341.802726
 31
0.0
  0
LINE
  5
F3
330
EA
100
AcDbEntity
  8
0
  6
HIDDEN2
 62
     0
100
AcDbLine
 10
-448.876112
 20
2328.365936
 30
0.0
 11
-450.986923
 21
2330.476748
 31
0.0
  0
LINE
  5
F4
330
EA
100
AcDbEntity
  8
0
  6
HIDDEN2
 62
     0
100
AcDbLine
 10
-459.50159
 20
2338.991415
 30
0.0
 11
-462.312902
 21
2341.802726
 31
0.0
  0
LINE
  5
F5
330
EA
100
AcDbEntity
  8
0
  6
HIDDEN2
 62
     0
100
AcDbLine
 10
-448.200564
 20
2328.751049
 30
0.0
 11
-451.135385
 21
2331.685869
 31
0.0
  0
LINE
  5
F6
330
EA
100
AcDbEntity
  8
0
  6
HIDDEN2
 62
     0
100
AcDbLine
 10
-459.50159
 20
2340.052075
 30
0.0
 11
-461.252241
 21
2341.802726
 31
0.0
  0
LINE
  5
F7
330
EA
100
AcDbEntity
  8
0
  6
HIDDEN2
 62
     0
100
AcDbLine
 10
-448.349026
 20
2329.96017
 30
0.0
 11
-451.283846
 21
2332.894991
 31
0.0
  0
LINE
  5
F8
330
EA
100
AcDbEntity
  8
0
  6
HIDDEN2
 62
     0
100
AcDbLine
 10
-459.50159
 20
2341.112735
 30
0.0
 11
-460.191581
 21
2341.802726
 31
0.0
  0
LINE
  5
F9
330
EA
100
AcDbEntity
  8
0
  6
HIDDEN2
 62
     0
100
AcDbLine
 10
-448.497487
 20
2331.169292
 30
0.0
 11
-451.432308
 21
2334.104112
 31
0.0
  0
LINE
  5
FA
330
EA
100
AcDbEntity
  8
0
  6
HIDDEN2
 62
     0
100
AcDbLine
 10
-456.210601
 20
2338.882406
 30
0.0
 11
-457.00159
 21
2339.673395
 31
0.0
  0
LINE
  5
FB
330
EA
100
AcDbEntity
  8
0
  6
HIDDEN2
 62
     0
100
AcDbLine
 10
-448.645949
 20
2332.378414
 30
0.0
 11
-451.580769
 21
2335.313234
 31
0.0
  0
LINE
  5
FC
330
EA
100
AcDbEntity
  8
0
  6
HIDDEN2
 62
     0
100
AcDbLine
 10
-455.149941
 20
2338.882406
 30
0.0
 11
-457.00159
 21
2340.734055
 31
0.0
  0
LINE
  5
FD
330
EA
100
AcDbEntity
  8
0
  6
HIDDEN2
 62
     0
100
AcDbLine
 10
-448.79441
 20
2333.587535
 30
0.0
 11
-451.729231
 21
2336.522356
 31
0.0
  0
LINE
  5
FE
330
EA
100
AcDbEntity
  8
0
  6
HIDDEN2
 62
     0
100
AcDbLine
 10
-454.089281
 20
2338.882406
 30
0.0
 11
-457.00159
 21
2341.794715
 31
0.0
  0
LINE
  5
FF
330
EA
100
AcDbEntity
  8
0
  6
HIDDEN2
 62
     0
100
AcDbLine
 10
-448.942872
 20
2334.796657
 30
0.0
 11
-451.877692
 21
2337.731477
 31
0.0
  0
LINE
  5
100
330
EA
100
AcDbEntity
  8
0
  6
HIDDEN2
 62
     0
100
AcDbLine
 10
-453.02862
 20
2338.882406
 30
0.0
 11
-455.94894
 21
2341.802726
 31
0.0
  0
LINE
  5
101
330
EA
100
AcDbEntity
  8
0
  6
HIDDEN2
 62
     0
100
AcDbLine
 10
-449.091333
 20
2336.005779
 30
0.0
 11
-454.88828
 21
2341.802726
 31
0.0
  0
LINE
  5
102
330
EA
100
AcDbEntity
  8
0
  6
HIDDEN2
 62
     0
100
AcDbLine
 10
-449.239795
 20
2337.2149
 30
0.0
 11
-453.82762
 21
2341.802726
 31
0.0
  0
LINE
  5
103
330
EA
100
AcDbEntity
  8
0
  6
HIDDEN2
 62
     0
100
AcDbLine
 10
-449.388256
 20
2338.424022
 30
0.0
 11
-452.76696
 21
2341.802726
 31
0.0
  0
LINE
  5
104
330
EA
100
AcDbEntity
  8
0
  6
HIDDEN2
 62
     0
100
AcDbLine
 10
-449.536718
 20
2339.633144
 30
0.0
 11
-451.7063
 21
2341.802726
 31
0.0
  0
LINE
  5
105
330
EA
100
AcDbEntity
  8
0
  6
HIDDEN2
 62
     0
100
AcDbLine
 10
-449.685179
 20
2340.842265
 30
0.0
 11
-450.641426
 21
2341.798513
 31
0.0
  0
ENDBLK
  5
107
330
EA
100
AcDbEntity
  8
0
100
AcDbBlockEnd
  0
BLOCK
  5
119
330
109
100
AcDbEntity
  8
0
100
AcDbBlockBegin
  2
.Hatch_10
 70
     0
 10
0.0
 20
0.0
 30
0.0
  3
.Hatch_10
  1

  0
LINE
  5
10A
330
109
100
AcDbEntity
  8
0
  6
Continuous
 62
     0
100
AcDbLine
 10
-475.392148
 20
2356.57051
 30
0.0
 11
-475.193293
 21
2356.769366
 31
0.0
  0
LINE
  5
10B
330
109
100
AcDbEntity
  8
0
  6
Continuous
 62
     0
100
AcDbLine
 10
-474.803212
 20
2353.623913
 30
0.0
 11
-471.657759
 21
2356.769366
 31
0.0
  0
LINE
  5
10C
330
109
100
AcDbEntity
  8
0
  6
Continuous
 62
     0
100
AcDbLine
 10
-475.680676
 20
2349.210915
 30
0.0
 11
-468.122225
 21
2356.769366
 31
0.0
  0
LINE
  5
10D
330
109
100
AcDbEntity
  8
0
  6
Continuous
 62
     0
100
AcDbLine
 10
-475.043035
 20
2346.313022
 30
0.0
 11
-464.586691
 21
2356.769366
 31
0.0
  0
LINE
  5
10E
330
109
100
AcDbEntity
  8
0
  6
Continuous
 62
     0
100
AcDbLine
 10
-474.920533
 20
2342.89999
 30
0.0
 11
-461.051157
 21
2356.769366
 31
0.0
  0
LINE
  5
10F
330
109
100
AcDbEntity
  8
0
  6
Continuous
 62
     0
100
AcDbLine
 10
-472.117223
 20
2342.167766
 30
0.0
 11
-457.515623
 21
2356.769366
 31
0.0
  0
LINE
  5
110
330
109
100
AcDbEntity
  8
0
  6
Continuous
 62
     0
100
AcDbLine
 10
-468.581689
 20
2342.167766
 30
0.0
 11
-453.980089
 21
2356.769366
 31
0.0
  0
LINE
  5
111
330
109
100
AcDbEntity
  8
0
  6
Continuous
 62
     0
100
AcDbLine
 10
-465.046155
 20
2342.167766
 30
0.0
 11
-460.912607
 21
2346.301315
 31
0.0
  0
LINE
  5
112
330
109
100
AcDbEntity
  8
0
  6
Continuous
 62
     0
100
AcDbLine
 10
-459.546156
 20
2347.667765
 30
0.0
 11
-459.50159
 21
2347.712331
 31
0.0
  0
LINE
  5
113
330
109
100
AcDbEntity
  8
0
  6
Continuous
 62
     0
100
AcDbLine
 10
-457.148873
 20
2350.065049
 30
0.0
 11
-450.569973
 21
2356.643949
 31
0.0
  0
LINE
  5
114
330
109
100
AcDbEntity
  8
0
  6
Continuous
 62
     0
100
AcDbLine
 10
-461.510621
 20
2342.167766
 30
0.0
 11
-460.510622
 21
2343.167765
 31
0.0
  0
LINE
  5
115
330
109
100
AcDbEntity
  8
0
  6
Continuous
 62
     0
100
AcDbLine
 10
-456.305232
 20
2347.373155
 30
0.0
 11
-449.695288
 21
2353.983099
 31
0.0
  0
LINE
  5
116
330
109
100
AcDbEntity
  8
0
  6
Continuous
 62
     0
100
AcDbLine
 10
-456.091019
 20
2344.051835
 30
0.0
 11
-449.695288
 21
2350.447566
 31
0.0
  0
LINE
  5
117
330
109
100
AcDbEntity
  8
0
  6
Continuous
 62
     0
100
AcDbLine
 10
-454.439554
 20
2342.167766
 30
0.0
 11
-449.695288
 21
2346.912032
 31
0.0
  0
LINE
  5
118
330
109
100
AcDbEntity
  8
0
  6
Continuous
 62
     0
100
AcDbLine
 10
-450.90402
 20
2342.167766
 30
0.0
 11
-449.695288
 21
2343.376498
 31
0.0
  0
ENDBLK
  5
11A
330
109
100
AcDbEntity
  8
0
100
AcDbBlockEnd
  0
BLOCK
  5
11E
330
11C
100
AcDbEntity
  8
0
100
AcDbBlockBegin
  2
.Hatch_11
 70
     0
 10
0.0
 20
0.0
 30
0.0
  3
.Hatch_11
  1

  0
LINE
  5
11D
330
11C
100
AcDbEntity
  8
0
  6
Continuous
 62
     0
100
AcDbLine
 10
-456.0
 20
2338.782639
 30
0.0
 11
-456.0
 21
2338.417608
 31
0.0
  0
ENDBLK
  5
11F
330
11C
100
AcDbEntity
  8
0
100
AcDbBlockEnd
  0
BLOCK
  5
14B
330
145
100
AcDbEntity
  8
0
100
AcDbBlockBegin
  2
_G_Q_1
 70
     0
 10
0.0
 20
0.0
 30
0.0
  3
_G_Q_1
  1

  0
LINE
  5
146
330
145
100
AcDbEntity
  8
0
  6
Continuous
 62
     0
100
AcDbLine
 10
-451.470123
 20
2341.999512
 30
0.0
 11
-447.175995
 21
2351.621582
 31
0.0
  0
TEXT
  5
147
330
145
100
AcDbEntity
  8
0
  6
Continuous
 62
     0
100
AcDbText
 10
-446.993469
 20
2350.708984
 30
0.0
 40
1.8252
  1
Sigillante
  7
TSTYLE12
100
AcDbText
  0
LINE
  5
148
330
145
100
AcDbEntity
  8
0
  6
Continuous
 62
     0
100
AcDbLine
 10
-451.31662
 20
2342.660645
 30
0.0
 11
-451.470123
 21
2341.999512
 31
0.0
  0
LINE
  5
149
330
145
100
AcDbEntity
  8
0
  6
Continuous
 62
     0
100
AcDbLine
 10
-451.470123
 20
2341.999512
 30
0.0
 11
-451.080566
 21
2342.555176
 31
0.0
  0
LINE
  5
14A
330
145
100
AcDbEntity
  8
0
  6
Continuous
 62
     0
100
AcDbLine
 10
-451.080566
 20
2342.555176
 30
0.0
 11
-451.31662
 21
2342.660645
 31
0.0
  0
ENDBLK
  5
14C
330
145
100
AcDbEntity
  8
0
100
AcDbBlockEnd
  0
BLOCK
  5
154
330
14E
100
AcDbEntity
  8
0
100
AcDbBlockBegin
  2
_G_Q_2
 70
     0
 10
0.0
 20
0.0
 30
0.0
  3
_G_Q_2
  1

  0
LINE
  5
14F
330
14E
100
AcDbEntity
  8
0
  6
Continuous
 62
     0
100
AcDbLine
 10
-456.893311
 20
2336.517822
 30
0.0
 11
-456.525238
 21
2325.123779
 31
0.0
  0
TEXT
  5
150
330
14E
100
AcDbEntity
  8
0
  6
Continuous
 62
     0
100
AcDbText
 10
-456.342712
 20
2324.211182
 30
0.0
 40
1.8252
  1
Vite 5x20
  7
TSTYLE12
100
AcDbText
  0
LINE
  5
151
330
14E
100
AcDbEntity
  8
0
  6
Continuous
 62
     0
100
AcDbLine
 10
-456.742615
 20
2335.855957
 30
0.0
 11
-456.893311
 21
2336.517822
 31
0.0
  0
LINE
  5
152
330
14E
100
AcDbEntity
  8
0
  6
Continuous
 62
     0
100
AcDbLine
 10
-456.893311
 20
2336.517822
 30
0.0
 11
-457.000977
 21
2335.847656
 31
0.0
  0
LINE
  5
153
330
14E
100
AcDbEntity
  8
0
  6
Continuous
 62
     0
100
AcDbLine
 10
-457.000977
 20
2335.847656
 30
0.0
 11
-456.742615
 21
2335.855957
 31
0.0
  0
ENDBLK
  5
155
330
14E
100
AcDbEntity
  8
0
100
AcDbBlockEnd
  0
BLOCK
  5
15D
330
157
100
AcDbEntity
  8
0
100
AcDbBlockBegin
  2
_G_Q_3
 70
     0
 10
0.0
 20
0.0
 30
0.0
  3
_G_Q_3
  1

  0
LINE
  5
158
330
157
100
AcDbEntity
  8
0
  6
Continuous
 62
     0
100
AcDbLine
 10
-461.063385
 20
2338.416748
 30
0.0
 11
-466.01236
 21
2323.911377
 31
0.0
  0
TEXT
  5
159
330
157
100
AcDbEntity
  8
0
  6
Continuous
 62
     0
100
AcDbText
 10
-476.050964
 20
2322.998779
 30
0.0
 40
1.8252
  1
Rondella
  7
TSTYLE12
100
AcDbText
  0
LINE
  5
15A
330
157
100
AcDbEntity
  8
0
  6
Continuous
 62
     0
100
AcDbLine
 10
-461.156189
 20
2337.744385
 30
0.0
 11
-461.063385
 21
2338.416748
 31
0.0
  0
LINE
  5
15B
330
157
100
AcDbEntity
  8
0
  6
Continuous
 62
     0
100
AcDbLine
 10
-461.063385
 20
2338.416748
 30
0.0
 11
-461.400848
 21
2337.827881
 31
0.0
  0
LINE
  5
15C
330
157
100
AcDbEntity
  8
0
  6
Continuous
 62
     0
100
AcDbLine
 10
-461.400848
 20
2337.827881
 30
0.0
 11
-461.156189
 21
2337.744385
 31
0.0
  0
ENDBLK
  5
15E
330
157
100
AcDbEntity
  8
0
100
AcDbBlockEnd
  0
BLOCK
  5
166
330
160
100
AcDbEntity
  8
0
100
AcDbBlockBegin
  2
_G_Q_4
 70
     0
 10
0.0
 20
0.0
 30
0.0
  3
_G_Q_4
  1

  0
LINE
  5
161
330
160
100
AcDbEntity
  8
0
  6
Continuous
 62
     0
100
AcDbLine
 10
-465.236267
 20
2356.769287
 30
0.0
 11
-462.574066
 21
2362.383789
 31
0.0
  0
TEXT
  5
162
330
160
100
AcDbEntity
  8
0
  6
Continuous
 62
     0
100
AcDbText
 10
-462.391541
 20
2361.471191
 30
0.0
 40
1.8252
  1
Piano di lavoro/Top
  7
TSTYLE12
100
AcDbText
  0
LINE
  5
163
330
160
100
AcDbEntity
  8
0
  6
Continuous
 62
     0
100
AcDbLine
 10
-465.067596
 20
2357.426758
 30
0.0
 11
-465.236267
 21
2356.769287
 31
0.0
  0
LINE
  5
164
330
160
100
AcDbEntity
  8
0
  6
Continuous
 62
     0
100
AcDbLine
 10
-465.236267
 20
2356.769287
 30
0.0
 11
-464.834015
 21
2357.315918
 31
0.0
  0
LINE
  5
165
330
160
100
AcDbEntity
  8
0
  6
Continuous
 62
     0
100
AcDbLine
 10
-464.834015
 20
2357.315918
 30
0.0
 11
-465.067596
 21
2357.426758
 31
0.0
  0
ENDBLK
  5
167
330
160
100
AcDbEntity
  8
0
100
AcDbBlockEnd
  0
BLOCK
  5
16F
330
169
100
AcDbEntity
  8
0
100
AcDbBlockBegin
  2
_G_Q_5
 70
     0
 10
0.0
 20
0.0
 30
0.0
  3
_G_Q_5
  1

  0
LINE
  5
16A
330
169
100
AcDbEntity
  8
0
  6
Continuous
 62
     0
100
AcDbLine
 10
-449.033813
 20
2335.537842
 30
0.0
 11
-444.709686
 21
2337.433838
 31
0.0
  0
TEXT
  5
16B
330
169
100
AcDbEntity
  8
0
  6
Continuous
 62
     0
100
AcDbText
 10
-444.527161
 20
2336.52124
 30
0.0
 40
1.8252
  1
Lavello
  7
TSTYLE12
100
AcDbText
  0
LINE
  5
16C
330
169
100
AcDbEntity
  8
0
  6
Continuous
 62
     0
100
AcDbLine
 10
-448.475525
 20
2335.923828
 30
0.0
 11
-449.033813
 21
2335.537842
 31
0.0
  0
LINE
  5
16D
330
169
100
AcDbEntity
  8
0
  6
Continuous
 62
     0
100
AcDbLine
 10
-449.033813
 20
2335.537842
 30
0.0
 11
-448.371704
 21
2335.687012
 31
0.0
  0
LINE
  5
16E
330
169
100
AcDbEntity
  8
0
  6
Continuous
 62
     0
100
AcDbLine
 10
-448.371704
 20
2335.687012
 30
0.0
 11
-448.475525
 21
2335.923828
 31
0.0
  0
ENDBLK
  5
170
330
169
100
AcDbEntity
  8
0
100
AcDbBlockEnd
  0
BLOCK
  5
178
330
172
100
AcDbEntity
  8
0
100
AcDbBlockBegin
  2
_G_Q_6
 70
     0
 10
0.0
 20
0.0
 30
0.0
  3
_G_Q_6
  1

  0
LINE
  5
173
330
172
100
AcDbEntity
  8
0
  6
Continuous
 62
     0
100
AcDbLine
 10
-460.740509
 20
2344.667725
 30
0.0
 11
-464.495453
 21
2334.284912
 31
0.0
  0
TEXT
  5
174
330
172
100
AcDbEntity
  8
0
  6
Continuous
 62
     0
100
AcDbText
 10
-485.229736
 20
2333.372314
 30
0.0
 40
1.8252
  1
Bussola M5 11x11
  7
TSTYLE12
100
AcDbText
  0
LINE
  5
175
330
172
100
AcDbEntity
  8
0
  6
Continuous
 62
     0
100
AcDbLine
 10
-460.845551
 20
2343.997314
 30
0.0
 11
-460.740509
 21
2344.667725
 31
0.0
  0
LINE
  5
176
330
172
100
AcDbEntity
  8
0
  6
Continuous
 62
     0
100
AcDbLine
 10
-460.740509
 20
2344.667725
 30
0.0
 11
-461.088654
 21
2344.085205
 31
0.0
  0
LINE
  5
177
330
172
100
AcDbEntity
  8
0
  6
Continuous
 62
     0
100
AcDbLine
 10
-461.088654
 20
2344.085205
 30
0.0
 11
-460.845551
 21
2343.997314
 31
0.0
  0
ENDBLK
  5
179
330
172
100
AcDbEntity
  8
0
100
AcDbBlockEnd
  0
BLOCK
  5
183
330
17B
100
AcDbEntity
  8
0
100
AcDbBlockBegin
  2
_G_Q_7
 70
     0
 10
0.0
 20
0.0
 30
0.0
  3
_G_Q_7
  1

  0
LINE
  5
17C
330
17B
100
AcDbEntity
  8
0
  6
Continuous
 62
     0
100
AcDbLine
 10
-624.728577
 20
2358.103516
 30
0.0
 11
-626.680786
 21
2360.701904
 31
0.0
  0
LINE
  5
17D
330
17B
100
AcDbEntity
  8
0
  6
Continuous
 62
     0
100
AcDbLine
 10
-626.680786
 20
2360.701904
 30
0.0
 11
-618.888855
 21
2350.330811
 31
0.0
  0
TEXT
  5
17E
330
17B
100
AcDbEntity
  8
0
  6
Continuous
 62
     0
100
AcDbText
 10
-621.156738
 20
2355.84668
 30
0.0
 40
3.0
  1
R
 50
306.918701
  7
TSTYLE14
100
AcDbText
  0
TEXT
  5
17F
330
17B
100
AcDbEntity
  8
0
  6
Continuous
 62
     0
100
AcDbText
 10
-619.354675
 20
2353.448242
 30
0.0
 40
3.0
  1
5
 50
306.918701
  7
TSTYLE14
100
AcDbText
  0
LINE
  5
180
330
17B
100
AcDbEntity
  8
0
  6
Continuous
 62
     0
100
AcDbLine
 10
-624.146973
 20
2358.540527
 30
0.0
 11
-626.98114
 21
2361.101562
 31
0.0
  0
LINE
  5
181
330
17B
100
AcDbEntity
  8
0
  6
Continuous
 62
     0
100
AcDbLine
 10
-626.98114
 20
2361.101562
 30
0.0
 11
-625.310242
 21
2357.666504
 31
0.0
  0
LINE
  5
182
330
17B
100
AcDbEntity
  8
0
  6
Continuous
 62
     0
100
AcDbLine
 10
-625.310242
 20
2357.666504
 30
0.0
 11
-624.146973
 21
2358.540527
 31
0.0
  0
ENDBLK
  5
184
330
17B
100
AcDbEntity
  8
0
100
AcDbBlockEnd
  0
BLOCK
  5
18E
330
186
100
AcDbEntity
  8
0
100
AcDbBlockBegin
  2
_G_Q_8
 70
     0
 10
0.0
 20
0.0
 30
0.0
  3
_G_Q_8
  1

  0
LINE
  5
187
330
186
100
AcDbEntity
  8
0
  6
Continuous
 62
     0
100
AcDbLine
 10
-624.518677
 20
2324.328125
 30
0.0
 11
-626.680786
 21
2321.901855
 31
0.0
  0
LINE
  5
188
330
186
100
AcDbEntity
  8
0
  6
Continuous
 62
     0
100
AcDbLine
 10
-626.680786
 20
2321.901855
 30
0.0
 11
-618.050781
 21
2331.58667
 31
0.0
  0
TEXT
  5
189
330
186
100
AcDbEntity
  8
0
  6
Continuous
 62
     0
100
AcDbText
 10
-623.01062
 20
2328.275146
 30
0.0
 40
3.0
  1
R
 50
48.2962
  7
TSTYLE14
100
AcDbText
  0
TEXT
  5
18A
330
186
100
AcDbEntity
  8
0
  6
Continuous
 62
     0
100
AcDbText
 10
-621.014771
 20
2330.514893
 30
0.0
 40
3.0
  1
5
 50
48.2962
  7
TSTYLE14
100
AcDbText
  0
LINE
  5
18B
330
186
100
AcDbEntity
  8
0
  6
Continuous
 62
     0
100
AcDbLine
 10
-625.061768
 20
2324.812256
 30
0.0
 11
-627.013428
 21
2321.528564
 31
0.0
  0
LINE
  5
18C
330
186
100
AcDbEntity
  8
0
  6
Continuous
 62
     0
100
AcDbLine
 10
-627.013428
 20
2321.528564
 30
0.0
 11
-623.975464
 21
2323.844238
 31
0.0
  0
LINE
  5
18D
330
186
100
AcDbEntity
  8
0
  6
Continuous
 62
     0
100
AcDbLine
 10
-623.975464
 20
2323.844238
 30
0.0
 11
-625.061768
 21
2324.812256
 31
0.0
  0
ENDBLK
  5
18F
330
186
100
AcDbEntity
  8
0
100
AcDbBlockEnd
  0
BLOCK
  5
199
330
191
100
AcDbEntity
  8
0
100
AcDbBlockBegin
  2
_G_Q_9
 70
     0
 10
0.0
 20
0.0
 30
0.0
  3
_G_Q_9
  1

  0
LINE
  5
192
330
191
100
AcDbEntity
  8
0
  6
Continuous
 62
     0
100
AcDbLine
 10
-558.880798
 20
2321.901855
 30
0.0
 11
-561.397278
 21
2323.958496
 31
0.0
  0
LINE
  5
193
330
191
100
AcDbEntity
  8
0
  6
Continuous
 62
     0
100
AcDbLine
 10
-567.546875
 20
2328.984375
 30
0.0
 11
-558.880798
 21
2321.901855
 31
0.0
  0
TEXT
  5
194
330
191
100
AcDbEntity
  8
0
  6
Continuous
 62
     0
100
AcDbText
 10
-566.365356
 20
2329.955811
 30
0.0
 40
3.0
  1
R
 50
320.742096
  7
TSTYLE14
100
AcDbText
  0
TEXT
  5
195
330
191
100
AcDbEntity
  8
0
  6
Continuous
 62
     0
100
AcDbText
 10
-564.042419
 20
2328.057373
 30
0.0
 40
3.0
  1
5
 50
320.742096
  7
TSTYLE14
100
AcDbText
  0
LINE
  5
196
330
191
100
AcDbEntity
  8
0
  6
Continuous
 62
     0
100
AcDbLine
 10
-561.857666
 20
2323.395264
 30
0.0
 11
-558.493652
 21
2321.585449
 31
0.0
  0
LINE
  5
197
330
191
100
AcDbEntity
  8
0
  6
Continuous
 62
     0
100
AcDbLine
 10
-558.493652
 20
2321.585449
 30
0.0
 11
-560.936951
 21
2324.521729
 31
0.0
  0
LINE
  5
198
330
191
100
AcDbEntity
  8
0
  6
Continuous
 62
     0
100
AcDbLine
 10
-560.936951
 20
2324.521729
 30
0.0
 11
-561.857666
 21
2323.395264
 31
0.0
  0
ENDBLK
  5
19A
330
191
100
AcDbEntity
  8
0
100
AcDbBlockEnd
  0
BLOCK
  5
1A4
330
19C
100
AcDbEntity
  8
0
100
AcDbBlockBegin
  2
_G_Q_10
 70
     0
 10
0.0
 20
0.0
 30
0.0
  3
_G_Q_10
  1

  0
LINE
  5
19D
330
19C
100
AcDbEntity
  8
0
  6
Continuous
 62
     0
100
AcDbLine
 10
-558.880798
 20
2360.701904
 30
0.0
 11
-561.185181
 21
2358.409912
 31
0.0
  0
LINE
  5
19E
330
19C
100
AcDbEntity
  8
0
  6
Continuous
 62
     0
100
AcDbLine
 10
-566.816223
 20
2352.809326
 30
0.0
 11
-558.880798
 21
2360.701904
 31
0.0
  0
TEXT
  5
19F
330
19C
100
AcDbEntity
  8
0
  6
Continuous
 62
     0
100
AcDbText
 10
-567.661316
 20
2354.084473
 30
0.0
 40
3.0
  1
R
 50
44.8442
  7
TSTYLE14
100
AcDbText
  0
TEXT
  5
1A0
330
19C
100
AcDbEntity
  8
0
  6
Continuous
 62
     0
100
AcDbText
 10
-565.534241
 20
2356.199951
 30
0.0
 40
3.0
  1
5
 50
44.8442
  7
TSTYLE14
100
AcDbText
  0
LINE
  5
1A1
330
19C
100
AcDbEntity
  8
0
  6
Continuous
 62
     0
100
AcDbLine
 10
-560.672119
 20
2357.894287
 30
0.0
 11
-558.526306
 21
2361.054443
 31
0.0
  0
LINE
  5
1A2
330
19C
100
AcDbEntity
  8
0
  6
Continuous
 62
     0
100
AcDbLine
 10
-558.526306
 20
2361.054443
 30
0.0
 11
-561.698181
 21
2358.925781
 31
0.0
  0
LINE
  5
1A3
330
19C
100
AcDbEntity
  8
0
  6
Continuous
 62
     0
100
AcDbLine
 10
-561.698181
 20
2358.925781
 30
0.0
 11
-560.672119
 21
2357.894287
 31
0.0
  0
ENDBLK
  5
1A5
330
19C
100
AcDbEntity
  8
0
100
AcDbBlockEnd
  0
BLOCK
  5
1C7
330
1BA
100
AcDbEntity
  8
0
100
AcDbBlockBegin
  2
.TD_DIMENSION_1
 70
     0
 10
-497.540222
 20
3565.70459
 30
0.0
  3
.TD_DIMENSION_1
  1

  0
LINE
  5
1BB
330
1BA
100
AcDbEntity
  8
0
  6
Continuous
 62
     0
100
AcDbLine
 10
-188.770111
 20
1822.852295
 30
0.0
 11
459.239685
 21
1822.852295
 31
0.0
  0
LINE
  5
1BC
330
1BA
100
AcDbEntity
  8
0
  6
Continuous
 62
     0
100
AcDbLine
 10
-208.770111
 20
1818.280273
 30
0.0
 11
-208.770111
 21
1943.161987
 31
0.0
  0
LINE
  5
1BD
330
1BA
100
AcDbEntity
  8
0
  6
Continuous
 62
     0
100
AcDbLine
 10
479.239685
 20
1818.280273
 30
0.0
 11
479.239685
 21
1943.161987
 31
0.0
  0
MTEXT
  5
1BE
330
1BA
100
AcDbEntity
  8
0
  6
Continuous
 62
     0
100
AcDbMText
 10
81.513916
 20
1857.142349
 30
0.0
 40
22.860001
 41
0.0
 46
0.0
 71
     1
 72
     1
  1
{\fArial|b0|i0;27 3/32"}
 73
     2
 44
0.99598
  0
LINE
  5
1BF
330
1BA
100
AcDbEntity
  8
0
  6
Continuous
 62
     0
100
AcDbLine
 10
-208.770111
 20
1822.852295
 30
0.0
 11
-188.770111
 21
1818.972295
 31
0.0
  0
LINE
  5
1C0
330
1BA
100
AcDbEntity
  8
0
  6
Continuous
 62
     0
100
AcDbLine
 10
-208.770111
 20
1822.852295
 30
0.0
 11
-188.770111
 21
1826.732295
 31
0.0
  0
LINE
  5
1C1
330
1BA
100
AcDbEntity
  8
0
  6
Continuous
 62
     0
100
AcDbLine
 10
-188.770111
 20
1818.972295
 30
0.0
 11
-188.770111
 21
1826.732295
 31
0.0
  0
HATCH
  5
1C2
330
1BA
100
AcDbEntity
  8
0
  6
Continuous
 62
     0
100
AcDbHatch
 10
0.0
 20
0.0
 30
0.0
210
0.0
220
0.0
230
1.0
  2
SOLID
 70
     1
 71
     0
 91
        1
 92
        1
 93
        3
 72
     1
 10
-208.7701110839844
 20
1822.852294921875
 11
-188.7701110839844
 21
1826.732294921875
 72
     1
 10
-188.7701110839844
 20
1826.732294921875
 11
-188.7701110839844
 21
1818.972294921875
 72
     1
 10
-188.7701110839844
 20
1818.972294921875
 11
-208.7701110839844
 21
1822.852294921875
 97
        0
 75
     0
 76
     1
 98
        0
  0
LINE
  5
1C3
330
1BA
100
AcDbEntity
  8
0
  6
Continuous
 62
     0
100
AcDbLine
 10
479.239685
 20
1822.852295
 30
0.0
 11
459.239685
 21
1826.732295
 31
0.0
  0
LINE
  5
1C4
330
1BA
100
AcDbEntity
  8
0
  6
Continuous
 62
     0
100
AcDbLine
 10
479.239685
 20
1822.852295
 30
0.0
 11
459.239685
 21
1818.972295
 31
0.0
  0
LINE
  5
1C5
330
1BA
100
AcDbEntity
  8
0
  6
Continuous
 62
     0
100
AcDbLine
 10
459.239685
 20
1826.732295
 30
0.0
 11
459.239685
 21
1818.972295
 31
0.0
  0
HATCH
  5
1C6
330
1BA
100
AcDbEntity
  8
0
  6
Continuous
 62
     0
100
AcDbHatch
 10
0.0
 20
0.0
 30
0.0
210
0.0
220
0.0
230
1.0
  2
SOLID
 70
     1
 71
     0
 91
        1
 92
        1
 93
        3
 72
     1
 10
479.2396849160157
 20
1822.852294921875
 11
459.2396849160157
 21
1818.972294921875
 72
     1
 10
459.2396849160157
 20
1818.972294921875
 11
459.2396849160157
 21
1826.732294921875
 72
     1
 10
459.2396849160157
 20
1826.732294921875
 11
479.2396849160157
 21
1822.852294921875
 97
        0
 75
     0
 76
     1
 98
        0
  0
ENDBLK
  5
1C8
330
1BA
100
AcDbEntity
  8
0
100
AcDbBlockEnd
  0
BLOCK
  5
1D7
330
1CA
100
AcDbEntity
  8
0
100
AcDbBlockBegin
  2
.TD_DIMENSION_2
 70
     0
 10
957.615784
 20
3805.46045
 30
0.0
  3
.TD_DIMENSION_2
  1

  0
LINE
  5
1CB
330
1CA
100
AcDbEntity
  8
0
  6
Continuous
 62
     0
100
AcDbLine
 10
581.997803
 20
1962.730225
 30
0.0
 11
581.997803
 21
2320.722656
 31
0.0
  0
LINE
  5
1CC
330
1CA
100
AcDbEntity
  8
0
  6
Continuous
 62
     0
100
AcDbLine
 10
586.569824
 20
1942.730225
 30
0.0
 11
478.807892
 21
1942.730225
 31
0.0
  0
LINE
  5
1CD
330
1CA
100
AcDbEntity
  8
0
  6
Continuous
 62
     0
100
AcDbLine
 10
586.569824
 20
2340.722656
 30
0.0
 11
478.807892
 21
2340.722656
 31
0.0
  0
MTEXT
  5
1CE
330
1CA
100
AcDbEntity
  8
0
  6
Continuous
 62
     0
100
AcDbMText
 10
547.70781
 20
2071.431885
 30
0.0
 40
22.860001
 41
0.0
 46
0.0
 71
     1
 72
     1
  1
{\W1.03;{\W1.0609;{\fArial|b0|i0;15 2/3"}}}
 11
3.896499959564406E-12
 21
1.0
 31
0.0
 73
     2
 44
0.99598
  0
LINE
  5
1CF
330
1CA
100
AcDbEntity
  8
0
  6
Continuous
 62
     0
100
AcDbLine
 10
581.997803
 20
1942.730225
 30
0.0
 11
585.877803
 21
1962.730225
 31
0.0
  0
LINE
  5
1D0
330
1CA
100
AcDbEntity
  8
0
  6
Continuous
 62
     0
100
AcDbLine
 10
581.997803
 20
1942.730225
 30
0.0
 11
578.117803
 21
1962.730225
 31
0.0
  0
LINE
  5
1D1
330
1CA
100
AcDbEntity
  8
0
  6
Continuous
 62
     0
100
AcDbLine
 10
585.877803
 20
1962.730225
 30
0.0
 11
578.117803
 21
1962.730225
 31
0.0
  0
HATCH
  5
1D2
330
1CA
100
AcDbEntity
  8
0
  6
Continuous
 62
     0
100
AcDbHatch
 10
0.0
 20
0.0
 30
0.0
210
0.0
220
0.0
230
1.0
  2
SOLID
 70
     1
 71
     0
 91
        1
 92
        1
 93
        3
 72
     1
 10
581.9978028457031
 20
1942.730224609375
 11
578.1178028457031
 21
1962.730224609375
 72
     1
 10
578.1178028457032
 20
1962.730224609375
 11
585.8778028457032
 21
1962.730224609375
 72
     1
 10
585.8778028457032
 20
1962.730224609375
 11
581.9978028457032
 21
1942.730224609375
 97
        0
 75
     0
 76
     1
 98
        0
  0
LINE
  5
1D3
330
1CA
100
AcDbEntity
  8
0
  6
Continuous
 62
     0
100
AcDbLine
 10
581.997803
 20
2340.722656
 30
0.0
 11
578.117803
 21
2320.722656
 31
0.0
  0
LINE
  5
1D4
330
1CA
100
AcDbEntity
  8
0
  6
Continuous
 62
     0
100
AcDbLine
 10
581.997803
 20
2340.722656
 30
0.0
 11
585.877803
 21
2320.722656
 31
0.0
  0
LINE
  5
1D5
330
1CA
100
AcDbEntity
  8
0
  6
Continuous
 62
     0
100
AcDbLine
 10
578.117803
 20
2320.722656
 30
0.0
 11
585.877803
 21
2320.722656
 31
0.0
  0
HATCH
  5
1D6
330
1CA
100
AcDbEntity
  8
0
  6
Continuous
 62
     0
100
AcDbHatch
 10
0.0
 20
0.0
 30
0.0
210
0.0
220
0.0
230
1.0
  2
SOLID
 70
     1
 71
     0
 91
        1
 92
        1
 93
        3
 72
     1
 10
581.9978028457031
 20
2340.722655609375
 11
585.8778028457031
 21
2320.722655609375
 72
     1
 10
585.8778028457032
 20
2320.722655609375
 11
578.1178028457032
 21
2320.722655609375
 72
     1
 10
578.1178028457032
 20
2320.722655609375
 11
581.9978028457032
 21
2340.722655609375
 97
        0
 75
     0
 76
     1
 98
        0
  0
ENDBLK
  5
1D8
330
1CA
100
AcDbEntity
  8
0
100
AcDbBlockEnd
  0
BLOCK
  5
1E1
330
1DA
100
AcDbEntity
  8
0
100
AcDbBlockBegin
  2
.TD_DIMENSION_3
 70
     0
 10
-524.772278
 20
4533.39746
 30
0.0
  3
.TD_DIMENSION_3
  1

  0
LINE
  5
1DB
330
1DA
100
AcDbEntity
  8
0
  6
Continuous
 62
     0
100
AcDbLine
 10
-195.128799
 20
2323.460205
 30
0.0
 11
-203.766312
 21
2335.718994
 31
0.0
  0
LINE
  5
1DC
330
1DA
100
AcDbEntity
  8
0
  6
Continuous
 62
     0
100
AcDbLine
 10
-203.766312
 20
2335.718994
 30
0.0
 11
-155.135086
 21
2266.69873
 31
0.0
  0
MTEXT
  5
1DD
330
1DA
100
AcDbEntity
  8
0
  6
Continuous
 62
     0
100
AcDbMText
 10
-160.021462
 20
2333.167137
 30
0.0
 40
22.860001
 41
0.0
 46
0.0
 71
     1
 72
     1
  1
{\W1.08;{\W1.1664;{\fArial|b0|i0;1/5"}}}
 11
0.5759797546993923
 21
-0.8174639577231695
 31
0.0
 73
     2
 44
0.99598
  0
LINE
  5
1DE
330
1DA
100
AcDbEntity
  8
0
  6
Continuous
 62
     0
100
AcDbLine
 10
-191.957047
 20
2325.694824
 30
0.0
 11
-206.648392
 21
2339.809326
 31
0.0
  0
LINE
  5
1DF
330
1DA
100
AcDbEntity
  8
0
  6
Continuous
 62
     0
100
AcDbLine
 10
-206.648392
 20
2339.809326
 30
0.0
 11
-198.300568
 21
2321.225342
 31
0.0
  0
LINE
  5
1E0
330
1DA
100
AcDbEntity
  8
0
  6
Continuous
 62
     0
100
AcDbLine
 10
-198.300568
 20
2321.225342
 30
0.0
 11
-191.957047
 21
2325.694824
 31
0.0
  0
ENDBLK
  5
1E2
330
1DA
100
AcDbEntity
  8
0
100
AcDbBlockEnd
  0
BLOCK
  5
1EF
330
1E5
100
AcDbEntity
  8
0
100
AcDbBlockBegin
  2
*D20
 70
     1
 10
0.0
 20
0.0
 30
0.0
  3
*D20
  1

  0
LINE
  5
1E6
330
1E5
100
AcDbEntity
  8
0
  6
Continuous
 62
    32
370
    -2
100
AcDbLine
 10
-627.180813
 20
2321.001811
 30
0.0
 11
-627.180813
 21
2310.03833
 31
0.0
  0
LINE
  5
1E7
330
1E5
100
AcDbEntity
  8
0
  6
Continuous
 62
    32
370
    -2
100
AcDbLine
 10
-558.380813
 20
2321.001811
 30
0.0
 11
-558.380813
 21
2310.03833
 31
0.0
  0
LINE
  5
1E8
330
1E5
100
AcDbEntity
  8
0
  6
Continuous
 62
    32
370
    -2
100
AcDbLine
 10
-623.430813
 20
2311.03833
 30
0.0
 11
-562.130813
 21
2311.03833
 31
0.0
  0
SOLID
  5
1E9
330
1E5
100
AcDbEntity
  8
0
 62
    32
100
AcDbTrace
 10
-623.430813
 20
2311.66333
 30
0.0
 11
-623.430813
 21
2310.41333
 31
0.0
 12
-627.180813
 22
2311.03833
 32
0.0
 13
-627.180813
 23
2311.03833
 33
0.0
  0
SOLID
  5
1EA
330
1E5
100
AcDbEntity
  8
0
 62
    32
100
AcDbTrace
 10
-562.130813
 20
2310.41333
 30
0.0
 11
-562.130813
 21
2311.66333
 31
0.0
 12
-558.380813
 22
2311.03833
 32
0.0
 13
-558.380813
 23
2311.03833
 33
0.0
  0
MTEXT
  5
1EB
330
1E5
100
AcDbEntity
  8
0
 62
     1
100
AcDbMText
 10
-595.230286
 20
2313.61983
 30
0.0
 40
3.0
 41
0.0
 46
0.0
 71
     5
 72
     1
  1
\A1;\fArial|b0|i0|c0|p0;{\fArial|b0|i0;688}
  7
TSTYLE13
 73
     1
 44
1.0
  0
POINT
  5
1EC
330
1E5
100
AcDbEntity
  8
DEFPOINTS
 62
     0
100
AcDbPoint
 10
-627.180813
 20
2321.901811
 30
0.0
  0
POINT
  5
1ED
330
1E5
100
AcDbEntity
  8
DEFPOINTS
 62
     0
100
AcDbPoint
 10
-558.380813
 20
2321.901811
 30
0.0
  0
POINT
  5
1EE
330
1E5
100
AcDbEntity
  8
DEFPOINTS
 62
     0
100
AcDbPoint
 10
-558.380813
 20
2311.03833
 30
0.0
  0
ENDBLK
  5
1F0
330
1E5
100
AcDbEntity
  8
0
100
AcDbBlockEnd
  0
BLOCK
  5
1FC
330
1F2
100
AcDbEntity
  8
0
100
AcDbBlockBegin
  2
*D21
 70
     1
 10
0.0
 20
0.0
 30
0.0
  3
*D21
  1

  0
LINE
  5
1F3
330
1F2
100
AcDbEntity
  8
0
  6
Continuous
 62
    32
370
    -2
100
AcDbLine
 10
-627.580813
 20
2321.401811
 30
0.0
 11
-641.839234
 21
2321.401811
 31
0.0
  0
LINE
  5
1F4
330
1F2
100
AcDbEntity
  8
0
  6
Continuous
 62
    32
370
    -2
100
AcDbLine
 10
-627.580813
 20
2361.201811
 30
0.0
 11
-641.839234
 21
2361.201811
 31
0.0
  0
LINE
  5
1F5
330
1F2
100
AcDbEntity
  8
0
  6
Continuous
 62
    32
370
    -2
100
AcDbLine
 10
-640.839233
 20
2325.151811
 30
0.0
 11
-640.839233
 21
2357.451811
 31
0.0
  0
SOLID
  5
1F6
330
1F2
100
AcDbEntity
  8
0
 62
    32
100
AcDbTrace
 10
-641.464233
 20
2325.151811
 30
0.0
 11
-640.214233
 21
2325.151811
 31
0.0
 12
-640.839233
 22
2321.401811
 32
0.0
 13
-640.839233
 23
2321.401811
 33
0.0
  0
SOLID
  5
1F7
330
1F2
100
AcDbEntity
  8
0
 62
    32
100
AcDbTrace
 10
-640.214233
 20
2357.451811
 30
0.0
 11
-641.464233
 21
2357.451811
 31
0.0
 12
-640.839233
 22
2361.201811
 32
0.0
 13
-640.839233
 23
2361.201811
 33
0.0
  0
MTEXT
  5
1F8
330
1F2
100
AcDbEntity
  8
0
 62
     1
100
AcDbMText
 10
-643.420733
 20
2340.029297
 30
0.0
 40
3.0
 41
0.0
 46
0.0
 71
     5
 72
     1
  1
\A1;\fArial|b0|i0|c0|p0;{\fArial|b0|i0;398}
  7
TSTYLE13
 11
0.0
 21
1.0
 31
0.0
 73
     1
 44
1.0
  0
POINT
  5
1F9
330
1F2
100
AcDbEntity
  8
DEFPOINTS
 62
     0
100
AcDbPoint
 10
-626.680813
 20
2321.401811
 30
0.0
  0
POINT
  5
1FA
330
1F2
100
AcDbEntity
  8
DEFPOINTS
 62
     0
100
AcDbPoint
 10
-626.680813
 20
2361.201811
 30
0.0
  0
POINT
  5
1FB
330
1F2
100
AcDbEntity
  8
DEFPOINTS
 62
     0
100
AcDbPoint
 10
-640.839233
 20
2361.201811
 30
0.0
  0
ENDBLK
  5
1FD
330
1F2
100
AcDbEntity
  8
0
100
AcDbBlockEnd
  0
BLOCK
  5
209
330
1FF
100
AcDbEntity
  8
0
100
AcDbBlockBegin
  2
*D22
 70
     1
 10
0.0
 20
0.0
 30
0.0
  3
*D22
  1

  0
LINE
  5
200
330
1FF
100
AcDbEntity
  8
3
  6
Continuous
 62
    32
370
    -2
100
AcDbLine
 10
-465.320103
 20
2227.758298
 30
0.0
 11
-465.320103
 21
2223.536377
 31
0.0
  0
LINE
  5
201
330
1FF
100
AcDbEntity
  8
3
  6
Continuous
 62
    32
370
    -2
100
AcDbLine
 10
-417.820103
 20
2227.758298
 30
0.0
 11
-417.820103
 21
2223.536377
 31
0.0
  0
LINE
  5
202
330
1FF
100
AcDbEntity
  8
3
  6
Continuous
 62
    32
370
    -2
100
AcDbLine
 10
-464.070103
 20
2224.161377
 30
0.0
 11
-419.070103
 21
2224.161377
 31
0.0
  0
SOLID
  5
203
330
1FF
100
AcDbEntity
  8
3
 62
    32
100
AcDbTrace
 10
-464.070103
 20
2224.36971
 30
0.0
 11
-464.070103
 21
2223.953044
 31
0.0
 12
-465.320103
 22
2224.161377
 32
0.0
 13
-465.320103
 23
2224.161377
 33
0.0
  0
SOLID
  5
204
330
1FF
100
AcDbEntity
  8
3
 62
    32
100
AcDbTrace
 10
-419.070103
 20
2223.953044
 30
0.0
 11
-419.070103
 21
2224.36971
 31
0.0
 12
-417.820103
 22
2224.161377
 32
0.0
 13
-417.820103
 23
2224.161377
 33
0.0
  0
MTEXT
  5
205
330
1FF
100
AcDbEntity
  8
3
 62
     1
100
AcDbMText
 10
-444.020325
 20
2226.431064
 30
0.0
 40
1.874999
 41
0.0
 46
0.0
 71
     5
 72
     1
  1
\A1;\fArial|b0|i0|c0|p0;{\fArial|b0|i0;760}
  7
TSTYLE15
 73
     1
 44
1.0
  0
POINT
  5
206
330
1FF
100
AcDbEntity
  8
DEFPOINTS
 62
     0
100
AcDbPoint
 10
-465.320103
 20
2231.528437
 30
0.0
  0
POINT
  5
207
330
1FF
100
AcDbEntity
  8
DEFPOINTS
 62
     0
100
AcDbPoint
 10
-417.820103
 20
2231.528437
 30
0.0
  0
POINT
  5
208
330
1FF
100
AcDbEntity
  8
DEFPOINTS
 62
     0
100
AcDbPoint
 10
-417.820103
 20
2224.161377
 30
0.0
  0
ENDBLK
  5
20A
330
1FF
100
AcDbEntity
  8
0
100
AcDbBlockEnd
  0
BLOCK
  5
217
330
20D
100
AcDbEntity
  8
0
100
AcDbBlockBegin
  2
*D23
 70
     1
 10
0.0
 20
0.0
 30
0.0
  3
*D23
  1

  0
LINE
  5
20E
330
20D
100
AcDbEntity
  8
0
  6
Continuous
 62
    32
370
    -2
100
AcDbLine
 10
-413.408931
 20
2231.528437
 30
0.0
 11
-409.488373
 21
2231.528437
 31
0.0
  0
LINE
  5
20F
330
20D
100
AcDbEntity
  8
0
  6
Continuous
 62
    32
370
    -2
100
AcDbLine
 10
-413.408931
 20
2258.715937
 30
0.0
 11
-409.488373
 21
2258.715937
 31
0.0
  0
LINE
  5
210
330
20D
100
AcDbEntity
  8
0
  6
Continuous
 62
    32
370
    -2
100
AcDbLine
 10
-410.113373
 20
2232.778437
 30
0.0
 11
-410.113373
 21
2257.465937
 31
0.0
  0
SOLID
  5
211
330
20D
100
AcDbEntity
  8
0
 62
    32
100
AcDbTrace
 10
-410.321706
 20
2232.778437
 30
0.0
 11
-409.905039
 21
2232.778437
 31
0.0
 12
-410.113373
 22
2231.528437
 32
0.0
 13
-410.113373
 23
2231.528437
 33
0.0
  0
SOLID
  5
212
330
20D
100
AcDbEntity
  8
0
 62
    32
100
AcDbTrace
 10
-409.905039
 20
2257.465937
 30
0.0
 11
-410.321706
 21
2257.465937
 31
0.0
 12
-410.113373
 22
2258.715937
 32
0.0
 13
-410.113373
 23
2258.715937
 33
0.0
  0
MTEXT
  5
213
330
20D
100
AcDbEntity
  8
0
 62
     1
370
     0
100
AcDbMText
 10
-412.383061
 20
2245.122187
 30
0.0
 40
1.875
 41
0.0
 46
0.0
 71
     5
 72
     1
  1
\A1;\fArial|b0|i0|c0|p0;435
  7
TSTYLE15
 11
0.0
 21
1.0
 31
0.0
 73
     1
 44
1.0
  0
POINT
  5
214
330
20D
100
AcDbEntity
  8
DEFPOINTS
 62
     0
100
AcDbPoint
 10
-417.820103
 20
2231.528437
 30
0.0
  0
POINT
  5
215
330
20D
100
AcDbEntity
  8
DEFPOINTS
 62
     0
100
AcDbPoint
 10
-417.820103
 20
2258.715937
 30
0.0
  0
POINT
  5
216
330
20D
100
AcDbEntity
  8
DEFPOINTS
 62
     0
100
AcDbPoint
 10
-410.113373
 20
2258.715937
 30
0.0
  0
ENDBLK
  5
218
330
20D
100
AcDbEntity
  8
0
100
AcDbBlockEnd
  0
ENDSEC
  0
SECTION
  2
ENTITIES
  0
LINE
  5
5F
330
1F
100
AcDbEntity
  8
0
  6
Continuous
 62
     4
420
    65535
100
AcDbLine
 10
-391.315989
 20
2213.277471
 30
0.0
 11
-391.315989
 21
2408.09873
 31
0.0
  0
LINE
  5
60
330
1F
100
AcDbEntity
  8
0
  6
Continuous
 62
     4
420
    65535
100
AcDbLine
 10
-391.316009
 20
2213.277471
 30
0.0
 11
-667.316009
 21
2213.277471
 31
0.0
  0
LINE
  5
61
330
1F
100
AcDbEntity
  8
0
  6
Continuous
 62
     4
420
    65535
100
AcDbLine
 10
-667.316009
 20
2213.277471
 30
0.0
 11
-667.316009
 21
2406.277471
 31
0.0
  0
LINE
  5
62
330
1F
100
AcDbEntity
  8
0
  6
Continuous
 62
     4
420
    65535
100
AcDbLine
 10
-392.230865
 20
2214.277471
 30
0.0
 11
-666.316009
 21
2214.277471
 31
0.0
  0
LINE
  5
63
330
1F
100
AcDbEntity
  8
0
  6
Continuous
 62
     4
420
    65535
100
AcDbLine
 10
-667.316009
 20
2213.277471
 30
0.0
 11
-667.316009
 21
2408.09873
 31
0.0
  0
LINE
  5
64
330
1F
100
AcDbEntity
  8
0
  6
Continuous
 62
     4
420
    65535
100
AcDbLine
 10
-666.316009
 20
2214.277471
 30
0.0
 11
-666.316009
 21
2407.167822
 31
0.0
  0
LINE
  5
65
330
1F
100
AcDbEntity
  8
0
  6
Continuous
 62
     4
420
    65535
100
AcDbLine
 10
-392.230844
 20
2214.277471
 30
0.0
 11
-392.230844
 21
2407.167822
 31
0.0
  0
LINE
  5
66
330
1F
100
AcDbEntity
  8
0
  6
Continuous
 62
     4
420
    65535
100
AcDbLine
 10
-667.316004
 20
2408.09873
 30
0.0
 11
-391.316004
 21
2408.09873
 31
0.0
  0
LINE
  5
67
330
1F
100
AcDbEntity
  8
0
  6
Continuous
 62
     4
420
    65535
100
AcDbLine
 10
-666.316004
 20
2407.167822
 30
0.0
 11
-392.23086
 21
2407.167822
 31
0.0
  0
TEXT
  5
8A
330
1F
100
AcDbEntity
  8
0
  6
Continuous
 62
     3
420
    65280
100
AcDbText
 10
-606.391923
 20
2396.546848
 30
0.0
 40
5.068799
  1
SAGOMA SCASSO PER POSIZIONAMENTO SOTTO-TOP ON7610ST
 41
0.64
  7
TSTYLE4
100
AcDbText
  0
TEXT
  5
8B
330
1F
100
AcDbEntity
  8
0
  6
Continuous
 62
     3
420
    65280
100
AcDbText
 10
-613.160016
 20
2339.904932
 30
0.0
 40
2.34
  1
Dima per montaggio sotto-top
 41
0.89
  7
TSTYLE8
100
AcDbText
  0
LINE
  5
8C
330
1F
100
AcDbEntity
  8
0
  6
Continuous
 62
     3
420
    65280
100
AcDbLine
 10
-449.695199
 20
2340.924473
 30
0.0
 11
-448.158366
 21
2328.407973
 31
0.0
  0
LINE
  5
8D
330
1F
100
AcDbEntity
  8
0
  6
Continuous
 62
     3
420
    65280
100
AcDbLine
 10
-451.911099
 20
2338.004153
 30
0.0
 11
-450.737416
 21
2328.445278
 31
0.0
  0
LINE
  5
8E
330
1F
100
AcDbEntity
  8
0
  6
Continuous
 62
     3
420
    65280
100
AcDbLine
 10
-465.473856
 20
2338.709316
 30
0.0
 11
-465.483922
 21
2338.517244
 31
0.0
  0
ARC
  5
8F
330
1F
100
AcDbEntity
  8
0
  6
Continuous
 62
     3
420
    65280
100
AcDbCircle
 10
-465.734677
 20
2340.707484
 30
0.0
 40
1.09512
100
AcDbArc
 50
90.0
 51
176.999975
  0
ARC
  5
90
330
1F
100
AcDbEntity
  8
0
  6
Continuous
 62
     3
420
    65280
100
AcDbCircle
 10
-465.291586
 20
2338.699764
 30
0.0
 40
0.18252
100
AcDbArc
 50
90.0
 51
176.999975
  0
LINE
  5
91
330
1F
100
AcDbEntity
  8
0
  6
Continuous
 62
     3
420
    65280
100
AcDbLine
 10
-456.901501
 20
2338.882284
 30
0.0
 11
-452.903645
 21
2338.882284
 31
0.0
  0
LINE
  5
92
330
1F
100
AcDbEntity
  8
0
  6
Continuous
 62
     3
420
    65280
100
AcDbLine
 10
-466.828296
 20
2340.764798
 30
0.0
 11
-466.946086
 21
2338.517244
 31
0.0
  0
LINE
  5
93
330
1F
100
AcDbEntity
  8
0
  6
Continuous
 62
     3
420
    65280
100
AcDbLine
 10
-475.455125
 20
2356.769244
 30
0.0
 11
-451.155359
 21
2356.769244
 31
0.0
  0
LINE
  5
94
330
1F
100
AcDbEntity
  8
0
  6
Continuous
 62
     3
420
    65280
100
AcDbLine
 10
-449.695199
 20
2342.167644
 30
0.0
 11
-475.144287
 21
2342.167644
 31
0.0
  0
LINE
  5
95
330
1F
100
AcDbEntity
  8
0
  6
Continuous
 62
     3
420
    65280
100
AcDbLine
 10
-449.695199
 20
2355.309084
 30
0.0
 11
-449.695199
 21
2342.167644
 31
0.0
  0
LINE
  5
97
330
1F
100
AcDbEntity
  8
0
  6
CENTER2
 62
     2
420
 16776960
100
AcDbLine
 10
-458.25154
 20
2348.730087
 30
0.0
 11
-458.251563
 21
2334.475351
 31
0.0
  0
SPLINE
  5
98
330
1F
100
AcDbEntity
  8
0
  6
Continuous
 62
     7
420
 16777215
100
AcDbSpline
210
0.0
220
0.0
230
1.0
 70
     8
 71
     3
 72
    14
 73
    10
 74
     0
 42
0.0
 43
0.0
 40
0.0
 40
0.0
 40
0.0
 40
0.0
 40
0.3945954458777901
 40
0.7967640184398758
 40
1.179804538144641
 40
1.559816068772329
 40
1.940473957720832
 40
2.32488532037726
 40
2.711824984110998
 40
2.711824984110998
 40
2.711824984110998
 40
2.711824984110998
 10
-451.1431924170313
 20
2328.127951242216
 30
0.0
 10
-451.0579650351468
 20
2328.228135631276
 30
0.0
 10
-450.8508139347776
 20
2328.401789551497
 30
0.0
 10
-450.4886976837698
 20
2328.566142133685
 30
0.0
 10
-450.0862758596284
 20
2328.596021873551
 30
0.0
 10
-449.7336806530544
 20
2328.438695297028
 30
0.0
 10
-449.3696293716565
 20
2328.312277462357
 30
0.0
 10
-448.9783843191811
 20
2328.333137093808
 30
0.0
 10
-448.7291347627412
 20
2328.398022521061
 30
0.0
 10
-448.6069590897817
 20
2328.439361563412
 30
0.0
  0
SPLINE
  5
99
330
1F
100
AcDbEntity
  8
0
  6
Continuous
 62
     2
420
 16776960
100
AcDbSpline
210
0.0
220
0.0
230
1.0
 70
     8
 71
     3
 72
    18
 73
    14
 74
     0
 42
0.0
 43
0.0
 40
0.0
 40
0.0
 40
0.0
 40
0.0
 40
1.077159914412573
 40
2.155301580620724
 40
3.219388245030912
 40
4.29441430085643
 40
6.412562878169325
 40
8.493349108782706
 40
9.585816381589222
 40
10.67585872762891
 40
11.74517328529283
 40
12.8123397153174
 40
14.95937734707682
 40
14.95937734707682
 40
14.95937734707682
 40
14.95937734707682
 10
-475.1442869434552
 20
2342.167643638349
 30
0.0
 10
-475.0252596138331
 20
2342.50639394535
 30
0.0
 10
-474.8174003934381
 20
2343.195809061826
 30
0.0
 10
-474.6489647595024
 20
2344.260293857088
 30
0.0
 10
-474.7125866688983
 20
2345.344573309291
 30
0.0
 10
-475.1554896905453
 20
2346.693447320707
 30
0.0
 10
-475.8916248689916
 20
2348.346147036293
 30
0.0
 10
-475.5510417420176
 20
2350.15033737041
 30
0.0
 10
-475.1464021037391
 20
2351.50305697756
 30
0.0
 10
-474.8721880515642
 20
2352.55517214938
 30
0.0
 10
-474.7668580950519
 20
2353.632066477299
 30
0.0
 10
-474.9153294018844
 20
2355.059404894005
 30
0.0
 10
-475.2266866080799
 20
2356.091001194569
 30
0.0
 10
-475.4551246082503
 20
2356.769243638349
 30
0.0
  0
LINE
  5
9A
330
1F
100
AcDbEntity
  8
0
  6
Continuous
 62
     3
420
    65280
100
AcDbLine
 10
-459.673006
 20
2338.417194
 30
0.0
 11
-459.673043
 21
2338.782232
 31
0.0
  0
LINE
  5
9B
330
1F
100
AcDbEntity
  8
0
  6
Continuous
 62
     3
420
    65280
100
AcDbLine
 10
-456.830071
 20
2338.782431
 30
0.0
 11
-454.501556
 21
2338.782672
 31
0.0
  0
LINE
  5
9C
330
1F
100
AcDbEntity
  8
0
  6
Continuous
 62
     3
420
    65280
100
AcDbLine
 10
-456.830108
 20
2338.417399
 30
0.0
 11
-454.501557
 21
2338.417641
 31
0.0
  0
ARC
  5
9D
330
1F
100
AcDbEntity
  8
0
  6
Continuous
 62
     3
420
    65280
100
AcDbCircle
 10
-451.155359
 20
2355.309084
 30
0.0
 40
1.46016
100
AcDbArc
 50
0.0
 51
90.0
  0
LINE
  5
9E
330
1F
100
AcDbEntity
  8
0
  6
Continuous
 62
     3
420
    65280
100
AcDbLine
 10
-459.601501
 20
2341.802604
 30
0.0
 11
-465.734677
 21
2341.802604
 31
0.0
  0
LINE
  5
9F
330
1F
100
AcDbEntity
  8
0
  6
Continuous
 62
     6
420
 16711935
100
AcDbLine
 10
-451.470111
 20
2342.16766
 30
0.0
 11
-451.470111
 21
2341.80262
 31
0.0
  0
LINE
  5
A0
330
1F
100
AcDbEntity
  8
0
  6
Continuous
 62
     6
420
 16711935
100
AcDbLine
 10
-456.501551
 20
2341.802604
 30
0.0
 11
-456.501551
 21
2342.167644
 31
0.0
  0
LINE
  5
A1
330
1F
100
AcDbEntity
  8
0
  6
Continuous
 62
     7
420
 16777215
100
AcDbLine
 10
-427.782818
 20
2326.982314
 30
0.0
 11
-448.606959
 21
2328.439361
 31
0.0
  0
SPLINE
  5
A2
330
1F
100
AcDbEntity
  8
0
  6
Continuous
 62
     1
420
 16711680
100
AcDbSpline
210
0.0
220
0.0
230
1.0
 70
     8
 71
     3
 72
    24
 73
    20
 74
     0
 42
0.0
 43
0.0
 40
0.0
 40
0.0
 40
0.0
 40
0.0
 40
1.14676589439927
 40
2.312375361023434
 40
2.88169869080269
 40
3.443927430300506
 40
4.011370651092091
 40
4.582891766064563
 40
5.720644252655447
 40
6.298730074291599
 40
6.889931214250957
 40
7.455151411531018
 40
7.961915840250295
 40
8.989924991072398
 40
10.20269451688376
 40
11.44174334756012
 40
12.59543823977787
 40
13.73806419263796
 40
15.99855464678049
 40
15.99855464678049
 40
15.99855464678049
 40
15.99855464678049
 10
-425.8226328873409
 20
2341.802598622945
 30
0.0
 10
-426.1366661187786
 20
2341.584648531173
 30
0.0
 10
-426.6909339917474
 20
2341.026856432922
 30
0.0
 10
-427.1400563091483
 20
2340.157224925361
 30
0.0
 10
-427.2901362955284
 20
2339.399982356591
 30
0.0
 10
-427.2711086386882
 20
2338.831349424547
 30
0.0
 10
-427.2127502915619
 20
2338.267387022528
 30
0.0
 10
-427.2043018922004
 20
2337.508169027374
 30
0.0
 10
-427.334340810411
 20
2336.741620703538
 30
0.0
 10
-427.6778289019476
 20
2336.047570682874
 30
0.0
 10
-428.0251898319621
 20
2335.583965864074
 30
0.0
 10
-428.3549581053367
 20
2335.138842783223
 30
0.0
 10
-428.620022120183
 20
2334.46830995462
 30
0.0
 10
-428.3465445563529
 20
2333.527780306525
 30
0.0
 10
-427.7610188241273
 20
2332.546466298319
 30
0.0
 10
-427.1748131955547
 20
2331.480305809766
 30
0.0
 10
-426.9854205620919
 20
2330.293941720606
 30
0.0
 10
-427.1796291781025
 20
2328.77556384967
 30
0.0
 10
-427.5690530809525
 20
2327.704852423865
 30
0.0
 10
-427.7828181357675
 20
2326.982313873926
 30
0.0
  0
LINE
  5
A3
330
1F
100
AcDbEntity
  8
0
  6
Continuous
 62
     7
420
 16777215
100
AcDbLine
 10
-451.155359
 20
2356.769244
 30
0.0
 11
-428.340442
 21
2356.769244
 31
0.0
  0
SPLINE
  5
A4
330
1F
100
AcDbEntity
  8
0
  6
Continuous
 62
     1
420
 16711680
100
AcDbSpline
210
0.0
220
0.0
230
1.0
 70
     8
 71
     3
 72
    29
 73
    25
 74
     0
 42
0.0
 43
0.0
 40
0.0
 40
0.0
 40
0.0
 40
0.0
 40
1.203537427589399
 40
2.449533068464418
 40
3.639476656911079
 40
4.214963963058638
 40
4.798966160690755
 40
5.402365855315068
 40
6.008157823205179
 40
6.588897550073038
 40
7.124287385071645
 40
7.625543332042682
 40
8.143311643007848
 40
8.703291335308647
 40
9.300541966426897
 40
10.53234960368222
 40
11.13623459485464
 40
11.73540896936924
 40
12.95878280800442
 40
13.51632506015079
 40
14.01614765307161
 40
14.54385148312394
 40
15.13520916881452
 40
16.34211266341702
 40
16.34211266341702
 40
16.34211266341702
 40
16.34211266341702
 10
-428.3404423822983
 20
2356.769243638349
 30
0.0
 10
-428.6460771161364
 20
2356.509374221386
 30
0.0
 10
-429.1876248576365
 20
2355.882448974941
 30
0.0
 10
-429.738233640706
 20
2354.788981138517
 30
0.0
 10
-429.9028084208491
 20
2353.770399904193
 30
0.0
 10
-429.7505952736228
 20
2352.992555611696
 30
0.0
 10
-429.4810032529255
 20
2352.464320909979
 30
0.0
 10
-429.1291995893404
 20
2351.980411764835
 30
0.0
 10
-428.7518159998067
 20
2351.518111467139
 30
0.0
 10
-428.4046982918903
 20
2351.061201537587
 30
0.0
 10
-428.1357987873019
 20
2350.588030586366
 30
0.0
 10
-428.034357356147
 20
2350.068697022399
 30
0.0
 10
-428.111167450906
 20
2349.541661596461
 30
0.0
 10
-428.2881037899062
 20
2349.011112077991
 30
0.0
 10
-428.6021667685959
 20
2348.279482552203
 30
0.0
 10
-428.9328043219526
 20
2347.535883630078
 30
0.0
 10
-429.1163218961681
 20
2346.740748011926
 30
0.0
 10
-429.1103732249204
 20
2345.921557236207
 30
0.0
 10
-428.8250588216032
 20
2345.171270338412
 30
0.0
 10
-428.6491849327224
 20
2344.428559095416
 30
0.0
 10
-428.7171739398184
 20
2343.883156393451
 30
0.0
 10
-429.056293531483
 20
2343.443654694997
 30
0.0
 10
-429.6220237043865
 20
2342.922842102216
 30
0.0
 10
-430.0824934998177
 20
2342.513838266167
 30
0.0
 10
-430.2874215528585
 20
2342.167643638348
 30
0.0
  0
LINE
  5
A5
330
1F
100
AcDbEntity
  8
0
  6
Continuous
 62
     3
420
    65280
100
AcDbLine
 10
-491.529725
 20
2370.004246
 30
0.0
 11
-414.469575
 21
2370.004246
 31
0.0
  0
LINE
  5
A6
330
1F
100
AcDbEntity
  8
0
  6
Continuous
 62
     3
420
    65280
100
AcDbLine
 10
-414.469575
 20
2319.659321
 30
0.0
 11
-491.529725
 21
2319.659321
 31
0.0
  0
LINE
  5
A7
330
1F
100
AcDbEntity
  8
0
  6
Continuous
 62
     3
420
    65280
100
AcDbLine
 10
-466.946086
 20
2338.517244
 30
0.0
 11
-465.483922
 21
2338.517244
 31
0.0
  0
ARC
  5
A8
330
1F
100
AcDbEntity
  8
0
  6
Continuous
 62
     3
420
    65280
100
AcDbCircle
 10
-452.903645
 20
2337.882284
 30
0.0
 40
1.0
100
AcDbArc
 50
7.000001
 51
90.0
  0
LINE
  5
A9
330
1F
100
AcDbEntity
  8
0
  6
Continuous
 62
     7
420
 16777215
100
AcDbLine
 10
-450.687726
 20
2341.802599
 30
0.0
 11
-425.822633
 21
2341.802599
 31
0.0
  0
LINE
  5
AA
330
1F
100
AcDbEntity
  8
0
  6
Continuous
 62
     3
420
    65280
100
AcDbLine
 10
-450.687745
 20
2341.802604
 30
0.0
 11
-456.901501
 21
2341.802604
 31
0.0
  0
LINE
  5
AB
330
1F
100
AcDbEntity
  8
0
  6
Continuous
 62
     3
420
    65280
100
AcDbLine
 10
-465.291586
 20
2338.882284
 30
0.0
 11
-459.601501
 21
2338.882284
 31
0.0
  0
LINE
  5
AC
330
1F
100
AcDbEntity
  8
0
  6
Continuous
 62
     4
420
    65535
100
AcDbLine
 10
-455.501551
 20
2346.167645
 30
0.0
 11
-456.501551
 21
2347.667644
 31
0.0
  0
LINE
  5
AD
330
1F
100
AcDbEntity
  8
0
  6
Continuous
 62
     4
420
    65535
100
AcDbLine
 10
-455.501551
 20
2343.167645
 30
0.0
 11
-461.001551
 21
2343.167643
 31
0.0
  0
LINE
  5
AE
330
1F
100
AcDbEntity
  8
0
  6
Continuous
 62
     4
420
    65535
100
AcDbLine
 10
-461.001551
 20
2346.167643
 30
0.0
 11
-455.501551
 21
2346.167645
 31
0.0
  0
LINE
  5
AF
330
1F
100
AcDbEntity
  8
0
  6
Continuous
 62
     4
420
    65535
100
AcDbLine
 10
-456.501551
 20
2346.167644
 30
0.0
 11
-455.501551
 21
2344.667645
 31
0.0
  0
LINE
  5
B0
330
1F
100
AcDbEntity
  8
0
  6
Continuous
 62
     4
420
    65535
100
AcDbLine
 10
-456.501551
 20
2344.667644
 30
0.0
 11
-455.501551
 21
2343.167645
 31
0.0
  0
LINE
  5
B1
330
1F
100
AcDbEntity
  8
0
  6
Continuous
 62
     4
420
    65535
100
AcDbLine
 10
-456.501551
 20
2343.167644
 30
0.0
 11
-455.501551
 21
2342.167645
 31
0.0
  0
LINE
  5
B2
330
1F
100
AcDbEntity
  8
0
  6
Continuous
 62
     4
420
    65535
100
AcDbLine
 10
-461.001551
 20
2344.667643
 30
0.0
 11
-455.501551
 21
2344.667645
 31
0.0
  0
LINE
  5
B3
330
1F
100
AcDbEntity
  8
0
  6
Continuous
 62
     4
420
    65535
100
AcDbLine
 10
-456.501551
 20
2347.667644
 30
0.0
 11
-457.751542
 21
2347.667644
 31
0.0
  0
LINE
  5
B4
330
1F
100
AcDbEntity
  8
0
  6
Continuous
 62
     4
420
    65535
100
AcDbLine
 10
-457.751542
 20
2347.667644
 30
0.0
 11
-457.751544
 21
2346.567644
 31
0.0
  0
LINE
  5
B5
330
1F
100
AcDbEntity
  8
0
  6
Continuous
 62
     4
420
    65535
100
AcDbLine
 10
-457.751544
 20
2346.567644
 30
0.0
 11
-458.751544
 21
2346.567643
 31
0.0
  0
LINE
  5
B6
330
1F
100
AcDbEntity
  8
0
  6
Continuous
 62
     4
420
    65535
100
AcDbLine
 10
-458.751544
 20
2346.567643
 30
0.0
 11
-458.751542
 21
2347.667643
 31
0.0
  0
LINE
  5
B7
330
1F
100
AcDbEntity
  8
0
  6
Continuous
 62
     4
420
    65535
100
AcDbLine
 10
-458.751542
 20
2347.667643
 30
0.0
 11
-460.001551
 21
2347.667643
 31
0.0
  0
LINE
  5
B8
330
1F
100
AcDbEntity
  8
0
  6
Continuous
 62
     4
420
    65535
100
AcDbLine
 10
-461.001551
 20
2346.167643
 30
0.0
 11
-460.001551
 21
2347.667643
 31
0.0
  0
LINE
  5
B9
330
1F
100
AcDbEntity
  8
0
  6
Continuous
 62
     4
420
    65535
100
AcDbLine
 10
-460.001551
 20
2346.167643
 30
0.0
 11
-461.001551
 21
2344.667643
 31
0.0
  0
LINE
  5
BA
330
1F
100
AcDbEntity
  8
0
  6
Continuous
 62
     4
420
    65535
100
AcDbLine
 10
-460.001551
 20
2344.667643
 30
0.0
 11
-461.001551
 21
2343.167643
 31
0.0
  0
LINE
  5
BB
330
1F
100
AcDbEntity
  8
0
  6
Continuous
 62
     4
420
    65535
100
AcDbLine
 10
-460.001551
 20
2343.167643
 30
0.0
 11
-461.001551
 21
2342.167643
 31
0.0
  0
LINE
  5
BC
330
1F
100
AcDbEntity
  8
0
  6
Continuous
 62
     2
420
 16776960
100
AcDbLine
 10
-457.251501
 20
2347.917644
 30
0.0
 11
-459.251501
 21
2347.917643
 31
0.0
  0
LINE
  5
BD
330
1F
100
AcDbEntity
  8
0
  6
Continuous
 62
     2
420
 16776960
100
AcDbLine
 10
-457.001501
 20
2347.667644
 30
0.0
 11
-457.251501
 21
2347.917644
 31
0.0
  0
LINE
  5
BE
330
1F
100
AcDbEntity
  8
0
  6
Continuous
 62
     2
420
 16776960
100
AcDbLine
 10
-459.501501
 20
2347.667643
 30
0.0
 11
-459.251501
 21
2347.917643
 31
0.0
  0
LINE
  5
BF
330
1F
100
AcDbEntity
  8
0
  6
Continuous
 62
     2
420
 16776960
100
AcDbLine
 10
-458.438159
 20
2347.917643
 30
0.0
 11
-457.505024
 21
2347.667644
 31
0.0
  0
LINE
  5
C0
330
1F
100
AcDbEntity
  8
0
  6
Continuous
 62
     2
420
 16776960
100
AcDbLine
 10
-458.751543
 20
2347.3516
 30
0.0
 11
-457.751543
 21
2347.083687
 31
0.0
  0
LINE
  5
C1
330
1F
100
AcDbEntity
  8
0
  6
Continuous
 62
     2
420
 16776960
100
AcDbLine
 10
-458.751544
 20
2346.7016
 30
0.0
 11
-458.251544
 21
2346.567644
 31
0.0
  0
LINE
  5
C2
330
1F
100
AcDbEntity
  8
0
  6
Continuous
 62
     2
420
 16776960
100
AcDbLine
 10
-460.001549
 20
2337.005982
 30
0.0
 11
-460.001549
 21
2338.317238
 31
0.0
  0
LINE
  5
C3
330
1F
100
AcDbEntity
  8
0
  6
Continuous
 62
     2
420
 16776960
100
AcDbLine
 10
-458.752854
 20
2336.794549
 30
0.0
 11
-458.859271
 21
2336.397397
 31
0.0
  0
LINE
  5
C4
330
1F
100
AcDbEntity
  8
0
  6
Continuous
 62
     2
420
 16776960
100
AcDbLine
 10
-457.752854
 20
2336.794549
 30
0.0
 11
-458.752854
 21
2336.794549
 31
0.0
  0
LINE
  5
C5
330
1F
100
AcDbEntity
  8
0
  6
Continuous
 62
     2
420
 16776960
100
AcDbLine
 10
-457.752854
 20
2336.794549
 30
0.0
 11
-457.646372
 21
2336.397154
 31
0.0
  0
ARC
  5
C6
330
1F
100
AcDbEntity
  8
0
  6
Continuous
 62
     2
420
 16776960
100
AcDbCircle
 10
-458.251596
 20
2342.562993
 30
0.0
 40
6.195552570596984
100
AcDbArc
 50
257.337326
 51
282.663646
  0
ARC
  5
C7
330
1F
100
AcDbEntity
  8
0
  6
Continuous
 62
     2
420
 16776960
100
AcDbCircle
 10
-457.001549
 20
2337.006004
 30
0.0
 40
0.5
100
AcDbArc
 50
282.503764
 51
0.000001
  0
ARC
  5
C8
330
1F
100
AcDbEntity
  8
0
  6
Continuous
 62
     2
420
 16776960
100
AcDbCircle
 10
-459.501549
 20
2337.005982
 30
0.0
 40
0.5
100
AcDbArc
 50
180.000001
 51
257.497203
  0
LINE
  5
C9
330
1F
100
AcDbEntity
  8
0
  6
Continuous
 62
     2
420
 16776960
100
AcDbLine
 10
-460.001549
 20
2338.317238
 30
0.0
 11
-456.501549
 21
2338.317266
 31
0.0
  0
LINE
  5
CA
330
1F
100
AcDbEntity
  8
0
  6
Continuous
 62
     2
420
 16776960
100
AcDbLine
 10
-459.128477
 20
2342.05322
 30
0.0
 11
-456.751501
 21
2341.416396
 31
0.0
  0
LINE
  5
CB
330
1F
100
AcDbEntity
  8
0
  6
Continuous
 62
     2
420
 16776960
100
AcDbLine
 10
-459.751501
 20
2341.570137
 30
0.0
 11
-456.751501
 21
2340.766396
 31
0.0
  0
LINE
  5
CC
330
1F
100
AcDbEntity
  8
0
  6
Continuous
 62
     2
420
 16776960
100
AcDbLine
 10
-459.751501
 20
2340.920134
 30
0.0
 11
-456.751501
 21
2340.116393
 31
0.0
  0
LINE
  5
CD
330
1F
100
AcDbEntity
  8
0
  6
Continuous
 62
     2
420
 16776960
100
AcDbLine
 10
-459.501501
 20
2338.317242
 30
0.0
 11
-459.501501
 21
2342.167644
 31
0.0
  0
LINE
  5
CE
330
1F
100
AcDbEntity
  8
0
  6
Continuous
 62
     2
420
 16776960
100
AcDbLine
 10
-457.001501
 20
2342.167644
 30
0.0
 11
-457.001501
 21
2338.317262
 31
0.0
  0
LINE
  5
CF
330
1F
100
AcDbEntity
  8
0
  6
Continuous
 62
     2
420
 16776960
100
AcDbLine
 10
-459.751501
 20
2340.270134
 30
0.0
 11
-456.751501
 21
2339.466393
 31
0.0
  0
LINE
  5
D0
330
1F
100
AcDbEntity
  8
0
  6
Continuous
 62
     2
420
 16776960
100
AcDbLine
 10
-456.501549
 20
2337.006004
 30
0.0
 11
-456.501549
 21
2338.317266
 31
0.0
  0
ARC
  5
D1
330
1F
100
AcDbEntity
  8
0
  6
Continuous
 62
     3
420
    65280
100
AcDbCircle
 10
-450.687745
 20
2340.802604
 30
0.0
 40
1.0
100
AcDbArc
 50
7.000001
 51
90.0
  0
LINE
  5
D2
330
1F
100
AcDbEntity
  8
0
  6
Continuous
 62
     2
420
 16776960
100
AcDbLine
 10
-459.751501
 20
2339.618264
 30
0.0
 11
-456.751501
 21
2338.814523
 31
0.0
  0
LINE
  5
D3
330
1F
100
AcDbEntity
  8
0
  6
Continuous
 62
     3
420
    65280
100
AcDbLine
 10
-462.001556
 20
2338.781895
 30
0.0
 11
-459.673043
 21
2338.782136
 31
0.0
  0
LINE
  5
D4
330
1F
100
AcDbEntity
  8
0
  6
Continuous
 62
     3
420
    65280
100
AcDbLine
 10
-462.001557
 20
2338.416864
 30
0.0
 11
-459.673006
 21
2338.417105
 31
0.0
  0
LINE
  5
D5
330
1F
100
AcDbEntity
  8
0
  6
Continuous
 62
     3
420
    65280
100
AcDbLine
 10
-456.830108
 20
2338.417194
 30
0.0
 11
-456.830071
 21
2338.782232
 31
0.0
  0
LINE
  5
D7
330
1F
100
AcDbEntity
  8
0
  6
HIDDEN2
 62
     7
420
 16777215
100
AcDbLine
 10
-459.673043
 20
2338.782232
 30
0.0
 11
-456.830071
 21
2338.782431
 31
0.0
  0
LINE
  5
D8
330
1F
100
AcDbEntity
  8
0
  6
HIDDEN2
 62
     7
420
 16777215
100
AcDbLine
 10
-459.673006
 20
2338.417105
 30
0.0
 11
-456.830108
 21
2338.417399
 31
0.0
  0
LINE
  5
D9
330
1F
100
AcDbEntity
  8
0
  6
Continuous
 62
     7
420
 16777215
100
AcDbLine
 10
-449.695199
 20
2342.167644
 30
0.0
 11
-430.287422
 21
2342.167644
 31
0.0
  0
LINE
  5
DA
330
1F
100
AcDbEntity
  8
0
  6
Continuous
 62
     3
420
    65280
100
AcDbLine
 10
-459.601501
 20
2341.802604
 30
0.0
 11
-459.601501
 21
2338.882284
 31
0.0
  0
LINE
  5
DB
330
1F
100
AcDbEntity
  8
0
  6
Continuous
 62
     3
420
    65280
100
AcDbLine
 10
-456.901501
 20
2338.882284
 30
0.0
 11
-456.901501
 21
2341.802604
 31
0.0
  0
LINE
  5
DC
330
1F
100
AcDbEntity
  8
0
  6
Continuous
 62
     3
420
    65280
100
AcDbLine
 10
-454.501557
 20
2338.417641
 30
0.0
 11
-454.501556
 21
2338.782672
 31
0.0
  0
LINE
  5
DD
330
1F
100
AcDbEntity
  8
0
  6
Continuous
 62
     3
420
    65280
100
AcDbLine
 10
-462.001556
 20
2338.781895
 30
0.0
 11
-462.001557
 21
2338.416864
 31
0.0
  0
LINE
  5
DE
330
1F
100
AcDbEntity
  8
0
  6
Continuous
 62
     2
420
 16776960
100
AcDbLine
 10
-459.751556
 20
2338.966408
 30
0.0
 11
-459.064268
 21
2338.782274
 31
0.0
  0
INSERT
  5
E3
330
1F
100
AcDbEntity
  8
0
  6
Continuous
 62
     7
420
 16777215
100
AcDbBlockReference
  2
.Hatch_7
 10
0.0
 20
0.0
 30
0.0
  0
INSERT
  5
E9
330
1F
100
AcDbEntity
  8
0
  6
Continuous
 62
     7
420
 16777215
100
AcDbBlockReference
  2
.Hatch_8
 10
0.0
 20
0.0
 30
0.0
  0
INSERT
  5
108
330
1F
100
AcDbEntity
  8
0
  6
Continuous
 62
     7
420
 16777215
100
AcDbBlockReference
  2
.Hatch_9
 10
0.0
 20
0.0
 30
0.0
  0
INSERT
  5
11B
330
1F
100
AcDbEntity
  8
0
  6
Continuous
 62
     7
420
 16777215
100
AcDbBlockReference
  2
.Hatch_10
 10
0.0
 20
0.0
 30
0.0
  0
INSERT
  5
120
330
1F
100
AcDbEntity
  8
0
  6
Continuous
 62
     7
420
 16777215
100
AcDbBlockReference
  2
.Hatch_11
 10
0.0
 20
0.0
 30
0.0
  0
LINE
  5
121
330
1F
100
AcDbEntity
  8
0
  6
Continuous
 62
     6
420
 16711935
100
AcDbLine
 10
-627.180813
 20
2360.701811
 30
0.0
 11
-627.180813
 21
2321.901811
 31
0.0
  0
LINE
  5
122
330
1F
100
AcDbEntity
  8
0
  6
Continuous
 62
     6
420
 16711935
100
AcDbLine
 10
-626.680813
 20
2321.401811
 30
0.0
 11
-558.880813
 21
2321.401811
 31
0.0
  0
LINE
  5
123
330
1F
100
AcDbEntity
  8
0
  6
Continuous
 62
     6
420
 16711935
100
AcDbLine
 10
-558.380813
 20
2321.901811
 30
0.0
 11
-558.380813
 21
2360.701811
 31
0.0
  0
LINE
  5
124
330
1F
100
AcDbEntity
  8
0
  6
Continuous
 62
     6
420
 16711935
100
AcDbLine
 10
-558.880813
 20
2361.201811
 30
0.0
 11
-626.680813
 21
2361.201811
 31
0.0
  0
ARC
  5
125
330
1F
100
AcDbEntity
  8
0
  6
Continuous
 62
     6
420
 16711935
100
AcDbCircle
 10
-626.680813
 20
2360.701811
 30
0.0
 40
0.5
100
AcDbArc
 50
90.0
 51
180.0
  0
ARC
  5
126
330
1F
100
AcDbEntity
  8
0
  6
Continuous
 62
     6
420
 16711935
100
AcDbCircle
 10
-558.880813
 20
2360.701811
 30
0.0
 40
0.5
100
AcDbArc
 50
0.0
 51
90.0
  0
ARC
  5
127
330
1F
100
AcDbEntity
  8
0
  6
Continuous
 62
     6
420
 16711935
100
AcDbCircle
 10
-558.880813
 20
2321.901811
 30
0.0
 40
0.5
100
AcDbArc
 50
270.0
 51
0.0
  0
ARC
  5
128
330
1F
100
AcDbEntity
  8
0
  6
Continuous
 62
     6
420
 16711935
100
AcDbCircle
 10
-626.680813
 20
2321.901811
 30
0.0
 40
0.5
100
AcDbArc
 50
180.0
 51
270.0
  0
TEXT
  5
129
330
1F
100
AcDbEntity
  8
0
  6
Continuous
 62
     4
420
    65535
100
AcDbText
 10
-602.72375
 20
2323.461192
 30
0.0
 40
3.0
  1
ON7610ST
 41
0.72
  7
TSTYLE9
100
AcDbText
  0
LINE
  5
12A
330
1F
100
AcDbEntity
  8
0
  6
Continuous
 62
     3
420
    65280
100
AcDbLine
 10
-417.820103
 20
2231.528437
 30
0.0
 11
-417.820103
 21
2258.715937
 31
0.0
  0
LINE
  5
12B
330
1F
100
AcDbEntity
  8
0
  6
Continuous
 62
     3
420
    65280
100
AcDbLine
 10
-465.320103
 20
2258.715937
 30
0.0
 11
-465.320103
 21
2231.528437
 31
0.0
  0
CIRCLE
  5
12C
330
1F
100
AcDbEntity
  8
0
  6
Continuous
 62
     2
420
 16776960
100
AcDbCircle
 10
-441.570078
 20
2251.910951
 30
0.0
 40
3.4375
  0
LINE
  5
12D
330
1F
100
AcDbEntity
  8
0
  6
CENTER2
 62
     7
420
 16777215
100
AcDbLine
 10
-441.570103
 20
2255.660937
 30
0.0
 11
-441.570103
 21
2248.160937
 31
0.0
  0
LINE
  5
12E
330
1F
100
AcDbEntity
  8
0
  6
CENTER2
 62
     7
420
 16777215
100
AcDbLine
 10
-437.820103
 20
2251.910937
 30
0.0
 11
-445.320103
 21
2251.910937
 31
0.0
  0
CIRCLE
  5
12F
330
1F
100
AcDbEntity
  8
0
  6
Continuous
 62
     1
420
 16711680
100
AcDbCircle
 10
-441.570103
 20
2251.910937
 30
0.0
 40
2.374999999999975
  0
LINE
  5
130
330
1F
100
AcDbEntity
  8
0
  6
Continuous
 62
     1
420
 16711680
100
AcDbLine
 10
-463.132603
 20
2233.028437
 30
0.0
 11
-463.132603
 21
2257.403437
 31
0.0
  0
LINE
  5
131
330
1F
100
AcDbEntity
  8
0
  6
Continuous
 62
     1
420
 16711680
100
AcDbLine
 10
-462.820103
 20
2257.715937
 30
0.0
 11
-420.320103
 21
2257.715937
 31
0.0
  0
LINE
  5
132
330
1F
100
AcDbEntity
  8
0
  6
Continuous
 62
     1
420
 16711680
100
AcDbLine
 10
-420.007603
 20
2257.403437
 30
0.0
 11
-420.007603
 21
2233.028437
 31
0.0
  0
LINE
  5
133
330
1F
100
AcDbEntity
  8
0
  6
Continuous
 62
     1
420
 16711680
100
AcDbLine
 10
-420.320103
 20
2232.715937
 30
0.0
 11
-462.820103
 21
2232.715937
 31
0.0
  0
ARC
  5
134
330
1F
100
AcDbEntity
  8
0
  6
Continuous
 62
     1
420
 16711680
100
AcDbCircle
 10
-462.820103
 20
2257.403437
 30
0.0
 40
0.3125
100
AcDbArc
 50
90.0
 51
180.0
  0
ARC
  5
135
330
1F
100
AcDbEntity
  8
0
  6
Continuous
 62
     1
420
 16711680
100
AcDbCircle
 10
-462.820103
 20
2233.028437
 30
0.0
 40
0.3125
100
AcDbArc
 50
180.0
 51
270.0
  0
ARC
  5
136
330
1F
100
AcDbEntity
  8
0
  6
Continuous
 62
     1
420
 16711680
100
AcDbCircle
 10
-420.320103
 20
2233.028437
 30
0.0
 40
0.3125
100
AcDbArc
 50
270.0
 51
0.0
  0
ARC
  5
137
330
1F
100
AcDbEntity
  8
0
  6
Continuous
 62
     1
420
 16711680
100
AcDbCircle
 10
-420.320103
 20
2257.403437
 30
0.0
 40
0.3125
100
AcDbArc
 50
0.0
 51
90.0
  0
LINE
  5
138
330
1F
100
AcDbEntity
  8
0
  6
Continuous
 62
     1
420
 16711680
100
AcDbLine
 10
-422.500103
 20
2255.973437
 30
0.0
 11
-460.640103
 21
2255.973437
 31
0.0
  0
LINE
  5
139
330
1F
100
AcDbEntity
  8
0
  6
Continuous
 62
     1
420
 16711680
100
AcDbLine
 10
-461.390103
 20
2255.223437
 30
0.0
 11
-461.390103
 21
2235.208437
 31
0.0
  0
LINE
  5
13A
330
1F
100
AcDbEntity
  8
0
  6
Continuous
 62
     1
420
 16711680
100
AcDbLine
 10
-460.640103
 20
2234.458437
 30
0.0
 11
-422.500103
 21
2234.458437
 31
0.0
  0
LINE
  5
13B
330
1F
100
AcDbEntity
  8
0
  6
Continuous
 62
     1
420
 16711680
100
AcDbLine
 10
-421.750103
 20
2235.208437
 30
0.0
 11
-421.750103
 21
2255.223437
 31
0.0
  0
ARC
  5
13C
330
1F
100
AcDbEntity
  8
0
  6
Continuous
 62
     1
420
 16711680
100
AcDbCircle
 10
-460.640103
 20
2255.223437
 30
0.0
 40
0.75
100
AcDbArc
 50
90.0
 51
180.0
  0
ARC
  5
13D
330
1F
100
AcDbEntity
  8
0
  6
Continuous
 62
     1
420
 16711680
100
AcDbCircle
 10
-460.640103
 20
2235.208437
 30
0.0
 40
0.75
100
AcDbArc
 50
180.0
 51
270.0
  0
ARC
  5
13E
330
1F
100
AcDbEntity
  8
0
  6
Continuous
 62
     1
420
 16711680
100
AcDbCircle
 10
-422.500103
 20
2235.208437
 30
0.0
 40
0.75
100
AcDbArc
 50
270.0
 51
0.0
  0
ARC
  5
13F
330
1F
100
AcDbEntity
  8
0
  6
Continuous
 62
     1
420
 16711680
100
AcDbCircle
 10
-422.500103
 20
2255.223437
 30
0.0
 40
0.75
100
AcDbArc
 50
0.0
 51
90.0
  0
TEXT
  5
140
330
1F
100
AcDbEntity
  8
0
  6
Continuous
 62
     5
420
      255
100
AcDbText
 10
-469.868442
 20
2376.058462
 30
0.0
 40
2.88
  1
SOLUZIONE  "A"
 41
0.65
  7
TSTYLE10
100
AcDbText
  0
TEXT
  5
141
330
1F
100
AcDbEntity
  8
0
  6
Continuous
 62
     5
420
      255
100
AcDbText
 10
-482.037032
 20
2371.673036
 30
0.0
 40
2.0
  1
Con il bordo del lavello a filo del piano top
 41
0.6
  7
TSTYLE11
100
AcDbText
  0
LINE
  5
142
330
1F
100
AcDbEntity
  8
0
  6
Continuous
 62
     3
420
    65280
100
AcDbLine
 10
-491.529725
 20
2319.659321
 30
0.0
 11
-491.529725
 21
2370.004246
 31
0.0
  0
LINE
  5
143
330
1F
100
AcDbEntity
  8
0
  6
Continuous
 62
     3
420
    65280
100
AcDbLine
 10
-414.469575
 20
2370.004246
 30
0.0
 11
-414.469575
 21
2319.659321
 31
0.0
  0
LINE
  5
144
330
1F
100
AcDbEntity
  8
0
  6
Continuous
 62
     3
420
    65280
100
AcDbLine
 10
-417.820103
 20
2258.715937
 30
0.0
 11
-465.320103
 21
2258.715937
 31
0.0
  0
INSERT
  5
14D
330
1F
100
AcDbEntity
  8
0
100
AcDbBlockReference
  2
_G_Q_1
 10
0.0
 20
0.0
 30
0.0
  0
INSERT
  5
156
330
1F
100
AcDbEntity
  8
0
100
AcDbBlockReference
  2
_G_Q_2
 10
0.0
 20
0.0
 30
0.0
  0
INSERT
  5
15F
330
1F
100
AcDbEntity
  8
0
100
AcDbBlockReference
  2
_G_Q_3
 10
0.0
 20
0.0
 30
0.0
  0
INSERT
  5
168
330
1F
100
AcDbEntity
  8
0
100
AcDbBlockReference
  2
_G_Q_4
 10
0.0
 20
0.0
 30
0.0
  0
INSERT
  5
171
330
1F
100
AcDbEntity
  8
0
100
AcDbBlockReference
  2
_G_Q_5
 10
0.0
 20
0.0
 30
0.0
  0
INSERT
  5
17A
330
1F
100
AcDbEntity
  8
0
100
AcDbBlockReference
  2
_G_Q_6
 10
0.0
 20
0.0
 30
0.0
  0
INSERT
  5
185
330
1F
100
AcDbEntity
  8
0
100
AcDbBlockReference
  2
_G_Q_7
 10
0.0
 20
0.0
 30
0.0
  0
INSERT
  5
190
330
1F
100
AcDbEntity
  8
0
100
AcDbBlockReference
  2
_G_Q_8
 10
0.0
 20
0.0
 30
0.0
  0
INSERT
  5
19B
330
1F
100
AcDbEntity
  8
0
100
AcDbBlockReference
  2
_G_Q_9
 10
0.0
 20
0.0
 30
0.0
  0
INSERT
  5
1A6
330
1F
100
AcDbEntity
  8
0
100
AcDbBlockReference
  2
_G_Q_10
 10
0.0
 20
0.0
 30
0.0
  0
POINT
  5
1A7
330
1F
100
AcDbEntity
  8
255
  6
Continuous
 62
    32
420
 13395456
100
AcDbPoint
 10
-417.820103
 20
2258.715937
 30
0.0
  0
POINT
  5
1A8
330
1F
100
AcDbEntity
  8
255
  6
Continuous
 62
    32
420
 13395456
100
AcDbPoint
 10
-418.132603
 20
2230.528437
 30
0.0
  0
TEXT
  5
1A9
330
1F
100
AcDbEntity
  8
0
  6
Continuous
 62
     1
420
 16711680
100
AcDbText
 10
-601.067696
 20
2305.409849
 30
0.0
 40
3.0
  1
(27 3/32")
 41
0.75
  7
TSTYLE9
100
AcDbText
  0
TEXT
  5
1AA
330
1F
100
AcDbEntity
  8
0
  6
Continuous
 62
     1
420
 16711680
100
AcDbText
 10
-636.169704
 20
2335.482585
 30
0.0
 40
3.0
  1
(15 2/3")
 50
90.0
 41
0.75
  7
TSTYLE9
100
AcDbText
  0
TEXT
  5
1AB
330
1F
100
AcDbEntity
  8
0
  6
Continuous
 62
     1
420
 16711680
100
AcDbText
 10
-565.194267
 20
2347.116339
 30
0.0
 40
3.0
  1
(1/5")
 50
50.0
 41
0.81
  7
TSTYLE9
100
AcDbText
  0
TEXT
  5
1AC
330
1F
100
AcDbEntity
  8
0
  6
Continuous
 62
     1
420
 16711680
100
AcDbText
 10
-618.873678
 20
2323.393255
 30
0.0
 40
3.0
  1
(1/5")
 50
50.0
 41
0.81
  7
TSTYLE9
100
AcDbText
  0
TEXT
  5
1AD
330
1F
100
AcDbEntity
  8
0
  6
Continuous
 62
     1
420
 16711680
100
AcDbText
 10
-625.269241
 20
2351.022775
 30
0.0
 40
3.0
  1
(1/5")
 50
310.0
 41
0.81
  7
TSTYLE9
100
AcDbText
  0
TEXT
  5
1AE
330
1F
100
AcDbEntity
  8
0
  6
Continuous
 62
     1
420
 16711680
100
AcDbText
 10
-573.0641
 20
2327.998171
 30
0.0
 40
3.0
  1
(1/5")
 50
310.0
 41
0.81
  7
TSTYLE9
100
AcDbText
  0
LINE
  5
1AF
330
1F
100
AcDbEntity
  8
0
  6
Continuous
 62
     6
420
 16711935
370
     0
100
AcDbLine
 10
-203.766306
 20
2340.722756
 30
0.0
 11
474.235894
 21
2340.722756
 31
0.0
  0
LINE
  5
1B0
330
1F
100
AcDbEntity
  8
0
  6
Continuous
 62
     6
420
 16711935
370
     0
100
AcDbLine
 10
479.239694
 20
2335.718956
 30
0.0
 11
479.239694
 21
1947.733956
 31
0.0
  0
LINE
  5
1B1
330
1F
100
AcDbEntity
  8
0
  6
Continuous
 62
     6
420
 16711935
370
     0
100
AcDbLine
 10
474.235894
 20
1942.730156
 30
0.0
 11
-203.766306
 21
1942.730156
 31
0.0
  0
LINE
  5
1B2
330
1F
100
AcDbEntity
  8
0
  6
Continuous
 62
     6
420
 16711935
370
     0
100
AcDbLine
 10
-208.770106
 20
1947.733956
 30
0.0
 11
-208.770106
 21
2335.718956
 31
0.0
  0
ARC
  5
1B3
330
1F
100
AcDbEntity
  8
0
  6
Continuous
 62
     6
420
 16711935
370
     0
100
AcDbCircle
 10
-203.766306
 20
2335.718956
 30
0.0
 40
5.0038
100
AcDbArc
 50
90.0
 51
180.0
  0
ARC
  5
1B4
330
1F
100
AcDbEntity
  8
0
  6
Continuous
 62
     6
420
 16711935
370
     0
100
AcDbCircle
 10
474.235894
 20
2335.718956
 30
0.0
 40
5.0038
100
AcDbArc
 50
0.0
 51
90.0
  0
ARC
  5
1B5
330
1F
100
AcDbEntity
  8
0
  6
Continuous
 62
     6
420
 16711935
370
     0
100
AcDbCircle
 10
474.235894
 20
1947.733956
 30
0.0
 40
5.0038
100
AcDbArc
 50
270.0
 51
0.0
  0
ARC
  5
1B6
330
1F
100
AcDbEntity
  8
0
  6
Continuous
 62
     6
420
 16711935
370
     0
100
AcDbCircle
 10
-203.766306
 20
1947.733956
 30
0.0
 40
5.0038
100
AcDbArc
 50
180.0
 51
270.0
  0
MTEXT
  5
1B7
330
1F
100
AcDbEntity
  8
0
  6
Continuous
 62
     7
420
 16777215
370
     0
100
AcDbMText
 10
-14.687012
 20
2192.946289
 30
0.0
 40
25.0
 41
0.0
 46
0.0
 71
     1
 72
     1
  1
{\fArial|b0|i0;Template assembly}
 73
     2
 44
0.99598
  0
MTEXT
  5
1B8
330
1F
100
AcDbEntity
  8
0
  6
Continuous
 62
     7
420
 16777215
370
     0
100
AcDbMText
 10
60.39209
 20
2145.550781
 30
0.0
 40
25.0
 41
0.0
 46
0.0
 71
     1
 72
     1
  1
{\fArial|b0|i0;under top}
 73
     2
 44
0.99598
  0
MTEXT
  5
1B9
330
1F
100
AcDbEntity
  8
0
  6
Continuous
 62
     7
420
 16777215
370
     0
100
AcDbMText
 10
22.15979
 20
1992.751465
 30
0.0
 40
25.0
 41
0.0
 46
0.0
 71
     1
 72
     1
  1
{\fArial|b0|i0;Code ON7610ST}
 73
     2
 44
0.99598
  0
INSERT
  5
1C9
330
1F
100
AcDbEntity
  8
0
  6
Continuous
 62
     7
420
 16777215
370
     0
100
AcDbBlockReference
  2
.TD_DIMENSION_1
 10
-497.540222
 20
3565.70459
 30
0.0
  0
INSERT
  5
1D9
330
1F
100
AcDbEntity
  8
0
  6
Continuous
 62
     7
420
 16777215
370
     0
100
AcDbBlockReference
  2
.TD_DIMENSION_2
 10
957.615784
 20
3805.46045
 30
0.0
  0
INSERT
  5
1E3
330
1F
100
AcDbEntity
  8
0
  6
Continuous
 62
     7
420
 16777215
370
     0
100
AcDbBlockReference
  2
.TD_DIMENSION_3
 10
-524.772278
 20
4533.39746
 30
0.0
  0
DIMENSION
  5
1E4
330
1F
100
AcDbEntity
  8
0
  6
Continuous
 62
    32
420
 13395456
100
AcDbDimension
280
     0
  2
*D20
 10
-558.380813
 20
2311.03833
 30
0.0
 11
-595.230286
 21
2311.03833
 31
0.0
 70
   161
  1
\fArial|b0|i0|c0|p0;{\fArial|b0|i0;688}
 71
     5
 42
68.8
 73
     0
 74
     0
 75
     0
  3
DSTYLE1
100
AcDbAlignedDimension
 13
-627.180813
 23
2321.901811
 33
0.0
 14
-558.380813
 24
2321.901811
 34
0.0
1001
ACAD
1000
DSTYLE
1002
{
1070
   279
1070
     0
1070
   176
1070
    32
1070
   177
1070
    32
1070
   178
1070
     1
1070
    44
1040
1.0
1070
    42
1040
0.9
1070
   147
1040
1.05
1070
   140
1040
3.0
1002
}
  0
DIMENSION
  5
1F1
330
1F
100
AcDbEntity
  8
0
  6
Continuous
 62
    32
420
 13395456
100
AcDbDimension
280
     0
  2
*D21
 10
-640.839233
 20
2361.201811
 30
0.0
 11
-640.839233
 21
2340.029297
 31
0.0
 70
   161
  1
\fArial|b0|i0|c0|p0;{\fArial|b0|i0;398}
 71
     5
 42
39.8
 73
     0
 74
     0
 75
     0
  3
DSTYLE1
100
AcDbAlignedDimension
 13
-626.680813
 23
2321.401811
 33
0.0
 14
-626.680813
 24
2361.201811
 34
0.0
1001
ACAD
1000
DSTYLE
1002
{
1070
   279
1070
     0
1070
   176
1070
    32
1070
   177
1070
    32
1070
   178
1070
     1
1070
    44
1040
1.0
1070
    42
1040
0.9
1070
   147
1040
1.05
1070
   140
1040
3.0
1002
}
  0
DIMENSION
  5
1FE
330
1F
100
AcDbEntity
  8
3
  6
Continuous
 62
    32
420
 13395456
100
AcDbDimension
280
     0
  2
*D22
 10
-417.820103
 20
2224.161377
 30
0.0
 11
-444.020325
 21
2224.161377
 31
0.0
 70
   161
  1
\fArial|b0|i0|c0|p0;{\fArial|b0|i0;760}
 71
     5
 42
47.5
 73
     0
 74
     0
 75
     0
  3
DSTYLE2
100
AcDbAlignedDimension
 13
-465.320103
 23
2231.528437
 33
0.0
 14
-417.820103
 24
2231.528437
 34
0.0
1001
ACAD
1000
DSTYLE
1002
{
1070
   279
1070
     0
1070
   176
1070
    32
1070
   177
1070
    32
1070
   178
1070
     1
1070
    44
1040
0.625
1070
    42
1040
3.770139
1070
   147
1040
1.3125
1070
   140
1040
1.874999
1002
}
  0
LINE
  5
20B
330
1F
100
AcDbEntity
  8
0
  6
Continuous
 62
     3
420
    65280
100
AcDbLine
 10
-465.320103
 20
2231.528437
 30
0.0
 11
-417.820103
 21
2231.528437
 31
0.0
  0
DIMENSION
  5
20C
330
1F
100
AcDbEntity
  8
0
  6
Continuous
 62
     7
420
 16777215
370
     0
100
AcDbDimension
280
     0
  2
*D23
 10
-410.113373
 20
2258.715937
 30
0.0
 11
-412.383061
 21
2245.122187
 31
0.0
 70
    33
  1
\fArial|b0|i0|c0|p0;435
 71
     5
 42
27.1875
 73
     0
 74
     0
 75
     0
  3
DSTYLE3
100
AcDbAlignedDimension
 13
-417.820103
 23
2231.528437
 33
0.0
 14
-417.820103
 24
2258.715937
 34
0.0
1001
ACAD
1000
DSTYLE
1002
{
1070
   176
1070
    32
1070
   177
1070
    32
1070
   178
1070
     1
1070
    44
1040
0.625
1070
    42
1040
4.411172
1070
   147
1040
1.312501
1070
   140
1040
1.875
1002
}
  0
ENDSEC
  0
SECTION
  2
OBJECTS
  0
DICTIONARY
  5
C
330
0
100
AcDbDictionary
281
     1
  3
ACAD_GROUP
350
D
  3
ACAD_LAYOUT
350
1A
  3
ACAD_MATERIAL
350
3B
  3
ACAD_MLEADERSTYLE
350
21C
  3
ACAD_MLINESTYLE
350
17
  3
ACAD_PLOTSETTINGS
350
19
  3
ACAD_PLOTSTYLENAME
350
E
  3
ACAD_SCALELIST
350
68
  3
ACAD_TABLESTYLE
350
21B
  3
ACAD_VISUALSTYLE
350
2A
  3
AcDbVariableDictionary
350
219
  0
DICTIONARY
  5
D
102
{ACAD_REACTORS
330
C
102
}
330
C
100
AcDbDictionary
281
     1
  0
DICTIONARY
  5
1A
102
{ACAD_REACTORS
330
C
102
}
330
C
100
AcDbDictionary
281
     1
  3
Layout1
350
1E
  3
Layout2
350
26
  3
Model
350
22
  0
DICTIONARY
  5
3B
102
{ACAD_REACTORS
330
C
102
}
330
C
100
AcDbDictionary
281
     1
  3
ByBlock
350
3D
  3
ByLayer
350
3C
  3
Global
350
3E
  0
DICTIONARY
  5
21C
102
{ACAD_REACTORS
330
C
102
}
330
C
100
AcDbDictionary
281
     1
  0
DICTIONARY
  5
17
102
{ACAD_REACTORS
330
C
102
}
330
C
100
AcDbDictionary
281
     1
  3
Standard
350
18
  0
DICTIONARY
  5
19
102
{ACAD_REACTORS
330
C
102
}
330
C
100
AcDbDictionary
281
     1
  0
ACDBDICTIONARYWDFLT
  5
E
102
{ACAD_REACTORS
330
C
102
}
330
C
100
AcDbDictionary
281
     1
  3
Normal
350
F
100
AcDbDictionaryWithDefault
340
F
  0
DICTIONARY
  5
68
102
{ACAD_REACTORS
330
C
102
}
330
C
100
AcDbDictionary
281
     1
  3
A0
350
69
  3
A1
350
6A
  3
A2
350
6B
  3
A3
350
6C
  3
A4
350
6D
  3
A5
350
6E
  3
A6
350
6F
  3
A7
350
70
  3
A8
350
71
  3
A9
350
72
  3
B0
350
73
  3
B1
350
74
  3
B2
350
75
  3
B3
350
76
  3
B4
350
77
  3
B5
350
78
  3
B6
350
79
  3
B7
350
7A
  3
B8
350
7B
  3
B9
350
7C
  3
C0
350
7D
  3
C1
350
7E
  3
C2
350
7F
  3
C3
350
80
  3
C4
350
81
  3
C5
350
82
  3
C6
350
83
  3
C7
350
84
  3
C8
350
85
  3
C9
350
86
  3
D0
350
87
  3
D1
350
88
  3
D2
350
89
  0
DICTIONARY
  5
21B
102
{ACAD_REACTORS
330
C
102
}
330
C
100
AcDbDictionary
281
     1
  0
DICTIONARY
  5
2A
102
{ACAD_REACTORS
330
C
102
}
330
C
100
AcDbDictionary
281
     1
  3
2dWireframe
350
2F
  3
3D Hidden
350
31
  3
3dWireframe
350
30
  3
Basic
350
32
  3
Brighten
350
36
  3
ColorChange
350
3A
  3
Conceptual
350
34
  3
Dim
350
35
  3
Facepattern
350
39
  3
Flat
350
2B
  3
FlatWithEdges
350
2C
  3
Gouraud
350
2D
  3
GouraudWithEdges
350
2E
  3
Linepattern
350
38
  3
Realistic
350
33
  3
Thicken
350
37
  0
DICTIONARY
  5
219
102
{ACAD_REACTORS
330
C
102
}
330
C
100
AcDbDictionary
281
     1
  3
CANNOSCALE
350
21A
  0
LAYOUT
  5
1E
102
{ACAD_REACTORS
330
1A
102
}
330
1A
100
AcDbPlotSettings
  1

  2
none_device
  4

  6

 40
0.0
 41
0.0
 42
0.0
 43
0.0
 44
0.0
 45
0.0
 46
0.0
 47
0.0
 48
0.0
 49
0.0
140
0.0
141
0.0
142
1.0
143
1.0
 70
   688
 72
     0
 73
     0
 74
     5
  7

 75
    16
 76
     0
 77
     2
 78
   300
147
1.0
148
0.0
149
0.0
100
AcDbLayout
  1
Layout1
 70
     1
 71
     1
 10
0.0
 20
0.0
 11
420.0
 21
297.0
 12
0.0
 22
0.0
 32
0.0
 14
1.000000E+20
 24
1.000000E+20
 34
1.000000E+20
 15
-1.000000E+20
 25
-1.000000E+20
 35
-1.000000E+20
146
0.0
 13
0.0
 23
0.0
 33
0.0
 16
1.0
 26
0.0
 36
0.0
 17
0.0
 27
1.0
 37
0.0
 76
     0
330
1B
  0
LAYOUT
  5
26
102
{ACAD_REACTORS
330
1A
102
}
330
1A
100
AcDbPlotSettings
  1

  2
none_device
  4

  6

 40
0.0
 41
0.0
 42
0.0
 43
0.0
 44
0.0
 45
0.0
 46
0.0
 47
0.0
 48
0.0
 49
0.0
140
0.0
141
0.0
142
1.0
143
1.0
 70
   688
 72
     0
 73
     0
 74
     5
  7

 75
    16
 76
     0
 77
     2
 78
   300
147
1.0
148
0.0
149
0.0
100
AcDbLayout
  1
Layout2
 70
     1
 71
     2
 10
0.0
 20
0.0
 11
0.0
 21
0.0
 12
0.0
 22
0.0
 32
0.0
 14
0.0
 24
0.0
 34
0.0
 15
0.0
 25
0.0
 35
0.0
146
0.0
 13
0.0
 23
0.0
 33
0.0
 16
1.0
 26
0.0
 36
0.0
 17
0.0
 27
1.0
 37
0.0
 76
     0
330
23
  0
LAYOUT
  5
22
102
{ACAD_REACTORS
330
1A
102
}
330
1A
100
AcDbPlotSettings
  1

  2
none_device
  4

  6

 40
0.0
 41
0.0
 42
0.0
 43
0.0
 44
0.0
 45
0.0
 46
0.0
 47
0.0
 48
0.0
 49
0.0
140
0.0
141
0.0
142
1.0
143
1.0
 70
  1712
 72
     0
 73
     0
 74
     0
  7

 75
     0
 76
     0
 77
     2
 78
   300
147
1.0
148
0.0
149
0.0
100
AcDbLayout
  1
Model
 70
     1
 71
     0
 10
0.0
 20
0.0
 11
420.0
 21
297.0
 12
0.0
 22
0.0
 32
0.0
 14
1.000000E+20
 24
1.000000E+20
 34
1.000000E+20
 15
-1.000000E+20
 25
-1.000000E+20
 35
-1.000000E+20
146
0.0
 13
0.0
 23
0.0
 33
0.0
 16
1.0
 26
0.0
 36
0.0
 17
0.0
 27
1.0
 37
0.0
 76
     0
330
1F
331
29
  0
MATERIAL
  5
3D
102
{ACAD_REACTORS
330
3B
102
}
330
3B
100
AcDbMaterial
  1
ByBlock
 72
     1
 94
      127
  0
MATERIAL
  5
3C
102
{ACAD_REACTORS
330
3B
102
}
330
3B
100
AcDbMaterial
  1
ByLayer
 72
     1
 94
      127
  0
MATERIAL
  5
3E
102
{ACAD_REACTORS
330
3B
102
}
330
3B
100
AcDbMaterial
  1
Global
 72
     1
 94
      127
  0
MLINESTYLE
  5
18
102
{ACAD_REACTORS
330
17
102
}
330
17
100
AcDbMlineStyle
  2
Standard
 70
     0
  3

 62
   256
 51
90.0
 52
90.0
 71
     2
 49
0.5
 62
   256
  6
BYLAYER
 49
-0.5
 62
   256
  6
BYLAYER
  0
ACDBPLACEHOLDER
  5
F
102
{ACAD_REACTORS
330
E
102
}
330
E
  0
SCALE
  5
69
102
{ACAD_REACTORS
330
68
102
}
330
68
100
AcDbScale
 70
     0
300
1:1
140
1.0
141
1.0
290
     1
  0
SCALE
  5
6A
102
{ACAD_REACTORS
330
68
102
}
330
68
100
AcDbScale
 70
     0
300
1:2
140
1.0
141
2.0
290
     0
  0
SCALE
  5
6B
102
{ACAD_REACTORS
330
68
102
}
330
68
100
AcDbScale
 70
     0
300
1:4
140
1.0
141
4.0
290
     0
  0
SCALE
  5
6C
102
{ACAD_REACTORS
330
68
102
}
330
68
100
AcDbScale
 70
     0
300
1:5
140
1.0
141
5.0
290
     0
  0
SCALE
  5
6D
102
{ACAD_REACTORS
330
68
102
}
330
68
100
AcDbScale
 70
     0
300
1:8
140
1.0
141
8.0
290
     0
  0
SCALE
  5
6E
102
{ACAD_REACTORS
330
68
102
}
330
68
100
AcDbScale
 70
     0
300
1:10
140
1.0
141
10.0
290
     0
  0
SCALE
  5
6F
102
{ACAD_REACTORS
330
68
102
}
330
68
100
AcDbScale
 70
     0
300
1:16
140
1.0
141
16.0
290
     0
  0
SCALE
  5
70
102
{ACAD_REACTORS
330
68
102
}
330
68
100
AcDbScale
 70
     0
300
1:20
140
1.0
141
20.0
290
     0
  0
SCALE
  5
71
102
{ACAD_REACTORS
330
68
102
}
330
68
100
AcDbScale
 70
     0
300
1:30
140
1.0
141
30.0
290
     0
  0
SCALE
  5
72
102
{ACAD_REACTORS
330
68
102
}
330
68
100
AcDbScale
 70
     0
300
1:40
140
1.0
141
40.0
290
     0
  0
SCALE
  5
73
102
{ACAD_REACTORS
330
68
102
}
330
68
100
AcDbScale
 70
     0
300
1:50
140
1.0
141
50.0
290
     0
  0
SCALE
  5
74
102
{ACAD_REACTORS
330
68
102
}
330
68
100
AcDbScale
 70
     0
300
1:100
140
1.0
141
100.0
290
     0
  0
SCALE
  5
75
102
{ACAD_REACTORS
330
68
102
}
330
68
100
AcDbScale
 70
     0
300
2:1
140
2.0
141
1.0
290
     0
  0
SCALE
  5
76
102
{ACAD_REACTORS
330
68
102
}
330
68
100
AcDbScale
 70
     0
300
4:1
140
4.0
141
1.0
290
     0
  0
SCALE
  5
77
102
{ACAD_REACTORS
330
68
102
}
330
68
100
AcDbScale
 70
     0
300
8:1
140
8.0
141
1.0
290
     0
  0
SCALE
  5
78
102
{ACAD_REACTORS
330
68
102
}
330
68
100
AcDbScale
 70
     0
300
10:1
140
10.0
141
1.0
290
     0
  0
SCALE
  5
79
102
{ACAD_REACTORS
330
68
102
}
330
68
100
AcDbScale
 70
     0
300
100:1
140
100.0
141
1.0
290
     0
  0
SCALE
  5
7A
102
{ACAD_REACTORS
330
68
102
}
330
68
100
AcDbScale
 70
     0
300
1/128" = 1'-0"
140
0.007812
141
12.0
290
     0
  0
SCALE
  5
7B
102
{ACAD_REACTORS
330
68
102
}
330
68
100
AcDbScale
 70
     0
300
1/64" = 1'-0"
140
0.015625
141
12.0
290
     0
  0
SCALE
  5
7C
102
{ACAD_REACTORS
330
68
102
}
330
68
100
AcDbScale
 70
     0
300
1/32" = 1'-0"
140
0.03125
141
12.0
290
     0
  0
SCALE
  5
7D
102
{ACAD_REACTORS
330
68
102
}
330
68
100
AcDbScale
 70
     0
300
1/16" = 1'-0"
140
0.0625
141
12.0
290
     0
  0
SCALE
  5
7E
102
{ACAD_REACTORS
330
68
102
}
330
68
100
AcDbScale
 70
     0
300
3/32" = 1'-0"
140
0.09375
141
12.0
290
     0
  0
SCALE
  5
7F
102
{ACAD_REACTORS
330
68
102
}
330
68
100
AcDbScale
 70
     0
300
1/8" = 1'-0"
140
0.125
141
12.0
290
     0
  0
SCALE
  5
80
102
{ACAD_REACTORS
330
68
102
}
330
68
100
AcDbScale
 70
     0
300
3/16" = 1'-0"
140
0.1875
141
12.0
290
     0
  0
SCALE
  5
81
102
{ACAD_REACTORS
330
68
102
}
330
68
100
AcDbScale
 70
     0
300
1/4" = 1'-0"
140
0.25
141
12.0
290
     0
  0
SCALE
  5
82
102
{ACAD_REACTORS
330
68
102
}
330
68
100
AcDbScale
 70
     0
300
3/8" = 1'-0"
140
0.375
141
12.0
290
     0
  0
SCALE
  5
83
102
{ACAD_REACTORS
330
68
102
}
330
68
100
AcDbScale
 70
     0
300
1/2" = 1'-0"
140
0.5
141
12.0
290
     0
  0
SCALE
  5
84
102
{ACAD_REACTORS
330
68
102
}
330
68
100
AcDbScale
 70
     0
300
3/4" = 1'-0"
140
0.75
141
12.0
290
     0
  0
SCALE
  5
85
102
{ACAD_REACTORS
330
68
102
}
330
68
100
AcDbScale
 70
     0
300
1" = 1'-0"
140
1.0
141
12.0
290
     0
  0
SCALE
  5
86
102
{ACAD_REACTORS
330
68
102
}
330
68
100
AcDbScale
 70
     0
300
1-1/2" = 1'-0"
140
1.5
141
12.0
290
     0
  0
SCALE
  5
87
102
{ACAD_REACTORS
330
68
102
}
330
68
100
AcDbScale
 70
     0
300
3" = 1'-0"
140
3.0
141
12.0
290
     0
  0
SCALE
  5
88
102
{ACAD_REACTORS
330
68
102
}
330
68
100
AcDbScale
 70
     0
300
6" = 1'-0"
140
6.0
141
12.0
290
     0
  0
SCALE
  5
89
102
{ACAD_REACTORS
330
68
102
}
330
68
100
AcDbScale
 70
     0
300
1'-0" = 1'-0"
140
12.0
141
12.0
290
     0
  0
VISUALSTYLE
  5
2F
102
{ACAD_REACTORS
330
2A
102
}
330
2A
100
AcDbVisualStyle
  2
2dWireframe
 70
     4
177
     2
291
     0
 71
     0
176
     1
 72
     2
176
     1
 73
     0
176
     1
 90
        0
176
     1
 40
-0.6
176
     1
 41
-30.0
176
     1
 62
     5
 63
     7
421
 16777215
176
     1
 74
     1
176
     1
 91
        4
176
     1
 64
     7
176
     1
 65
   257
176
     1
 75
     1
176
     1
175
     1
176
     1
 42
1.0
176
     1
 92
        0
176
     1
 66
   257
176
     1
 43
1.0
176
     1
 76
     1
176
     1
 77
     6
176
     1
 78
     2
176
     1
 67
     7
176
     1
 79
     5
176
     1
170
     0
176
     1
171
     0
176
     1
290
     0
176
     1
 93
        1
176
     1
 44
0.0
176
     1
173
     0
176
     1
  0
VISUALSTYLE
  5
31
102
{ACAD_REACTORS
330
2A
102
}
330
2A
100
AcDbVisualStyle
  2
3D Hidden
 70
     6
177
     2
291
     0
 71
     1
176
     1
 72
     2
176
     1
 73
     2
176
     1
 90
        0
176
     1
 40
-0.6
176
     1
 41
-30.0
176
     1
 62
     5
 63
     7
421
 16777215
176
     1
 74
     2
176
     1
 91
        2
176
     1
 64
     7
176
     1
 65
   257
176
     1
 75
     2
176
     1
175
     1
176
     1
 42
40.0
176
     1
 92
        0
176
     1
 66
   257
176
     1
 43
1.0
176
     1
 76
     1
176
     1
 77
     6
176
     1
 78
     2
176
     1
 67
     7
176
     1
 79
     3
176
     1
170
     0
176
     1
171
     0
176
     1
290
     0
176
     1
 93
        1
176
     1
 44
0.0
176
     1
173
     0
176
     1
  0
VISUALSTYLE
  5
30
102
{ACAD_REACTORS
330
2A
102
}
330
2A
100
AcDbVisualStyle
  2
3dWireframe
 70
     5
177
     2
291
     0
 71
     0
176
     1
 72
     2
176
     1
 73
     0
176
     1
 90
        0
176
     1
 40
-0.6
176
     1
 41
-30.0
176
     1
 62
     5
 63
     7
421
 16777215
176
     1
 74
     1
176
     1
 91
        4
176
     1
 64
     7
176
     1
 65
   257
176
     1
 75
     1
176
     1
175
     1
176
     1
 42
1.0
176
     1
 92
        0
176
     1
 66
   257
176
     1
 43
1.0
176
     1
 76
     1
176
     1
 77
     6
176
     1
 78
     2
176
     1
 67
     7
176
     1
 79
     5
176
     1
170
     0
176
     1
171
     0
176
     1
290
     0
176
     1
 93
        1
176
     1
 44
0.0
176
     1
173
     0
176
     1
  0
VISUALSTYLE
  5
32
102
{ACAD_REACTORS
330
2A
102
}
330
2A
100
AcDbVisualStyle
  2
Basic
 70
     7
177
     2
291
     1
 71
     1
176
     1
 72
     0
176
     1
 73
     1
176
     1
 90
        0
176
     1
 40
-0.6
176
     1
 41
-30.0
176
     1
 62
     5
 63
     7
421
 16777215
176
     1
 74
     0
176
     1
 91
        4
176
     1
 64
     7
176
     1
 65
   257
176
     1
 75
     1
176
     1
175
     1
176
     1
 42
1.0
176
     1
 92
        8
176
     1
 66
     7
176
     1
 43
1.0
176
     1
 76
     1
176
     1
 77
     6
176
     1
 78
     2
176
     1
 67
     7
176
     1
 79
     5
176
     1
170
     0
176
     1
171
     0
176
     1
290
     0
176
     1
 93
        1
176
     1
 44
0.0
176
     1
173
     0
176
     1
  0
VISUALSTYLE
  5
36
102
{ACAD_REACTORS
330
2A
102
}
330
2A
100
AcDbVisualStyle
  2
Brighten
 70
    12
177
     2
291
     1
 71
     2
176
     1
 72
     2
176
     1
 73
     0
176
     1
 90
        0
176
     1
 40
-0.6
176
     1
 41
-30.0
176
     1
 62
     5
 63
     7
421
 16777215
176
     1
 74
     1
176
     1
 91
        4
176
     1
 64
     7
176
     1
 65
   257
176
     1
 75
     1
176
     1
175
     1
176
     1
 42
1.0
176
     1
 92
        8
176
     1
 66
     7
176
     1
 43
1.0
176
     1
 76
     1
176
     1
 77
     6
176
     1
 78
     2
176
     1
 67
     7
176
     1
 79
     5
176
     1
170
     0
176
     1
171
     0
176
     1
290
     0
176
     1
 93
        1
176
     1
 44
50.0
176
     1
173
     0
176
     1
  0
VISUALSTYLE
  5
3A
102
{ACAD_REACTORS
330
2A
102
}
330
2A
100
AcDbVisualStyle
  2
ColorChange
 70
    16
177
     2
291
     1
 71
     2
176
     1
 72
     2
176
     1
 73
     3
176
     1
 90
        0
176
     1
 40
-0.6
176
     1
 41
-30.0
176
     1
 62
     5
 63
     8
421
  8421504
176
     1
 74
     1
176
     1
 91
        4
176
     1
 64
     7
176
     1
 65
   257
176
     1
 75
     1
176
     1
175
     1
176
     1
 42
1.0
176
     1
 92
        8
176
     1
 66
     8
424
  8421504
176
     1
 43
1.0
176
     1
 76
     1
176
     1
 77
     6
176
     1
 78
     2
176
     1
 67
     7
176
     1
 79
     5
176
     1
170
     0
176
     1
171
     0
176
     1
290
     0
176
     1
 93
        1
176
     1
 44
0.0
176
     1
173
     0
176
     1
  0
VISUALSTYLE
  5
34
102
{ACAD_REACTORS
330
2A
102
}
330
2A
100
AcDbVisualStyle
  2
Conceptual
 70
     9
177
     2
291
     0
 71
     3
176
     1
 72
     2
176
     1
 73
     0
176
     1
 90
        0
176
     1
 40
-0.6
176
     1
 41
-30.0
176
     1
 62
     5
 63
     7
421
 16777215
176
     1
 74
     2
176
     1
 91
        2
176
     1
 64
     7
176
     1
 65
   257
176
     1
 75
     1
176
     1
175
     1
176
     1
 42
40.0
176
     1
 92
        8
176
     1
 66
     7
176
     1
 43
1.0
176
     1
 76
     1
176
     1
 77
     6
176
     1
 78
     2
176
     1
 67
     7
176
     1
 79
     3
176
     1
170
     0
176
     1
171
     0
176
     1
290
     0
176
     1
 93
        1
176
     1
 44
0.0
176
     1
173
     0
176
     1
  0
VISUALSTYLE
  5
35
102
{ACAD_REACTORS
330
2A
102
}
330
2A
100
AcDbVisualStyle
  2
Dim
 70
    11
177
     2
291
     1
 71
     2
176
     1
 72
     2
176
     1
 73
     0
176
     1
 90
        0
176
     1
 40
-0.6
176
     1
 41
-30.0
176
     1
 62
     5
 63
     7
421
 16777215
176
     1
 74
     1
176
     1
 91
        4
176
     1
 64
     7
176
     1
 65
   257
176
     1
 75
     1
176
     1
175
     1
176
     1
 42
1.0
176
     1
 92
        8
176
     1
 66
     7
176
     1
 43
1.0
176
     1
 76
     1
176
     1
 77
     6
176
     1
 78
     2
176
     1
 67
     7
176
     1
 79
     5
176
     1
170
     0
176
     1
171
     0
176
     1
290
     0
176
     1
 93
        1
176
     1
 44
-50.0
176
     1
173
     0
176
     1
  0
VISUALSTYLE
  5
39
102
{ACAD_REACTORS
330
2A
102
}
330
2A
100
AcDbVisualStyle
  2
Facepattern
 70
    15
177
     2
291
     1
 71
     2
176
     1
 72
     2
176
     1
 73
     0
176
     1
 90
        0
176
     1
 40
-0.6
176
     1
 41
-30.0
176
     1
 62
     5
 63
     7
421
 16777215
176
     1
 74
     1
176
     1
 91
        4
176
     1
 64
     7
176
     1
 65
   257
176
     1
 75
     1
176
     1
175
     1
176
     1
 42
1.0
176
     1
 92
        8
176
     1
 66
     7
176
     1
 43
1.0
176
     1
 76
     1
176
     1
 77
     6
176
     1
 78
     2
176
     1
 67
     7
176
     1
 79
     5
176
     1
170
     0
176
     1
171
     0
176
     1
290
     0
176
     1
 93
        1
176
     1
 44
0.0
176
     1
173
     0
176
     1
  0
VISUALSTYLE
  5
2B
102
{ACAD_REACTORS
330
2A
102
}
330
2A
100
AcDbVisualStyle
  2
Flat
 70
     0
177
     2
291
     1
 71
     2
176
     1
 72
     1
176
     1
 73
     1
176
     1
 90
        2
176
     1
 40
-0.6
176
     1
 41
30.0
176
     1
 62
     5
 63
     7
421
 16777215
176
     1
 74
     0
176
     1
 91
        4
176
     1
 64
     7
176
     1
 65
   257
176
     1
 75
     1
176
     1
175
     1
176
     1
 42
1.0
176
     1
 92
        8
176
     1
 66
     7
176
     1
 43
1.0
176
     1
 76
     1
176
     1
 77
     6
176
     1
 78
     2
176
     1
 67
     7
176
     1
 79
     5
176
     1
170
     0
176
     1
171
     0
176
     1
290
     0
176
     1
 93
       13
176
     1
 44
0.0
176
     1
173
     0
176
     1
  0
VISUALSTYLE
  5
2C
102
{ACAD_REACTORS
330
2A
102
}
330
2A
100
AcDbVisualStyle
  2
FlatWithEdges
 70
     1
177
     2
291
     1
 71
     2
176
     1
 72
     1
176
     1
 73
     1
176
     1
 90
        2
176
     1
 40
-0.6
176
     1
 41
30.0
176
     1
 62
     5
 63
     7
421
 16777215
176
     1
 74
     1
176
     1
 91
        4
176
     1
 64
     7
176
     1
 65
   257
176
     1
 75
     1
176
     1
175
     1
176
     1
 42
1.0
176
     1
 92
        0
176
     1
 66
   257
176
     1
 43
1.0
176
     1
 76
     1
176
     1
 77
     6
176
     1
 78
     2
176
     1
 67
     7
176
     1
 79
     5
176
     1
170
     0
176
     1
171
     0
176
     1
290
     0
176
     1
 93
       13
176
     1
 44
0.0
176
     1
173
     0
176
     1
  0
VISUALSTYLE
  5
2D
102
{ACAD_REACTORS
330
2A
102
}
330
2A
100
AcDbVisualStyle
  2
Gouraud
 70
     2
177
     2
291
     1
 71
     2
176
     1
 72
     2
176
     1
 73
     1
176
     1
 90
        2
176
     1
 40
-0.6
176
     1
 41
30.0
176
     1
 62
     5
 63
     7
421
 16777215
176
     1
 74
     0
176
     1
 91
        4
176
     1
 64
     7
176
     1
 65
   257
176
     1
 75
     1
176
     1
175
     1
176
     1
 42
1.0
176
     1
 92
        0
176
     1
 66
     7
176
     1
 43
1.0
176
     1
 76
     1
176
     1
 77
     6
176
     1
 78
     2
176
     1
 67
     7
176
     1
 79
     5
176
     1
170
     0
176
     1
171
     0
176
     1
290
     0
176
     1
 93
       13
176
     1
 44
0.0
176
     1
173
     0
176
     1
  0
VISUALSTYLE
  5
2E
102
{ACAD_REACTORS
330
2A
102
}
330
2A
100
AcDbVisualStyle
  2
GouraudWithEdges
 70
     3
177
     2
291
     1
 71
     2
176
     1
 72
     2
176
     1
 73
     1
176
     1
 90
        2
176
     1
 40
-0.6
176
     1
 41
30.0
176
     1
 62
     5
 63
     7
421
 16777215
176
     1
 74
     1
176
     1
 91
        4
176
     1
 64
     7
176
     1
 65
   257
176
     1
 75
     1
176
     1
175
     1
176
     1
 42
1.0
176
     1
 92
        0
176
     1
 66
   257
176
     1
 43
1.0
176
     1
 76
     1
176
     1
 77
     6
176
     1
 78
     2
176
     1
 67
     7
176
     1
 79
     5
176
     1
170
     0
176
     1
171
     0
176
     1
290
     0
176
     1
 93
       13
176
     1
 44
0.0
176
     1
173
     0
176
     1
  0
VISUALSTYLE
  5
38
102
{ACAD_REACTORS
330
2A
102
}
330
2A
100
AcDbVisualStyle
  2
Linepattern
 70
    14
177
     2
291
     1
 71
     2
176
     1
 72
     2
176
     1
 73
     0
176
     1
 90
        0
176
     1
 40
-0.6
176
     1
 41
-30.0
176
     1
 62
     5
 63
     7
421
 16777215
176
     1
 74
     1
176
     1
 91
        4
176
     1
 64
     7
176
     1
 65
   257
176
     1
 75
     7
176
     1
175
     7
176
     1
 42
1.0
176
     1
 92
        8
176
     1
 66
     7
176
     1
 43
1.0
176
     1
 76
     1
176
     1
 77
     6
176
     1
 78
     2
176
     1
 67
     7
176
     1
 79
     5
176
     1
170
     0
176
     1
171
     0
176
     1
290
     0
176
     1
 93
        1
176
     1
 44
0.0
176
     1
173
     0
176
     1
  0
VISUALSTYLE
  5
33
102
{ACAD_REACTORS
330
2A
102
}
330
2A
100
AcDbVisualStyle
  2
Realistic
 70
     8
177
     2
291
     0
 71
     2
176
     1
 72
     2
176
     1
 73
     0
176
     1
 90
        0
176
     1
 40
-0.6
176
     1
 41
-30.0
176
     1
 62
     5
 63
     7
421
 16777215
176
     1
 74
     1
176
     1
 91
        0
176
     1
 64
     7
176
     1
 65
   257
176
     1
 75
     1
176
     1
175
     1
176
     1
 42
1.0
176
     1
 92
        8
176
     1
 66
     8
424
  7895160
176
     1
 43
1.0
176
     1
 76
     1
176
     1
 77
     6
176
     1
 78
     2
176
     1
 67
     7
176
     1
 79
     5
176
     1
170
     0
176
     1
171
     0
176
     1
290
     0
176
     1
 93
       13
176
     1
 44
0.0
176
     1
173
     0
176
     1
  0
VISUALSTYLE
  5
37
102
{ACAD_REACTORS
330
2A
102
}
330
2A
100
AcDbVisualStyle
  2
Thicken
 70
    13
177
     2
291
     1
 71
     2
176
     1
 72
     2
176
     1
 73
     0
176
     1
 90
        0
176
     1
 40
-0.6
176
     1
 41
-30.0
176
     1
 62
     5
 63
     7
421
 16777215
176
     1
 74
     1
176
     1
 91
        4
176
     1
 64
     7
176
     1
 65
   257
176
     1
 75
     1
176
     1
175
     1
176
     1
 42
1.0
176
     1
 92
       12
176
     1
 66
     7
176
     1
 43
1.0
176
     1
 76
     1
176
     1
 77
     6
176
     1
 78
     2
176
     1
 67
     7
176
     1
 79
     5
176
     1
170
     0
176
     1
171
     0
176
     1
290
     0
176
     1
 93
        1
176
     1
 44
0.0
176
     1
173
     0
176
     1
  0
DICTIONARYVAR
  5
21A
102
{ACAD_REACTORS
330
219
102
}
330
219
100
DictionaryVariables
280
     0
  1
1:1
  0
ENDSEC
  0
EOF
