  0
SECTION
  2
HEADER
  9
$ACADVER
  1
AC1024
  9
$ACADMAINTVER
 70
     6
  9
$DWGCODEPAGE
  3
ANSI_1252
  9
$INSBASE
 10
0.0
 20
0.0
 30
0.0
  9
$EXTMIN
 10
1.000000E+20
 20
1.000000E+20
 30
1.000000E+20
  9
$EXTMAX
 10
-1.000000E+20
 20
-1.000000E+20
 30
-1.000000E+20
  9
$LIMMIN
 10
0.0
 20
0.0
  9
$LIMMAX
 10
420.0
 20
297.0
  9
$ORTHOMODE
 70
     0
  9
$REGENMODE
 70
     1
  9
$FILLMODE
 70
     1
  9
$QTEXTMODE
 70
     0
  9
$MIRRTEXT
 70
     1
  9
$LTSCALE
 40
1.0
  9
$ATTMODE
 70
     1
  9
$TEXTSIZE
 40
2.5
  9
$TRACEWID
 40
1.0
  9
$TEXTSTYLE
  7
Standard
  9
$CLAYER
  8
0
  9
$CELTYPE
  6
ByLayer
  9
$CECOLOR
 62
   256
  9
$CELTSCALE
 40
1.0
  9
$DISPSILH
 70
     0
  9
$DIMSCALE
 40
1.0
  9
$DIMASZ
 40
2.5
  9
$DIMEXO
 40
0.625
  9
$DIMDLI
 40
3.75
  9
$DIMRND
 40
0.0
  9
$DIMDLE
 40
0.0
  9
$DIMEXE
 40
1.25
  9
$DIMTP
 40
0.0
  9
$DIMTM
 40
0.0
  9
$DIMTXT
 40
2.5
  9
$DIMCEN
 40
2.5
  9
$DIMTSZ
 40
0.0
  9
$DIMTOL
 70
     0
  9
$DIMLIM
 70
     0
  9
$DIMTIH
 70
     0
  9
$DIMTOH
 70
     0
  9
$DIMSE1
 70
     0
  9
$DIMSE2
 70
     0
  9
$DIMTAD
 70
     1
  9
$DIMZIN
 70
     8
  9
$DIMBLK
  1

  9
$DIMASO
 70
     1
  9
$DIMSHO
 70
     1
  9
$DIMPOST
  1

  9
$DIMAPOST
  1

  9
$DIMALT
 70
     0
  9
$DIMALTD
 70
     3
  9
$DIMALTF
 40
0.03937
  9
$DIMLFAC
 40
1.0
  9
$DIMTOFL
 70
     1
  9
$DIMTVP
 40
0.0
  9
$DIMTIX
 70
     0
  9
$DIMSOXD
 70
     0
  9
$DIMSAH
 70
     0
  9
$DIMBLK1
  1

  9
$DIMBLK2
  1

  9
$DIMSTYLE
  2
ISO-25
  9
$DIMCLRD
 70
     0
  9
$DIMCLRE
 70
     0
  9
$DIMCLRT
 70
     0
  9
$DIMTFAC
 40
1.0
  9
$DIMGAP
 40
0.625
  9
$DIMJUST
 70
     0
  9
$DIMSD1
 70
     0
  9
$DIMSD2
 70
     0
  9
$DIMTOLJ
 70
     0
  9
$DIMTZIN
 70
     8
  9
$DIMALTZ
 70
     0
  9
$DIMALTTZ
 70
     0
  9
$DIMUPT
 70
     0
  9
$DIMDEC
 70
     2
  9
$DIMTDEC
 70
     2
  9
$DIMALTU
 70
     2
  9
$DIMALTTD
 70
     3
  9
$DIMTXSTY
  7
Standard
  9
$DIMAUNIT
 70
     0
  9
$DIMADEC
 70
     0
  9
$DIMALTRND
 40
0.0
  9
$DIMAZIN
 70
     0
  9
$DIMDSEP
 70
    44
  9
$DIMATFIT
 70
     3
  9
$DIMFRAC
 70
     0
  9
$DIMLDRBLK
  1

  9
$DIMLUNIT
 70
     2
  9
$DIMLWD
 70
    -2
  9
$DIMLWE
 70
    -2
  9
$DIMTMOVE
 70
     0
  9
$DIMFXL
 40
1.0
  9
$DIMFXLON
 70
     0
  9
$DIMJOGANG
 40
0.785398
  9
$DIMTFILL
 70
     0
  9
$DIMTFILLCLR
 70
     0
  9
$DIMARCSYM
 70
     0
  9
$DIMLTYPE
  6

  9
$DIMLTEX1
  6

  9
$DIMLTEX2
  6

  9
$DIMTXTDIRECTION
 70
     0
  9
$LUNITS
 70
     2
  9
$LUPREC
 70
     4
  9
$SKETCHINC
 40
1.0
  9
$FILLETRAD
 40
10.0
  9
$AUNITS
 70
     0
  9
$AUPREC
 70
     0
  9
$MENU
  1
.
  9
$ELEVATION
 40
0.0
  9
$PELEVATION
 40
0.0
  9
$THICKNESS
 40
0.0
  9
$LIMCHECK
 70
     0
  9
$CHAMFERA
 40
10.0
  9
$CHAMFERB
 40
10.0
  9
$CHAMFERC
 40
20.0
  9
$CHAMFERD
 40
0.0
  9
$SKPOLY
 70
     0
  9
$TDCREATE
 40
2458641.669084595
  9
$TDUCREATE
 40
2458641.585751262
  9
$TDUPDATE
 40
2458641.669084607
  9
$TDUUPDATE
 40
2458641.585751273
  9
$TDINDWG
 40
0.0000000116
  9
$TDUSRTIMER
 40
0.0000000116
  9
$USRTIMER
 70
     1
  9
$ANGBASE
 50
0.0
  9
$ANGDIR
 70
     0
  9
$PDMODE
 70
     0
  9
$PDSIZE
 40
0.0
  9
$PLINEWID
 40
0.0
  9
$SPLFRAME
 70
     0
  9
$SPLINETYPE
 70
     6
  9
$SPLINESEGS
 70
     8
  9
$HANDSEED
  5
5FC
  9
$SURFTAB1
 70
     6
  9
$SURFTAB2
 70
     6
  9
$SURFTYPE
 70
     6
  9
$SURFU
 70
     6
  9
$SURFV
 70
     6
  9
$UCSBASE
  2

  9
$UCSNAME
  2

  9
$UCSORG
 10
0.0
 20
0.0
 30
0.0
  9
$UCSXDIR
 10
1.0
 20
0.0
 30
0.0
  9
$UCSYDIR
 10
0.0
 20
1.0
 30
0.0
  9
$UCSORTHOREF
  2

  9
$UCSORTHOVIEW
 70
     0
  9
$UCSORGTOP
 10
0.0
 20
0.0
 30
0.0
  9
$UCSORGBOTTOM
 10
0.0
 20
0.0
 30
0.0
  9
$UCSORGLEFT
 10
0.0
 20
0.0
 30
0.0
  9
$UCSORGRIGHT
 10
0.0
 20
0.0
 30
0.0
  9
$UCSORGFRONT
 10
0.0
 20
0.0
 30
0.0
  9
$UCSORGBACK
 10
0.0
 20
0.0
 30
0.0
  9
$PUCSBASE
  2

  9
$PUCSNAME
  2

  9
$PUCSORG
 10
0.0
 20
0.0
 30
0.0
  9
$PUCSXDIR
 10
1.0
 20
0.0
 30
0.0
  9
$PUCSYDIR
 10
0.0
 20
1.0
 30
0.0
  9
$PUCSORTHOREF
  2

  9
$PUCSORTHOVIEW
 70
     0
  9
$PUCSORGTOP
 10
0.0
 20
0.0
 30
0.0
  9
$PUCSORGBOTTOM
 10
0.0
 20
0.0
 30
0.0
  9
$PUCSORGLEFT
 10
0.0
 20
0.0
 30
0.0
  9
$PUCSORGRIGHT
 10
0.0
 20
0.0
 30
0.0
  9
$PUCSORGFRONT
 10
0.0
 20
0.0
 30
0.0
  9
$PUCSORGBACK
 10
0.0
 20
0.0
 30
0.0
  9
$USERI1
 70
     0
  9
$USERI2
 70
     0
  9
$USERI3
 70
     0
  9
$USERI4
 70
     0
  9
$USERI5
 70
     0
  9
$USERR1
 40
0.0
  9
$USERR2
 40
0.0
  9
$USERR3
 40
0.0
  9
$USERR4
 40
0.0
  9
$USERR5
 40
0.0
  9
$WORLDVIEW
 70
     1
  9
$SHADEDGE
 70
     3
  9
$SHADEDIF
 70
    70
  9
$TILEMODE
 70
     1
  9
$MAXACTVP
 70
    64
  9
$PINSBASE
 10
0.0
 20
0.0
 30
0.0
  9
$PLIMCHECK
 70
     0
  9
$PEXTMIN
 10
1.000000E+20
 20
1.000000E+20
 30
1.000000E+20
  9
$PEXTMAX
 10
-1.000000E+20
 20
-1.000000E+20
 30
-1.000000E+20
  9
$PLIMMIN
 10
0.0
 20
0.0
  9
$PLIMMAX
 10
420.0
 20
297.0
  9
$UNITMODE
 70
     0
  9
$VISRETAIN
 70
     1
  9
$PLINEGEN
 70
     0
  9
$PSLTSCALE
 70
     1
  9
$TREEDEPTH
 70
  3020
  9
$CMLSTYLE
  2
Standard
  9
$CMLJUST
 70
     0
  9
$CMLSCALE
 40
20.0
  9
$PROXYGRAPHICS
 70
     1
  9
$MEASUREMENT
 70
     1
  9
$CELWEIGHT
370
    -1
  9
$ENDCAPS
280
     0
  9
$JOINSTYLE
280
     0
  9
$LWDISPLAY
290
     0
  9
$INSUNITS
 70
     4
  9
$HYPERLINKBASE
  1

  9
$STYLESHEET
  1

  9
$XEDIT
290
     1
  9
$CEPSNTYPE
380
     0
  9
$PSTYLEMODE
290
     1
  9
$FINGERPRINTGUID
  2
{A8C18A4B-7340-4E10-BAAE-A3E07BE938D6}
  9
$VERSIONGUID
  2
{FAEB1C32-E019-11D5-929B-00C0DF256EC4}
  9
$EXTNAMES
290
     1
  9
$PSVPSCALE
 40
0.0
  9
$OLESTARTUP
290
     0
  9
$SORTENTS
280
   127
  9
$INDEXCTL
280
     0
  9
$HIDETEXT
280
     1
  9
$XCLIPFRAME
280
     2
  9
$HALOGAP
280
     0
  9
$OBSCOLOR
 70
   257
  9
$OBSLTYPE
280
     0
  9
$INTERSECTIONDISPLAY
280
     0
  9
$INTERSECTIONCOLOR
 70
   257
  9
$DIMASSOC
280
     2
  9
$PROJECTNAME
  1

  9
$CAMERADISPLAY
290
     0
  9
$LENSLENGTH
 40
50.0
  9
$CAMERAHEIGHT
 40
0.0
  9
$STEPSPERSEC
 40
2.0
  9
$STEPSIZE
 40
6.0
  9
$3DDWFPREC
 40
2.0
  9
$PSOLWIDTH
 40
5.0
  9
$PSOLHEIGHT
 40
80.0
  9
$LOFTANG1
 40
1.570796
  9
$LOFTANG2
 40
1.570796
  9
$LOFTMAG1
 40
0.0
  9
$LOFTMAG2
 40
0.0
  9
$LOFTPARAM
 70
     7
  9
$LOFTNORMALS
280
     1
  9
$LATITUDE
 40
37.795
  9
$LONGITUDE
 40
-122.394
  9
$NORTHDIRECTION
 40
0.0
  9
$TIMEZONE
 70
 -8000
  9
$LIGHTGLYPHDISPLAY
280
     1
  9
$TILEMODELIGHTSYNCH
280
     1
  9
$SOLIDHIST
280
     1
  9
$SHOWHIST
280
     1
  9
$DWFFRAME
280
     2
  9
$DGNFRAME
280
     2
  9
$REALWORLDSCALE
290
     1
  9
$INTERFERECOLOR
 62
   256
  9
$CSHADOW
280
     0
  9
$SHADOWPLANELOCATION
 40
0.0
  0
ENDSEC
  0
SECTION
  2
CLASSES
  0
CLASS
  1
ACDBDICTIONARYWDFLT
  2
AcDbDictionaryWithDefault
  3
ObjectDBX Classes
 90
        0
 91
        4
280
     0
281
     0
  0
CLASS
  1
VISUALSTYLE
  2
AcDbVisualStyle
  3
ObjectDBX Classes
 90
     4095
 91
        4
280
     0
281
     0
  0
CLASS
  1
MATERIAL
  2
AcDbMaterial
  3
ObjectDBX Classes
 90
     1153
 91
        4
280
     0
281
     0
  0
CLASS
  1
SCALE
  2
AcDbScale
  3
ObjectDBX Classes
 90
     1153
 91
        4
280
     0
281
     0
  0
CLASS
  1
DICTIONARYVAR
  2
AcDbDictionaryVar
  3
ObjectDBX Classes
 90
        0
 91
        4
280
     0
281
     0
  0
ENDSEC
  0
SECTION
  2
TABLES
  0
TABLE
  2
VPORT
  5
8
330
0
100
AcDbSymbolTable
 70
     1
  0
VPORT
  5
29
330
8
100
AcDbSymbolTableRecord
100
AcDbViewportTableRecord
  2
*Active
 70
     0
 10
0.0
 20
0.0
 11
1.0
 21
1.0
 12
344.186916
 22
148.5
 13
0.0
 23
0.0
 14
10.0
 24
10.0
 15
10.0
 25
10.0
 16
0.0
 26
0.0
 36
1.0
 17
0.0
 27
0.0
 37
0.0
 40
297.0
 41
1.972973
 42
50.0
 43
0.0
 44
0.0
 50
0.0
 51
0.0
 71
     0
 72
   100
 73
     1
 74
     3
 75
     0
 76
     0
 77
     0
 78
     0
281
     0
 65
     1
110
0.0
120
0.0
130
0.0
111
1.0
121
0.0
131
0.0
112
0.0
122
1.0
132
0.0
 79
     0
146
0.0
 60
     3
 61
     5
292
     1
282
     1
141
0.0
142
0.0
 63
   250
  0
ENDTAB
  0
TABLE
  2
LTYPE
  5
5
330
0
100
AcDbSymbolTable
 70
     3
  0
LTYPE
  5
14
330
5
100
AcDbSymbolTableRecord
100
AcDbLinetypeTableRecord
  2
ByBlock
 70
     0
  3

 72
    65
 73
     0
 40
0.0
  0
LTYPE
  5
15
330
5
100
AcDbSymbolTableRecord
100
AcDbLinetypeTableRecord
  2
ByLayer
 70
     0
  3

 72
    65
 73
     0
 40
0.0
  0
LTYPE
  5
16
330
5
100
AcDbSymbolTableRecord
100
AcDbLinetypeTableRecord
  2
Continuous
 70
     0
  3
Solid line
 72
    65
 73
     0
 40
0.0
  0
LTYPE
  5
B2
330
5
100
AcDbSymbolTableRecord
100
AcDbLinetypeTableRecord
  2
CENTER2
 70
     0
  3
Center (.5x) ___ _ ___ _ ___ _ ___ _ ___ _ ___
 72
    65
 73
     4
 40
28.575
 49
19.05
 74
     0
 49
-3.175
 74
     0
 49
3.175
 74
     0
 49
-3.175
 74
     0
  0
LTYPE
  5
12C
330
5
100
AcDbSymbolTableRecord
100
AcDbLinetypeTableRecord
  2
HIDDEN2
 70
     0
  3
Hidden (.5x) _ _ _ _ _ _ _ _ _ _ _ _ _ _ _ _ _ 
 72
    65
 73
     2
 40
4.7625
 49
3.175
 74
     0
 49
-1.5875
 74
     0
  0
ENDTAB
  0
TABLE
  2
LAYER
  5
2
330
0
100
AcDbSymbolTable
 70
    21
  0
LAYER
  5
10
330
2
100
AcDbSymbolTableRecord
100
AcDbLayerTableRecord
  2
0
 70
     0
 62
     7
  6
Continuous
370
     0
390
F
347
3E
  0
LAYER
  5
3F
330
2
100
AcDbSymbolTableRecord
100
AcDbLayerTableRecord
  2
1
 70
     0
 62
     7
  6
Continuous
370
     0
390
F
347
3E
1001
AcAecLayerStandard
1000

1000
1
  0
LAYER
  5
41
330
2
100
AcDbSymbolTableRecord
100
AcDbLayerTableRecord
  2
2
 70
     0
 62
     7
  6
Continuous
370
     0
390
F
347
3E
1001
AcAecLayerStandard
1000

1000
2
  0
LAYER
  5
42
330
2
100
AcDbSymbolTableRecord
100
AcDbLayerTableRecord
  2
3
 70
     0
 62
     7
  6
Continuous
370
     0
390
F
347
3E
1001
AcAecLayerStandard
1000

1000
255
  0
LAYER
  5
43
330
2
100
AcDbSymbolTableRecord
100
AcDbLayerTableRecord
  2
4
 70
     0
 62
     7
  6
Continuous
370
     0
390
F
347
3E
1001
AcAecLayerStandard
1000

1000
DEFPOINTS
  0
LAYER
  5
44
330
2
100
AcDbSymbolTableRecord
100
AcDbLayerTableRecord
  2
5
 70
     0
 62
     7
  6
Continuous
370
     0
390
F
347
3E
1001
AcAecLayerStandard
1000

1000
__BYBLOCK
  0
LAYER
  5
45
330
2
100
AcDbSymbolTableRecord
100
AcDbLayerTableRecord
  2
6
 70
     0
 62
     7
  6
Continuous
370
     0
390
F
347
3E
1001
AcAecLayerStandard
1000

1000
255_1
  0
LAYER
  5
46
330
2
100
AcDbSymbolTableRecord
100
AcDbLayerTableRecord
  2
7
 70
     0
 62
     7
  6
Continuous
370
     0
390
F
347
3E
1001
AcAecLayerStandard
1000

1000
255_2
  0
LAYER
  5
47
330
2
100
AcDbSymbolTableRecord
100
AcDbLayerTableRecord
  2
8
 70
     0
 62
     7
  6
Continuous
370
     0
390
F
347
3E
1001
AcAecLayerStandard
1000

1000
quote
  0
LAYER
  5
48
330
2
100
AcDbSymbolTableRecord
100
AcDbLayerTableRecord
  2
9
 70
     0
 62
     7
  6
Continuous
370
     0
390
F
347
3E
  0
LAYER
  5
49
330
2
100
AcDbSymbolTableRecord
100
AcDbLayerTableRecord
  2
taglio
 70
     0
 62
     7
  6
Continuous
370
     0
390
F
347
3E
  0
LAYER
  5
4A
330
2
100
AcDbSymbolTableRecord
100
AcDbLayerTableRecord
  2
cordone
 70
     0
 62
     7
  6
Continuous
370
     0
390
F
347
3E
  0
LAYER
  5
4B
330
2
100
AcDbSymbolTableRecord
100
AcDbLayerTableRecord
  2
Design
 70
     0
 62
     7
  6
Continuous
370
     0
390
F
347
3E
  0
LAYER
  5
4C
330
2
100
AcDbSymbolTableRecord
100
AcDbLayerTableRecord
  2
Immaginedistampa
 70
     0
 62
     7
  6
Continuous
370
     0
390
F
347
3E
  0
LAYER
  5
4D
330
2
100
AcDbSymbolTableRecord
100
AcDbLayerTableRecord
  2
Annotation1
 70
     0
 62
     7
  6
Continuous
370
     0
390
F
347
3E
  0
LAYER
  5
4E
330
2
100
AcDbSymbolTableRecord
100
AcDbLayerTableRecord
  2
Unknown
 70
     0
 62
     7
  6
Continuous
370
     0
390
F
347
3E
  0
LAYER
  5
4F
330
2
100
AcDbSymbolTableRecord
100
AcDbLayerTableRecord
  2
255
 70
     0
 62
     1
  6
Continuous
370
     0
390
F
347
3E
  0
LAYER
  5
50
330
2
100
AcDbSymbolTableRecord
100
AcDbLayerTableRecord
  2
DEFPOINTS
 70
     0
 62
     1
  6
Continuous
290
     0
370
     0
390
F
347
3E
  0
LAYER
  5
51
330
2
100
AcDbSymbolTableRecord
100
AcDbLayerTableRecord
  2
255_1
 70
     0
 62
     1
  6
Continuous
370
     0
390
F
347
3E
  0
LAYER
  5
52
330
2
100
AcDbSymbolTableRecord
100
AcDbLayerTableRecord
  2
255_2
 70
     0
 62
     1
  6
Continuous
370
     0
390
F
347
3E
  0
LAYER
  5
53
330
2
100
AcDbSymbolTableRecord
100
AcDbLayerTableRecord
  2
255_3
 70
     0
 62
     1
  6
Continuous
370
     0
390
F
347
3E
  0
ENDTAB
  0
TABLE
  2
STYLE
  5
3
330
0
100
AcDbSymbolTable
 70
     9
  0
STYLE
  5
11
330
3
100
AcDbSymbolTableRecord
100
AcDbTextStyleTableRecord
  2
Standard
 70
     0
 40
0.0
 41
1.0
 50
0.0
 71
     0
 42
2.5
  3
txt
  4

1001
ACAD
1000
txt
1071
        0
  0
STYLE
  5
54
330
3
100
AcDbSymbolTableRecord
100
AcDbTextStyleTableRecord
  2
Default
 70
     0
 40
0.0
 41
1.0
 50
0.0
 71
     0
 42
0.2
  3

  4

1001
ACAD
1000
txt
1071
        0
  0
STYLE
  5
55
330
3
100
AcDbSymbolTableRecord
100
AcDbTextStyleTableRecord
  2
ANSI
 70
     0
 40
0.0
 41
1.0
 50
0.0
 71
     0
 42
0.2
  3

  4

1001
ACAD
1000
txt
1071
        0
  0
STYLE
  5
56
330
3
100
AcDbSymbolTableRecord
100
AcDbTextStyleTableRecord
  2
Testo nota (ISO)
 70
     0
 40
0.0
 41
1.0
 50
0.0
 71
     0
 42
0.2
  3

  4

1001
ACAD
1000
Tahoma
1071
        0
  0
STYLE
  5
57
330
3
100
AcDbSymbolTableRecord
100
AcDbTextStyleTableRecord
  2
SEACAD_arial_ttf
 70
     0
 40
0.0
 41
1.0
 50
0.0
 71
     0
 42
0.2
  3

  4

1001
ACAD
1000
arial
1071
        0
  0
STYLE
  5
58
330
3
100
AcDbSymbolTableRecord
100
AcDbTextStyleTableRecord
  2
ISO
 70
     0
 40
0.0
 41
1.0
 50
0.0
 71
     0
 42
0.2
  3

  4

1001
ACAD
1000
txt
1071
        0
  0
STYLE
  5
59
330
3
100
AcDbSymbolTableRecord
100
AcDbTextStyleTableRecord
  2
TSTYLE10
 70
     0
 40
0.0
 41
1.0
 50
0.0
 71
     0
 42
0.2
  3

  4

1001
ACAD
1000
Arial
1071
        0
  0
STYLE
  5
5A
330
3
100
AcDbSymbolTableRecord
100
AcDbTextStyleTableRecord
  2
TSTYLE2
 70
     0
 40
0.0
 41
1.0
 50
0.0
 71
     0
 42
0.2
  3

  4

1001
ACAD
1000
Times New Roman
1071
        0
  0
STYLE
  5
5B
330
3
100
AcDbSymbolTableRecord
100
AcDbTextStyleTableRecord
  2
TSTYLE6
 70
     0
 40
0.0
 41
1.0
 50
0.0
 71
     0
 42
0.2
  3

  4

1001
ACAD
1000
Futura Lt BT
1071
        0
  0
ENDTAB
  0
TABLE
  2
VIEW
  5
6
330
0
100
AcDbSymbolTable
 70
     0
  0
ENDTAB
  0
TABLE
  2
UCS
  5
7
330
0
100
AcDbSymbolTable
 70
     0
  0
ENDTAB
  0
TABLE
  2
APPID
  5
9
330
0
100
AcDbSymbolTable
 70
     2
  0
APPID
  5
12
330
9
100
AcDbSymbolTableRecord
100
AcDbRegAppTableRecord
  2
ACAD
 70
     0
  0
APPID
  5
40
330
9
100
AcDbSymbolTableRecord
100
AcDbRegAppTableRecord
  2
AcAecLayerStandard
 70
     0
  0
ENDTAB
  0
TABLE
  2
DIMSTYLE
  5
A
330
0
100
AcDbSymbolTable
 70
     9
100
AcDbDimStyleTable
  0
DIMSTYLE
105
27
330
A
100
AcDbSymbolTableRecord
100
AcDbDimStyleTableRecord
  2
ISO-25
 70
     0
  3
<>
 42
1.215278
 43
3.75
 44
3.5
 49
10.01
140
3.5
141
2.5
143
0.03937
147
3.5
171
     3
172
     1
178
     2
274
     3
283
     0
340
11
  0
DIMSTYLE
105
5C
102
{ACAD_REACTORS
330
4D6
330
4E3
330
4F0
330
4FD
330
50A
330
517
330
57B
330
588
330
595
330
5A2
330
5B0
330
5BD
330
5D4
330
5E1
102
}
330
A
100
AcDbSymbolTableRecord
100
AcDbDimStyleTableRecord
  2
Default
 70
     0
  3
<>
 41
4.375
 42
1.05
 44
2.1
 49
10.01
 73
     0
 74
     0
 77
     1
 78
     8
140
3.5
146
0.4
147
1.75
172
     1
178
     2
271
     2
272
     3
284
     8
340
54
341
5D
342
5D
  0
DIMSTYLE
105
64
330
A
100
AcDbSymbolTableRecord
100
AcDbDimStyleTableRecord
  2
ANSI
 70
     0
  3
<>
 41
2.0
 42
2.0
 44
1.16
 49
5.72
 73
     0
 74
     0
 77
     1
 78
     8
140
2.0
146
0.4
147
1.0
172
     1
178
     2
271
     2
272
     3
284
    12
340
55
341
5D
342
5D
  0
DIMSTYLE
105
65
330
A
100
AcDbSymbolTableRecord
100
AcDbDimStyleTableRecord
  2
Default (ISO)
 70
     0
  3
<>
 41
5.0
 42
0.035
 44
6.35
 45
0.0
 49
10.01
 73
     0
 74
     0
 77
     1
140
3.5
146
1.001486
147
1.524
172
     1
178
     2
271
     2
272
     2
278
    44
340
56
  0
DIMSTYLE
105
66
330
A
100
AcDbSymbolTableRecord
100
AcDbDimStyleTableRecord
  2
DSTYLE1
 70
     0
  3
<>
 41
35.0
 42
9.2414
 44
1.166665
 49
10.01
 73
     0
 74
     0
 78
     8
140
3.5
146
0.6
147
1.225
172
     1
176
     7
177
     7
178
     1
340
54
  0
DIMSTYLE
105
67
330
A
100
AcDbSymbolTableRecord
100
AcDbDimStyleTableRecord
  2
ISO
 70
     0
  3
<>
 41
4.375
 42
1.05
 44
2.1
 49
10.01
 73
     0
 74
     0
 77
     1
 78
     8
140
3.5
146
0.4
147
1.75
172
     1
178
     2
271
     2
272
     3
284
     8
340
54
341
5D
342
5D
  0
DIMSTYLE
105
68
330
A
100
AcDbSymbolTableRecord
100
AcDbDimStyleTableRecord
  2
DSTYLE8
 70
     0
  3
<>
 41
35.0
 42
58.242514
 44
16.666667
 49
143.0
 73
     0
 74
     0
 77
     1
140
50.0
146
0.6
147
17.5
172
     1
178
     2
271
     0
340
59
  0
DIMSTYLE
105
69
330
A
100
AcDbSymbolTableRecord
100
AcDbDimStyleTableRecord
  2
DSTYLE3
 70
     0
  3
<>
 41
35.0
 42
129.470366
 44
16.666667
 49
143.0
 73
     0
 74
     0
 77
     1
 78
     8
140
50.0
146
0.6
147
17.5
172
     1
178
     2
271
     3
340
59
  0
DIMSTYLE
105
6A
330
A
100
AcDbSymbolTableRecord
100
AcDbDimStyleTableRecord
  2
DSTYLE7
 70
     0
  3
<>
 41
35.0
 42
75.000002
 44
16.666667
 49
143.0
 73
     0
 74
     0
 77
     1
 78
     8
140
50.0
146
0.6
147
17.5
172
     1
178
     2
271
     3
340
59
  0
ENDTAB
  0
TABLE
  2
BLOCK_RECORD
  5
1
330
0
100
AcDbSymbolTable
 70
    24
  0
BLOCK_RECORD
  5
1F
330
1
100
AcDbSymbolTableRecord
100
AcDbBlockTableRecord
  2
*Model_Space
340
22
 70
     0
280
     1
281
     0
  0
BLOCK_RECORD
  5
1B
330
1
100
AcDbSymbolTableRecord
100
AcDbBlockTableRecord
  2
*Paper_Space
340
1E
 70
     0
280
     1
281
     0
  0
BLOCK_RECORD
  5
23
330
1
100
AcDbSymbolTableRecord
100
AcDbBlockTableRecord
  2
*Paper_Space0
340
26
 70
     0
280
     1
281
     0
  0
BLOCK_RECORD
  5
5D
330
1
100
AcDbSymbolTableRecord
100
AcDbBlockTableRecord
  2
_CLOSED
340
0
102
{BLKREFS
331
4DC
331
4DB
331
4E9
331
4E8
331
4F6
331
4F5
331
503
331
502
331
510
331
50F
331
51D
331
51C
331
581
331
580
331
58E
331
58D
331
59B
331
59A
331
5A8
331
5A7
331
5B4
331
5B3
331
5C1
331
5C0
331
5DA
331
5D9
331
5E7
331
5E6
102
}
 70
     0
280
     1
281
     0
  0
BLOCK_RECORD
  5
12F
330
1
100
AcDbSymbolTableRecord
100
AcDbBlockTableRecord
  2
.TD_XHATCH_1
340
0
102
{BLKREFS
331
1A9
102
}
 70
     0
280
     1
281
     0
  0
BLOCK_RECORD
  5
1AC
330
1
100
AcDbSymbolTableRecord
100
AcDbBlockTableRecord
  2
.TD_XHATCH_2
340
0
102
{BLKREFS
331
1C4
102
}
 70
     0
280
     1
281
     0
  0
BLOCK_RECORD
  5
1C7
330
1
100
AcDbSymbolTableRecord
100
AcDbBlockTableRecord
  2
.TD_XHATCH_3
340
0
102
{BLKREFS
331
2FA
102
}
 70
     0
280
     1
281
     0
  0
BLOCK_RECORD
  5
2FD
330
1
100
AcDbSymbolTableRecord
100
AcDbBlockTableRecord
  2
.TD_XHATCH_4
340
0
102
{BLKREFS
331
370
102
}
 70
     0
280
     1
281
     0
  0
BLOCK_RECORD
  5
373
330
1
100
AcDbSymbolTableRecord
100
AcDbBlockTableRecord
  2
.TD_XHATCH_5
340
0
102
{BLKREFS
331
411
102
}
 70
     0
280
     1
281
     0
  0
BLOCK_RECORD
  5
414
330
1
100
AcDbSymbolTableRecord
100
AcDbBlockTableRecord
  2
.TD_XHATCH_6
340
0
102
{BLKREFS
331
469
102
}
 70
     0
280
     1
281
     0
  0
BLOCK_RECORD
  5
46C
330
1
100
AcDbSymbolTableRecord
100
AcDbBlockTableRecord
  2
.TD_XHATCH_7
340
0
102
{BLKREFS
331
4D3
102
}
 70
     0
280
     1
281
     0
  0
BLOCK_RECORD
  5
4D7
330
1
100
AcDbSymbolTableRecord
100
AcDbBlockTableRecord
  2
*D9
340
0
 70
     0
280
     1
281
     0
  0
BLOCK_RECORD
  5
4E4
330
1
100
AcDbSymbolTableRecord
100
AcDbBlockTableRecord
  2
*D10
340
0
 70
     0
280
     1
281
     0
  0
BLOCK_RECORD
  5
4F1
330
1
100
AcDbSymbolTableRecord
100
AcDbBlockTableRecord
  2
*D11
340
0
 70
     0
280
     1
281
     0
  0
BLOCK_RECORD
  5
4FE
330
1
100
AcDbSymbolTableRecord
100
AcDbBlockTableRecord
  2
*D12
340
0
 70
     0
280
     1
281
     0
  0
BLOCK_RECORD
  5
50B
330
1
100
AcDbSymbolTableRecord
100
AcDbBlockTableRecord
  2
*D13
340
0
 70
     0
280
     1
281
     0
  0
BLOCK_RECORD
  5
518
330
1
100
AcDbSymbolTableRecord
100
AcDbBlockTableRecord
  2
*D14
340
0
 70
     0
280
     1
281
     0
  0
BLOCK_RECORD
  5
57C
330
1
100
AcDbSymbolTableRecord
100
AcDbBlockTableRecord
  2
*D15
340
0
 70
     0
280
     1
281
     0
  0
BLOCK_RECORD
  5
589
330
1
100
AcDbSymbolTableRecord
100
AcDbBlockTableRecord
  2
*D16
340
0
 70
     0
280
     1
281
     0
  0
BLOCK_RECORD
  5
596
330
1
100
AcDbSymbolTableRecord
100
AcDbBlockTableRecord
  2
*D17
340
0
 70
     0
280
     1
281
     0
  0
BLOCK_RECORD
  5
5A3
330
1
100
AcDbSymbolTableRecord
100
AcDbBlockTableRecord
  2
*D18
340
0
 70
     0
280
     1
281
     0
  0
BLOCK_RECORD
  5
5B1
330
1
100
AcDbSymbolTableRecord
100
AcDbBlockTableRecord
  2
*D19
340
0
 70
     0
280
     1
281
     0
  0
BLOCK_RECORD
  5
5BE
330
1
100
AcDbSymbolTableRecord
100
AcDbBlockTableRecord
  2
*D20
340
0
 70
     0
280
     1
281
     0
  0
BLOCK_RECORD
  5
5D5
330
1
100
AcDbSymbolTableRecord
100
AcDbBlockTableRecord
  2
*D21
340
0
 70
     0
280
     1
281
     0
  0
BLOCK_RECORD
  5
5E2
330
1
100
AcDbSymbolTableRecord
100
AcDbBlockTableRecord
  2
*D22
340
0
 70
     0
280
     1
281
     0
  0
BLOCK_RECORD
  5
5EE
330
1
100
AcDbSymbolTableRecord
100
AcDbBlockTableRecord
  2
.TD_DIMENSION_1
340
0
102
{BLKREFS
331
5F4
102
}
 70
     0
280
     1
281
     0
  0
ENDTAB
  0
ENDSEC
  0
SECTION
  2
BLOCKS
  0
BLOCK
  5
20
330
1F
100
AcDbEntity
  8
0
100
AcDbBlockBegin
  2
*Model_Space
 70
     0
 10
0.0
 20
0.0
 30
0.0
  3
*Model_Space
  1

  0
ENDBLK
  5
21
330
1F
100
AcDbEntity
  8
0
100
AcDbBlockEnd
  0
BLOCK
  5
1C
330
1B
100
AcDbEntity
 67
     1
  8
0
100
AcDbBlockBegin
  2
*Paper_Space
 70
     0
 10
0.0
 20
0.0
 30
0.0
  3
*Paper_Space
  1

  0
ENDBLK
  5
1D
330
1B
100
AcDbEntity
 67
     1
  8
0
100
AcDbBlockEnd
  0
BLOCK
  5
24
330
23
100
AcDbEntity
  8
0
100
AcDbBlockBegin
  2
*Paper_Space0
 70
     0
 10
0.0
 20
0.0
 30
0.0
  3
*Paper_Space0
  1

  0
ENDBLK
  5
25
330
23
100
AcDbEntity
  8
0
100
AcDbBlockEnd
  0
BLOCK
  5
5E
330
5D
100
AcDbEntity
  8
0
100
AcDbBlockBegin
  2
_CLOSED
 70
     0
 10
0.0
 20
0.0
 30
0.0
  3
_CLOSED
  1

  0
LINE
  5
60
330
5D
100
AcDbEntity
  8
0
  6
ByBlock
 62
     0
370
    -2
100
AcDbLine
 10
-1.0
 20
0.166667
 30
0.0
 11
0.0
 21
0.0
 31
0.0
  0
LINE
  5
61
330
5D
100
AcDbEntity
  8
0
  6
ByBlock
 62
     0
370
    -2
100
AcDbLine
 10
0.0
 20
0.0
 30
0.0
 11
-1.0
 21
-0.166667
 31
0.0
  0
LINE
  5
62
330
5D
100
AcDbEntity
  8
0
  6
ByBlock
 62
     0
370
    -2
100
AcDbLine
 10
-1.0
 20
0.166667
 30
0.0
 11
-1.0
 21
-0.166667
 31
0.0
  0
LINE
  5
63
330
5D
100
AcDbEntity
  8
0
  6
ByBlock
 62
     0
370
    -2
100
AcDbLine
 10
0.0
 20
0.0
 30
0.0
 11
-1.0
 21
0.0
 31
0.0
  0
ENDBLK
  5
5F
330
5D
100
AcDbEntity
  8
0
100
AcDbBlockEnd
  0
BLOCK
  5
1AA
330
12F
100
AcDbEntity
  8
0
100
AcDbBlockBegin
  2
.TD_XHATCH_1
 70
     0
 10
14362.795898
 20
-7011.072266
 30
0.0
  3
.TD_XHATCH_1
  1

  0
LINE
  5
130
330
12F
100
AcDbEntity
  8
0
  6
Continuous
 62
     7
420
 16777215
100
AcDbLine
 10
14363.240234
 20
-7011.072266
 30
0.0
 11
14384.270508
 21
-6990.041992
 31
0.0
  0
LINE
  5
131
330
12F
100
AcDbEntity
  8
0
  6
Continuous
 62
     7
420
 16777215
100
AcDbLine
 10
14391.095703
 20
-6983.217285
 30
0.0
 11
14399.71875
 21
-6974.594727
 31
0.0
  0
LINE
  5
132
330
12F
100
AcDbEntity
  8
0
  6
Continuous
 62
     7
420
 16777215
100
AcDbLine
 10
14400.080078
 20
-6974.900391
 30
0.0
 11
14391.231445
 21
-6983.749512
 31
0.0
  0
LINE
  5
133
330
12F
100
AcDbEntity
  8
0
  6
Continuous
 62
     7
420
 16777215
100
AcDbLine
 10
14384.939453
 20
-6990.041992
 30
0.0
 11
14363.908203
 21
-7011.072266
 31
0.0
  0
LINE
  5
134
330
12F
100
AcDbEntity
  8
0
  6
Continuous
 62
     7
420
 16777215
100
AcDbLine
 10
14364.577148
 20
-7011.072266
 30
0.0
 11
14385.607422
 21
-6990.041992
 31
0.0
  0
LINE
  5
135
330
12F
100
AcDbEntity
  8
0
  6
Continuous
 62
     7
420
 16777215
100
AcDbLine
 10
14391.31543
 20
-6984.333984
 30
0.0
 11
14400.430664
 21
-6975.21875
 31
0.0
  0
LINE
  5
136
330
12F
100
AcDbEntity
  8
0
  6
Continuous
 62
     7
420
 16777215
100
AcDbLine
 10
14400.768555
 20
-6975.548828
 30
0.0
 11
14391.331055
 21
-6984.986816
 31
0.0
  0
LINE
  5
137
330
12F
100
AcDbEntity
  8
0
  6
Continuous
 62
     7
420
 16777215
100
AcDbLine
 10
14386.279297
 20
-6990.038086
 30
0.0
 11
14378.388672
 21
-6997.928223
 31
0.0
  0
LINE
  5
138
330
12F
100
AcDbEntity
  8
0
  6
Continuous
 62
     7
420
 16777215
100
AcDbLine
 10
14378.181641
 20
-6998.13623
 30
0.0
 11
14365.245117
 21
-7011.072266
 31
0.0
  0
LINE
  5
139
330
12F
100
AcDbEntity
  8
0
  6
Continuous
 62
     7
420
 16777215
100
AcDbLine
 10
14365.913086
 20
-7011.072266
 30
0.0
 11
14378.038086
 21
-6998.947266
 31
0.0
  0
LINE
  5
13A
330
12F
100
AcDbEntity
  8
0
  6
Continuous
 62
     7
420
 16777215
100
AcDbLine
 10
14379.057617
 20
-6997.928223
 30
0.0
 11
14387.03125
 21
-6989.95459
 31
0.0
  0
LINE
  5
13B
330
12F
100
AcDbEntity
  8
0
  6
Continuous
 62
     7
420
 16777215
100
AcDbLine
 10
14391.24707
 20
-6985.738281
 30
0.0
 11
14401.094727
 21
-6975.891113
 31
0.0
  0
LINE
  5
13C
330
12F
100
AcDbEntity
  8
0
  6
Continuous
 62
     7
420
 16777215
100
AcDbLine
 10
14401.408203
 20
-6976.245605
 30
0.0
 11
14390.985352
 21
-6986.668457
 31
0.0
  0
LINE
  5
13D
330
12F
100
AcDbEntity
  8
0
  6
Continuous
 62
     7
420
 16777215
100
AcDbLine
 10
14387.960938
 20
-6989.692871
 30
0.0
 11
14379.725586
 21
-6997.928223
 31
0.0
  0
LINE
  5
13E
330
12F
100
AcDbEntity
  8
0
  6
Continuous
 62
     7
420
 16777215
100
AcDbLine
 10
14377.895508
 20
-6999.758789
 30
0.0
 11
14366.581055
 21
-7011.072266
 31
0.0
  0
LINE
  5
13F
330
12F
100
AcDbEntity
  8
0
  6
Continuous
 62
     7
420
 16777215
100
AcDbLine
 10
14367.25
 20
-7011.072266
 30
0.0
 11
14377.751953
 21
-7000.569824
 31
0.0
  0
LINE
  5
140
330
12F
100
AcDbEntity
  8
0
  6
Continuous
 62
     7
420
 16777215
100
AcDbLine
 10
14380.393555
 20
-6997.928223
 30
0.0
 11
14401.709961
 21
-6976.611816
 31
0.0
  0
LINE
  5
141
330
12F
100
AcDbEntity
  8
0
  6
Continuous
 62
     7
420
 16777215
100
AcDbLine
 10
14402.0
 20
-6976.990723
 30
0.0
 11
14381.061523
 21
-6997.928223
 31
0.0
  0
LINE
  5
142
330
12F
100
AcDbEntity
  8
0
  6
Continuous
 62
     7
420
 16777215
100
AcDbLine
 10
14377.609375
 20
-7001.381348
 30
0.0
 11
14367.917969
 21
-7011.072266
 31
0.0
  0
LINE
  5
143
330
12F
100
AcDbEntity
  8
0
  6
Continuous
 62
     7
420
 16777215
100
AcDbLine
 10
14368.585938
 20
-7011.072266
 30
0.0
 11
14377.46582
 21
-7002.192383
 31
0.0
  0
LINE
  5
144
330
12F
100
AcDbEntity
  8
0
  6
Continuous
 62
     7
420
 16777215
100
AcDbLine
 10
14381.730469
 20
-6997.928223
 30
0.0
 11
14402.277344
 21
-6977.381836
 31
0.0
  0
LINE
  5
145
330
12F
100
AcDbEntity
  8
0
  6
Continuous
 62
     7
420
 16777215
100
AcDbLine
 10
14402.541016
 20
-6977.785156
 30
0.0
 11
14382.398438
 21
-6997.928223
 31
0.0
  0
LINE
  5
146
330
12F
100
AcDbEntity
  8
0
  6
Continuous
 62
     7
420
 16777215
100
AcDbLine
 10
14377.323242
 20
-7003.003906
 30
0.0
 11
14369.253906
 21
-7011.072266
 31
0.0
  0
LINE
  5
147
330
12F
100
AcDbEntity
  8
0
  6
Continuous
 62
     7
420
 16777215
100
AcDbLine
 10
14369.922852
 20
-7011.072266
 30
0.0
 11
14377.179688
 21
-7003.814941
 31
0.0
  0
LINE
  5
148
330
12F
100
AcDbEntity
  8
0
  6
Continuous
 62
     7
420
 16777215
100
AcDbLine
 10
14383.066406
 20
-6997.928223
 30
0.0
 11
14402.792969
 21
-6978.202148
 31
0.0
  0
LINE
  5
149
330
12F
100
AcDbEntity
  8
0
  6
Continuous
 62
     7
420
 16777215
100
AcDbLine
 10
14403.03125
 20
-6978.632324
 30
0.0
 11
14383.734375
 21
-6997.928223
 31
0.0
  0
LINE
  5
14A
330
12F
100
AcDbEntity
  8
0
  6
Continuous
 62
     7
420
 16777215
100
AcDbLine
 10
14377.037109
 20
-7004.626465
 30
0.0
 11
14370.59082
 21
-7011.072266
 31
0.0
  0
LINE
  5
14B
330
12F
100
AcDbEntity
  8
0
  6
Continuous
 62
     7
420
 16777215
100
AcDbLine
 10
14371.258789
 20
-7011.072266
 30
0.0
 11
14376.893555
 21
-7005.4375
 31
0.0
  0
LINE
  5
14C
330
12F
100
AcDbEntity
  8
0
  6
Continuous
 62
     7
420
 16777215
100
AcDbLine
 10
14384.40332
 20
-6997.928223
 30
0.0
 11
14403.255859
 21
-6979.075684
 31
0.0
  0
LINE
  5
14D
330
12F
100
AcDbEntity
  8
0
  6
Continuous
 62
     7
420
 16777215
100
AcDbLine
 10
14403.46582
 20
-6979.53418
 30
0.0
 11
14385.071289
 21
-6997.928223
 31
0.0
  0
LINE
  5
14E
330
12F
100
AcDbEntity
  8
0
  6
Continuous
 62
     7
420
 16777215
100
AcDbLine
 10
14376.750977
 20
-7006.249023
 30
0.0
 11
14371.926758
 21
-7011.072266
 31
0.0
  0
LINE
  5
14F
330
12F
100
AcDbEntity
  8
0
  6
Continuous
 62
     7
420
 16777215
100
AcDbLine
 10
14372.595703
 20
-7011.072266
 30
0.0
 11
14376.607422
 21
-7007.060059
 31
0.0
  0
LINE
  5
150
330
12F
100
AcDbEntity
  8
0
  6
Continuous
 62
     7
420
 16777215
100
AcDbLine
 10
14385.739258
 20
-6997.928223
 30
0.0
 11
14403.661133
 21
-6980.006836
 31
0.0
  0
LINE
  5
151
330
12F
100
AcDbEntity
  8
0
  6
Continuous
 62
     7
420
 16777215
100
AcDbLine
 10
14403.84082
 20
-6980.495605
 30
0.0
 11
14386.407227
 21
-6997.928223
 31
0.0
  0
LINE
  5
152
330
12F
100
AcDbEntity
  8
0
  6
Continuous
 62
     7
420
 16777215
100
AcDbLine
 10
14376.464844
 20
-7007.871582
 30
0.0
 11
14373.263672
 21
-7011.072266
 31
0.0
  0
LINE
  5
153
330
12F
100
AcDbEntity
  8
0
  6
Continuous
 62
     7
420
 16777215
100
AcDbLine
 10
14373.931641
 20
-7011.072266
 30
0.0
 11
14376.321289
 21
-7008.682617
 31
0.0
  0
LINE
  5
154
330
12F
100
AcDbEntity
  8
0
  6
Continuous
 62
     7
420
 16777215
100
AcDbLine
 10
14387.076172
 20
-6997.928223
 30
0.0
 11
14404.00293
 21
-6981.000977
 31
0.0
  0
LINE
  5
155
330
12F
100
AcDbEntity
  8
0
  6
Continuous
 62
     7
420
 16777215
100
AcDbLine
 10
14404.148438
 20
-6981.523438
 30
0.0
 11
14387.744141
 21
-6997.928223
 31
0.0
  0
LINE
  5
156
330
12F
100
AcDbEntity
  8
0
  6
Continuous
 62
     7
420
 16777215
100
AcDbLine
 10
14376.178711
 20
-7009.494141
 30
0.0
 11
14374.599609
 21
-7011.072266
 31
0.0
  0
LINE
  5
157
330
12F
100
AcDbEntity
  8
0
  6
Continuous
 62
     7
420
 16777215
100
AcDbLine
 10
14375.268555
 20
-7011.072266
 30
0.0
 11
14376.035156
 21
-7010.305176
 31
0.0
  0
LINE
  5
158
330
12F
100
AcDbEntity
  8
0
  6
Continuous
 62
     7
420
 16777215
100
AcDbLine
 10
14388.412109
 20
-6997.928223
 30
0.0
 11
14404.275391
 21
-6982.06543
 31
0.0
  0
LINE
  5
159
330
12F
100
AcDbEntity
  8
0
  6
Continuous
 62
     7
420
 16777215
100
AcDbLine
 10
14404.381836
 20
-6982.627441
 30
0.0
 11
14389.080078
 21
-6997.928223
 31
0.0
  0
LINE
  5
15A
330
12F
100
AcDbEntity
  8
0
  6
Continuous
 62
     7
420
 16777215
100
AcDbLine
 10
14389.749023
 20
-6997.928223
 30
0.0
 11
14404.464844
 21
-6983.211914
 31
0.0
  0
LINE
  5
15B
330
12F
100
AcDbEntity
  8
0
  6
Continuous
 62
     7
420
 16777215
100
AcDbLine
 10
14404.524414
 20
-6983.820801
 30
0.0
 11
14390.416992
 21
-6997.928223
 31
0.0
  0
LINE
  5
15C
330
12F
100
AcDbEntity
  8
0
  6
Continuous
 62
     7
420
 16777215
100
AcDbLine
 10
14391.084961
 20
-6997.928223
 30
0.0
 11
14404.555664
 21
-6984.458008
 31
0.0
  0
LINE
  5
15D
330
12F
100
AcDbEntity
  8
0
  6
Continuous
 62
     7
420
 16777215
100
AcDbLine
 10
14404.555664
 20
-6985.126465
 30
0.0
 11
14391.757812
 21
-6997.923828
 31
0.0
  0
LINE
  5
15E
330
12F
100
AcDbEntity
  8
0
  6
Continuous
 62
     7
420
 16777215
100
AcDbLine
 10
14392.462891
 20
-6997.886719
 30
0.0
 11
14404.517578
 21
-6985.832031
 31
0.0
  0
LINE
  5
15F
330
12F
100
AcDbEntity
  8
0
  6
Continuous
 62
     7
420
 16777215
100
AcDbLine
 10
14404.436523
 20
-6986.582031
 30
0.0
 11
14393.212891
 21
-6997.804688
 31
0.0
  0
LINE
  5
160
330
12F
100
AcDbEntity
  8
0
  6
Continuous
 62
     7
420
 16777215
100
AcDbLine
 10
14394.018555
 20
-6997.667969
 30
0.0
 11
14404.299805
 21
-6987.386719
 31
0.0
  0
LINE
  5
161
330
12F
100
AcDbEntity
  8
0
  6
Continuous
 62
     7
420
 16777215
100
AcDbLine
 10
14404.09082
 20
-6988.263672
 30
0.0
 11
14394.895508
 21
-6997.459473
 31
0.0
  0
LINE
  5
162
330
12F
100
AcDbEntity
  8
0
  6
Continuous
 62
     7
420
 16777215
100
AcDbLine
 10
14395.873047
 20
-6997.149414
 30
0.0
 11
14403.780273
 21
-6989.242188
 31
0.0
  0
LINE
  5
163
330
12F
100
AcDbEntity
  8
0
  6
Continuous
 62
     7
420
 16777215
100
AcDbLine
 10
14403.307617
 20
-6990.383789
 30
0.0
 11
14397.014648
 21
-6996.67627
 31
0.0
  0
LINE
  5
164
330
12F
100
AcDbEntity
  8
0
  6
Continuous
 62
     7
420
 16777215
100
AcDbLine
 10
14398.509766
 20
-6995.849609
 30
0.0
 11
14402.481445
 21
-6991.87793
 31
0.0
  0
LINE
  5
165
330
12F
100
AcDbEntity
  8
0
  6
Continuous
 62
     7
420
 16777215
100
AcDbLine
 10
14399.34375
 20
-6974.300781
 30
0.0
 11
14390.916016
 21
-6982.728516
 31
0.0
  0
LINE
  5
166
330
12F
100
AcDbEntity
  8
0
  6
Continuous
 62
     7
420
 16777215
100
AcDbLine
 10
14383.602539
 20
-6990.041992
 30
0.0
 11
14362.795898
 21
-7010.849121
 31
0.0
  0
LINE
  5
167
330
12F
100
AcDbEntity
  8
0
  6
Continuous
 62
     7
420
 16777215
100
AcDbLine
 10
14362.938477
 20
-7010.037598
 30
0.0
 11
14382.93457
 21
-6990.041992
 31
0.0
  0
LINE
  5
168
330
12F
100
AcDbEntity
  8
0
  6
Continuous
 62
     7
420
 16777215
100
AcDbLine
 10
14390.698242
 20
-6982.277832
 30
0.0
 11
14398.957031
 21
-6974.019043
 31
0.0
  0
LINE
  5
169
330
12F
100
AcDbEntity
  8
0
  6
Continuous
 62
     7
420
 16777215
100
AcDbLine
 10
14398.557617
 20
-6973.75
 30
0.0
 11
14390.447266
 21
-6981.861328
 31
0.0
  0
LINE
  5
16A
330
12F
100
AcDbEntity
  8
0
  6
Continuous
 62
     7
420
 16777215
100
AcDbLine
 10
14382.266602
 20
-6990.041992
 30
0.0
 11
14363.082031
 21
-7009.226562
 31
0.0
  0
LINE
  5
16B
330
12F
100
AcDbEntity
  8
0
  6
Continuous
 62
     7
420
 16777215
100
AcDbLine
 10
14363.224609
 20
-7008.415039
 30
0.0
 11
14381.597656
 21
-6990.041992
 31
0.0
  0
LINE
  5
16C
330
12F
100
AcDbEntity
  8
0
  6
Continuous
 62
     7
420
 16777215
100
AcDbLine
 10
14390.163086
 20
-6981.476562
 30
0.0
 11
14398.145508
 21
-6973.494141
 31
0.0
  0
LINE
  5
16D
330
12F
100
AcDbEntity
  8
0
  6
Continuous
 62
     7
420
 16777215
100
AcDbLine
 10
14397.720703
 20
-6973.250977
 30
0.0
 11
14389.849609
 21
-6981.12207
 31
0.0
  0
LINE
  5
16E
330
12F
100
AcDbEntity
  8
0
  6
Continuous
 62
     7
420
 16777215
100
AcDbLine
 10
14380.929688
 20
-6990.041992
 30
0.0
 11
14363.368164
 21
-7007.604004
 31
0.0
  0
LINE
  5
16F
330
12F
100
AcDbEntity
  8
0
  6
Continuous
 62
     7
420
 16777215
100
AcDbLine
 10
14363.510742
 20
-7006.79248
 30
0.0
 11
14380.261719
 21
-6990.041992
 31
0.0
  0
LINE
  5
170
330
12F
100
AcDbEntity
  8
0
  6
Continuous
 62
     7
420
 16777215
100
AcDbLine
 10
14389.504883
 20
-6980.79834
 30
0.0
 11
14397.28125
 21
-6973.021973
 31
0.0
  0
LINE
  5
171
330
12F
100
AcDbEntity
  8
0
  6
Continuous
 62
     7
420
 16777215
100
AcDbLine
 10
14396.829102
 20
-6972.806641
 30
0.0
 11
14389.130859
 21
-6980.504395
 31
0.0
  0
LINE
  5
172
330
12F
100
AcDbEntity
  8
0
  6
Continuous
 62
     7
420
 16777215
100
AcDbLine
 10
14379.611328
 20
-6990.023438
 30
0.0
 11
14363.65332
 21
-7005.981445
 31
0.0
  0
LINE
  5
173
330
12F
100
AcDbEntity
  8
0
  6
Continuous
 62
     7
420
 16777215
100
AcDbLine
 10
14363.796875
 20
-7005.17041
 30
0.0
 11
14379.754883
 21
-6989.212402
 31
0.0
  0
LINE
  5
174
330
12F
100
AcDbEntity
  8
0
  6
Continuous
 62
     7
420
 16777215
100
AcDbLine
 10
14388.724609
 20
-6980.242188
 30
0.0
 11
14396.361328
 21
-6972.605957
 31
0.0
  0
LINE
  5
175
330
12F
100
AcDbEntity
  8
0
  6
Continuous
 62
     7
420
 16777215
100
AcDbLine
 10
14395.87793
 20
-6972.420898
 30
0.0
 11
14388.286133
 21
-6980.013184
 31
0.0
  0
LINE
  5
176
330
12F
100
AcDbEntity
  8
0
  6
Continuous
 62
     7
420
 16777215
100
AcDbLine
 10
14379.897461
 20
-6988.400879
 30
0.0
 11
14363.939453
 21
-7004.358887
 31
0.0
  0
LINE
  5
177
330
12F
100
AcDbEntity
  8
0
  6
Continuous
 62
     7
420
 16777215
100
AcDbLine
 10
14364.083008
 20
-7003.547852
 30
0.0
 11
14380.041016
 21
-6987.589844
 31
0.0
  0
LINE
  5
178
330
12F
100
AcDbEntity
  8
0
  6
Continuous
 62
     7
420
 16777215
100
AcDbLine
 10
14387.80957
 20
-6979.820312
 30
0.0
 11
14395.378906
 21
-6972.251953
 31
0.0
  0
LINE
  5
179
330
12F
100
AcDbEntity
  8
0
  6
Continuous
 62
     7
420
 16777215
100
AcDbLine
 10
14394.862305
 20
-6972.100098
 30
0.0
 11
14387.292969
 21
-6979.669434
 31
0.0
  0
LINE
  5
17A
330
12F
100
AcDbEntity
  8
0
  6
Continuous
 62
     7
420
 16777215
100
AcDbLine
 10
14380.183594
 20
-6986.77832
 30
0.0
 11
14364.225586
 21
-7002.736328
 31
0.0
  0
LINE
  5
17B
330
12F
100
AcDbEntity
  8
0
  6
Continuous
 62
     7
420
 16777215
100
AcDbLine
 10
14364.369141
 20
-7001.925293
 30
0.0
 11
14380.327148
 21
-6985.967285
 31
0.0
  0
LINE
  5
17C
330
12F
100
AcDbEntity
  8
0
  6
Continuous
 62
     7
420
 16777215
100
AcDbLine
 10
14386.727539
 20
-6979.566895
 30
0.0
 11
14394.327148
 21
-6971.966797
 31
0.0
  0
LINE
  5
17D
330
12F
100
AcDbEntity
  8
0
  6
Continuous
 62
     7
420
 16777215
100
AcDbLine
 10
14393.772461
 20
-6971.853516
 30
0.0
 11
14386.099609
 21
-6979.526855
 31
0.0
  0
LINE
  5
17E
330
12F
100
AcDbEntity
  8
0
  6
Continuous
 62
     7
420
 16777215
100
AcDbLine
 10
14380.469727
 20
-6985.15625
 30
0.0
 11
14364.511719
 21
-7001.11377
 31
0.0
  0
LINE
  5
17F
330
12F
100
AcDbEntity
  8
0
  6
Continuous
 62
     7
420
 16777215
100
AcDbLine
 10
14364.655273
 20
-7000.302734
 30
0.0
 11
14380.613281
 21
-6984.344727
 31
0.0
  0
LINE
  5
180
330
12F
100
AcDbEntity
  8
0
  6
Continuous
 62
     7
420
 16777215
100
AcDbLine
 10
14385.430664
 20
-6979.526855
 30
0.0
 11
14393.196289
 21
-6971.76123
 31
0.0
  0
LINE
  5
181
330
12F
100
AcDbEntity
  8
0
  6
Continuous
 62
     7
420
 16777215
100
AcDbLine
 10
14392.595703
 20
-6971.693359
 30
0.0
 11
14384.762695
 21
-6979.526855
 31
0.0
  0
LINE
  5
182
330
12F
100
AcDbEntity
  8
0
  6
Continuous
 62
     7
420
 16777215
100
AcDbLine
 10
14380.755859
 20
-6983.533691
 30
0.0
 11
14364.797852
 21
-6999.491211
 31
0.0
  0
LINE
  5
183
330
12F
100
AcDbEntity
  8
0
  6
Continuous
 62
     7
420
 16777215
100
AcDbLine
 10
14364.941406
 20
-6998.680176
 30
0.0
 11
14380.899414
 21
-6982.722168
 31
0.0
  0
LINE
  5
184
330
12F
100
AcDbEntity
  8
0
  6
Continuous
 62
     7
420
 16777215
100
AcDbLine
 10
14384.094727
 20
-6979.526855
 30
0.0
 11
14391.969727
 21
-6971.651855
 31
0.0
  0
LINE
  5
185
330
12F
100
AcDbEntity
  8
0
  6
Continuous
 62
     7
420
 16777215
100
AcDbLine
 10
14391.3125
 20
-6971.640137
 30
0.0
 11
14383.426758
 21
-6979.526855
 31
0.0
  0
LINE
  5
186
330
12F
100
AcDbEntity
  8
0
  6
Continuous
 62
     7
420
 16777215
100
AcDbLine
 10
14381.041992
 20
-6981.911133
 30
0.0
 11
14365.083984
 21
-6997.868652
 31
0.0
  0
LINE
  5
187
330
12F
100
AcDbEntity
  8
0
  6
Continuous
 62
     7
420
 16777215
100
AcDbLine
 10
14365.227539
 20
-6997.057617
 30
0.0
 11
14381.185547
 21
-6981.099609
 31
0.0
  0
LINE
  5
188
330
12F
100
AcDbEntity
  8
0
  6
Continuous
 62
     7
420
 16777215
100
AcDbLine
 10
14382.757812
 20
-6979.526855
 30
0.0
 11
14390.644531
 21
-6971.640137
 31
0.0
  0
LINE
  5
189
330
12F
100
AcDbEntity
  8
0
  6
Continuous
 62
     7
420
 16777215
100
AcDbLine
 10
14389.976562
 20
-6971.640137
 30
0.0
 11
14382.089844
 21
-6979.526855
 31
0.0
  0
LINE
  5
18A
330
12F
100
AcDbEntity
  8
0
  6
Continuous
 62
     7
420
 16777215
100
AcDbLine
 10
14381.328125
 20
-6980.288574
 30
0.0
 11
14365.370117
 21
-6996.246094
 31
0.0
  0
LINE
  5
18B
330
12F
100
AcDbEntity
  8
0
  6
Continuous
 62
     7
420
 16777215
100
AcDbLine
 10
14365.513672
 20
-6995.435059
 30
0.0
 11
14389.308594
 21
-6971.640137
 31
0.0
  0
LINE
  5
18C
330
12F
100
AcDbEntity
  8
0
  6
Continuous
 62
     7
420
 16777215
100
AcDbLine
 10
14388.639648
 20
-6971.640137
 30
0.0
 11
14365.65625
 21
-6994.623535
 31
0.0
  0
LINE
  5
18D
330
12F
100
AcDbEntity
  8
0
  6
Continuous
 62
     7
420
 16777215
100
AcDbLine
 10
14365.799805
 20
-6993.8125
 30
0.0
 11
14387.97168
 21
-6971.640137
 31
0.0
  0
LINE
  5
18E
330
12F
100
AcDbEntity
  8
0
  6
Continuous
 62
     7
420
 16777215
100
AcDbLine
 10
14387.303711
 20
-6971.640137
 30
0.0
 11
14365.942383
 21
-6993.000977
 31
0.0
  0
LINE
  5
18F
330
12F
100
AcDbEntity
  8
0
  6
Continuous
 62
     7
420
 16777215
100
AcDbLine
 10
14366.085938
 20
-6992.189941
 30
0.0
 11
14386.635742
 21
-6971.640137
 31
0.0
  0
LINE
  5
190
330
12F
100
AcDbEntity
  8
0
  6
Continuous
 62
     7
420
 16777215
100
AcDbLine
 10
14385.966797
 20
-6971.640137
 30
0.0
 11
14366.228516
 21
-6991.378906
 31
0.0
  0
LINE
  5
191
330
12F
100
AcDbEntity
  8
0
  6
Continuous
 62
     7
420
 16777215
100
AcDbLine
 10
14366.37207
 20
-6990.567383
 30
0.0
 11
14385.298828
 21
-6971.640137
 31
0.0
  0
LINE
  5
192
330
12F
100
AcDbEntity
  8
0
  6
Continuous
 62
     7
420
 16777215
100
AcDbLine
 10
14384.630859
 20
-6971.640137
 30
0.0
 11
14366.514648
 21
-6989.756348
 31
0.0
  0
LINE
  5
193
330
12F
100
AcDbEntity
  8
0
  6
Continuous
 62
     7
420
 16777215
100
AcDbLine
 10
14366.658203
 20
-6988.944824
 30
0.0
 11
14383.962891
 21
-6971.640137
 31
0.0
  0
LINE
  5
194
330
12F
100
AcDbEntity
  8
0
  6
Continuous
 62
     7
420
 16777215
100
AcDbLine
 10
14383.293945
 20
-6971.640137
 30
0.0
 11
14366.800781
 21
-6988.133789
 31
0.0
  0
LINE
  5
195
330
12F
100
AcDbEntity
  8
0
  6
Continuous
 62
     7
420
 16777215
100
AcDbLine
 10
14366.944336
 20
-6987.322266
 30
0.0
 11
14382.625977
 21
-6971.640137
 31
0.0
  0
LINE
  5
196
330
12F
100
AcDbEntity
  8
0
  6
Continuous
 62
     7
420
 16777215
100
AcDbLine
 10
14381.958008
 20
-6971.640137
 30
0.0
 11
14367.086914
 21
-6986.51123
 31
0.0
  0
LINE
  5
197
330
12F
100
AcDbEntity
  8
0
  6
Continuous
 62
     7
420
 16777215
100
AcDbLine
 10
14367.230469
 20
-6985.699707
 30
0.0
 11
14381.289062
 21
-6971.640137
 31
0.0
  0
LINE
  5
198
330
12F
100
AcDbEntity
  8
0
  6
Continuous
 62
     7
420
 16777215
100
AcDbLine
 10
14380.621094
 20
-6971.640137
 30
0.0
 11
14367.373047
 21
-6984.888672
 31
0.0
  0
LINE
  5
199
330
12F
100
AcDbEntity
  8
0
  6
Continuous
 62
     7
420
 16777215
100
AcDbLine
 10
14367.515625
 20
-6984.077148
 30
0.0
 11
14379.953125
 21
-6971.640137
 31
0.0
  0
LINE
  5
19A
330
12F
100
AcDbEntity
  8
0
  6
Continuous
 62
     7
420
 16777215
100
AcDbLine
 10
14379.285156
 20
-6971.640137
 30
0.0
 11
14367.65918
 21
-6983.266113
 31
0.0
  0
LINE
  5
19B
330
12F
100
AcDbEntity
  8
0
  6
Continuous
 62
     7
420
 16777215
100
AcDbLine
 10
14367.801758
 20
-6982.45459
 30
0.0
 11
14378.616211
 21
-6971.640137
 31
0.0
  0
LINE
  5
19C
330
12F
100
AcDbEntity
  8
0
  6
Continuous
 62
     7
420
 16777215
100
AcDbLine
 10
14377.948242
 20
-6971.640137
 30
0.0
 11
14367.945312
 21
-6981.643555
 31
0.0
  0
LINE
  5
19D
330
12F
100
AcDbEntity
  8
0
  6
Continuous
 62
     7
420
 16777215
100
AcDbLine
 10
14368.087891
 20
-6980.832031
 30
0.0
 11
14377.280273
 21
-6971.640137
 31
0.0
  0
LINE
  5
19E
330
12F
100
AcDbEntity
  8
0
  6
Continuous
 62
     7
420
 16777215
100
AcDbLine
 10
14376.612305
 20
-6971.640137
 30
0.0
 11
14368.231445
 21
-6980.020996
 31
0.0
  0
LINE
  5
19F
330
12F
100
AcDbEntity
  8
0
  6
Continuous
 62
     7
420
 16777215
100
AcDbLine
 10
14368.374023
 20
-6979.209961
 30
0.0
 11
14375.943359
 21
-6971.640137
 31
0.0
  0
LINE
  5
1A0
330
12F
100
AcDbEntity
  8
0
  6
Continuous
 62
     7
420
 16777215
100
AcDbLine
 10
14375.275391
 20
-6971.640137
 30
0.0
 11
14368.517578
 21
-6978.398438
 31
0.0
  0
LINE
  5
1A1
330
12F
100
AcDbEntity
  8
0
  6
Continuous
 62
     7
420
 16777215
100
AcDbLine
 10
14368.660156
 20
-6977.587402
 30
0.0
 11
14374.607422
 21
-6971.640137
 31
0.0
  0
LINE
  5
1A2
330
12F
100
AcDbEntity
  8
0
  6
Continuous
 62
     7
420
 16777215
100
AcDbLine
 10
14373.939453
 20
-6971.640137
 30
0.0
 11
14368.803711
 21
-6976.775879
 31
0.0
  0
LINE
  5
1A3
330
12F
100
AcDbEntity
  8
0
  6
Continuous
 62
     7
420
 16777215
100
AcDbLine
 10
14368.946289
 20
-6975.964844
 30
0.0
 11
14373.270508
 21
-6971.640137
 31
0.0
  0
LINE
  5
1A4
330
12F
100
AcDbEntity
  8
0
  6
Continuous
 62
     7
420
 16777215
100
AcDbLine
 10
14372.602539
 20
-6971.640137
 30
0.0
 11
14369.089844
 21
-6975.15332
 31
0.0
  0
LINE
  5
1A5
330
12F
100
AcDbEntity
  8
0
  6
Continuous
 62
     7
420
 16777215
100
AcDbLine
 10
14369.232422
 20
-6974.342285
 30
0.0
 11
14371.93457
 21
-6971.640137
 31
0.0
  0
LINE
  5
1A6
330
12F
100
AcDbEntity
  8
0
  6
Continuous
 62
     7
420
 16777215
100
AcDbLine
 10
14371.266602
 20
-6971.640137
 30
0.0
 11
14369.375977
 21
-6973.530762
 31
0.0
  0
LINE
  5
1A7
330
12F
100
AcDbEntity
  8
0
  6
Continuous
 62
     7
420
 16777215
100
AcDbLine
 10
14369.518555
 20
-6972.719727
 30
0.0
 11
14370.597656
 21
-6971.640137
 31
0.0
  0
LINE
  5
1A8
330
12F
100
AcDbEntity
  8
0
  6
Continuous
 62
     7
420
 16777215
100
AcDbLine
 10
14369.929688
 20
-6971.640137
 30
0.0
 11
14369.662109
 21
-6971.908203
 31
0.0
  0
ENDBLK
  5
1AB
330
12F
100
AcDbEntity
  8
0
100
AcDbBlockEnd
  0
BLOCK
  5
1C5
330
1AC
100
AcDbEntity
  8
0
100
AcDbBlockBegin
  2
.TD_XHATCH_2
 70
     0
 10
14434.711914
 20
-7008.442871
 30
0.0
  3
.TD_XHATCH_2
  1

  0
LINE
  5
1AD
330
1AC
100
AcDbEntity
  8
0
  6
Continuous
 62
     3
420
    65280
100
AcDbLine
 10
14436.586914
 20
-7007.220215
 30
0.0
 11
14443.97168
 21
-6999.834961
 31
0.0
  0
LINE
  5
1AE
330
1AC
100
AcDbEntity
  8
0
  6
Continuous
 62
     3
420
    65280
100
AcDbLine
 10
14444.261719
 20
-7000.214355
 30
0.0
 11
14436.96582
 21
-7007.509277
 31
0.0
  0
LINE
  5
1AF
330
1AC
100
AcDbEntity
  8
0
  6
Continuous
 62
     3
420
    65280
100
AcDbLine
 10
14437.376953
 20
-7007.76709
 30
0.0
 11
14444.518555
 21
-7000.625
 31
0.0
  0
LINE
  5
1B0
330
1AC
100
AcDbEntity
  8
0
  6
Continuous
 62
     3
420
    65280
100
AcDbLine
 10
14444.742188
 20
-7001.069336
 30
0.0
 11
14437.821289
 21
-7007.990723
 31
0.0
  0
LINE
  5
1B1
330
1AC
100
AcDbEntity
  8
0
  6
Continuous
 62
     3
420
    65280
100
AcDbLine
 10
14438.302734
 20
-7008.177246
 30
0.0
 11
14444.928711
 21
-7001.55127
 31
0.0
  0
LINE
  5
1B2
330
1AC
100
AcDbEntity
  8
0
  6
Continuous
 62
     3
420
    65280
100
AcDbLine
 10
14445.073242
 20
-7002.075195
 30
0.0
 11
14438.827148
 21
-7008.321289
 31
0.0
  0
LINE
  5
1B3
330
1AC
100
AcDbEntity
  8
0
  6
Continuous
 62
     3
420
    65280
100
AcDbLine
 10
14439.402344
 20
-7008.414551
 30
0.0
 11
14445.166016
 21
-7002.649902
 31
0.0
  0
LINE
  5
1B4
330
1AC
100
AcDbEntity
  8
0
  6
Continuous
 62
     3
420
    65280
100
AcDbLine
 10
14445.194336
 20
-7003.290039
 30
0.0
 11
14440.041992
 21
-7008.442871
 31
0.0
  0
LINE
  5
1B5
330
1AC
100
AcDbEntity
  8
0
  6
Continuous
 62
     3
420
    65280
100
AcDbLine
 10
14440.774414
 20
-7008.378906
 30
0.0
 11
14445.130859
 21
-7004.021973
 31
0.0
  0
LINE
  5
1B6
330
1AC
100
AcDbEntity
  8
0
  6
Continuous
 62
     3
420
    65280
100
AcDbLine
 10
14444.908203
 20
-7004.913086
 30
0.0
 11
14441.665039
 21
-7008.15625
 31
0.0
  0
LINE
  5
1B7
330
1AC
100
AcDbEntity
  8
0
  6
Continuous
 62
     3
420
    65280
100
AcDbLine
 10
14443.082031
 20
-7007.407715
 30
0.0
 11
14444.15918
 21
-7006.330078
 31
0.0
  0
LINE
  5
1B8
330
1AC
100
AcDbEntity
  8
0
  6
Continuous
 62
     3
420
    65280
100
AcDbLine
 10
14443.652344
 20
-6999.486816
 30
0.0
 11
14436.238281
 21
-7006.900391
 31
0.0
  0
LINE
  5
1B9
330
1AC
100
AcDbEntity
  8
0
  6
Continuous
 62
     3
420
    65280
100
AcDbLine
 10
14435.919922
 20
-7006.550781
 30
0.0
 11
14443.302734
 21
-6999.168457
 31
0.0
  0
LINE
  5
1BA
330
1AC
100
AcDbEntity
  8
0
  6
Continuous
 62
     3
420
    65280
100
AcDbLine
 10
14442.921875
 20
-6998.880371
 30
0.0
 11
14435.632812
 21
-7006.17041
 31
0.0
  0
LINE
  5
1BB
330
1AC
100
AcDbEntity
  8
0
  6
Continuous
 62
     3
420
    65280
100
AcDbLine
 10
14435.375977
 20
-7005.757812
 30
0.0
 11
14442.509766
 21
-6998.624512
 31
0.0
  0
LINE
  5
1BC
330
1AC
100
AcDbEntity
  8
0
  6
Continuous
 62
     3
420
    65280
100
AcDbLine
 10
14442.063477
 20
-6998.402344
 30
0.0
 11
14435.154297
 21
-7005.312012
 31
0.0
  0
LINE
  5
1BD
330
1AC
100
AcDbEntity
  8
0
  6
Continuous
 62
     3
420
    65280
100
AcDbLine
 10
14434.969727
 20
-7004.828613
 30
0.0
 11
14441.580078
 21
-6998.217773
 31
0.0
  0
LINE
  5
1BE
330
1AC
100
AcDbEntity
  8
0
  6
Continuous
 62
     3
420
    65280
100
AcDbLine
 10
14441.053711
 20
-6998.075684
 30
0.0
 11
14434.827148
 21
-7004.302246
 31
0.0
  0
LINE
  5
1BF
330
1AC
100
AcDbEntity
  8
0
  6
Continuous
 62
     3
420
    65280
100
AcDbLine
 10
14434.736328
 20
-7003.724609
 30
0.0
 11
14440.476562
 21
-6997.984863
 31
0.0
  0
LINE
  5
1C0
330
1AC
100
AcDbEntity
  8
0
  6
Continuous
 62
     3
420
    65280
100
AcDbLine
 10
14439.833008
 20
-6997.959961
 30
0.0
 11
14434.711914
 21
-7003.081543
 31
0.0
  0
LINE
  5
1C1
330
1AC
100
AcDbEntity
  8
0
  6
Continuous
 62
     3
420
    65280
100
AcDbLine
 10
14434.78125
 20
-7002.34375
 30
0.0
 11
14439.095703
 21
-6998.029297
 31
0.0
  0
LINE
  5
1C2
330
1AC
100
AcDbEntity
  8
0
  6
Continuous
 62
     3
420
    65280
100
AcDbLine
 10
14438.194336
 20
-6998.262695
 30
0.0
 11
14435.014648
 21
-7001.442383
 31
0.0
  0
LINE
  5
1C3
330
1AC
100
AcDbEntity
  8
0
  6
Continuous
 62
     3
420
    65280
100
AcDbLine
 10
14435.847656
 20
-6999.941406
 30
0.0
 11
14436.693359
 21
-6999.095215
 31
0.0
  0
ENDBLK
  5
1C6
330
1AC
100
AcDbEntity
  8
0
100
AcDbBlockEnd
  0
BLOCK
  5
2FB
330
1C7
100
AcDbEntity
  8
0
100
AcDbBlockBegin
  2
.TD_XHATCH_3
 70
     0
 10
14400.15625
 20
-7011.072266
 30
0.0
  3
.TD_XHATCH_3
  1

  0
LINE
  5
1C8
330
1C7
100
AcDbEntity
  8
0
  6
Continuous
 62
     7
420
 16777215
100
AcDbLine
 10
14400.660156
 20
-7011.072266
 30
0.0
 11
14416.216797
 21
-6995.515625
 31
0.0
  0
LINE
  5
1C9
330
1C7
100
AcDbEntity
  8
0
  6
Continuous
 62
     7
420
 16777215
100
AcDbLine
 10
14437.453125
 20
-6974.279297
 30
0.0
 11
14440.092773
 21
-6971.640137
 31
0.0
  0
LINE
  5
1CA
330
1C7
100
AcDbEntity
  8
0
  6
Continuous
 62
     7
420
 16777215
100
AcDbLine
 10
14440.760742
 20
-6971.640137
 30
0.0
 11
14436.541016
 21
-6975.860352
 31
0.0
  0
LINE
  5
1CB
330
1C7
100
AcDbEntity
  8
0
  6
Continuous
 62
     7
420
 16777215
100
AcDbLine
 10
14416.074219
 20
-6996.327148
 30
0.0
 11
14401.329102
 21
-7011.072266
 31
0.0
  0
LINE
  5
1CC
330
1C7
100
AcDbEntity
  8
0
  6
Continuous
 62
     7
420
 16777215
100
AcDbLine
 10
14401.99707
 20
-7011.072266
 30
0.0
 11
14415.930664
 21
-6997.138184
 31
0.0
  0
LINE
  5
1CD
330
1C7
100
AcDbEntity
  8
0
  6
Continuous
 62
     7
420
 16777215
100
AcDbLine
 10
14435.62793
 20
-6977.441406
 30
0.0
 11
14441.428711
 21
-6971.640137
 31
0.0
  0
LINE
  5
1CE
330
1C7
100
AcDbEntity
  8
0
  6
Continuous
 62
     7
420
 16777215
100
AcDbLine
 10
14442.097656
 20
-6971.640137
 30
0.0
 11
14434.714844
 21
-6979.022461
 31
0.0
  0
LINE
  5
1CF
330
1C7
100
AcDbEntity
  8
0
  6
Continuous
 62
     7
420
 16777215
100
AcDbLine
 10
14415.80957
 20
-6997.928223
 30
0.0
 11
14402.665039
 21
-7011.072266
 31
0.0
  0
LINE
  5
1D0
330
1C7
100
AcDbEntity
  8
0
  6
Continuous
 62
     7
420
 16777215
100
AcDbLine
 10
14403.333008
 20
-7011.072266
 30
0.0
 11
14416.477539
 21
-6997.928223
 31
0.0
  0
LINE
  5
1D1
330
1C7
100
AcDbEntity
  8
0
  6
Continuous
 62
     7
420
 16777215
100
AcDbLine
 10
14433.802734
 20
-6980.603516
 30
0.0
 11
14442.765625
 21
-6971.640137
 31
0.0
  0
LINE
  5
1D2
330
1C7
100
AcDbEntity
  8
0
  6
Continuous
 62
     7
420
 16777215
100
AcDbLine
 10
14443.433594
 20
-6971.640137
 30
0.0
 11
14432.889648
 21
-6982.18457
 31
0.0
  0
LINE
  5
1D3
330
1C7
100
AcDbEntity
  8
0
  6
Continuous
 62
     7
420
 16777215
100
AcDbLine
 10
14417.145508
 20
-6997.928223
 30
0.0
 11
14404.001953
 21
-7011.072266
 31
0.0
  0
LINE
  5
1D4
330
1C7
100
AcDbEntity
  8
0
  6
Continuous
 62
     7
420
 16777215
100
AcDbLine
 10
14404.669922
 20
-7011.072266
 30
0.0
 11
14417.813477
 21
-6997.928223
 31
0.0
  0
LINE
  5
1D5
330
1C7
100
AcDbEntity
  8
0
  6
Continuous
 62
     7
420
 16777215
100
AcDbLine
 10
14431.976562
 20
-6983.765625
 30
0.0
 11
14444.101562
 21
-6971.640137
 31
0.0
  0
LINE
  5
1D6
330
1C7
100
AcDbEntity
  8
0
  6
Continuous
 62
     7
420
 16777215
100
AcDbLine
 10
14444.770508
 20
-6971.640137
 30
0.0
 11
14431.063477
 21
-6985.346191
 31
0.0
  0
LINE
  5
1D7
330
1C7
100
AcDbEntity
  8
0
  6
Continuous
 62
     7
420
 16777215
100
AcDbLine
 10
14418.482422
 20
-6997.928223
 30
0.0
 11
14405.337891
 21
-7011.072266
 31
0.0
  0
LINE
  5
1D8
330
1C7
100
AcDbEntity
  8
0
  6
Continuous
 62
     7
420
 16777215
100
AcDbLine
 10
14406.005859
 20
-7011.072266
 30
0.0
 11
14419.150391
 21
-6997.928223
 31
0.0
  0
LINE
  5
1D9
330
1C7
100
AcDbEntity
  8
0
  6
Continuous
 62
     7
420
 16777215
100
AcDbLine
 10
14430.151367
 20
-6986.927246
 30
0.0
 11
14445.438477
 21
-6971.640137
 31
0.0
  0
LINE
  5
1DA
330
1C7
100
AcDbEntity
  8
0
  6
Continuous
 62
     7
420
 16777215
100
AcDbLine
 10
14446.106445
 20
-6971.640137
 30
0.0
 11
14429.238281
 21
-6988.508301
 31
0.0
  0
LINE
  5
1DB
330
1C7
100
AcDbEntity
  8
0
  6
Continuous
 62
     7
420
 16777215
100
AcDbLine
 10
14419.818359
 20
-6997.928223
 30
0.0
 11
14406.674805
 21
-7011.072266
 31
0.0
  0
LINE
  5
1DC
330
1C7
100
AcDbEntity
  8
0
  6
Continuous
 62
     7
420
 16777215
100
AcDbLine
 10
14407.342773
 20
-7011.072266
 30
0.0
 11
14420.486328
 21
-6997.928223
 31
0.0
  0
LINE
  5
1DD
330
1C7
100
AcDbEntity
  8
0
  6
Continuous
 62
     7
420
 16777215
100
AcDbLine
 10
14428.325195
 20
-6990.089355
 30
0.0
 11
14446.774414
 21
-6971.640137
 31
0.0
  0
LINE
  5
1DE
330
1C7
100
AcDbEntity
  8
0
  6
Continuous
 62
     7
420
 16777215
100
AcDbLine
 10
14447.443359
 20
-6971.640137
 30
0.0
 11
14427.413086
 21
-6991.67041
 31
0.0
  0
LINE
  5
1DF
330
1C7
100
AcDbEntity
  8
0
  6
Continuous
 62
     7
420
 16777215
100
AcDbLine
 10
14421.155273
 20
-6997.928223
 30
0.0
 11
14408.010742
 21
-7011.072266
 31
0.0
  0
LINE
  5
1E0
330
1C7
100
AcDbEntity
  8
0
  6
Continuous
 62
     7
420
 16777215
100
AcDbLine
 10
14408.678711
 20
-7011.072266
 30
0.0
 11
14421.823242
 21
-6997.928223
 31
0.0
  0
LINE
  5
1E1
330
1C7
100
AcDbEntity
  8
0
  6
Continuous
 62
     7
420
 16777215
100
AcDbLine
 10
14426.5
 20
-6993.251465
 30
0.0
 11
14448.111328
 21
-6971.640137
 31
0.0
  0
LINE
  5
1E2
330
1C7
100
AcDbEntity
  8
0
  6
Continuous
 62
     7
420
 16777215
100
AcDbLine
 10
14448.779297
 20
-6971.640137
 30
0.0
 11
14425.586914
 21
-6994.83252
 31
0.0
  0
LINE
  5
1E3
330
1C7
100
AcDbEntity
  8
0
  6
Continuous
 62
     7
420
 16777215
100
AcDbLine
 10
14422.491211
 20
-6997.928223
 30
0.0
 11
14409.347656
 21
-7011.072266
 31
0.0
  0
LINE
  5
1E4
330
1C7
100
AcDbEntity
  8
0
  6
Continuous
 62
     7
420
 16777215
100
AcDbLine
 10
14410.015625
 20
-7011.072266
 30
0.0
 11
14423.15918
 21
-6997.928223
 31
0.0
  0
LINE
  5
1E5
330
1C7
100
AcDbEntity
  8
0
  6
Continuous
 62
     7
420
 16777215
100
AcDbLine
 10
14424.673828
 20
-6996.413574
 30
0.0
 11
14449.447266
 21
-6971.640137
 31
0.0
  0
LINE
  5
1E6
330
1C7
100
AcDbEntity
  8
0
  6
Continuous
 62
     7
420
 16777215
100
AcDbLine
 10
14450.116211
 20
-6971.640137
 30
0.0
 11
14410.683594
 21
-7011.072266
 31
0.0
  0
LINE
  5
1E7
330
1C7
100
AcDbEntity
  8
0
  6
Continuous
 62
     7
420
 16777215
100
AcDbLine
 10
14411.351562
 20
-7011.072266
 30
0.0
 11
14450.78418
 21
-6971.640137
 31
0.0
  0
LINE
  5
1E8
330
1C7
100
AcDbEntity
  8
0
  6
Continuous
 62
     7
420
 16777215
100
AcDbLine
 10
14451.452148
 20
-6971.640137
 30
0.0
 11
14412.020508
 21
-7011.072266
 31
0.0
  0
LINE
  5
1E9
330
1C7
100
AcDbEntity
  8
0
  6
Continuous
 62
     7
420
 16777215
100
AcDbLine
 10
14412.688477
 20
-7011.072266
 30
0.0
 11
14452.120117
 21
-6971.640137
 31
0.0
  0
LINE
  5
1EA
330
1C7
100
AcDbEntity
  8
0
  6
Continuous
 62
     7
420
 16777215
100
AcDbLine
 10
14452.22168
 20
-6972.20752
 30
0.0
 11
14413.356445
 21
-7011.072266
 31
0.0
  0
LINE
  5
1EB
330
1C7
100
AcDbEntity
  8
0
  6
Continuous
 62
     7
420
 16777215
100
AcDbLine
 10
14414.024414
 20
-7011.072266
 30
0.0
 11
14452.321289
 21
-6972.775879
 31
0.0
  0
LINE
  5
1EC
330
1C7
100
AcDbEntity
  8
0
  6
Continuous
 62
     7
420
 16777215
100
AcDbLine
 10
14452.421875
 20
-6973.34375
 30
0.0
 11
14414.693359
 21
-7011.072266
 31
0.0
  0
LINE
  5
1ED
330
1C7
100
AcDbEntity
  8
0
  6
Continuous
 62
     7
420
 16777215
100
AcDbLine
 10
14415.361328
 20
-7011.072266
 30
0.0
 11
14452.521484
 21
-6973.911621
 31
0.0
  0
LINE
  5
1EE
330
1C7
100
AcDbEntity
  8
0
  6
Continuous
 62
     7
420
 16777215
100
AcDbLine
 10
14452.62207
 20
-6974.47998
 30
0.0
 11
14416.029297
 21
-7011.072266
 31
0.0
  0
LINE
  5
1EF
330
1C7
100
AcDbEntity
  8
0
  6
Continuous
 62
     7
420
 16777215
100
AcDbLine
 10
14416.697266
 20
-7011.072266
 30
0.0
 11
14452.72168
 21
-6975.047852
 31
0.0
  0
LINE
  5
1F0
330
1C7
100
AcDbEntity
  8
0
  6
Continuous
 62
     7
420
 16777215
100
AcDbLine
 10
14452.822266
 20
-6975.616211
 30
0.0
 11
14417.366211
 21
-7011.072266
 31
0.0
  0
LINE
  5
1F1
330
1C7
100
AcDbEntity
  8
0
  6
Continuous
 62
     7
420
 16777215
100
AcDbLine
 10
14418.03418
 20
-7011.072266
 30
0.0
 11
14452.922852
 21
-6976.184082
 31
0.0
  0
LINE
  5
1F2
330
1C7
100
AcDbEntity
  8
0
  6
Continuous
 62
     7
420
 16777215
100
AcDbLine
 10
14453.022461
 20
-6976.751953
 30
0.0
 11
14418.702148
 21
-7011.072266
 31
0.0
  0
LINE
  5
1F3
330
1C7
100
AcDbEntity
  8
0
  6
Continuous
 62
     7
420
 16777215
100
AcDbLine
 10
14419.370117
 20
-7011.072266
 30
0.0
 11
14453.123047
 21
-6977.320312
 31
0.0
  0
LINE
  5
1F4
330
1C7
100
AcDbEntity
  8
0
  6
Continuous
 62
     7
420
 16777215
100
AcDbLine
 10
14453.222656
 20
-6977.888184
 30
0.0
 11
14442.672852
 21
-6988.437988
 31
0.0
  0
LINE
  5
1F5
330
1C7
100
AcDbEntity
  8
0
  6
Continuous
 62
     7
420
 16777215
100
AcDbLine
 10
14442.081055
 20
-6989.029785
 30
0.0
 11
14420.039062
 21
-7011.072266
 31
0.0
  0
LINE
  5
1F6
330
1C7
100
AcDbEntity
  8
0
  6
Continuous
 62
     7
420
 16777215
100
AcDbLine
 10
14420.707031
 20
-7011.072266
 30
0.0
 11
14441.168945
 21
-6990.61084
 31
0.0
  0
LINE
  5
1F7
330
1C7
100
AcDbEntity
  8
0
  6
Continuous
 62
     7
420
 16777215
100
AcDbLine
 10
14442.773438
 20
-6989.005859
 30
0.0
 11
14453.323242
 21
-6978.456055
 31
0.0
  0
LINE
  5
1F8
330
1C7
100
AcDbEntity
  8
0
  6
Continuous
 62
     7
420
 16777215
100
AcDbLine
 10
14453.422852
 20
-6979.024414
 30
0.0
 11
14442.873047
 21
-6989.574219
 31
0.0
  0
LINE
  5
1F9
330
1C7
100
AcDbEntity
  8
0
  6
Continuous
 62
     7
420
 16777215
100
AcDbLine
 10
14440.255859
 20
-6992.191406
 30
0.0
 11
14421.375
 21
-7011.072266
 31
0.0
  0
LINE
  5
1FA
330
1C7
100
AcDbEntity
  8
0
  6
Continuous
 62
     7
420
 16777215
100
AcDbLine
 10
14422.042969
 20
-7011.072266
 30
0.0
 11
14439.342773
 21
-6993.772461
 31
0.0
  0
LINE
  5
1FB
330
1C7
100
AcDbEntity
  8
0
  6
Continuous
 62
     7
420
 16777215
100
AcDbLine
 10
14442.973633
 20
-6990.14209
 30
0.0
 11
14453.523438
 21
-6979.592285
 31
0.0
  0
LINE
  5
1FC
330
1C7
100
AcDbEntity
  8
0
  6
Continuous
 62
     7
420
 16777215
100
AcDbLine
 10
14453.623047
 20
-6980.160645
 30
0.0
 11
14443.074219
 21
-6990.709961
 31
0.0
  0
LINE
  5
1FD
330
1C7
100
AcDbEntity
  8
0
  6
Continuous
 62
     7
420
 16777215
100
AcDbLine
 10
14438.430664
 20
-6995.353516
 30
0.0
 11
14422.711914
 21
-7011.072266
 31
0.0
  0
LINE
  5
1FE
330
1C7
100
AcDbEntity
  8
0
  6
Continuous
 62
     7
420
 16777215
100
AcDbLine
 10
14423.379883
 20
-7011.072266
 30
0.0
 11
14437.517578
 21
-6996.93457
 31
0.0
  0
LINE
  5
1FF
330
1C7
100
AcDbEntity
  8
0
  6
Continuous
 62
     7
420
 16777215
100
AcDbLine
 10
14443.173828
 20
-6991.27832
 30
0.0
 11
14453.723633
 21
-6980.728516
 31
0.0
  0
LINE
  5
200
330
1C7
100
AcDbEntity
  8
0
  6
Continuous
 62
     7
420
 16777215
100
AcDbLine
 10
14453.824219
 20
-6981.296387
 30
0.0
 11
14443.274414
 21
-6991.846191
 31
0.0
  0
LINE
  5
201
330
1C7
100
AcDbEntity
  8
0
  6
Continuous
 62
     7
420
 16777215
100
AcDbLine
 10
14436.604492
 20
-6998.515625
 30
0.0
 11
14424.047852
 21
-7011.072266
 31
0.0
  0
LINE
  5
202
330
1C7
100
AcDbEntity
  8
0
  6
Continuous
 62
     7
420
 16777215
100
AcDbLine
 10
14424.71582
 20
-7011.072266
 30
0.0
 11
14435.691406
 21
-7000.09668
 31
0.0
  0
LINE
  5
203
330
1C7
100
AcDbEntity
  8
0
  6
Continuous
 62
     7
420
 16777215
100
AcDbLine
 10
14443.374023
 20
-6992.414062
 30
0.0
 11
14453.923828
 21
-6981.864746
 31
0.0
  0
LINE
  5
204
330
1C7
100
AcDbEntity
  8
0
  6
Continuous
 62
     7
420
 16777215
100
AcDbLine
 10
14454.024414
 20
-6982.432617
 30
0.0
 11
14443.474609
 21
-6992.982422
 31
0.0
  0
LINE
  5
205
330
1C7
100
AcDbEntity
  8
0
  6
Continuous
 62
     7
420
 16777215
100
AcDbLine
 10
14434.779297
 20
-7001.677734
 30
0.0
 11
14425.384766
 21
-7011.072266
 31
0.0
  0
LINE
  5
206
330
1C7
100
AcDbEntity
  8
0
  6
Continuous
 62
     7
420
 16777215
100
AcDbLine
 10
14426.052734
 20
-7011.072266
 30
0.0
 11
14433.866211
 21
-7003.258789
 31
0.0
  0
LINE
  5
207
330
1C7
100
AcDbEntity
  8
0
  6
Continuous
 62
     7
420
 16777215
100
AcDbLine
 10
14443.574219
 20
-6993.550293
 30
0.0
 11
14454.124023
 21
-6983.000488
 31
0.0
  0
LINE
  5
208
330
1C7
100
AcDbEntity
  8
0
  6
Continuous
 62
     7
420
 16777215
100
AcDbLine
 10
14466.15332
 20
-6971.640137
 30
0.0
 11
14466.0
 21
-6971.792969
 31
0.0
  0
LINE
  5
209
330
1C7
100
AcDbEntity
  8
0
  6
Continuous
 62
     7
420
 16777215
100
AcDbLine
 10
14454.224609
 20
-6983.568848
 30
0.0
 11
14443.674805
 21
-6994.118652
 31
0.0
  0
LINE
  5
20A
330
1C7
100
AcDbEntity
  8
0
  6
Continuous
 62
     7
420
 16777215
100
AcDbLine
 10
14432.953125
 20
-7004.839844
 30
0.0
 11
14426.720703
 21
-7011.072266
 31
0.0
  0
LINE
  5
20B
330
1C7
100
AcDbEntity
  8
0
  6
Continuous
 62
     7
420
 16777215
100
AcDbLine
 10
14427.388672
 20
-7011.072266
 30
0.0
 11
14432.041016
 21
-7006.420898
 31
0.0
  0
LINE
  5
20C
330
1C7
100
AcDbEntity
  8
0
  6
Continuous
 62
     7
420
 16777215
100
AcDbLine
 10
14443.775391
 20
-6994.686523
 30
0.0
 11
14454.324219
 21
-6984.136719
 31
0.0
  0
LINE
  5
20D
330
1C7
100
AcDbEntity
  8
0
  6
Continuous
 62
     7
420
 16777215
100
AcDbLine
 10
14465.857422
 20
-6972.604492
 30
0.0
 11
14466.821289
 21
-6971.640137
 31
0.0
  0
LINE
  5
20E
330
1C7
100
AcDbEntity
  8
0
  6
Continuous
 62
     7
420
 16777215
100
AcDbLine
 10
14467.489258
 20
-6971.640137
 30
0.0
 11
14465.713867
 21
-6973.415527
 31
0.0
  0
LINE
  5
20F
330
1C7
100
AcDbEntity
  8
0
  6
Continuous
 62
     7
420
 16777215
100
AcDbLine
 10
14454.424805
 20
-6984.705078
 30
0.0
 11
14443.875
 21
-6995.254395
 31
0.0
  0
LINE
  5
210
330
1C7
100
AcDbEntity
  8
0
  6
Continuous
 62
     7
420
 16777215
100
AcDbLine
 10
14431.12793
 20
-7008.001953
 30
0.0
 11
14428.057617
 21
-7011.072266
 31
0.0
  0
LINE
  5
211
330
1C7
100
AcDbEntity
  8
0
  6
Continuous
 62
     7
420
 16777215
100
AcDbLine
 10
14428.725586
 20
-7011.072266
 30
0.0
 11
14430.214844
 21
-7009.583008
 31
0.0
  0
LINE
  5
212
330
1C7
100
AcDbEntity
  8
0
  6
Continuous
 62
     7
420
 16777215
100
AcDbLine
 10
14443.975586
 20
-6995.822754
 30
0.0
 11
14454.525391
 21
-6985.272949
 31
0.0
  0
LINE
  5
213
330
1C7
100
AcDbEntity
  8
0
  6
Continuous
 62
     7
420
 16777215
100
AcDbLine
 10
14465.571289
 20
-6974.227051
 30
0.0
 11
14468.157227
 21
-6971.640137
 31
0.0
  0
LINE
  5
214
330
1C7
100
AcDbEntity
  8
0
  6
Continuous
 62
     7
420
 16777215
100
AcDbLine
 10
14468.826172
 20
-6971.640137
 30
0.0
 11
14465.427734
 21
-6975.038086
 31
0.0
  0
LINE
  5
215
330
1C7
100
AcDbEntity
  8
0
  6
Continuous
 62
     7
420
 16777215
100
AcDbLine
 10
14454.625
 20
-6985.84082
 30
0.0
 11
14444.075195
 21
-6996.390625
 31
0.0
  0
LINE
  5
216
330
1C7
100
AcDbEntity
  8
0
  6
Continuous
 62
     7
420
 16777215
100
AcDbLine
 10
14444.175781
 20
-6996.958496
 30
0.0
 11
14454.725586
 21
-6986.40918
 31
0.0
  0
LINE
  5
217
330
1C7
100
AcDbEntity
  8
0
  6
Continuous
 62
     7
420
 16777215
100
AcDbLine
 10
14465.285156
 20
-6975.849609
 30
0.0
 11
14469.494141
 21
-6971.640137
 31
0.0
  0
LINE
  5
218
330
1C7
100
AcDbEntity
  8
0
  6
Continuous
 62
     7
420
 16777215
100
AcDbLine
 10
14470.162109
 20
-6971.640137
 30
0.0
 11
14465.141602
 21
-6976.660645
 31
0.0
  0
LINE
  5
219
330
1C7
100
AcDbEntity
  8
0
  6
Continuous
 62
     7
420
 16777215
100
AcDbLine
 10
14454.825195
 20
-6986.977051
 30
0.0
 11
14444.275391
 21
-6997.526855
 31
0.0
  0
LINE
  5
21A
330
1C7
100
AcDbEntity
  8
0
  6
Continuous
 62
     7
420
 16777215
100
AcDbLine
 10
14444.375977
 20
-6998.094727
 30
0.0
 11
14454.925781
 21
-6987.544922
 31
0.0
  0
LINE
  5
21B
330
1C7
100
AcDbEntity
  8
0
  6
Continuous
 62
     7
420
 16777215
100
AcDbLine
 10
14464.999023
 20
-6977.47168
 30
0.0
 11
14470.830078
 21
-6971.640137
 31
0.0
  0
LINE
  5
21C
330
1C7
100
AcDbEntity
  8
0
  6
Continuous
 62
     7
420
 16777215
100
AcDbLine
 10
14471.499023
 20
-6971.640137
 30
0.0
 11
14464.855469
 21
-6978.283203
 31
0.0
  0
LINE
  5
21D
330
1C7
100
AcDbEntity
  8
0
  6
Continuous
 62
     7
420
 16777215
100
AcDbLine
 10
14455.025391
 20
-6988.113281
 30
0.0
 11
14444.476562
 21
-6998.663086
 31
0.0
  0
LINE
  5
21E
330
1C7
100
AcDbEntity
  8
0
  6
Continuous
 62
     7
420
 16777215
100
AcDbLine
 10
14444.576172
 20
-6999.230957
 30
0.0
 11
14455.125977
 21
-6988.681152
 31
0.0
  0
LINE
  5
21F
330
1C7
100
AcDbEntity
  8
0
  6
Continuous
 62
     7
420
 16777215
100
AcDbLine
 10
14464.712891
 20
-6979.094238
 30
0.0
 11
14472.166992
 21
-6971.640137
 31
0.0
  0
LINE
  5
220
330
1C7
100
AcDbEntity
  8
0
  6
Continuous
 62
     7
420
 16777215
100
AcDbLine
 10
14472.834961
 20
-6971.640137
 30
0.0
 11
14464.569336
 21
-6979.905762
 31
0.0
  0
LINE
  5
221
330
1C7
100
AcDbEntity
  8
0
  6
Continuous
 62
     7
420
 16777215
100
AcDbLine
 10
14455.226562
 20
-6989.249023
 30
0.0
 11
14444.676758
 21
-6999.798828
 31
0.0
  0
LINE
  5
222
330
1C7
100
AcDbEntity
  8
0
  6
Continuous
 62
     7
420
 16777215
100
AcDbLine
 10
14444.776367
 20
-7000.367188
 30
0.0
 11
14455.326172
 21
-6989.817383
 31
0.0
  0
LINE
  5
223
330
1C7
100
AcDbEntity
  8
0
  6
Continuous
 62
     7
420
 16777215
100
AcDbLine
 10
14464.426758
 20
-6980.716797
 30
0.0
 11
14473.50293
 21
-6971.640137
 31
0.0
  0
LINE
  5
224
330
1C7
100
AcDbEntity
  8
0
  6
Continuous
 62
     7
420
 16777215
100
AcDbLine
 10
14474.171875
 20
-6971.640137
 30
0.0
 11
14464.283203
 21
-6981.52832
 31
0.0
  0
LINE
  5
225
330
1C7
100
AcDbEntity
  8
0
  6
Continuous
 62
     7
420
 16777215
100
AcDbLine
 10
14455.426758
 20
-6990.385254
 30
0.0
 11
14444.876953
 21
-7000.935059
 31
0.0
  0
LINE
  5
226
330
1C7
100
AcDbEntity
  8
0
  6
Continuous
 62
     7
420
 16777215
100
AcDbLine
 10
14444.976562
 20
-7001.50293
 30
0.0
 11
14455.526367
 21
-6990.953613
 31
0.0
  0
LINE
  5
227
330
1C7
100
AcDbEntity
  8
0
  6
Continuous
 62
     7
420
 16777215
100
AcDbLine
 10
14464.140625
 20
-6982.339355
 30
0.0
 11
14474.839844
 21
-6971.640137
 31
0.0
  0
LINE
  5
228
330
1C7
100
AcDbEntity
  8
0
  6
Continuous
 62
     7
420
 16777215
100
AcDbLine
 10
14475.507812
 20
-6971.640137
 30
0.0
 11
14463.99707
 21
-6983.150879
 31
0.0
  0
LINE
  5
229
330
1C7
100
AcDbEntity
  8
0
  6
Continuous
 62
     7
420
 16777215
100
AcDbLine
 10
14455.626953
 20
-6991.521484
 30
0.0
 11
14445.077148
 21
-7002.071289
 31
0.0
  0
LINE
  5
22A
330
1C7
100
AcDbEntity
  8
0
  6
Continuous
 62
     7
420
 16777215
100
AcDbLine
 10
14445.177734
 20
-7002.63916
 30
0.0
 11
14455.726562
 21
-6992.089355
 31
0.0
  0
LINE
  5
22B
330
1C7
100
AcDbEntity
  8
0
  6
Continuous
 62
     7
420
 16777215
100
AcDbLine
 10
14463.854492
 20
-6983.961914
 30
0.0
 11
14476.175781
 21
-6971.640137
 31
0.0
  0
LINE
  5
22C
330
1C7
100
AcDbEntity
  8
0
  6
Continuous
 62
     7
420
 16777215
100
AcDbLine
 10
14476.844727
 20
-6971.640137
 30
0.0
 11
14463.710938
 21
-6984.773438
 31
0.0
  0
LINE
  5
22D
330
1C7
100
AcDbEntity
  8
0
  6
Continuous
 62
     7
420
 16777215
100
AcDbLine
 10
14455.827148
 20
-6992.657715
 30
0.0
 11
14445.277344
 21
-7003.207031
 31
0.0
  0
LINE
  5
22E
330
1C7
100
AcDbEntity
  8
0
  6
Continuous
 62
     7
420
 16777215
100
AcDbLine
 10
14445.37793
 20
-7003.775391
 30
0.0
 11
14455.927734
 21
-6993.225586
 31
0.0
  0
LINE
  5
22F
330
1C7
100
AcDbEntity
  8
0
  6
Continuous
 62
     7
420
 16777215
100
AcDbLine
 10
14463.568359
 20
-6985.584473
 30
0.0
 11
14477.512695
 21
-6971.640137
 31
0.0
  0
LINE
  5
230
330
1C7
100
AcDbEntity
  8
0
  6
Continuous
 62
     7
420
 16777215
100
AcDbLine
 10
14478.180664
 20
-6971.640137
 30
0.0
 11
14463.425781
 21
-6986.395996
 31
0.0
  0
LINE
  5
231
330
1C7
100
AcDbEntity
  8
0
  6
Continuous
 62
     7
420
 16777215
100
AcDbLine
 10
14456.027344
 20
-6993.793457
 30
0.0
 11
14445.477539
 21
-7004.343262
 31
0.0
  0
LINE
  5
232
330
1C7
100
AcDbEntity
  8
0
  6
Continuous
 62
     7
420
 16777215
100
AcDbLine
 10
14445.578125
 20
-7004.911621
 30
0.0
 11
14456.12793
 21
-6994.361816
 31
0.0
  0
LINE
  5
233
330
1C7
100
AcDbEntity
  8
0
  6
Continuous
 62
     7
420
 16777215
100
AcDbLine
 10
14463.282227
 20
-6987.207031
 30
0.0
 11
14478.848633
 21
-6971.640137
 31
0.0
  0
LINE
  5
234
330
1C7
100
AcDbEntity
  8
0
  6
Continuous
 62
     7
420
 16777215
100
AcDbLine
 10
14479.517578
 20
-6971.640137
 30
0.0
 11
14463.139648
 21
-6988.018555
 31
0.0
  0
LINE
  5
235
330
1C7
100
AcDbEntity
  8
0
  6
Continuous
 62
     7
420
 16777215
100
AcDbLine
 10
14456.227539
 20
-6994.929688
 30
0.0
 11
14445.677734
 21
-7005.479492
 31
0.0
  0
LINE
  5
236
330
1C7
100
AcDbEntity
  8
0
  6
Continuous
 62
     7
420
 16777215
100
AcDbLine
 10
14445.77832
 20
-7006.047363
 30
0.0
 11
14456.328125
 21
-6995.498047
 31
0.0
  0
LINE
  5
237
330
1C7
100
AcDbEntity
  8
0
  6
Continuous
 62
     7
420
 16777215
100
AcDbLine
 10
14462.996094
 20
-6988.82959
 30
0.0
 11
14480.185547
 21
-6971.640137
 31
0.0
  0
LINE
  5
238
330
1C7
100
AcDbEntity
  8
0
  6
Continuous
 62
     7
420
 16777215
100
AcDbLine
 10
14480.853516
 20
-6971.640137
 30
0.0
 11
14462.853516
 21
-6989.641113
 31
0.0
  0
LINE
  5
239
330
1C7
100
AcDbEntity
  8
0
  6
Continuous
 62
     7
420
 16777215
100
AcDbLine
 10
14456.427734
 20
-6996.065918
 30
0.0
 11
14445.878906
 21
-7006.615723
 31
0.0
  0
LINE
  5
23A
330
1C7
100
AcDbEntity
  8
0
  6
Continuous
 62
     7
420
 16777215
100
AcDbLine
 10
14445.978516
 20
-7007.183594
 30
0.0
 11
14456.52832
 21
-6996.633789
 31
0.0
  0
LINE
  5
23B
330
1C7
100
AcDbEntity
  8
0
  6
Continuous
 62
     7
420
 16777215
100
AcDbLine
 10
14462.709961
 20
-6990.452148
 30
0.0
 11
14481.521484
 21
-6971.640137
 31
0.0
  0
LINE
  5
23C
330
1C7
100
AcDbEntity
  8
0
  6
Continuous
 62
     7
420
 16777215
100
AcDbLine
 10
14482.19043
 20
-6971.640137
 30
0.0
 11
14462.567383
 21
-6991.263184
 31
0.0
  0
LINE
  5
23D
330
1C7
100
AcDbEntity
  8
0
  6
Continuous
 62
     7
420
 16777215
100
AcDbLine
 10
14456.628906
 20
-6997.202148
 30
0.0
 11
14446.079102
 21
-7007.751465
 31
0.0
  0
LINE
  5
23E
330
1C7
100
AcDbEntity
  8
0
  6
Continuous
 62
     7
420
 16777215
100
AcDbLine
 10
14446.178711
 20
-7008.319824
 30
0.0
 11
14456.728516
 21
-6997.77002
 31
0.0
  0
LINE
  5
23F
330
1C7
100
AcDbEntity
  8
0
  6
Continuous
 62
     7
420
 16777215
100
AcDbLine
 10
14462.423828
 20
-6992.074707
 30
0.0
 11
14482.858398
 21
-6971.640137
 31
0.0
  0
LINE
  5
240
330
1C7
100
AcDbEntity
  8
0
  6
Continuous
 62
     7
420
 16777215
100
AcDbLine
 10
14483.526367
 20
-6971.640137
 30
0.0
 11
14462.28125
 21
-6992.885742
 31
0.0
  0
LINE
  5
241
330
1C7
100
AcDbEntity
  8
0
  6
Continuous
 62
     7
420
 16777215
100
AcDbLine
 10
14456.829102
 20
-6998.337891
 30
0.0
 11
14446.279297
 21
-7008.887695
 31
0.0
  0
LINE
  5
242
330
1C7
100
AcDbEntity
  8
0
  6
Continuous
 62
     7
420
 16777215
100
AcDbLine
 10
14446.378906
 20
-7009.456055
 30
0.0
 11
14456.928711
 21
-6998.90625
 31
0.0
  0
LINE
  5
243
330
1C7
100
AcDbEntity
  8
0
  6
Continuous
 62
     7
420
 16777215
100
AcDbLine
 10
14462.137695
 20
-6993.697266
 30
0.0
 11
14484.194336
 21
-6971.640137
 31
0.0
  0
LINE
  5
244
330
1C7
100
AcDbEntity
  8
0
  6
Continuous
 62
     7
420
 16777215
100
AcDbLine
 10
14484.863281
 20
-6971.640137
 30
0.0
 11
14461.995117
 21
-6994.508301
 31
0.0
  0
LINE
  5
245
330
1C7
100
AcDbEntity
  8
0
  6
Continuous
 62
     7
420
 16777215
100
AcDbLine
 10
14457.029297
 20
-6999.474121
 30
0.0
 11
14446.479492
 21
-7010.023926
 31
0.0
  0
LINE
  5
246
330
1C7
100
AcDbEntity
  8
0
  6
Continuous
 62
     7
420
 16777215
100
AcDbLine
 10
14446.579102
 20
-7010.591797
 30
0.0
 11
14457.128906
 21
-7000.04248
 31
0.0
  0
LINE
  5
247
330
1C7
100
AcDbEntity
  8
0
  6
Continuous
 62
     7
420
 16777215
100
AcDbLine
 10
14461.851562
 20
-6995.319824
 30
0.0
 11
14485.53125
 21
-6971.640137
 31
0.0
  0
LINE
  5
248
330
1C7
100
AcDbEntity
  8
0
  6
Continuous
 62
     7
420
 16777215
100
AcDbLine
 10
14486.199219
 20
-6971.640137
 30
0.0
 11
14478.313477
 21
-6979.526855
 31
0.0
  0
LINE
  5
249
330
1C7
100
AcDbEntity
  8
0
  6
Continuous
 62
     7
420
 16777215
100
AcDbLine
 10
14477.913086
 20
-6979.926758
 30
0.0
 11
14461.708984
 21
-6996.130859
 31
0.0
  0
LINE
  5
24A
330
1C7
100
AcDbEntity
  8
0
  6
Continuous
 62
     7
420
 16777215
100
AcDbLine
 10
14457.229492
 20
-7000.610352
 30
0.0
 11
14446.767578
 21
-7011.072266
 31
0.0
  0
LINE
  5
24B
330
1C7
100
AcDbEntity
  8
0
  6
Continuous
 62
     7
420
 16777215
100
AcDbLine
 10
14447.435547
 20
-7011.072266
 30
0.0
 11
14457.329102
 21
-7001.178223
 31
0.0
  0
LINE
  5
24C
330
1C7
100
AcDbEntity
  8
0
  6
Continuous
 62
     7
420
 16777215
100
AcDbLine
 10
14461.56543
 20
-6996.942383
 30
0.0
 11
14477.769531
 21
-6980.738281
 31
0.0
  0
LINE
  5
24D
330
1C7
100
AcDbEntity
  8
0
  6
Continuous
 62
     7
420
 16777215
100
AcDbLine
 10
14478.981445
 20
-6979.526855
 30
0.0
 11
14486.867188
 21
-6971.640137
 31
0.0
  0
LINE
  5
24E
330
1C7
100
AcDbEntity
  8
0
  6
Continuous
 62
     7
420
 16777215
100
AcDbLine
 10
14487.536133
 20
-6971.640137
 30
0.0
 11
14479.649414
 21
-6979.526855
 31
0.0
  0
LINE
  5
24F
330
1C7
100
AcDbEntity
  8
0
  6
Continuous
 62
     7
420
 16777215
100
AcDbLine
 10
14477.626953
 20
-6981.549316
 30
0.0
 11
14461.422852
 21
-6997.753418
 31
0.0
  0
LINE
  5
250
330
1C7
100
AcDbEntity
  8
0
  6
Continuous
 62
     7
420
 16777215
100
AcDbLine
 10
14457.429688
 20
-7001.746582
 30
0.0
 11
14448.103516
 21
-7011.072266
 31
0.0
  0
LINE
  5
251
330
1C7
100
AcDbEntity
  8
0
  6
Continuous
 62
     7
420
 16777215
100
AcDbLine
 10
14448.771484
 20
-7011.072266
 30
0.0
 11
14457.530273
 21
-7002.314453
 31
0.0
  0
LINE
  5
252
330
1C7
100
AcDbEntity
  8
0
  6
Continuous
 62
     7
420
 16777215
100
AcDbLine
 10
14461.279297
 20
-6998.564941
 30
0.0
 11
14477.483398
 21
-6982.36084
 31
0.0
  0
LINE
  5
253
330
1C7
100
AcDbEntity
  8
0
  6
Continuous
 62
     7
420
 16777215
100
AcDbLine
 10
14480.317383
 20
-6979.526855
 30
0.0
 11
14488.204102
 21
-6971.640137
 31
0.0
  0
LINE
  5
254
330
1C7
100
AcDbEntity
  8
0
  6
Continuous
 62
     7
420
 16777215
100
AcDbLine
 10
14488.87207
 20
-6971.640137
 30
0.0
 11
14480.986328
 21
-6979.526855
 31
0.0
  0
LINE
  5
255
330
1C7
100
AcDbEntity
  8
0
  6
Continuous
 62
     7
420
 16777215
100
AcDbLine
 10
14477.34082
 20
-6983.171875
 30
0.0
 11
14461.136719
 21
-6999.375977
 31
0.0
  0
LINE
  5
256
330
1C7
100
AcDbEntity
  8
0
  6
Continuous
 62
     7
420
 16777215
100
AcDbLine
 10
14457.629883
 20
-7002.882324
 30
0.0
 11
14449.44043
 21
-7011.072266
 31
0.0
  0
LINE
  5
257
330
1C7
100
AcDbEntity
  8
0
  6
Continuous
 62
     7
420
 16777215
100
AcDbLine
 10
14450.108398
 20
-7011.072266
 30
0.0
 11
14457.730469
 21
-7003.450684
 31
0.0
  0
LINE
  5
258
330
1C7
100
AcDbEntity
  8
0
  6
Continuous
 62
     7
420
 16777215
100
AcDbLine
 10
14460.993164
 20
-7000.1875
 30
0.0
 11
14477.197266
 21
-6983.983398
 31
0.0
  0
LINE
  5
259
330
1C7
100
AcDbEntity
  8
0
  6
Continuous
 62
     7
420
 16777215
100
AcDbLine
 10
14481.654297
 20
-6979.526855
 30
0.0
 11
14489.541016
 21
-6971.640137
 31
0.0
  0
LINE
  5
25A
330
1C7
100
AcDbEntity
  8
0
  6
Continuous
 62
     7
420
 16777215
100
AcDbLine
 10
14490.208984
 20
-6971.640137
 30
0.0
 11
14482.322266
 21
-6979.526855
 31
0.0
  0
LINE
  5
25B
330
1C7
100
AcDbEntity
  8
0
  6
Continuous
 62
     7
420
 16777215
100
AcDbLine
 10
14477.054688
 20
-6984.794434
 30
0.0
 11
14460.850586
 21
-7000.998535
 31
0.0
  0
LINE
  5
25C
330
1C7
100
AcDbEntity
  8
0
  6
Continuous
 62
     7
420
 16777215
100
AcDbLine
 10
14457.830078
 20
-7004.018555
 30
0.0
 11
14450.776367
 21
-7011.072266
 31
0.0
  0
LINE
  5
25D
330
1C7
100
AcDbEntity
  8
0
  6
Continuous
 62
     7
420
 16777215
100
AcDbLine
 10
14451.445312
 20
-7011.072266
 30
0.0
 11
14457.930664
 21
-7004.586914
 31
0.0
  0
LINE
  5
25E
330
1C7
100
AcDbEntity
  8
0
  6
Continuous
 62
     7
420
 16777215
100
AcDbLine
 10
14460.707031
 20
-7001.810059
 30
0.0
 11
14476.911133
 21
-6985.605957
 31
0.0
  0
LINE
  5
25F
330
1C7
100
AcDbEntity
  8
0
  6
Continuous
 62
     7
420
 16777215
100
AcDbLine
 10
14482.990234
 20
-6979.526855
 30
0.0
 11
14490.869141
 21
-6971.648438
 31
0.0
  0
LINE
  5
260
330
1C7
100
AcDbEntity
  8
0
  6
Continuous
 62
     7
420
 16777215
100
AcDbLine
 10
14491.499023
 20
-6971.686035
 30
0.0
 11
14483.65918
 21
-6979.526855
 31
0.0
  0
LINE
  5
261
330
1C7
100
AcDbEntity
  8
0
  6
Continuous
 62
     7
420
 16777215
100
AcDbLine
 10
14476.768555
 20
-6986.416992
 30
0.0
 11
14460.564453
 21
-7002.621094
 31
0.0
  0
LINE
  5
262
330
1C7
100
AcDbEntity
  8
0
  6
Continuous
 62
     7
420
 16777215
100
AcDbLine
 10
14458.030273
 20
-7005.154785
 30
0.0
 11
14452.113281
 21
-7011.072266
 31
0.0
  0
LINE
  5
263
330
1C7
100
AcDbEntity
  8
0
  6
Continuous
 62
     7
420
 16777215
100
AcDbLine
 10
14452.78125
 20
-7011.072266
 30
0.0
 11
14458.130859
 21
-7005.722656
 31
0.0
  0
LINE
  5
264
330
1C7
100
AcDbEntity
  8
0
  6
Continuous
 62
     7
420
 16777215
100
AcDbLine
 10
14460.420898
 20
-7003.432129
 30
0.0
 11
14476.625
 21
-6987.228516
 31
0.0
  0
LINE
  5
265
330
1C7
100
AcDbEntity
  8
0
  6
Continuous
 62
     7
420
 16777215
100
AcDbLine
 10
14484.327148
 20
-6979.526855
 30
0.0
 11
14492.102539
 21
-6971.750488
 31
0.0
  0
LINE
  5
266
330
1C7
100
AcDbEntity
  8
0
  6
Continuous
 62
     7
420
 16777215
100
AcDbLine
 10
14492.682617
 20
-6971.839355
 30
0.0
 11
14484.995117
 21
-6979.526855
 31
0.0
  0
LINE
  5
267
330
1C7
100
AcDbEntity
  8
0
  6
Continuous
 62
     7
420
 16777215
100
AcDbLine
 10
14476.482422
 20
-6988.039551
 30
0.0
 11
14460.27832
 21
-7004.243652
 31
0.0
  0
LINE
  5
268
330
1C7
100
AcDbEntity
  8
0
  6
Continuous
 62
     7
420
 16777215
100
AcDbLine
 10
14458.231445
 20
-7006.291016
 30
0.0
 11
14453.449219
 21
-7011.072266
 31
0.0
  0
LINE
  5
269
330
1C7
100
AcDbEntity
  8
0
  6
Continuous
 62
     7
420
 16777215
100
AcDbLine
 10
14454.118164
 20
-7011.072266
 30
0.0
 11
14458.331055
 21
-7006.858887
 31
0.0
  0
LINE
  5
26A
330
1C7
100
AcDbEntity
  8
0
  6
Continuous
 62
     7
420
 16777215
100
AcDbLine
 10
14460.134766
 20
-7005.054688
 30
0.0
 11
14476.338867
 21
-6988.851074
 31
0.0
  0
LINE
  5
26B
330
1C7
100
AcDbEntity
  8
0
  6
Continuous
 62
     7
420
 16777215
100
AcDbLine
 10
14485.632812
 20
-6979.557617
 30
0.0
 11
14493.240234
 21
-6971.950195
 31
0.0
  0
LINE
  5
26C
330
1C7
100
AcDbEntity
  8
0
  6
Continuous
 62
     7
420
 16777215
100
AcDbLine
 10
14493.777344
 20
-6972.081055
 30
0.0
 11
14486.206055
 21
-6979.652344
 31
0.0
  0
LINE
  5
26D
330
1C7
100
AcDbEntity
  8
0
  6
Continuous
 62
     7
420
 16777215
100
AcDbLine
 10
14476.196289
 20
-6989.662109
 30
0.0
 11
14459.992188
 21
-7005.866211
 31
0.0
  0
LINE
  5
26E
330
1C7
100
AcDbEntity
  8
0
  6
Continuous
 62
     7
420
 16777215
100
AcDbLine
 10
14458.431641
 20
-7007.426758
 30
0.0
 11
14454.786133
 21
-7011.072266
 31
0.0
  0
LINE
  5
26F
330
1C7
100
AcDbEntity
  8
0
  6
Continuous
 62
     7
420
 16777215
100
AcDbLine
 10
14455.454102
 20
-7011.072266
 30
0.0
 11
14458.53125
 21
-7007.995117
 31
0.0
  0
LINE
  5
270
330
1C7
100
AcDbEntity
  8
0
  6
Continuous
 62
     7
420
 16777215
100
AcDbLine
 10
14459.849609
 20
-7006.677246
 30
0.0
 11
14476.052734
 21
-6990.473633
 31
0.0
  0
LINE
  5
271
330
1C7
100
AcDbEntity
  8
0
  6
Continuous
 62
     7
420
 16777215
100
AcDbLine
 10
14486.729492
 20
-6979.797363
 30
0.0
 11
14494.296875
 21
-6972.22998
 31
0.0
  0
LINE
  5
272
330
1C7
100
AcDbEntity
  8
0
  6
Continuous
 62
     7
420
 16777215
100
AcDbLine
 10
14494.797852
 20
-6972.396973
 30
0.0
 11
14487.209961
 21
-6979.984375
 31
0.0
  0
LINE
  5
273
330
1C7
100
AcDbEntity
  8
0
  6
Continuous
 62
     7
420
 16777215
100
AcDbLine
 10
14475.910156
 20
-6991.284668
 30
0.0
 11
14459.706055
 21
-7007.48877
 31
0.0
  0
LINE
  5
274
330
1C7
100
AcDbEntity
  8
0
  6
Continuous
 62
     7
420
 16777215
100
AcDbLine
 10
14458.631836
 20
-7008.562988
 30
0.0
 11
14456.12207
 21
-7011.072266
 31
0.0
  0
LINE
  5
275
330
1C7
100
AcDbEntity
  8
0
  6
Continuous
 62
     7
420
 16777215
100
AcDbLine
 10
14456.791016
 20
-7011.072266
 30
0.0
 11
14458.731445
 21
-7009.130859
 31
0.0
  0
LINE
  5
276
330
1C7
100
AcDbEntity
  8
0
  6
Continuous
 62
     7
420
 16777215
100
AcDbLine
 10
14459.563477
 20
-7008.299805
 30
0.0
 11
14475.766602
 21
-6992.095703
 31
0.0
  0
LINE
  5
277
330
1C7
100
AcDbEntity
  8
0
  6
Continuous
 62
     7
420
 16777215
100
AcDbLine
 10
14487.654297
 20
-6980.208984
 30
0.0
 11
14495.283203
 21
-6972.57959
 31
0.0
  0
LINE
  5
278
330
1C7
100
AcDbEntity
  8
0
  6
Continuous
 62
     7
420
 16777215
100
AcDbLine
 10
14495.75293
 20
-6972.77832
 30
0.0
 11
14488.064453
 21
-6980.466797
 31
0.0
  0
LINE
  5
279
330
1C7
100
AcDbEntity
  8
0
  6
Continuous
 62
     7
420
 16777215
100
AcDbLine
 10
14475.624023
 20
-6992.907227
 30
0.0
 11
14459.419922
 21
-7009.111328
 31
0.0
  0
LINE
  5
27A
330
1C7
100
AcDbEntity
  8
0
  6
Continuous
 62
     7
420
 16777215
100
AcDbLine
 10
14458.832031
 20
-7009.699219
 30
0.0
 11
14457.458984
 21
-7011.072266
 31
0.0
  0
LINE
  5
27B
330
1C7
100
AcDbEntity
  8
0
  6
Continuous
 62
     7
420
 16777215
100
AcDbLine
 10
14458.126953
 20
-7011.072266
 30
0.0
 11
14458.932617
 21
-7010.26709
 31
0.0
  0
LINE
  5
27C
330
1C7
100
AcDbEntity
  8
0
  6
Continuous
 62
     7
420
 16777215
100
AcDbLine
 10
14459.277344
 20
-7009.922363
 30
0.0
 11
14475.480469
 21
-6993.718262
 31
0.0
  0
LINE
  5
27D
330
1C7
100
AcDbEntity
  8
0
  6
Continuous
 62
     7
420
 16777215
100
AcDbLine
 10
14488.443359
 20
-6980.756348
 30
0.0
 11
14496.208008
 21
-6972.991699
 31
0.0
  0
LINE
  5
27E
330
1C7
100
AcDbEntity
  8
0
  6
Continuous
 62
     7
420
 16777215
100
AcDbLine
 10
14496.648438
 20
-6973.21875
 30
0.0
 11
14488.791016
 21
-6981.076172
 31
0.0
  0
LINE
  5
27F
330
1C7
100
AcDbEntity
  8
0
  6
Continuous
 62
     7
420
 16777215
100
AcDbLine
 10
14475.337891
 20
-6994.529785
 30
0.0
 11
14459.133789
 21
-7010.733887
 31
0.0
  0
LINE
  5
280
330
1C7
100
AcDbEntity
  8
0
  6
Continuous
 62
     7
420
 16777215
100
AcDbLine
 10
14459.032227
 20
-7010.835449
 30
0.0
 11
14458.794922
 21
-7011.072266
 31
0.0
  0
LINE
  5
281
330
1C7
100
AcDbEntity
  8
0
  6
Continuous
 62
     7
420
 16777215
100
AcDbLine
 10
14459.463867
 20
-7011.072266
 30
0.0
 11
14475.195312
 21
-6995.34082
 31
0.0
  0
LINE
  5
282
330
1C7
100
AcDbEntity
  8
0
  6
Continuous
 62
     7
420
 16777215
100
AcDbLine
 10
14489.109375
 20
-6981.42627
 30
0.0
 11
14497.076172
 21
-6973.459961
 31
0.0
  0
LINE
  5
283
330
1C7
100
AcDbEntity
  8
0
  6
Continuous
 62
     7
420
 16777215
100
AcDbLine
 10
14497.490234
 20
-6973.714355
 30
0.0
 11
14489.397461
 21
-6981.806641
 31
0.0
  0
LINE
  5
284
330
1C7
100
AcDbEntity
  8
0
  6
Continuous
 62
     7
420
 16777215
100
AcDbLine
 10
14475.051758
 20
-6996.152344
 30
0.0
 11
14460.131836
 21
-7011.072266
 31
0.0
  0
LINE
  5
285
330
1C7
100
AcDbEntity
  8
0
  6
Continuous
 62
     7
420
 16777215
100
AcDbLine
 10
14460.799805
 20
-7011.072266
 30
0.0
 11
14474.90918
 21
-6996.963379
 31
0.0
  0
LINE
  5
286
330
1C7
100
AcDbEntity
  8
0
  6
Continuous
 62
     7
420
 16777215
100
AcDbLine
 10
14489.65332
 20
-6982.21875
 30
0.0
 11
14497.890625
 21
-6973.981445
 31
0.0
  0
LINE
  5
287
330
1C7
100
AcDbEntity
  8
0
  6
Continuous
 62
     7
420
 16777215
100
AcDbLine
 10
14498.279297
 20
-6974.26123
 30
0.0
 11
14489.875977
 21
-6982.664551
 31
0.0
  0
LINE
  5
288
330
1C7
100
AcDbEntity
  8
0
  6
Continuous
 62
     7
420
 16777215
100
AcDbLine
 10
14474.765625
 20
-6997.774902
 30
0.0
 11
14461.467773
 21
-7011.072266
 31
0.0
  0
LINE
  5
289
330
1C7
100
AcDbEntity
  8
0
  6
Continuous
 62
     7
420
 16777215
100
AcDbLine
 10
14462.136719
 20
-7011.072266
 30
0.0
 11
14474.623047
 21
-6998.585938
 31
0.0
  0
LINE
  5
28A
330
1C7
100
AcDbEntity
  8
0
  6
Continuous
 62
     7
420
 16777215
100
AcDbLine
 10
14490.060547
 20
-6983.147949
 30
0.0
 11
14498.655273
 21
-6974.553711
 31
0.0
  0
LINE
  5
28B
330
1C7
100
AcDbEntity
  8
0
  6
Continuous
 62
     7
420
 16777215
100
AcDbLine
 10
14499.018555
 20
-6974.85791
 30
0.0
 11
14490.203125
 21
-6983.673828
 31
0.0
  0
LINE
  5
28C
330
1C7
100
AcDbEntity
  8
0
  6
Continuous
 62
     7
420
 16777215
100
AcDbLine
 10
14474.479492
 20
-6999.397461
 30
0.0
 11
14462.804688
 21
-7011.072266
 31
0.0
  0
LINE
  5
28D
330
1C7
100
AcDbEntity
  8
0
  6
Continuous
 62
     7
420
 16777215
100
AcDbLine
 10
14463.472656
 20
-7011.072266
 30
0.0
 11
14474.336914
 21
-7000.208496
 31
0.0
  0
LINE
  5
28E
330
1C7
100
AcDbEntity
  8
0
  6
Continuous
 62
     7
420
 16777215
100
AcDbLine
 10
14490.294922
 20
-6984.250488
 30
0.0
 11
14499.371094
 21
-6975.174316
 31
0.0
  0
LINE
  5
28F
330
1C7
100
AcDbEntity
  8
0
  6
Continuous
 62
     7
420
 16777215
100
AcDbLine
 10
14499.709961
 20
-6975.50293
 30
0.0
 11
14490.321289
 21
-6984.892578
 31
0.0
  0
LINE
  5
290
330
1C7
100
AcDbEntity
  8
0
  6
Continuous
 62
     7
420
 16777215
100
AcDbLine
 10
14474.193359
 20
-7001.02002
 30
0.0
 11
14464.140625
 21
-7011.072266
 31
0.0
  0
LINE
  5
291
330
1C7
100
AcDbEntity
  8
0
  6
Continuous
 62
     7
420
 16777215
100
AcDbLine
 10
14464.80957
 20
-7011.072266
 30
0.0
 11
14474.050781
 21
-7001.831055
 31
0.0
  0
LINE
  5
292
330
1C7
100
AcDbEntity
  8
0
  6
Continuous
 62
     7
420
 16777215
100
AcDbLine
 10
14490.253906
 20
-6985.627441
 30
0.0
 11
14500.038086
 21
-6975.84375
 31
0.0
  0
LINE
  5
293
330
1C7
100
AcDbEntity
  8
0
  6
Continuous
 62
     7
420
 16777215
100
AcDbLine
 10
14500.353516
 20
-6976.196289
 30
0.0
 11
14490.111328
 21
-6986.438477
 31
0.0
  0
LINE
  5
294
330
1C7
100
AcDbEntity
  8
0
  6
Continuous
 62
     7
420
 16777215
100
AcDbLine
 10
14473.907227
 20
-7002.642578
 30
0.0
 11
14465.477539
 21
-7011.072266
 31
0.0
  0
LINE
  5
295
330
1C7
100
AcDbEntity
  8
0
  6
Continuous
 62
     7
420
 16777215
100
AcDbLine
 10
14466.145508
 20
-7011.072266
 30
0.0
 11
14474.032227
 21
-7003.186035
 31
0.0
  0
LINE
  5
296
330
1C7
100
AcDbEntity
  8
0
  6
Continuous
 62
     7
420
 16777215
100
AcDbLine
 10
14489.96875
 20
-6987.249512
 30
0.0
 11
14500.657227
 21
-6976.561035
 31
0.0
  0
LINE
  5
297
330
1C7
100
AcDbEntity
  8
0
  6
Continuous
 62
     7
420
 16777215
100
AcDbLine
 10
14500.948242
 20
-6976.937988
 30
0.0
 11
14489.825195
 21
-6988.061035
 31
0.0
  0
LINE
  5
298
330
1C7
100
AcDbEntity
  8
0
  6
Continuous
 62
     7
420
 16777215
100
AcDbLine
 10
14474.700195
 20
-7003.186035
 30
0.0
 11
14466.813477
 21
-7011.072266
 31
0.0
  0
LINE
  5
299
330
1C7
100
AcDbEntity
  8
0
  6
Continuous
 62
     7
420
 16777215
100
AcDbLine
 10
14467.482422
 20
-7011.072266
 30
0.0
 11
14475.368164
 21
-7003.186035
 31
0.0
  0
LINE
  5
29A
330
1C7
100
AcDbEntity
  8
0
  6
Continuous
 62
     7
420
 16777215
100
AcDbLine
 10
14489.682617
 20
-6988.87207
 30
0.0
 11
14501.227539
 21
-6977.327148
 31
0.0
  0
LINE
  5
29B
330
1C7
100
AcDbEntity
  8
0
  6
Continuous
 62
     7
420
 16777215
100
AcDbLine
 10
14501.493164
 20
-6977.729492
 30
0.0
 11
14489.539062
 21
-6989.683594
 31
0.0
  0
LINE
  5
29C
330
1C7
100
AcDbEntity
  8
0
  6
Continuous
 62
     7
420
 16777215
100
AcDbLine
 10
14476.037109
 20
-7003.186035
 30
0.0
 11
14468.150391
 21
-7011.072266
 31
0.0
  0
LINE
  5
29D
330
1C7
100
AcDbEntity
  8
0
  6
Continuous
 62
     7
420
 16777215
100
AcDbLine
 10
14468.818359
 20
-7011.072266
 30
0.0
 11
14476.705078
 21
-7003.186035
 31
0.0
  0
LINE
  5
29E
330
1C7
100
AcDbEntity
  8
0
  6
Continuous
 62
     7
420
 16777215
100
AcDbLine
 10
14489.396484
 20
-6990.494629
 30
0.0
 11
14501.74707
 21
-6978.144043
 31
0.0
  0
LINE
  5
29F
330
1C7
100
AcDbEntity
  8
0
  6
Continuous
 62
     7
420
 16777215
100
AcDbLine
 10
14501.986328
 20
-6978.572266
 30
0.0
 11
14489.25293
 21
-6991.306152
 31
0.0
  0
LINE
  5
2A0
330
1C7
100
AcDbEntity
  8
0
  6
Continuous
 62
     7
420
 16777215
100
AcDbLine
 10
14477.373047
 20
-7003.186035
 30
0.0
 11
14469.486328
 21
-7011.072266
 31
0.0
  0
LINE
  5
2A1
330
1C7
100
AcDbEntity
  8
0
  6
Continuous
 62
     7
420
 16777215
100
AcDbLine
 10
14470.155273
 20
-7011.072266
 30
0.0
 11
14478.041016
 21
-7003.186035
 31
0.0
  0
LINE
  5
2A2
330
1C7
100
AcDbEntity
  8
0
  6
Continuous
 62
     7
420
 16777215
100
AcDbLine
 10
14489.110352
 20
-6992.117188
 30
0.0
 11
14502.212891
 21
-6979.01416
 31
0.0
  0
LINE
  5
2A3
330
1C7
100
AcDbEntity
  8
0
  6
Continuous
 62
     7
420
 16777215
100
AcDbLine
 10
14502.424805
 20
-6979.470215
 30
0.0
 11
14488.966797
 21
-6992.928223
 31
0.0
  0
LINE
  5
2A4
330
1C7
100
AcDbEntity
  8
0
  6
Continuous
 62
     7
420
 16777215
100
AcDbLine
 10
14478.709961
 20
-7003.186035
 30
0.0
 11
14470.823242
 21
-7011.072266
 31
0.0
  0
LINE
  5
2A5
330
1C7
100
AcDbEntity
  8
0
  6
Continuous
 62
     7
420
 16777215
100
AcDbLine
 10
14471.491211
 20
-7011.072266
 30
0.0
 11
14479.37793
 21
-7003.186035
 31
0.0
  0
LINE
  5
2A6
330
1C7
100
AcDbEntity
  8
0
  6
Continuous
 62
     7
420
 16777215
100
AcDbLine
 10
14488.824219
 20
-6993.739746
 30
0.0
 11
14502.62207
 21
-6979.941406
 31
0.0
  0
LINE
  5
2A7
330
1C7
100
AcDbEntity
  8
0
  6
Continuous
 62
     7
420
 16777215
100
AcDbLine
 10
14502.803711
 20
-6980.427734
 30
0.0
 11
14488.680664
 21
-6994.550781
 31
0.0
  0
LINE
  5
2A8
330
1C7
100
AcDbEntity
  8
0
  6
Continuous
 62
     7
420
 16777215
100
AcDbLine
 10
14480.045898
 20
-7003.186035
 30
0.0
 11
14472.15918
 21
-7011.072266
 31
0.0
  0
LINE
  5
2A9
330
1C7
100
AcDbEntity
  8
0
  6
Continuous
 62
     7
420
 16777215
100
AcDbLine
 10
14472.828125
 20
-7011.072266
 30
0.0
 11
14480.71582
 21
-7003.184082
 31
0.0
  0
LINE
  5
2AA
330
1C7
100
AcDbEntity
  8
0
  6
Continuous
 62
     7
420
 16777215
100
AcDbLine
 10
14488.538086
 20
-6995.362305
 30
0.0
 11
14502.969727
 21
-6980.930664
 31
0.0
  0
LINE
  5
2AB
330
1C7
100
AcDbEntity
  8
0
  6
Continuous
 62
     7
420
 16777215
100
AcDbLine
 10
14503.117188
 20
-6981.451172
 30
0.0
 11
14488.394531
 21
-6996.17334
 31
0.0
  0
LINE
  5
2AC
330
1C7
100
AcDbEntity
  8
0
  6
Continuous
 62
     7
420
 16777215
100
AcDbLine
 10
14481.432617
 20
-7003.135254
 30
0.0
 11
14473.496094
 21
-7011.072266
 31
0.0
  0
LINE
  5
2AD
330
1C7
100
AcDbEntity
  8
0
  6
Continuous
 62
     7
420
 16777215
100
AcDbLine
 10
14474.164062
 20
-7011.072266
 30
0.0
 11
14482.234375
 21
-7003.001953
 31
0.0
  0
LINE
  5
2AE
330
1C7
100
AcDbEntity
  8
0
  6
Continuous
 62
     7
420
 16777215
100
AcDbLine
 10
14488.243164
 20
-6996.993164
 30
0.0
 11
14503.24707
 21
-6981.989746
 31
0.0
  0
LINE
  5
2AF
330
1C7
100
AcDbEntity
  8
0
  6
Continuous
 62
     7
420
 16777215
100
AcDbLine
 10
14503.355469
 20
-6982.549316
 30
0.0
 11
14487.976562
 21
-6997.928711
 31
0.0
  0
LINE
  5
2B0
330
1C7
100
AcDbEntity
  8
0
  6
Continuous
 62
     7
420
 16777215
100
AcDbLine
 10
14483.169922
 20
-7002.734863
 30
0.0
 11
14474.832031
 21
-7011.072266
 31
0.0
  0
LINE
  5
2B1
330
1C7
100
AcDbEntity
  8
0
  6
Continuous
 62
     7
420
 16777215
100
AcDbLine
 10
14475.500977
 20
-7011.072266
 30
0.0
 11
14484.390625
 21
-7002.182617
 31
0.0
  0
LINE
  5
2B2
330
1C7
100
AcDbEntity
  8
0
  6
Continuous
 62
     7
420
 16777215
100
AcDbLine
 10
14487.423828
 20
-6999.148926
 30
0.0
 11
14503.442383
 21
-6983.130371
 31
0.0
  0
LINE
  5
2B3
330
1C7
100
AcDbEntity
  8
0
  6
Continuous
 62
     7
420
 16777215
100
AcDbLine
 10
14503.504883
 20
-6983.73584
 30
0.0
 11
14476.168945
 21
-7011.072266
 31
0.0
  0
LINE
  5
2B4
330
1C7
100
AcDbEntity
  8
0
  6
Continuous
 62
     7
420
 16777215
100
AcDbLine
 10
14476.836914
 20
-7011.072266
 30
0.0
 11
14503.541016
 21
-6984.368652
 31
0.0
  0
LINE
  5
2B5
330
1C7
100
AcDbEntity
  8
0
  6
Continuous
 62
     7
420
 16777215
100
AcDbLine
 10
14503.544922
 20
-6985.032715
 30
0.0
 11
14477.504883
 21
-7011.072266
 31
0.0
  0
LINE
  5
2B6
330
1C7
100
AcDbEntity
  8
0
  6
Continuous
 62
     7
420
 16777215
100
AcDbLine
 10
14478.173828
 20
-7011.072266
 30
0.0
 11
14503.512695
 21
-6985.73291
 31
0.0
  0
LINE
  5
2B7
330
1C7
100
AcDbEntity
  8
0
  6
Continuous
 62
     7
420
 16777215
100
AcDbLine
 10
14503.4375
 20
-6986.476562
 30
0.0
 11
14478.841797
 21
-7011.072266
 31
0.0
  0
LINE
  5
2B8
330
1C7
100
AcDbEntity
  8
0
  6
Continuous
 62
     7
420
 16777215
100
AcDbLine
 10
14479.509766
 20
-7011.072266
 30
0.0
 11
14503.311523
 21
-6987.270996
 31
0.0
  0
LINE
  5
2B9
330
1C7
100
AcDbEntity
  8
0
  6
Continuous
 62
     7
420
 16777215
100
AcDbLine
 10
14503.167969
 20
-6988.082031
 30
0.0
 11
14480.177734
 21
-7011.072266
 31
0.0
  0
LINE
  5
2BA
330
1C7
100
AcDbEntity
  8
0
  6
Continuous
 62
     7
420
 16777215
100
AcDbLine
 10
14480.84668
 20
-7011.072266
 30
0.0
 11
14503.025391
 21
-6988.893555
 31
0.0
  0
LINE
  5
2BB
330
1C7
100
AcDbEntity
  8
0
  6
Continuous
 62
     7
420
 16777215
100
AcDbLine
 10
14502.881836
 20
-6989.70459
 30
0.0
 11
14481.514648
 21
-7011.072266
 31
0.0
  0
LINE
  5
2BC
330
1C7
100
AcDbEntity
  8
0
  6
Continuous
 62
     7
420
 16777215
100
AcDbLine
 10
14482.195312
 20
-7011.060059
 30
0.0
 11
14502.739258
 21
-6990.516113
 31
0.0
  0
LINE
  5
2BD
330
1C7
100
AcDbEntity
  8
0
  6
Continuous
 62
     7
420
 16777215
100
AcDbLine
 10
14502.59668
 20
-6991.327148
 30
0.0
 11
14482.899414
 21
-7011.023438
 31
0.0
  0
LINE
  5
2BE
330
1C7
100
AcDbEntity
  8
0
  6
Continuous
 62
     7
420
 16777215
100
AcDbLine
 10
14483.630859
 20
-7010.960938
 30
0.0
 11
14502.453125
 21
-6992.138672
 31
0.0
  0
LINE
  5
2BF
330
1C7
100
AcDbEntity
  8
0
  6
Continuous
 62
     7
420
 16777215
100
AcDbLine
 10
14502.310547
 20
-6992.949707
 30
0.0
 11
14484.391602
 21
-7010.868164
 31
0.0
  0
LINE
  5
2C0
330
1C7
100
AcDbEntity
  8
0
  6
Continuous
 62
     7
420
 16777215
100
AcDbLine
 10
14485.1875
 20
-7010.740723
 30
0.0
 11
14502.166992
 21
-6993.76123
 31
0.0
  0
LINE
  5
2C1
330
1C7
100
AcDbEntity
  8
0
  6
Continuous
 62
     7
420
 16777215
100
AcDbLine
 10
14501.999023
 20
-6994.597168
 30
0.0
 11
14486.023438
 21
-7010.573242
 31
0.0
  0
LINE
  5
2C2
330
1C7
100
AcDbEntity
  8
0
  6
Continuous
 62
     7
420
 16777215
100
AcDbLine
 10
14486.908203
 20
-7010.356445
 30
0.0
 11
14501.782227
 21
-6995.481934
 31
0.0
  0
LINE
  5
2C3
330
1C7
100
AcDbEntity
  8
0
  6
Continuous
 62
     7
420
 16777215
100
AcDbLine
 10
14501.505859
 20
-6996.426758
 30
0.0
 11
14487.852539
 21
-7010.07959
 31
0.0
  0
LINE
  5
2C4
330
1C7
100
AcDbEntity
  8
0
  6
Continuous
 62
     7
420
 16777215
100
AcDbLine
 10
14488.876953
 20
-7009.724121
 30
0.0
 11
14501.150391
 21
-6997.450684
 31
0.0
  0
LINE
  5
2C5
330
1C7
100
AcDbEntity
  8
0
  6
Continuous
 62
     7
420
 16777215
100
AcDbLine
 10
14500.685547
 20
-6998.583496
 30
0.0
 11
14490.009766
 21
-7009.259766
 31
0.0
  0
LINE
  5
2C6
330
1C7
100
AcDbEntity
  8
0
  6
Continuous
 62
     7
420
 16777215
100
AcDbLine
 10
14491.310547
 20
-7008.626953
 30
0.0
 11
14500.052734
 21
-6999.884277
 31
0.0
  0
LINE
  5
2C7
330
1C7
100
AcDbEntity
  8
0
  6
Continuous
 62
     7
420
 16777215
100
AcDbLine
 10
14499.097656
 20
-7001.507324
 30
0.0
 11
14492.933594
 21
-7007.671875
 31
0.0
  0
LINE
  5
2C8
330
1C7
100
AcDbEntity
  8
0
  6
Continuous
 62
     7
420
 16777215
100
AcDbLine
 10
14400.15625
 20
-7010.908691
 30
0.0
 11
14416.360352
 21
-6994.70459
 31
0.0
  0
LINE
  5
2C9
330
1C7
100
AcDbEntity
  8
0
  6
Continuous
 62
     7
420
 16777215
100
AcDbLine
 10
14438.366211
 20
-6972.698242
 30
0.0
 11
14439.424805
 21
-6971.640137
 31
0.0
  0
LINE
  5
2CA
330
1C7
100
AcDbEntity
  8
0
  6
Continuous
 62
     7
420
 16777215
100
AcDbLine
 10
14416.50293
 20
-6993.893066
 30
0.0
 11
14400.298828
 21
-7010.097168
 31
0.0
  0
LINE
  5
2CB
330
1C7
100
AcDbEntity
  8
0
  6
Continuous
 62
     7
420
 16777215
100
AcDbLine
 10
14400.442383
 20
-7009.286133
 30
0.0
 11
14416.646484
 21
-6993.082031
 31
0.0
  0
LINE
  5
2CC
330
1C7
100
AcDbEntity
  8
0
  6
Continuous
 62
     7
420
 16777215
100
AcDbLine
 10
14416.789062
 20
-6992.270508
 30
0.0
 11
14400.584961
 21
-7008.474609
 31
0.0
  0
LINE
  5
2CD
330
1C7
100
AcDbEntity
  8
0
  6
Continuous
 62
     7
420
 16777215
100
AcDbLine
 10
14400.728516
 20
-7007.663574
 30
0.0
 11
14416.932617
 21
-6991.459473
 31
0.0
  0
LINE
  5
2CE
330
1C7
100
AcDbEntity
  8
0
  6
Continuous
 62
     7
420
 16777215
100
AcDbLine
 10
14417.075195
 20
-6990.648438
 30
0.0
 11
14400.871094
 21
-7006.852051
 31
0.0
  0
LINE
  5
2CF
330
1C7
100
AcDbEntity
  8
0
  6
Continuous
 62
     7
420
 16777215
100
AcDbLine
 10
14401.014648
 20
-7006.041016
 30
0.0
 11
14417.21875
 21
-6989.836914
 31
0.0
  0
LINE
  5
2D0
330
1C7
100
AcDbEntity
  8
0
  6
Continuous
 62
     7
420
 16777215
100
AcDbLine
 10
14417.361328
 20
-6989.025879
 30
0.0
 11
14401.157227
 21
-7005.229492
 31
0.0
  0
LINE
  5
2D1
330
1C7
100
AcDbEntity
  8
0
  6
Continuous
 62
     7
420
 16777215
100
AcDbLine
 10
14401.300781
 20
-7004.418457
 30
0.0
 11
14417.504883
 21
-6988.214355
 31
0.0
  0
LINE
  5
2D2
330
1C7
100
AcDbEntity
  8
0
  6
Continuous
 62
     7
420
 16777215
100
AcDbLine
 10
14417.647461
 20
-6987.40332
 30
0.0
 11
14401.443359
 21
-7003.606934
 31
0.0
  0
LINE
  5
2D3
330
1C7
100
AcDbEntity
  8
0
  6
Continuous
 62
     7
420
 16777215
100
AcDbLine
 10
14401.586914
 20
-7002.795898
 30
0.0
 11
14417.791016
 21
-6986.591797
 31
0.0
  0
LINE
  5
2D4
330
1C7
100
AcDbEntity
  8
0
  6
Continuous
 62
     7
420
 16777215
100
AcDbLine
 10
14417.933594
 20
-6985.780762
 30
0.0
 11
14401.729492
 21
-7001.984863
 31
0.0
  0
LINE
  5
2D5
330
1C7
100
AcDbEntity
  8
0
  6
Continuous
 62
     7
420
 16777215
100
AcDbLine
 10
14401.873047
 20
-7001.17334
 30
0.0
 11
14418.076172
 21
-6984.969238
 31
0.0
  0
LINE
  5
2D6
330
1C7
100
AcDbEntity
  8
0
  6
Continuous
 62
     7
420
 16777215
100
AcDbLine
 10
14418.219727
 20
-6984.158203
 30
0.0
 11
14402.015625
 21
-7000.362305
 31
0.0
  0
LINE
  5
2D7
330
1C7
100
AcDbEntity
  8
0
  6
Continuous
 62
     7
420
 16777215
100
AcDbLine
 10
14402.15918
 20
-6999.550781
 30
0.0
 11
14418.362305
 21
-6983.34668
 31
0.0
  0
LINE
  5
2D8
330
1C7
100
AcDbEntity
  8
0
  6
Continuous
 62
     7
420
 16777215
100
AcDbLine
 10
14418.505859
 20
-6982.535645
 30
0.0
 11
14402.301758
 21
-6998.739746
 31
0.0
  0
LINE
  5
2D9
330
1C7
100
AcDbEntity
  8
0
  6
Continuous
 62
     7
420
 16777215
100
AcDbLine
 10
14402.445312
 20
-6997.928223
 30
0.0
 11
14418.648438
 21
-6981.724121
 31
0.0
  0
LINE
  5
2DA
330
1C7
100
AcDbEntity
  8
0
  6
Continuous
 62
     7
420
 16777215
100
AcDbLine
 10
14418.791992
 20
-6980.913086
 30
0.0
 11
14402.587891
 21
-6997.117188
 31
0.0
  0
LINE
  5
2DB
330
1C7
100
AcDbEntity
  8
0
  6
Continuous
 62
     7
420
 16777215
100
AcDbLine
 10
14402.730469
 20
-6996.305664
 30
0.0
 11
14418.93457
 21
-6980.101562
 31
0.0
  0
LINE
  5
2DC
330
1C7
100
AcDbEntity
  8
0
  6
Continuous
 62
     7
420
 16777215
100
AcDbLine
 10
14419.078125
 20
-6979.290527
 30
0.0
 11
14402.874023
 21
-6995.494629
 31
0.0
  0
LINE
  5
2DD
330
1C7
100
AcDbEntity
  8
0
  6
Continuous
 62
     7
420
 16777215
100
AcDbLine
 10
14403.016602
 20
-6994.683105
 30
0.0
 11
14419.220703
 21
-6978.479492
 31
0.0
  0
LINE
  5
2DE
330
1C7
100
AcDbEntity
  8
0
  6
Continuous
 62
     7
420
 16777215
100
AcDbLine
 10
14419.364258
 20
-6977.667969
 30
0.0
 11
14403.160156
 21
-6993.87207
 31
0.0
  0
LINE
  5
2DF
330
1C7
100
AcDbEntity
  8
0
  6
Continuous
 62
     7
420
 16777215
100
AcDbLine
 10
14403.302734
 20
-6993.060547
 30
0.0
 11
14419.506836
 21
-6976.856934
 31
0.0
  0
LINE
  5
2E0
330
1C7
100
AcDbEntity
  8
0
  6
Continuous
 62
     7
420
 16777215
100
AcDbLine
 10
14419.650391
 20
-6976.04541
 30
0.0
 11
14403.446289
 21
-6992.249512
 31
0.0
  0
LINE
  5
2E1
330
1C7
100
AcDbEntity
  8
0
  6
Continuous
 62
     7
420
 16777215
100
AcDbLine
 10
14403.588867
 20
-6991.437988
 30
0.0
 11
14419.792969
 21
-6975.234375
 31
0.0
  0
LINE
  5
2E2
330
1C7
100
AcDbEntity
  8
0
  6
Continuous
 62
     7
420
 16777215
100
AcDbLine
 10
14419.936523
 20
-6974.422852
 30
0.0
 11
14403.732422
 21
-6990.626953
 31
0.0
  0
LINE
  5
2E3
330
1C7
100
AcDbEntity
  8
0
  6
Continuous
 62
     7
420
 16777215
100
AcDbLine
 10
14403.875
 20
-6989.815918
 30
0.0
 11
14420.079102
 21
-6973.611816
 31
0.0
  0
LINE
  5
2E4
330
1C7
100
AcDbEntity
  8
0
  6
Continuous
 62
     7
420
 16777215
100
AcDbLine
 10
14420.222656
 20
-6972.800293
 30
0.0
 11
14404.018555
 21
-6989.004395
 31
0.0
  0
LINE
  5
2E5
330
1C7
100
AcDbEntity
  8
0
  6
Continuous
 62
     7
420
 16777215
100
AcDbLine
 10
14404.161133
 20
-6988.193359
 30
0.0
 11
14420.365234
 21
-6971.989258
 31
0.0
  0
LINE
  5
2E6
330
1C7
100
AcDbEntity
  8
0
  6
Continuous
 62
     7
420
 16777215
100
AcDbLine
 10
14420.045898
 20
-6971.640137
 30
0.0
 11
14404.304688
 21
-6987.381836
 31
0.0
  0
LINE
  5
2E7
330
1C7
100
AcDbEntity
  8
0
  6
Continuous
 62
     7
420
 16777215
100
AcDbLine
 10
14404.447266
 20
-6986.570801
 30
0.0
 11
14419.37793
 21
-6971.640137
 31
0.0
  0
LINE
  5
2E8
330
1C7
100
AcDbEntity
  8
0
  6
Continuous
 62
     7
420
 16777215
100
AcDbLine
 10
14418.709961
 20
-6971.640137
 30
0.0
 11
14404.59082
 21
-6985.759277
 31
0.0
  0
LINE
  5
2E9
330
1C7
100
AcDbEntity
  8
0
  6
Continuous
 62
     7
420
 16777215
100
AcDbLine
 10
14404.733398
 20
-6984.948242
 30
0.0
 11
14418.041016
 21
-6971.640137
 31
0.0
  0
LINE
  5
2EA
330
1C7
100
AcDbEntity
  8
0
  6
Continuous
 62
     7
420
 16777215
100
AcDbLine
 10
14417.373047
 20
-6971.640137
 30
0.0
 11
14404.876953
 21
-6984.136719
 31
0.0
  0
LINE
  5
2EB
330
1C7
100
AcDbEntity
  8
0
  6
Continuous
 62
     7
420
 16777215
100
AcDbLine
 10
14405.019531
 20
-6983.325684
 30
0.0
 11
14416.705078
 21
-6971.640137
 31
0.0
  0
LINE
  5
2EC
330
1C7
100
AcDbEntity
  8
0
  6
Continuous
 62
     7
420
 16777215
100
AcDbLine
 10
14416.037109
 20
-6971.640137
 30
0.0
 11
14405.163086
 21
-6982.51416
 31
0.0
  0
LINE
  5
2ED
330
1C7
100
AcDbEntity
  8
0
  6
Continuous
 62
     7
420
 16777215
100
AcDbLine
 10
14405.305664
 20
-6981.703125
 30
0.0
 11
14415.368164
 21
-6971.640137
 31
0.0
  0
LINE
  5
2EE
330
1C7
100
AcDbEntity
  8
0
  6
Continuous
 62
     7
420
 16777215
100
AcDbLine
 10
14414.700195
 20
-6971.640137
 30
0.0
 11
14405.449219
 21
-6980.891602
 31
0.0
  0
LINE
  5
2EF
330
1C7
100
AcDbEntity
  8
0
  6
Continuous
 62
     7
420
 16777215
100
AcDbLine
 10
14405.591797
 20
-6980.080566
 30
0.0
 11
14414.032227
 21
-6971.640137
 31
0.0
  0
LINE
  5
2F0
330
1C7
100
AcDbEntity
  8
0
  6
Continuous
 62
     7
420
 16777215
100
AcDbLine
 10
14413.364258
 20
-6971.640137
 30
0.0
 11
14405.735352
 21
-6979.269043
 31
0.0
  0
LINE
  5
2F1
330
1C7
100
AcDbEntity
  8
0
  6
Continuous
 62
     7
420
 16777215
100
AcDbLine
 10
14405.87793
 20
-6978.458008
 30
0.0
 11
14412.695312
 21
-6971.640137
 31
0.0
  0
LINE
  5
2F2
330
1C7
100
AcDbEntity
  8
0
  6
Continuous
 62
     7
420
 16777215
100
AcDbLine
 10
14412.027344
 20
-6971.640137
 30
0.0
 11
14406.021484
 21
-6977.646484
 31
0.0
  0
LINE
  5
2F3
330
1C7
100
AcDbEntity
  8
0
  6
Continuous
 62
     7
420
 16777215
100
AcDbLine
 10
14406.164062
 20
-6976.835449
 30
0.0
 11
14411.359375
 21
-6971.640137
 31
0.0
  0
LINE
  5
2F4
330
1C7
100
AcDbEntity
  8
0
  6
Continuous
 62
     7
420
 16777215
100
AcDbLine
 10
14410.691406
 20
-6971.640137
 30
0.0
 11
14406.306641
 21
-6976.024414
 31
0.0
  0
LINE
  5
2F5
330
1C7
100
AcDbEntity
  8
0
  6
Continuous
 62
     7
420
 16777215
100
AcDbLine
 10
14406.450195
 20
-6975.212891
 30
0.0
 11
14410.022461
 21
-6971.640137
 31
0.0
  0
LINE
  5
2F6
330
1C7
100
AcDbEntity
  8
0
  6
Continuous
 62
     7
420
 16777215
100
AcDbLine
 10
14409.354492
 20
-6971.640137
 30
0.0
 11
14406.592773
 21
-6974.401855
 31
0.0
  0
LINE
  5
2F7
330
1C7
100
AcDbEntity
  8
0
  6
Continuous
 62
     7
420
 16777215
100
AcDbLine
 10
14406.736328
 20
-6973.590332
 30
0.0
 11
14408.686523
 21
-6971.640137
 31
0.0
  0
LINE
  5
2F8
330
1C7
100
AcDbEntity
  8
0
  6
Continuous
 62
     7
420
 16777215
100
AcDbLine
 10
14408.018555
 20
-6971.640137
 30
0.0
 11
14406.878906
 21
-6972.779297
 31
0.0
  0
LINE
  5
2F9
330
1C7
100
AcDbEntity
  8
0
  6
Continuous
 62
     7
420
 16777215
100
AcDbLine
 10
14407.022461
 20
-6971.967773
 30
0.0
 11
14407.349609
 21
-6971.640137
 31
0.0
  0
ENDBLK
  5
2FC
330
1C7
100
AcDbEntity
  8
0
100
AcDbBlockEnd
  0
BLOCK
  5
371
330
2FD
100
AcDbEntity
  8
0
100
AcDbBlockBegin
  2
.TD_XHATCH_4
 70
     0
 10
14501.638672
 20
-7011.071777
 30
0.0
  3
.TD_XHATCH_4
  1

  0
LINE
  5
2FE
330
2FD
100
AcDbEntity
  8
0
  6
Continuous
 62
     7
420
 16777215
100
AcDbLine
 10
14505.787109
 20
-7007.515137
 30
0.0
 11
14514.628906
 21
-6998.672852
 31
0.0
  0
LINE
  5
2FF
330
2FD
100
AcDbEntity
  8
0
  6
Continuous
 62
     7
420
 16777215
100
AcDbLine
 10
14530.171875
 20
-6983.129395
 30
0.0
 11
14538.724609
 21
-6974.577148
 31
0.0
  0
LINE
  5
300
330
2FD
100
AcDbEntity
  8
0
  6
Continuous
 62
     7
420
 16777215
100
AcDbLine
 10
14539.087891
 20
-6974.882324
 30
0.0
 11
14530.398438
 21
-6983.571777
 31
0.0
  0
LINE
  5
301
330
2FD
100
AcDbEntity
  8
0
  6
Continuous
 62
     7
420
 16777215
100
AcDbLine
 10
14514.826172
 20
-6999.144043
 30
0.0
 11
14506.137695
 21
-7007.83252
 31
0.0
  0
LINE
  5
302
330
2FD
100
AcDbEntity
  8
0
  6
Continuous
 62
     7
420
 16777215
100
AcDbLine
 10
14506.5
 20
-7008.137695
 30
0.0
 11
14515.051758
 21
-6999.585938
 31
0.0
  0
LINE
  5
303
330
2FD
100
AcDbEntity
  8
0
  6
Continuous
 62
     7
420
 16777215
100
AcDbLine
 10
14530.594727
 20
-6984.042969
 30
0.0
 11
14539.438477
 21
-6975.199707
 31
0.0
  0
LINE
  5
304
330
2FD
100
AcDbEntity
  8
0
  6
Continuous
 62
     7
420
 16777215
100
AcDbLine
 10
14539.777344
 20
-6975.529297
 30
0.0
 11
14530.759766
 21
-6984.546387
 31
0.0
  0
LINE
  5
305
330
2FD
100
AcDbEntity
  8
0
  6
Continuous
 62
     7
420
 16777215
100
AcDbLine
 10
14515.305664
 20
-7000.000977
 30
0.0
 11
14506.875977
 21
-7008.430664
 31
0.0
  0
LINE
  5
306
330
2FD
100
AcDbEntity
  8
0
  6
Continuous
 62
     7
420
 16777215
100
AcDbLine
 10
14507.262695
 20
-7008.711426
 30
0.0
 11
14515.583984
 21
-7000.390625
 31
0.0
  0
LINE
  5
307
330
2FD
100
AcDbEntity
  8
0
  6
Continuous
 62
     7
420
 16777215
100
AcDbLine
 10
14530.898438
 20
-6985.076172
 30
0.0
 11
14540.103516
 21
-6975.871094
 31
0.0
  0
LINE
  5
308
330
2FD
100
AcDbEntity
  8
0
  6
Continuous
 62
     7
420
 16777215
100
AcDbLine
 10
14540.417969
 20
-6976.224609
 30
0.0
 11
14531.020508
 21
-6985.62207
 31
0.0
  0
LINE
  5
309
330
2FD
100
AcDbEntity
  8
0
  6
Continuous
 62
     7
420
 16777215
100
AcDbLine
 10
14515.887695
 20
-7000.755371
 30
0.0
 11
14507.663086
 21
-7008.979492
 31
0.0
  0
LINE
  5
30A
330
2FD
100
AcDbEntity
  8
0
  6
Continuous
 62
     7
420
 16777215
100
AcDbLine
 10
14508.076172
 20
-7009.234863
 30
0.0
 11
14516.214844
 21
-7001.095703
 31
0.0
  0
LINE
  5
30B
330
2FD
100
AcDbEntity
  8
0
  6
Continuous
 62
     7
420
 16777215
100
AcDbLine
 10
14531.125
 20
-6986.185547
 30
0.0
 11
14540.720703
 21
-6976.590332
 31
0.0
  0
LINE
  5
30C
330
2FD
100
AcDbEntity
  8
0
  6
Continuous
 62
     7
420
 16777215
100
AcDbLine
 10
14541.010742
 20
-6976.968262
 30
0.0
 11
14531.211914
 21
-6986.76709
 31
0.0
  0
LINE
  5
30D
330
2FD
100
AcDbEntity
  8
0
  6
Continuous
 62
     7
420
 16777215
100
AcDbLine
 10
14516.566406
 20
-7001.412598
 30
0.0
 11
14508.501953
 21
-7009.477051
 31
0.0
  0
LINE
  5
30E
330
2FD
100
AcDbEntity
  8
0
  6
Continuous
 62
     7
420
 16777215
100
AcDbLine
 10
14508.942383
 20
-7009.705078
 30
0.0
 11
14516.942383
 21
-7001.70459
 31
0.0
  0
LINE
  5
30F
330
2FD
100
AcDbEntity
  8
0
  6
Continuous
 62
     7
420
 16777215
100
AcDbLine
 10
14531.27832
 20
-6987.369141
 30
0.0
 11
14541.289062
 21
-6977.358398
 31
0.0
  0
LINE
  5
310
330
2FD
100
AcDbEntity
  8
0
  6
Continuous
 62
     7
420
 16777215
100
AcDbLine
 10
14541.553711
 20
-6977.761719
 30
0.0
 11
14531.322266
 21
-6987.993164
 31
0.0
  0
LINE
  5
311
330
2FD
100
AcDbEntity
  8
0
  6
Continuous
 62
     7
420
 16777215
100
AcDbLine
 10
14517.34375
 20
-7001.97168
 30
0.0
 11
14509.396484
 21
-7009.919434
 31
0.0
  0
LINE
  5
312
330
2FD
100
AcDbEntity
  8
0
  6
Continuous
 62
     7
420
 16777215
100
AcDbLine
 10
14509.912109
 20
-7010.071777
 30
0.0
 11
14517.770508
 21
-7002.212891
 31
0.0
  0
LINE
  5
313
330
2FD
100
AcDbEntity
  8
0
  6
Continuous
 62
     7
420
 16777215
100
AcDbLine
 10
14531.341797
 20
-6988.64209
 30
0.0
 11
14541.806641
 21
-6978.177246
 31
0.0
  0
LINE
  5
314
330
2FD
100
AcDbEntity
  8
0
  6
Continuous
 62
     7
420
 16777215
100
AcDbLine
 10
14542.044922
 20
-6978.606445
 30
0.0
 11
14531.333984
 21
-6989.318359
 31
0.0
  0
LINE
  5
315
330
2FD
100
AcDbEntity
  8
0
  6
Continuous
 62
     7
420
 16777215
100
AcDbLine
 10
14518.225586
 20
-7002.42627
 30
0.0
 11
14510.4375
 21
-7010.214844
 31
0.0
  0
LINE
  5
316
330
2FD
100
AcDbEntity
  8
0
  6
Continuous
 62
     7
420
 16777215
100
AcDbLine
 10
14510.97168
 20
-7010.348633
 30
0.0
 11
14518.710938
 21
-7002.609375
 31
0.0
  0
LINE
  5
317
330
2FD
100
AcDbEntity
  8
0
  6
Continuous
 62
     7
420
 16777215
100
AcDbLine
 10
14531.293945
 20
-6990.025879
 30
0.0
 11
14542.270508
 21
-6979.049805
 31
0.0
  0
LINE
  5
318
330
2FD
100
AcDbEntity
  8
0
  6
Continuous
 62
     7
420
 16777215
100
AcDbLine
 10
14542.481445
 20
-6979.506836
 30
0.0
 11
14531.217773
 21
-6990.770508
 31
0.0
  0
LINE
  5
319
330
2FD
100
AcDbEntity
  8
0
  6
Continuous
 62
     7
420
 16777215
100
AcDbLine
 10
14519.230469
 20
-7002.758301
 30
0.0
 11
14511.515625
 21
-7010.473145
 31
0.0
  0
LINE
  5
31A
330
2FD
100
AcDbEntity
  8
0
  6
Continuous
 62
     7
420
 16777215
100
AcDbLine
 10
14512.069336
 20
-7010.587402
 30
0.0
 11
14519.788086
 21
-7002.869141
 31
0.0
  0
LINE
  5
31B
330
2FD
100
AcDbEntity
  8
0
  6
Continuous
 62
     7
420
 16777215
100
AcDbLine
 10
14531.098633
 20
-6991.558594
 30
0.0
 11
14542.677734
 21
-6979.979004
 31
0.0
  0
LINE
  5
31C
330
2FD
100
AcDbEntity
  8
0
  6
Continuous
 62
     7
420
 16777215
100
AcDbLine
 10
14542.858398
 20
-6980.466797
 30
0.0
 11
14530.924805
 21
-6992.400391
 31
0.0
  0
LINE
  5
31D
330
2FD
100
AcDbEntity
  8
0
  6
Continuous
 62
     7
420
 16777215
100
AcDbLine
 10
14520.391602
 20
-7002.933105
 30
0.0
 11
14512.633789
 21
-7010.690918
 31
0.0
  0
LINE
  5
31E
330
2FD
100
AcDbEntity
  8
0
  6
Continuous
 62
     7
420
 16777215
100
AcDbLine
 10
14513.209961
 20
-7010.783203
 30
0.0
 11
14521.053711
 21
-7002.939453
 31
0.0
  0
LINE
  5
31F
330
2FD
100
AcDbEntity
  8
0
  6
Continuous
 62
     7
420
 16777215
100
AcDbLine
 10
14530.681641
 20
-6993.311523
 30
0.0
 11
14543.022461
 21
-6980.970703
 31
0.0
  0
LINE
  5
320
330
2FD
100
AcDbEntity
  8
0
  6
Continuous
 62
     7
420
 16777215
100
AcDbLine
 10
14543.168945
 20
-6981.492676
 30
0.0
 11
14530.34375
 21
-6994.317871
 31
0.0
  0
LINE
  5
321
330
2FD
100
AcDbEntity
  8
0
  6
Continuous
 62
     7
420
 16777215
100
AcDbLine
 10
14521.793945
 20
-7002.867188
 30
0.0
 11
14513.796875
 21
-7010.864258
 31
0.0
  0
LINE
  5
322
330
2FD
100
AcDbEntity
  8
0
  6
Continuous
 62
     7
420
 16777215
100
AcDbLine
 10
14514.396484
 20
-7010.933105
 30
0.0
 11
14522.65625
 21
-7002.67334
 31
0.0
  0
LINE
  5
323
330
2FD
100
AcDbEntity
  8
0
  6
Continuous
 62
     7
420
 16777215
100
AcDbLine
 10
14529.859375
 20
-6995.469727
 30
0.0
 11
14543.246094
 21
-6982.083984
 31
0.0
  0
LINE
  5
324
330
2FD
100
AcDbEntity
  8
0
  6
Continuous
 62
     7
420
 16777215
100
AcDbLine
 10
14543.301758
 20
-6982.695801
 30
0.0
 11
14529.102539
 21
-6996.89502
 31
0.0
  0
LINE
  5
325
330
2FD
100
AcDbEntity
  8
0
  6
Continuous
 62
     7
420
 16777215
100
AcDbLine
 10
14523.768555
 20
-7002.229004
 30
0.0
 11
14515.008789
 21
-7010.989258
 31
0.0
  0
LINE
  5
326
330
2FD
100
AcDbEntity
  8
0
  6
Continuous
 62
     7
420
 16777215
100
AcDbLine
 10
14515.634766
 20
-7011.031738
 30
0.0
 11
14526.530273
 21
-7000.135742
 31
0.0
  0
LINE
  5
327
330
2FD
100
AcDbEntity
  8
0
  6
Continuous
 62
     7
420
 16777215
100
AcDbLine
 10
14526.912109
 20
-6999.753906
 30
0.0
 11
14543.34375
 21
-6983.321777
 31
0.0
  0
LINE
  5
328
330
2FD
100
AcDbEntity
  8
0
  6
Continuous
 62
     7
420
 16777215
100
AcDbLine
 10
14543.37207
 20
-6983.962402
 30
0.0
 11
14516.274414
 21
-7011.05957
 31
0.0
  0
LINE
  5
329
330
2FD
100
AcDbEntity
  8
0
  6
Continuous
 62
     7
420
 16777215
100
AcDbLine
 10
14516.930664
 20
-7011.071777
 30
0.0
 11
14543.384766
 21
-6984.618164
 31
0.0
  0
LINE
  5
32A
330
2FD
100
AcDbEntity
  8
0
  6
Continuous
 62
     7
420
 16777215
100
AcDbLine
 10
14543.379883
 20
-6985.290527
 30
0.0
 11
14517.603516
 21
-7011.067383
 31
0.0
  0
LINE
  5
32B
330
2FD
100
AcDbEntity
  8
0
  6
Continuous
 62
     7
420
 16777215
100
AcDbLine
 10
14518.293945
 20
-7011.044922
 30
0.0
 11
14543.357422
 21
-6985.981445
 31
0.0
  0
LINE
  5
32C
330
2FD
100
AcDbEntity
  8
0
  6
Continuous
 62
     7
420
 16777215
100
AcDbLine
 10
14543.31543
 20
-6986.691406
 30
0.0
 11
14519.003906
 21
-7011.00293
 31
0.0
  0
LINE
  5
32D
330
2FD
100
AcDbEntity
  8
0
  6
Continuous
 62
     7
420
 16777215
100
AcDbLine
 10
14519.735352
 20
-7010.939453
 30
0.0
 11
14543.251953
 21
-6987.42334
 31
0.0
  0
LINE
  5
32E
330
2FD
100
AcDbEntity
  8
0
  6
Continuous
 62
     7
420
 16777215
100
AcDbLine
 10
14543.165039
 20
-6988.178711
 30
0.0
 11
14520.491211
 21
-7010.852539
 31
0.0
  0
LINE
  5
32F
330
2FD
100
AcDbEntity
  8
0
  6
Continuous
 62
     7
420
 16777215
100
AcDbLine
 10
14521.273438
 20
-7010.738281
 30
0.0
 11
14543.050781
 21
-6988.960938
 31
0.0
  0
LINE
  5
330
330
2FD
100
AcDbEntity
  8
0
  6
Continuous
 62
     7
420
 16777215
100
AcDbLine
 10
14542.907227
 20
-6989.772949
 30
0.0
 11
14522.084961
 21
-7010.594727
 31
0.0
  0
LINE
  5
331
330
2FD
100
AcDbEntity
  8
0
  6
Continuous
 62
     7
420
 16777215
100
AcDbLine
 10
14522.931641
 20
-7010.416504
 30
0.0
 11
14542.729492
 21
-6990.619141
 31
0.0
  0
LINE
  5
332
330
2FD
100
AcDbEntity
  8
0
  6
Continuous
 62
     7
420
 16777215
100
AcDbLine
 10
14542.510742
 20
-6991.505371
 30
0.0
 11
14523.817383
 21
-7010.19873
 31
0.0
  0
LINE
  5
333
330
2FD
100
AcDbEntity
  8
0
  6
Continuous
 62
     7
420
 16777215
100
AcDbLine
 10
14524.750977
 20
-7009.933105
 30
0.0
 11
14542.246094
 21
-6992.438965
 31
0.0
  0
LINE
  5
334
330
2FD
100
AcDbEntity
  8
0
  6
Continuous
 62
     7
420
 16777215
100
AcDbLine
 10
14541.921875
 20
-6993.430664
 30
0.0
 11
14525.743164
 21
-7009.609863
 31
0.0
  0
LINE
  5
335
330
2FD
100
AcDbEntity
  8
0
  6
Continuous
 62
     7
420
 16777215
100
AcDbLine
 10
14526.808594
 20
-7009.212891
 30
0.0
 11
14541.525391
 21
-6994.495605
 31
0.0
  0
LINE
  5
336
330
2FD
100
AcDbEntity
  8
0
  6
Continuous
 62
     7
420
 16777215
100
AcDbLine
 10
14541.030273
 20
-6995.65918
 30
0.0
 11
14527.97168
 21
-7008.717773
 31
0.0
  0
LINE
  5
337
330
2FD
100
AcDbEntity
  8
0
  6
Continuous
 62
     7
420
 16777215
100
AcDbLine
 10
14529.277344
 20
-7008.080078
 30
0.0
 11
14540.392578
 21
-6996.964844
 31
0.0
  0
LINE
  5
338
330
2FD
100
AcDbEntity
  8
0
  6
Continuous
 62
     7
420
 16777215
100
AcDbLine
 10
14539.519531
 20
-6998.506348
 30
0.0
 11
14530.819336
 21
-7007.206543
 31
0.0
  0
LINE
  5
339
330
2FD
100
AcDbEntity
  8
0
  6
Continuous
 62
     7
420
 16777215
100
AcDbLine
 10
14532.908203
 20
-7005.786133
 30
0.0
 11
14538.098633
 21
-7000.595215
 31
0.0
  0
LINE
  5
33A
330
2FD
100
AcDbEntity
  8
0
  6
Continuous
 62
     7
420
 16777215
100
AcDbLine
 10
14538.349609
 20
-6974.283691
 30
0.0
 11
14529.918945
 21
-6982.714355
 31
0.0
  0
LINE
  5
33B
330
2FD
100
AcDbEntity
  8
0
  6
Continuous
 62
     7
420
 16777215
100
AcDbLine
 10
14514.463867
 20
-6998.169922
 30
0.0
 11
14505.448242
 21
-7007.185547
 31
0.0
  0
LINE
  5
33C
330
2FD
100
AcDbEntity
  8
0
  6
Continuous
 62
     7
420
 16777215
100
AcDbLine
 10
14505.121094
 20
-7006.844238
 30
0.0
 11
14514.325195
 21
-6997.640137
 31
0.0
  0
LINE
  5
33D
330
2FD
100
AcDbEntity
  8
0
  6
Continuous
 62
     7
420
 16777215
100
AcDbLine
 10
14529.640625
 20
-6982.324707
 30
0.0
 11
14537.961914
 21
-6974.00293
 31
0.0
  0
LINE
  5
33E
330
2FD
100
AcDbEntity
  8
0
  6
Continuous
 62
     7
420
 16777215
100
AcDbLine
 10
14537.5625
 20
-6973.734863
 30
0.0
 11
14529.336914
 21
-6981.959961
 31
0.0
  0
LINE
  5
33F
330
2FD
100
AcDbEntity
  8
0
  6
Continuous
 62
     7
420
 16777215
100
AcDbLine
 10
14514.203125
 20
-6997.094238
 30
0.0
 11
14504.806641
 21
-7006.490723
 31
0.0
  0
LINE
  5
340
330
2FD
100
AcDbEntity
  8
0
  6
Continuous
 62
     7
420
 16777215
100
AcDbLine
 10
14504.503906
 20
-7006.125
 30
0.0
 11
14514.097656
 21
-6996.530762
 31
0.0
  0
LINE
  5
341
330
2FD
100
AcDbEntity
  8
0
  6
Continuous
 62
     7
420
 16777215
100
AcDbLine
 10
14529.009766
 20
-6981.619141
 30
0.0
 11
14537.149414
 21
-6973.479492
 31
0.0
  0
LINE
  5
342
330
2FD
100
AcDbEntity
  8
0
  6
Continuous
 62
     7
420
 16777215
100
AcDbLine
 10
14536.723633
 20
-6973.237305
 30
0.0
 11
14528.658203
 21
-6981.302246
 31
0.0
  0
LINE
  5
343
330
2FD
100
AcDbEntity
  8
0
  6
Continuous
 62
     7
420
 16777215
100
AcDbLine
 10
14514.011719
 20
-6995.949219
 30
0.0
 11
14504.213867
 21
-7005.74707
 31
0.0
  0
LINE
  5
344
330
2FD
100
AcDbEntity
  8
0
  6
Continuous
 62
     7
420
 16777215
100
AcDbLine
 10
14503.935547
 20
-7005.356934
 30
0.0
 11
14513.945312
 21
-6995.347656
 31
0.0
  0
LINE
  5
345
330
2FD
100
AcDbEntity
  8
0
  6
Continuous
 62
     7
420
 16777215
100
AcDbLine
 10
14528.282227
 20
-6981.009766
 30
0.0
 11
14536.283203
 21
-6973.008789
 31
0.0
  0
LINE
  5
346
330
2FD
100
AcDbEntity
  8
0
  6
Continuous
 62
     7
420
 16777215
100
AcDbLine
 10
14535.830078
 20
-6972.794434
 30
0.0
 11
14527.881836
 21
-6980.742676
 31
0.0
  0
LINE
  5
347
330
2FD
100
AcDbEntity
  8
0
  6
Continuous
 62
     7
420
 16777215
100
AcDbLine
 10
14513.900391
 20
-6994.723633
 30
0.0
 11
14503.669922
 21
-7004.954102
 31
0.0
  0
LINE
  5
348
330
2FD
100
AcDbEntity
  8
0
  6
Continuous
 62
     7
420
 16777215
100
AcDbLine
 10
14503.417969
 20
-7004.538086
 30
0.0
 11
14513.880859
 21
-6994.075195
 31
0.0
  0
LINE
  5
349
330
2FD
100
AcDbEntity
  8
0
  6
Continuous
 62
     7
420
 16777215
100
AcDbLine
 10
14527.455078
 20
-6980.500977
 30
0.0
 11
14535.361328
 21
-6972.594727
 31
0.0
  0
LINE
  5
34A
330
2FD
100
AcDbEntity
  8
0
  6
Continuous
 62
     7
420
 16777215
100
AcDbLine
 10
14534.876953
 20
-6972.410645
 30
0.0
 11
14527.0
 21
-6980.287598
 31
0.0
  0
LINE
  5
34B
330
2FD
100
AcDbEntity
  8
0
  6
Continuous
 62
     7
420
 16777215
100
AcDbLine
 10
14513.888672
 20
-6993.398926
 30
0.0
 11
14503.178711
 21
-7004.108887
 31
0.0
  0
LINE
  5
34C
330
2FD
100
AcDbEntity
  8
0
  6
Continuous
 62
     7
420
 16777215
100
AcDbLine
 10
14502.953125
 20
-7003.666016
 30
0.0
 11
14513.927734
 21
-6992.691406
 31
0.0
  0
LINE
  5
34D
330
2FD
100
AcDbEntity
  8
0
  6
Continuous
 62
     7
420
 16777215
100
AcDbLine
 10
14526.514648
 20
-6980.104492
 30
0.0
 11
14534.376953
 21
-6972.242676
 31
0.0
  0
LINE
  5
34E
330
2FD
100
AcDbEntity
  8
0
  6
Continuous
 62
     7
420
 16777215
100
AcDbLine
 10
14533.859375
 20
-6972.091797
 30
0.0
 11
14525.996094
 21
-6979.955078
 31
0.0
  0
LINE
  5
34F
330
2FD
100
AcDbEntity
  8
0
  6
Continuous
 62
     7
420
 16777215
100
AcDbLine
 10
14514.003906
 20
-6991.947266
 30
0.0
 11
14502.742188
 21
-7003.208984
 31
0.0
  0
LINE
  5
350
330
2FD
100
AcDbEntity
  8
0
  6
Continuous
 62
     7
420
 16777215
100
AcDbLine
 10
14502.545898
 20
-7002.736816
 30
0.0
 11
14514.123047
 21
-6991.159668
 31
0.0
  0
LINE
  5
351
330
2FD
100
AcDbEntity
  8
0
  6
Continuous
 62
     7
420
 16777215
100
AcDbLine
 10
14525.438477
 20
-6979.844238
 30
0.0
 11
14533.323242
 21
-6971.959473
 31
0.0
  0
LINE
  5
352
330
2FD
100
AcDbEntity
  8
0
  6
Continuous
 62
     7
420
 16777215
100
AcDbLine
 10
14532.767578
 20
-6971.847168
 30
0.0
 11
14524.834961
 21
-6979.779785
 31
0.0
  0
LINE
  5
353
330
2FD
100
AcDbEntity
  8
0
  6
Continuous
 62
     7
420
 16777215
100
AcDbLine
 10
14514.296875
 20
-6990.318359
 30
0.0
 11
14502.365234
 21
-7002.249512
 31
0.0
  0
LINE
  5
354
330
2FD
100
AcDbEntity
  8
0
  6
Continuous
 62
     7
420
 16777215
100
AcDbLine
 10
14502.201172
 20
-7001.745117
 30
0.0
 11
14514.539062
 21
-6989.407715
 31
0.0
  0
LINE
  5
355
330
2FD
100
AcDbEntity
  8
0
  6
Continuous
 62
     7
420
 16777215
100
AcDbLine
 10
14524.173828
 20
-6979.772949
 30
0.0
 11
14532.189453
 21
-6971.756836
 31
0.0
  0
LINE
  5
356
330
2FD
100
AcDbEntity
  8
0
  6
Continuous
 62
     7
420
 16777215
100
AcDbLine
 10
14531.587891
 20
-6971.69043
 30
0.0
 11
14523.433594
 21
-6979.844727
 31
0.0
  0
LINE
  5
357
330
2FD
100
AcDbEntity
  8
0
  6
Continuous
 62
     7
420
 16777215
100
AcDbLine
 10
14514.876953
 20
-6988.401855
 30
0.0
 11
14502.054688
 21
-7001.223633
 31
0.0
  0
LINE
  5
358
330
2FD
100
AcDbEntity
  8
0
  6
Continuous
 62
     7
420
 16777215
100
AcDbLine
 10
14501.926758
 20
-7000.683105
 30
0.0
 11
14515.358398
 21
-6987.251465
 31
0.0
  0
LINE
  5
359
330
2FD
100
AcDbEntity
  8
0
  6
Continuous
 62
     7
420
 16777215
100
AcDbLine
 10
14522.572266
 20
-6980.037598
 30
0.0
 11
14530.959961
 21
-6971.650391
 31
0.0
  0
LINE
  5
35A
330
2FD
100
AcDbEntity
  8
0
  6
Continuous
 62
     7
420
 16777215
100
AcDbLine
 10
14530.300781
 20
-6971.641113
 30
0.0
 11
14521.462891
 21
-6980.479004
 31
0.0
  0
LINE
  5
35B
330
2FD
100
AcDbEntity
  8
0
  6
Continuous
 62
     7
420
 16777215
100
AcDbLine
 10
14516.113281
 20
-6985.829102
 30
0.0
 11
14501.819336
 21
-7000.122559
 31
0.0
  0
LINE
  5
35C
330
2FD
100
AcDbEntity
  8
0
  6
Continuous
 62
     7
420
 16777215
100
AcDbLine
 10
14501.734375
 20
-6999.539551
 30
0.0
 11
14518.209961
 21
-6983.063477
 31
0.0
  0
LINE
  5
35D
330
2FD
100
AcDbEntity
  8
0
  6
Continuous
 62
     7
420
 16777215
100
AcDbLine
 10
14518.796875
 20
-6982.476562
 30
0.0
 11
14529.606445
 21
-6971.666992
 31
0.0
  0
LINE
  5
35E
330
2FD
100
AcDbEntity
  8
0
  6
Continuous
 62
     7
420
 16777215
100
AcDbLine
 10
14528.952148
 20
-6971.65332
 30
0.0
 11
14501.673828
 21
-6998.932129
 31
0.0
  0
LINE
  5
35F
330
2FD
100
AcDbEntity
  8
0
  6
Continuous
 62
     7
420
 16777215
100
AcDbLine
 10
14501.640625
 20
-6998.297363
 30
0.0
 11
14528.296875
 21
-6971.640625
 31
0.0
  0
LINE
  5
360
330
2FD
100
AcDbEntity
  8
0
  6
Continuous
 62
     7
420
 16777215
100
AcDbLine
 10
14527.624023
 20
-6971.64502
 30
0.0
 11
14501.638672
 21
-6997.630859
 31
0.0
  0
LINE
  5
361
330
2FD
100
AcDbEntity
  8
0
  6
Continuous
 62
     7
420
 16777215
100
AcDbLine
 10
14501.672852
 20
-6996.927734
 30
0.0
 11
14526.933594
 21
-6971.66748
 31
0.0
  0
LINE
  5
362
330
2FD
100
AcDbEntity
  8
0
  6
Continuous
 62
     7
420
 16777215
100
AcDbLine
 10
14526.223633
 20
-6971.708984
 30
0.0
 11
14501.751953
 21
-6996.181152
 31
0.0
  0
LINE
  5
363
330
2FD
100
AcDbEntity
  8
0
  6
Continuous
 62
     7
420
 16777215
100
AcDbLine
 10
14501.884766
 20
-6995.379883
 30
0.0
 11
14525.492188
 21
-6971.772461
 31
0.0
  0
LINE
  5
364
330
2FD
100
AcDbEntity
  8
0
  6
Continuous
 62
     7
420
 16777215
100
AcDbLine
 10
14524.736328
 20
-6971.859863
 30
0.0
 11
14502.057617
 21
-6994.539062
 31
0.0
  0
LINE
  5
365
330
2FD
100
AcDbEntity
  8
0
  6
Continuous
 62
     7
420
 16777215
100
AcDbLine
 10
14502.170898
 20
-6993.757324
 30
0.0
 11
14523.955078
 21
-6971.973145
 31
0.0
  0
LINE
  5
366
330
2FD
100
AcDbEntity
  8
0
  6
Continuous
 62
     7
420
 16777215
100
AcDbLine
 10
14523.142578
 20
-6972.116699
 30
0.0
 11
14502.314453
 21
-6992.945312
 31
0.0
  0
LINE
  5
367
330
2FD
100
AcDbEntity
  8
0
  6
Continuous
 62
     7
420
 16777215
100
AcDbLine
 10
14502.492188
 20
-6992.099609
 30
0.0
 11
14522.296875
 21
-6972.294434
 31
0.0
  0
LINE
  5
368
330
2FD
100
AcDbEntity
  8
0
  6
Continuous
 62
     7
420
 16777215
100
AcDbLine
 10
14521.411133
 20
-6972.512207
 30
0.0
 11
14502.709961
 21
-6991.213379
 31
0.0
  0
LINE
  5
369
330
2FD
100
AcDbEntity
  8
0
  6
Continuous
 62
     7
420
 16777215
100
AcDbLine
 10
14502.974609
 20
-6990.280273
 30
0.0
 11
14520.477539
 21
-6972.777344
 31
0.0
  0
LINE
  5
36A
330
2FD
100
AcDbEntity
  8
0
  6
Continuous
 62
     7
420
 16777215
100
AcDbLine
 10
14519.486328
 20
-6973.100586
 30
0.0
 11
14503.297852
 21
-6989.289062
 31
0.0
  0
LINE
  5
36B
330
2FD
100
AcDbEntity
  8
0
  6
Continuous
 62
     7
420
 16777215
100
AcDbLine
 10
14503.694336
 20
-6988.224121
 30
0.0
 11
14518.421875
 21
-6973.49707
 31
0.0
  0
LINE
  5
36C
330
2FD
100
AcDbEntity
  8
0
  6
Continuous
 62
     7
420
 16777215
100
AcDbLine
 10
14517.258789
 20
-6973.991211
 30
0.0
 11
14504.188477
 21
-6987.061523
 31
0.0
  0
LINE
  5
36D
330
2FD
100
AcDbEntity
  8
0
  6
Continuous
 62
     7
420
 16777215
100
AcDbLine
 10
14504.825195
 20
-6985.757324
 30
0.0
 11
14515.955078
 21
-6974.627441
 31
0.0
  0
LINE
  5
36E
330
2FD
100
AcDbEntity
  8
0
  6
Continuous
 62
     7
420
 16777215
100
AcDbLine
 10
14514.415039
 20
-6975.499023
 30
0.0
 11
14505.696289
 21
-6984.217773
 31
0.0
  0
LINE
  5
36F
330
2FD
100
AcDbEntity
  8
0
  6
Continuous
 62
     7
420
 16777215
100
AcDbLine
 10
14507.110352
 20
-6982.135254
 30
0.0
 11
14512.333008
 21
-6976.913086
 31
0.0
  0
ENDBLK
  5
372
330
2FD
100
AcDbEntity
  8
0
100
AcDbBlockEnd
  0
BLOCK
  5
412
330
373
100
AcDbEntity
  8
0
100
AcDbBlockBegin
  2
.TD_XHATCH_5
 70
     0
 10
14539.584961
 20
-7011.072266
 30
0.0
  3
.TD_XHATCH_5
  1

  0
LINE
  5
374
330
373
100
AcDbEntity
  8
0
  6
Continuous
 62
     7
420
 16777215
100
AcDbLine
 10
14544.081055
 20
-7006.641113
 30
0.0
 11
14552.792969
 21
-6997.928223
 31
0.0
  0
LINE
  5
375
330
373
100
AcDbEntity
  8
0
  6
Continuous
 62
     7
420
 16777215
100
AcDbLine
 10
14557.037109
 20
-6993.68457
 30
0.0
 11
14562.023438
 21
-6988.697754
 31
0.0
  0
LINE
  5
376
330
373
100
AcDbEntity
  8
0
  6
Continuous
 62
     7
420
 16777215
100
AcDbLine
 10
14567.581055
 20
-6983.140625
 30
0.0
 11
14575.677734
 21
-6975.043945
 31
0.0
  0
LINE
  5
377
330
373
100
AcDbEntity
  8
0
  6
Continuous
 62
     7
420
 16777215
100
AcDbLine
 10
14576.045898
 20
-6975.34375
 30
0.0
 11
14567.808594
 21
-6983.581055
 31
0.0
  0
LINE
  5
378
330
373
100
AcDbEntity
  8
0
  6
Continuous
 62
     7
420
 16777215
100
AcDbLine
 10
14562.591797
 20
-6988.797852
 30
0.0
 11
14557.605469
 21
-6993.784668
 31
0.0
  0
LINE
  5
379
330
373
100
AcDbEntity
  8
0
  6
Continuous
 62
     7
420
 16777215
100
AcDbLine
 10
14552.922852
 20
-6998.467285
 30
0.0
 11
14544.425781
 21
-7006.964355
 31
0.0
  0
LINE
  5
37A
330
373
100
AcDbEntity
  8
0
  6
Continuous
 62
     7
420
 16777215
100
AcDbLine
 10
14544.780273
 20
-7007.277832
 30
0.0
 11
14553.067383
 21
-6998.990234
 31
0.0
  0
LINE
  5
37B
330
373
100
AcDbEntity
  8
0
  6
Continuous
 62
     7
420
 16777215
100
AcDbLine
 10
14558.172852
 20
-6993.885254
 30
0.0
 11
14563.160156
 21
-6988.897949
 31
0.0
  0
LINE
  5
37C
330
373
100
AcDbEntity
  8
0
  6
Continuous
 62
     7
420
 16777215
100
AcDbLine
 10
14567.975586
 20
-6984.08252
 30
0.0
 11
14576.404297
 21
-6975.654297
 31
0.0
  0
LINE
  5
37D
330
373
100
AcDbEntity
  8
0
  6
Continuous
 62
     7
420
 16777215
100
AcDbLine
 10
14576.751953
 20
-6975.974609
 30
0.0
 11
14568.057617
 21
-6984.668945
 31
0.0
  0
LINE
  5
37E
330
373
100
AcDbEntity
  8
0
  6
Continuous
 62
     7
420
 16777215
100
AcDbLine
 10
14563.728516
 20
-6988.998535
 30
0.0
 11
14558.741211
 21
-6993.985352
 31
0.0
  0
LINE
  5
37F
330
373
100
AcDbEntity
  8
0
  6
Continuous
 62
     7
420
 16777215
100
AcDbLine
 10
14553.279297
 20
-6999.447266
 30
0.0
 11
14545.145508
 21
-7007.581055
 31
0.0
  0
LINE
  5
380
330
373
100
AcDbEntity
  8
0
  6
Continuous
 62
     7
420
 16777215
100
AcDbLine
 10
14545.520508
 20
-7007.874023
 30
0.0
 11
14553.541992
 21
-6999.852539
 31
0.0
  0
LINE
  5
381
330
373
100
AcDbEntity
  8
0
  6
Continuous
 62
     7
420
 16777215
100
AcDbLine
 10
14559.30957
 20
-6994.085449
 30
0.0
 11
14564.295898
 21
-6989.098633
 31
0.0
  0
LINE
  5
382
330
373
100
AcDbEntity
  8
0
  6
Continuous
 62
     7
420
 16777215
100
AcDbLine
 10
14568.610352
 20
-6984.78418
 30
0.0
 11
14577.089844
 21
-6976.305176
 31
0.0
  0
LINE
  5
383
330
373
100
AcDbEntity
  8
0
  6
Continuous
 62
     7
420
 16777215
100
AcDbLine
 10
14577.416992
 20
-6976.645508
 30
0.0
 11
14569.27832
 21
-6984.78418
 31
0.0
  0
LINE
  5
384
330
373
100
AcDbEntity
  8
0
  6
Continuous
 62
     7
420
 16777215
100
AcDbLine
 10
14564.864258
 20
-6989.19873
 30
0.0
 11
14559.858398
 21
-6994.204102
 31
0.0
  0
LINE
  5
385
330
373
100
AcDbEntity
  8
0
  6
Continuous
 62
     7
420
 16777215
100
AcDbLine
 10
14553.847656
 20
-7000.214844
 30
0.0
 11
14545.90625
 21
-7008.156738
 31
0.0
  0
LINE
  5
386
330
373
100
AcDbEntity
  8
0
  6
Continuous
 62
     7
420
 16777215
100
AcDbLine
 10
14546.301758
 20
-7008.429199
 30
0.0
 11
14554.191406
 21
-7000.539551
 31
0.0
  0
LINE
  5
387
330
373
100
AcDbEntity
  8
0
  6
Continuous
 62
     7
420
 16777215
100
AcDbLine
 10
14560.370117
 20
-6994.36084
 30
0.0
 11
14565.432617
 21
-6989.298828
 31
0.0
  0
LINE
  5
388
330
373
100
AcDbEntity
  8
0
  6
Continuous
 62
     7
420
 16777215
100
AcDbLine
 10
14569.946289
 20
-6984.78418
 30
0.0
 11
14577.734375
 21
-6976.996094
 31
0.0
  0
LINE
  5
389
330
373
100
AcDbEntity
  8
0
  6
Continuous
 62
     7
420
 16777215
100
AcDbLine
 10
14578.042969
 20
-6977.356934
 30
0.0
 11
14570.615234
 21
-6984.78418
 31
0.0
  0
LINE
  5
38A
330
373
100
AcDbEntity
  8
0
  6
Continuous
 62
     7
420
 16777215
100
AcDbLine
 10
14566.0
 20
-6989.398926
 30
0.0
 11
14560.847656
 21
-6994.552246
 31
0.0
  0
LINE
  5
38B
330
373
100
AcDbEntity
  8
0
  6
Continuous
 62
     7
420
 16777215
100
AcDbLine
 10
14554.570312
 20
-7000.829102
 30
0.0
 11
14546.708008
 21
-7008.690918
 31
0.0
  0
LINE
  5
38C
330
373
100
AcDbEntity
  8
0
  6
Continuous
 62
     7
420
 16777215
100
AcDbLine
 10
14547.125977
 20
-7008.941895
 30
0.0
 11
14554.981445
 21
-7001.085938
 31
0.0
  0
LINE
  5
38D
330
373
100
AcDbEntity
  8
0
  6
Continuous
 62
     7
420
 16777215
100
AcDbLine
 10
14561.291016
 20
-6994.776855
 30
0.0
 11
14566.568359
 21
-6989.499023
 31
0.0
  0
LINE
  5
38E
330
373
100
AcDbEntity
  8
0
  6
Continuous
 62
     7
420
 16777215
100
AcDbLine
 10
14571.283203
 20
-6984.78418
 30
0.0
 11
14578.339844
 21
-6977.727539
 31
0.0
  0
LINE
  5
38F
330
373
100
AcDbEntity
  8
0
  6
Continuous
 62
     7
420
 16777215
100
AcDbLine
 10
14578.626953
 20
-6978.108398
 30
0.0
 11
14571.951172
 21
-6984.78418
 31
0.0
  0
LINE
  5
390
330
373
100
AcDbEntity
  8
0
  6
Continuous
 62
     7
420
 16777215
100
AcDbLine
 10
14567.136719
 20
-6989.599121
 30
0.0
 11
14561.702148
 21
-6995.03418
 31
0.0
  0
LINE
  5
391
330
373
100
AcDbEntity
  8
0
  6
Continuous
 62
     7
420
 16777215
100
AcDbLine
 10
14555.425781
 20
-7001.30957
 30
0.0
 11
14547.553711
 21
-7009.181641
 31
0.0
  0
LINE
  5
392
330
373
100
AcDbEntity
  8
0
  6
Continuous
 62
     7
420
 16777215
100
AcDbLine
 10
14547.994141
 20
-7009.410156
 30
0.0
 11
14555.90332
 21
-7001.5
 31
0.0
  0
LINE
  5
393
330
373
100
AcDbEntity
  8
0
  6
Continuous
 62
     7
420
 16777215
100
AcDbLine
 10
14562.079102
 20
-6995.324219
 30
0.0
 11
14567.704102
 21
-6989.699219
 31
0.0
  0
LINE
  5
394
330
373
100
AcDbEntity
  8
0
  6
Continuous
 62
     7
420
 16777215
100
AcDbLine
 10
14572.619141
 20
-6984.78418
 30
0.0
 11
14578.904297
 21
-6978.5
 31
0.0
  0
LINE
  5
395
330
373
100
AcDbEntity
  8
0
  6
Continuous
 62
     7
420
 16777215
100
AcDbLine
 10
14579.170898
 20
-6978.901855
 30
0.0
 11
14573.288086
 21
-6984.78418
 31
0.0
  0
LINE
  5
396
330
373
100
AcDbEntity
  8
0
  6
Continuous
 62
     7
420
 16777215
100
AcDbLine
 10
14568.272461
 20
-6989.799805
 30
0.0
 11
14562.421875
 21
-6995.649902
 31
0.0
  0
LINE
  5
397
330
373
100
AcDbEntity
  8
0
  6
Continuous
 62
     7
420
 16777215
100
AcDbLine
 10
14556.416016
 20
-7001.655762
 30
0.0
 11
14548.445312
 21
-7009.626465
 31
0.0
  0
LINE
  5
398
330
373
100
AcDbEntity
  8
0
  6
Continuous
 62
     7
420
 16777215
100
AcDbLine
 10
14548.90918
 20
-7009.831055
 30
0.0
 11
14556.966797
 21
-7001.773438
 31
0.0
  0
LINE
  5
399
330
373
100
AcDbEntity
  8
0
  6
Continuous
 62
     7
420
 16777215
100
AcDbLine
 10
14562.727539
 20
-6996.013184
 30
0.0
 11
14568.84082
 21
-6989.899902
 31
0.0
  0
LINE
  5
39A
330
373
100
AcDbEntity
  8
0
  6
Continuous
 62
     7
420
 16777215
100
AcDbLine
 10
14573.956055
 20
-6984.78418
 30
0.0
 11
14579.425781
 21
-6979.314453
 31
0.0
  0
LINE
  5
39B
330
373
100
AcDbEntity
  8
0
  6
Continuous
 62
     7
420
 16777215
100
AcDbLine
 10
14579.670898
 20
-6979.737793
 30
0.0
 11
14574.624023
 21
-6984.78418
 31
0.0
  0
LINE
  5
39C
330
373
100
AcDbEntity
  8
0
  6
Continuous
 62
     7
420
 16777215
100
AcDbLine
 10
14569.408203
 20
-6990.0
 30
0.0
 11
14562.989258
 21
-6996.419922
 31
0.0
  0
LINE
  5
39D
330
373
100
AcDbEntity
  8
0
  6
Continuous
 62
     7
420
 16777215
100
AcDbLine
 10
14557.560547
 20
-7001.848145
 30
0.0
 11
14549.385742
 21
-7010.022949
 31
0.0
  0
LINE
  5
39E
330
373
100
AcDbEntity
  8
0
  6
Continuous
 62
     7
420
 16777215
100
AcDbLine
 10
14549.875
 20
-7010.202148
 30
0.0
 11
14558.205078
 21
-7001.871094
 31
0.0
  0
LINE
  5
39F
330
373
100
AcDbEntity
  8
0
  6
Continuous
 62
     7
420
 16777215
100
AcDbLine
 10
14563.199219
 20
-6996.87793
 30
0.0
 11
14569.976562
 21
-6990.100098
 31
0.0
  0
LINE
  5
3A0
330
373
100
AcDbEntity
  8
0
  6
Continuous
 62
     7
420
 16777215
100
AcDbLine
 10
14575.291992
 20
-6984.78418
 30
0.0
 11
14579.904297
 21
-6980.172852
 31
0.0
  0
LINE
  5
3A1
330
373
100
AcDbEntity
  8
0
  6
Continuous
 62
     7
420
 16777215
100
AcDbLine
 10
14580.125977
 20
-6980.619141
 30
0.0
 11
14575.960938
 21
-6984.78418
 31
0.0
  0
LINE
  5
3A2
330
373
100
AcDbEntity
  8
0
  6
Continuous
 62
     7
420
 16777215
100
AcDbLine
 10
14570.544922
 20
-6990.200195
 30
0.0
 11
14563.341797
 21
-6997.402832
 31
0.0
  0
LINE
  5
3A3
330
373
100
AcDbEntity
  8
0
  6
Continuous
 62
     7
420
 16777215
100
AcDbLine
 10
14558.917969
 20
-7001.827148
 30
0.0
 11
14550.37793
 21
-7010.367188
 31
0.0
  0
LINE
  5
3A4
330
373
100
AcDbEntity
  8
0
  6
Continuous
 62
     7
420
 16777215
100
AcDbLine
 10
14550.895508
 20
-7010.517578
 30
0.0
 11
14559.727539
 21
-7001.685547
 31
0.0
  0
LINE
  5
3A5
330
373
100
AcDbEntity
  8
0
  6
Continuous
 62
     7
420
 16777215
100
AcDbLine
 10
14563.386719
 20
-6998.025879
 30
0.0
 11
14571.112305
 21
-6990.300781
 31
0.0
  0
LINE
  5
3A6
330
373
100
AcDbEntity
  8
0
  6
Continuous
 62
     7
420
 16777215
100
AcDbLine
 10
14576.628906
 20
-6984.78418
 30
0.0
 11
14580.335938
 21
-6981.077637
 31
0.0
  0
LINE
  5
3A7
330
373
100
AcDbEntity
  8
0
  6
Continuous
 62
     7
420
 16777215
100
AcDbLine
 10
14580.533203
 20
-6981.54834
 30
0.0
 11
14577.296875
 21
-6984.78418
 31
0.0
  0
LINE
  5
3A8
330
373
100
AcDbEntity
  8
0
  6
Continuous
 62
     7
420
 16777215
100
AcDbLine
 10
14571.660156
 20
-6990.420898
 30
0.0
 11
14563.249023
 21
-6998.83252
 31
0.0
  0
LINE
  5
3A9
330
373
100
AcDbEntity
  8
0
  6
Continuous
 62
     7
420
 16777215
100
AcDbLine
 10
14560.72168
 20
-7001.359863
 30
0.0
 11
14551.428711
 21
-7010.652832
 31
0.0
  0
LINE
  5
3AA
330
373
100
AcDbEntity
  8
0
  6
Continuous
 62
     7
420
 16777215
100
AcDbLine
 10
14551.977539
 20
-7010.771973
 30
0.0
 11
14572.176758
 21
-6990.572266
 31
0.0
  0
LINE
  5
3AB
330
373
100
AcDbEntity
  8
0
  6
Continuous
 62
     7
420
 16777215
100
AcDbLine
 10
14577.964844
 20
-6984.78418
 30
0.0
 11
14580.717773
 21
-6982.031738
 31
0.0
  0
LINE
  5
3AC
330
373
100
AcDbEntity
  8
0
  6
Continuous
 62
     7
420
 16777215
100
AcDbLine
 10
14580.888672
 20
-6982.528809
 30
0.0
 11
14578.633789
 21
-6984.78418
 31
0.0
  0
LINE
  5
3AD
330
373
100
AcDbEntity
  8
0
  6
Continuous
 62
     7
420
 16777215
100
AcDbLine
 10
14572.666016
 20
-6990.752441
 30
0.0
 11
14552.544922
 21
-7010.873535
 31
0.0
  0
LINE
  5
3AE
330
373
100
AcDbEntity
  8
0
  6
Continuous
 62
     7
420
 16777215
100
AcDbLine
 10
14553.129883
 20
-7010.956055
 30
0.0
 11
14573.12793
 21
-6990.958008
 31
0.0
  0
LINE
  5
3AF
330
373
100
AcDbEntity
  8
0
  6
Continuous
 62
     7
420
 16777215
100
AcDbLine
 10
14579.301758
 20
-6984.78418
 30
0.0
 11
14581.045898
 21
-6983.040039
 31
0.0
  0
LINE
  5
3B0
330
373
100
AcDbEntity
  8
0
  6
Continuous
 62
     7
420
 16777215
100
AcDbLine
 10
14581.1875
 20
-6983.566406
 30
0.0
 11
14579.969727
 21
-6984.78418
 31
0.0
  0
LINE
  5
3B1
330
373
100
AcDbEntity
  8
0
  6
Continuous
 62
     7
420
 16777215
100
AcDbLine
 10
14573.567383
 20
-6991.187012
 30
0.0
 11
14553.736328
 21
-7011.018066
 31
0.0
  0
LINE
  5
3B2
330
373
100
AcDbEntity
  8
0
  6
Continuous
 62
     7
420
 16777215
100
AcDbLine
 10
14554.364258
 20
-7011.057617
 30
0.0
 11
14573.983398
 21
-6991.438965
 31
0.0
  0
LINE
  5
3B3
330
373
100
AcDbEntity
  8
0
  6
Continuous
 62
     7
420
 16777215
100
AcDbLine
 10
14580.637695
 20
-6984.78418
 30
0.0
 11
14581.314453
 21
-6984.108398
 31
0.0
  0
LINE
  5
3B4
330
373
100
AcDbEntity
  8
0
  6
Continuous
 62
     7
420
 16777215
100
AcDbLine
 10
14581.422852
 20
-6984.66748
 30
0.0
 11
14581.306641
 21
-6984.78418
 31
0.0
  0
LINE
  5
3B5
330
373
100
AcDbEntity
  8
0
  6
Continuous
 62
     7
420
 16777215
100
AcDbLine
 10
14574.378906
 20
-6991.711914
 30
0.0
 11
14555.018555
 21
-7011.072266
 31
0.0
  0
LINE
  5
3B6
330
373
100
AcDbEntity
  8
0
  6
Continuous
 62
     7
420
 16777215
100
AcDbLine
 10
14555.686523
 20
-7011.072266
 30
0.0
 11
14574.75293
 21
-6992.005859
 31
0.0
  0
LINE
  5
3B7
330
373
100
AcDbEntity
  8
0
  6
Continuous
 62
     7
420
 16777215
100
AcDbLine
 10
14575.107422
 20
-6992.320312
 30
0.0
 11
14556.354492
 21
-7011.072266
 31
0.0
  0
LINE
  5
3B8
330
373
100
AcDbEntity
  8
0
  6
Continuous
 62
     7
420
 16777215
100
AcDbLine
 10
14557.023438
 20
-7011.072266
 30
0.0
 11
14575.441406
 21
-6992.654297
 31
0.0
  0
LINE
  5
3B9
330
373
100
AcDbEntity
  8
0
  6
Continuous
 62
     7
420
 16777215
100
AcDbLine
 10
14575.754883
 20
-6993.008789
 30
0.0
 11
14557.691406
 21
-7011.072266
 31
0.0
  0
LINE
  5
3BA
330
373
100
AcDbEntity
  8
0
  6
Continuous
 62
     7
420
 16777215
100
AcDbLine
 10
14558.359375
 20
-7011.072266
 30
0.0
 11
14576.048828
 21
-6993.383301
 31
0.0
  0
LINE
  5
3BB
330
373
100
AcDbEntity
  8
0
  6
Continuous
 62
     7
420
 16777215
100
AcDbLine
 10
14576.321289
 20
-6993.778809
 30
0.0
 11
14559.027344
 21
-7011.072266
 31
0.0
  0
LINE
  5
3BC
330
373
100
AcDbEntity
  8
0
  6
Continuous
 62
     7
420
 16777215
100
AcDbLine
 10
14559.700195
 20
-7011.068359
 30
0.0
 11
14576.573242
 21
-6994.195312
 31
0.0
  0
LINE
  5
3BD
330
373
100
AcDbEntity
  8
0
  6
Continuous
 62
     7
420
 16777215
100
AcDbLine
 10
14576.801758
 20
-6994.634766
 30
0.0
 11
14560.393555
 21
-7011.042969
 31
0.0
  0
LINE
  5
3BE
330
373
100
AcDbEntity
  8
0
  6
Continuous
 62
     7
420
 16777215
100
AcDbLine
 10
14561.112305
 20
-7010.992676
 30
0.0
 11
14577.006836
 21
-6995.097656
 31
0.0
  0
LINE
  5
3BF
330
373
100
AcDbEntity
  8
0
  6
Continuous
 62
     7
420
 16777215
100
AcDbLine
 10
14577.186523
 20
-6995.586426
 30
0.0
 11
14561.859375
 21
-7010.914062
 31
0.0
  0
LINE
  5
3C0
330
373
100
AcDbEntity
  8
0
  6
Continuous
 62
     7
420
 16777215
100
AcDbLine
 10
14562.638672
 20
-7010.802734
 30
0.0
 11
14577.337891
 21
-6996.103516
 31
0.0
  0
LINE
  5
3C1
330
373
100
AcDbEntity
  8
0
  6
Continuous
 62
     7
420
 16777215
100
AcDbLine
 10
14577.458008
 20
-6996.651855
 30
0.0
 11
14563.455078
 21
-7010.654297
 31
0.0
  0
LINE
  5
3C2
330
373
100
AcDbEntity
  8
0
  6
Continuous
 62
     7
420
 16777215
100
AcDbLine
 10
14564.316406
 20
-7010.460938
 30
0.0
 11
14577.541016
 21
-6997.236328
 31
0.0
  0
LINE
  5
3C3
330
373
100
AcDbEntity
  8
0
  6
Continuous
 62
     7
420
 16777215
100
AcDbLine
 10
14577.582031
 20
-6997.864258
 30
0.0
 11
14565.232422
 21
-7010.212891
 31
0.0
  0
LINE
  5
3C4
330
373
100
AcDbEntity
  8
0
  6
Continuous
 62
     7
420
 16777215
100
AcDbLine
 10
14566.21875
 20
-7009.895508
 30
0.0
 11
14577.569336
 21
-6998.544922
 31
0.0
  0
LINE
  5
3C5
330
373
100
AcDbEntity
  8
0
  6
Continuous
 62
     7
420
 16777215
100
AcDbLine
 10
14577.486328
 20
-6999.29541
 30
0.0
 11
14567.296875
 21
-7009.484863
 31
0.0
  0
LINE
  5
3C6
330
373
100
AcDbEntity
  8
0
  6
Continuous
 62
     7
420
 16777215
100
AcDbLine
 10
14568.511719
 20
-7008.938965
 30
0.0
 11
14577.302734
 21
-7000.147949
 31
0.0
  0
LINE
  5
3C7
330
373
100
AcDbEntity
  8
0
  6
Continuous
 62
     7
420
 16777215
100
AcDbLine
 10
14576.941406
 20
-7001.177246
 30
0.0
 11
14569.957031
 21
-7008.161621
 31
0.0
  0
LINE
  5
3C8
330
373
100
AcDbEntity
  8
0
  6
Continuous
 62
     7
420
 16777215
100
AcDbLine
 10
14571.983398
 20
-7006.803711
 30
0.0
 11
14576.039062
 21
-7002.748047
 31
0.0
  0
LINE
  5
3C9
330
373
100
AcDbEntity
  8
0
  6
Continuous
 62
     7
420
 16777215
100
AcDbLine
 10
14575.299805
 20
-6974.753906
 30
0.0
 11
14567.304688
 21
-6982.748535
 31
0.0
  0
LINE
  5
3CA
330
373
100
AcDbEntity
  8
0
  6
Continuous
 62
     7
420
 16777215
100
AcDbLine
 10
14561.457031
 20
-6988.596191
 30
0.0
 11
14556.46875
 21
-6993.584473
 31
0.0
  0
LINE
  5
3CB
330
373
100
AcDbEntity
  8
0
  6
Continuous
 62
     7
420
 16777215
100
AcDbLine
 10
14552.125
 20
-6997.928223
 30
0.0
 11
14543.746094
 21
-7006.307617
 31
0.0
  0
LINE
  5
3CC
330
373
100
AcDbEntity
  8
0
  6
Continuous
 62
     7
420
 16777215
100
AcDbLine
 10
14543.420898
 20
-7005.964355
 30
0.0
 11
14551.457031
 21
-6997.928223
 31
0.0
  0
LINE
  5
3CD
330
373
100
AcDbEntity
  8
0
  6
Continuous
 62
     7
420
 16777215
100
AcDbLine
 10
14555.901367
 20
-6993.484375
 30
0.0
 11
14560.918945
 21
-6988.46582
 31
0.0
  0
LINE
  5
3CE
330
373
100
AcDbEntity
  8
0
  6
Continuous
 62
     7
420
 16777215
100
AcDbLine
 10
14566.987305
 20
-6982.397949
 30
0.0
 11
14574.911133
 21
-6974.474121
 31
0.0
  0
LINE
  5
3CF
330
373
100
AcDbEntity
  8
0
  6
Continuous
 62
     7
420
 16777215
100
AcDbLine
 10
14574.512695
 20
-6974.20459
 30
0.0
 11
14566.632812
 21
-6982.083984
 31
0.0
  0
LINE
  5
3D0
330
373
100
AcDbEntity
  8
0
  6
Continuous
 62
     7
420
 16777215
100
AcDbLine
 10
14560.417969
 20
-6988.298828
 30
0.0
 11
14555.333008
 21
-6993.384277
 31
0.0
  0
LINE
  5
3D1
330
373
100
AcDbEntity
  8
0
  6
Continuous
 62
     7
420
 16777215
100
AcDbLine
 10
14550.789062
 20
-6997.928223
 30
0.0
 11
14543.106445
 21
-7005.61084
 31
0.0
  0
LINE
  5
3D2
330
373
100
AcDbEntity
  8
0
  6
Continuous
 62
     7
420
 16777215
100
AcDbLine
 10
14542.801758
 20
-7005.24707
 30
0.0
 11
14550.120117
 21
-6997.928223
 31
0.0
  0
LINE
  5
3D3
330
373
100
AcDbEntity
  8
0
  6
Continuous
 62
     7
420
 16777215
100
AcDbLine
 10
14554.764648
 20
-6993.28418
 30
0.0
 11
14559.951172
 21
-6988.097656
 31
0.0
  0
LINE
  5
3D4
330
373
100
AcDbEntity
  8
0
  6
Continuous
 62
     7
420
 16777215
100
AcDbLine
 10
14566.245117
 20
-6981.804199
 30
0.0
 11
14574.102539
 21
-6973.946289
 31
0.0
  0
LINE
  5
3D5
330
373
100
AcDbEntity
  8
0
  6
Continuous
 62
     7
420
 16777215
100
AcDbLine
 10
14573.681641
 20
-6973.69873
 30
0.0
 11
14565.823242
 21
-6981.557129
 31
0.0
  0
LINE
  5
3D6
330
373
100
AcDbEntity
  8
0
  6
Continuous
 62
     7
420
 16777215
100
AcDbLine
 10
14559.517578
 20
-6987.863281
 30
0.0
 11
14554.197266
 21
-6993.184082
 31
0.0
  0
LINE
  5
3D7
330
373
100
AcDbEntity
  8
0
  6
Continuous
 62
     7
420
 16777215
100
AcDbLine
 10
14549.452148
 20
-6997.928223
 30
0.0
 11
14542.506836
 21
-7004.873535
 31
0.0
  0
LINE
  5
3D8
330
373
100
AcDbEntity
  8
0
  6
Continuous
 62
     7
420
 16777215
100
AcDbLine
 10
14542.222656
 20
-7004.489258
 30
0.0
 11
14548.78418
 21
-6997.928223
 31
0.0
  0
LINE
  5
3D9
330
373
100
AcDbEntity
  8
0
  6
Continuous
 62
     7
420
 16777215
100
AcDbLine
 10
14553.628906
 20
-6993.083496
 30
0.0
 11
14559.116211
 21
-6987.596191
 31
0.0
  0
LINE
  5
3DA
330
373
100
AcDbEntity
  8
0
  6
Continuous
 62
     7
420
 16777215
100
AcDbLine
 10
14565.369141
 20
-6981.343262
 30
0.0
 11
14573.25
 21
-6973.462402
 31
0.0
  0
LINE
  5
3DB
330
373
100
AcDbEntity
  8
0
  6
Continuous
 62
     7
420
 16777215
100
AcDbLine
 10
14572.806641
 20
-6973.237305
 30
0.0
 11
14564.881836
 21
-6981.162598
 31
0.0
  0
LINE
  5
3DC
330
373
100
AcDbEntity
  8
0
  6
Continuous
 62
     7
420
 16777215
100
AcDbLine
 10
14558.749023
 20
-6987.29541
 30
0.0
 11
14553.060547
 21
-6992.983398
 31
0.0
  0
LINE
  5
3DD
330
373
100
AcDbEntity
  8
0
  6
Continuous
 62
     7
420
 16777215
100
AcDbLine
 10
14548.116211
 20
-6997.928223
 30
0.0
 11
14541.949219
 21
-7004.095215
 31
0.0
  0
LINE
  5
3DE
330
373
100
AcDbEntity
  8
0
  6
Continuous
 62
     7
420
 16777215
100
AcDbLine
 10
14541.685547
 20
-7003.689941
 30
0.0
 11
14547.447266
 21
-6997.928223
 31
0.0
  0
LINE
  5
3DF
330
373
100
AcDbEntity
  8
0
  6
Continuous
 62
     7
420
 16777215
100
AcDbLine
 10
14552.492188
 20
-6992.883301
 30
0.0
 11
14558.416992
 21
-6986.959473
 31
0.0
  0
LINE
  5
3E0
330
373
100
AcDbEntity
  8
0
  6
Continuous
 62
     7
420
 16777215
100
AcDbLine
 10
14564.358398
 20
-6981.017578
 30
0.0
 11
14572.351562
 21
-6973.023926
 31
0.0
  0
LINE
  5
3E1
330
373
100
AcDbEntity
  8
0
  6
Continuous
 62
     7
420
 16777215
100
AcDbLine
 10
14571.884766
 20
-6972.823242
 30
0.0
 11
14563.795898
 21
-6980.912109
 31
0.0
  0
LINE
  5
3E2
330
373
100
AcDbEntity
  8
0
  6
Continuous
 62
     7
420
 16777215
100
AcDbLine
 10
14558.124023
 20
-6986.583984
 30
0.0
 11
14551.924805
 21
-6992.783203
 31
0.0
  0
LINE
  5
3E3
330
373
100
AcDbEntity
  8
0
  6
Continuous
 62
     7
420
 16777215
100
AcDbLine
 10
14546.779297
 20
-6997.928223
 30
0.0
 11
14541.433594
 21
-7003.273926
 31
0.0
  0
LINE
  5
3E4
330
373
100
AcDbEntity
  8
0
  6
Continuous
 62
     7
420
 16777215
100
AcDbLine
 10
14541.192383
 20
-7002.847168
 30
0.0
 11
14546.111328
 21
-6997.928223
 31
0.0
  0
LINE
  5
3E5
330
373
100
AcDbEntity
  8
0
  6
Continuous
 62
     7
420
 16777215
100
AcDbLine
 10
14551.356445
 20
-6992.683105
 30
0.0
 11
14557.875977
 21
-6986.163086
 31
0.0
  0
LINE
  5
3E6
330
373
100
AcDbEntity
  8
0
  6
Continuous
 62
     7
420
 16777215
100
AcDbLine
 10
14563.1875
 20
-6980.851562
 30
0.0
 11
14571.404297
 21
-6972.635254
 31
0.0
  0
LINE
  5
3E7
330
373
100
AcDbEntity
  8
0
  6
Continuous
 62
     7
420
 16777215
100
AcDbLine
 10
14570.911133
 20
-6972.460449
 30
0.0
 11
14562.524414
 21
-6980.84668
 31
0.0
  0
LINE
  5
3E8
330
373
100
AcDbEntity
  8
0
  6
Continuous
 62
     7
420
 16777215
100
AcDbLine
 10
14557.68457
 20
-6985.687012
 30
0.0
 11
14550.788086
 21
-6992.583008
 31
0.0
  0
LINE
  5
3E9
330
373
100
AcDbEntity
  8
0
  6
Continuous
 62
     7
420
 16777215
100
AcDbLine
 10
14545.443359
 20
-6997.928223
 30
0.0
 11
14540.961914
 21
-7002.40918
 31
0.0
  0
LINE
  5
3EA
330
373
100
AcDbEntity
  8
0
  6
Continuous
 62
     7
420
 16777215
100
AcDbLine
 10
14540.744141
 20
-7001.958984
 30
0.0
 11
14544.774414
 21
-6997.928223
 31
0.0
  0
LINE
  5
3EB
330
373
100
AcDbEntity
  8
0
  6
Continuous
 62
     7
420
 16777215
100
AcDbLine
 10
14550.220703
 20
-6992.48291
 30
0.0
 11
14557.56543
 21
-6985.137695
 31
0.0
  0
LINE
  5
3EC
330
373
100
AcDbEntity
  8
0
  6
Continuous
 62
     7
420
 16777215
100
AcDbLine
 10
14561.788086
 20
-6980.915039
 30
0.0
 11
14570.40332
 21
-6972.299316
 31
0.0
  0
LINE
  5
3ED
330
373
100
AcDbEntity
  8
0
  6
Continuous
 62
     7
420
 16777215
100
AcDbLine
 10
14569.881836
 20
-6972.15332
 30
0.0
 11
14560.9375
 21
-6981.097656
 31
0.0
  0
LINE
  5
3EE
330
373
100
AcDbEntity
  8
0
  6
Continuous
 62
     7
420
 16777215
100
AcDbLine
 10
14557.560547
 20
-6984.474121
 30
0.0
 11
14549.655273
 21
-6992.379883
 31
0.0
  0
LINE
  5
3EF
330
373
100
AcDbEntity
  8
0
  6
Continuous
 62
     7
420
 16777215
100
AcDbLine
 10
14544.106445
 20
-6997.928223
 30
0.0
 11
14540.538086
 21
-7001.49707
 31
0.0
  0
LINE
  5
3F0
330
373
100
AcDbEntity
  8
0
  6
Continuous
 62
     7
420
 16777215
100
AcDbLine
 10
14540.34375
 20
-7001.022461
 30
0.0
 11
14543.438477
 21
-6997.928223
 31
0.0
  0
LINE
  5
3F1
330
373
100
AcDbEntity
  8
0
  6
Continuous
 62
     7
420
 16777215
100
AcDbLine
 10
14549.116211
 20
-6992.25
 30
0.0
 11
14557.802734
 21
-6983.563965
 31
0.0
  0
LINE
  5
3F2
330
373
100
AcDbEntity
  8
0
  6
Continuous
 62
     7
420
 16777215
100
AcDbLine
 10
14559.84082
 20
-6981.526367
 30
0.0
 11
14569.34375
 21
-6972.022949
 31
0.0
  0
LINE
  5
3F3
330
373
100
AcDbEntity
  8
0
  6
Continuous
 62
     7
420
 16777215
100
AcDbLine
 10
14568.790039
 20
-6971.908691
 30
0.0
 11
14548.608398
 21
-6992.089844
 31
0.0
  0
LINE
  5
3F4
330
373
100
AcDbEntity
  8
0
  6
Continuous
 62
     7
420
 16777215
100
AcDbLine
 10
14542.770508
 20
-6997.928223
 30
0.0
 11
14540.163086
 21
-7000.535156
 31
0.0
  0
LINE
  5
3F5
330
373
100
AcDbEntity
  8
0
  6
Continuous
 62
     7
420
 16777215
100
AcDbLine
 10
14539.996094
 20
-7000.033691
 30
0.0
 11
14542.101562
 21
-6997.928223
 31
0.0
  0
LINE
  5
3F6
330
373
100
AcDbEntity
  8
0
  6
Continuous
 62
     7
420
 16777215
100
AcDbLine
 10
14548.12793
 20
-6991.902344
 30
0.0
 11
14568.217773
 21
-6971.812988
 31
0.0
  0
LINE
  5
3F7
330
373
100
AcDbEntity
  8
0
  6
Continuous
 62
     7
420
 16777215
100
AcDbLine
 10
14567.625977
 20
-6971.73584
 30
0.0
 11
14547.672852
 21
-6991.689453
 31
0.0
  0
LINE
  5
3F8
330
373
100
AcDbEntity
  8
0
  6
Continuous
 62
     7
420
 16777215
100
AcDbLine
 10
14541.433594
 20
-6997.928223
 30
0.0
 11
14539.84375
 21
-6999.518066
 31
0.0
  0
LINE
  5
3F9
330
373
100
AcDbEntity
  8
0
  6
Continuous
 62
     7
420
 16777215
100
AcDbLine
 10
14539.706055
 20
-6998.987305
 30
0.0
 11
14540.765625
 21
-6997.928223
 31
0.0
  0
LINE
  5
3FA
330
373
100
AcDbEntity
  8
0
  6
Continuous
 62
     7
420
 16777215
100
AcDbLine
 10
14547.240234
 20
-6991.453125
 30
0.0
 11
14567.013672
 21
-6971.680176
 31
0.0
  0
LINE
  5
3FB
330
373
100
AcDbEntity
  8
0
  6
Continuous
 62
     7
420
 16777215
100
AcDbLine
 10
14566.37793
 20
-6971.647949
 30
0.0
 11
14546.830078
 21
-6991.195312
 31
0.0
  0
LINE
  5
3FC
330
373
100
AcDbEntity
  8
0
  6
Continuous
 62
     7
420
 16777215
100
AcDbLine
 10
14540.097656
 20
-6997.928223
 30
0.0
 11
14539.584961
 21
-6998.44043
 31
0.0
  0
LINE
  5
3FD
330
373
100
AcDbEntity
  8
0
  6
Continuous
 62
     7
420
 16777215
100
AcDbLine
 10
14546.441406
 20
-6990.915527
 30
0.0
 11
14565.716797
 21
-6971.640137
 31
0.0
  0
LINE
  5
3FE
330
373
100
AcDbEntity
  8
0
  6
Continuous
 62
     7
420
 16777215
100
AcDbLine
 10
14565.048828
 20
-6971.640137
 30
0.0
 11
14546.073242
 21
-6990.615723
 31
0.0
  0
LINE
  5
3FF
330
373
100
AcDbEntity
  8
0
  6
Continuous
 62
     7
420
 16777215
100
AcDbLine
 10
14545.725586
 20
-6990.295898
 30
0.0
 11
14564.380859
 21
-6971.640137
 31
0.0
  0
LINE
  5
400
330
373
100
AcDbEntity
  8
0
  6
Continuous
 62
     7
420
 16777215
100
AcDbLine
 10
14563.712891
 20
-6971.640137
 30
0.0
 11
14545.397461
 21
-6989.955566
 31
0.0
  0
LINE
  5
401
330
373
100
AcDbEntity
  8
0
  6
Continuous
 62
     7
420
 16777215
100
AcDbLine
 10
14545.088867
 20
-6989.595215
 30
0.0
 11
14563.043945
 21
-6971.640137
 31
0.0
  0
LINE
  5
402
330
373
100
AcDbEntity
  8
0
  6
Continuous
 62
     7
420
 16777215
100
AcDbLine
 10
14562.375977
 20
-6971.640137
 30
0.0
 11
14544.801758
 21
-6989.214355
 31
0.0
  0
LINE
  5
403
330
373
100
AcDbEntity
  8
0
  6
Continuous
 62
     7
420
 16777215
100
AcDbLine
 10
14544.535156
 20
-6988.812988
 30
0.0
 11
14561.708008
 21
-6971.640137
 31
0.0
  0
LINE
  5
404
330
373
100
AcDbEntity
  8
0
  6
Continuous
 62
     7
420
 16777215
100
AcDbLine
 10
14561.030273
 20
-6971.649414
 30
0.0
 11
14544.290039
 21
-6988.389648
 31
0.0
  0
LINE
  5
405
330
373
100
AcDbEntity
  8
0
  6
Continuous
 62
     7
420
 16777215
100
AcDbLine
 10
14544.068359
 20
-6987.943359
 30
0.0
 11
14560.330078
 21
-6971.681641
 31
0.0
  0
LINE
  5
406
330
373
100
AcDbEntity
  8
0
  6
Continuous
 62
     7
420
 16777215
100
AcDbLine
 10
14559.603516
 20
-6971.740234
 30
0.0
 11
14543.870117
 21
-6987.473145
 31
0.0
  0
LINE
  5
407
330
373
100
AcDbEntity
  8
0
  6
Continuous
 62
     7
420
 16777215
100
AcDbLine
 10
14543.699219
 20
-6986.976074
 30
0.0
 11
14558.847656
 21
-6971.828125
 31
0.0
  0
LINE
  5
408
330
373
100
AcDbEntity
  8
0
  6
Continuous
 62
     7
420
 16777215
100
AcDbLine
 10
14558.057617
 20
-6971.949707
 30
0.0
 11
14543.556641
 21
-6986.450684
 31
0.0
  0
LINE
  5
409
330
373
100
AcDbEntity
  8
0
  6
Continuous
 62
     7
420
 16777215
100
AcDbLine
 10
14543.447266
 20
-6985.891602
 30
0.0
 11
14557.228516
 21
-6972.11084
 31
0.0
  0
LINE
  5
40A
330
373
100
AcDbEntity
  8
0
  6
Continuous
 62
     7
420
 16777215
100
AcDbLine
 10
14556.351562
 20
-6972.319336
 30
0.0
 11
14543.375
 21
-6985.29541
 31
0.0
  0
LINE
  5
40B
330
373
100
AcDbEntity
  8
0
  6
Continuous
 62
     7
420
 16777215
100
AcDbLine
 10
14543.349609
 20
-6984.65332
 30
0.0
 11
14555.416992
 21
-6972.585938
 31
0.0
  0
LINE
  5
40C
330
373
100
AcDbEntity
  8
0
  6
Continuous
 62
     7
420
 16777215
100
AcDbLine
 10
14554.40625
 20
-6972.927734
 30
0.0
 11
14543.379883
 21
-6983.954102
 31
0.0
  0
LINE
  5
40D
330
373
100
AcDbEntity
  8
0
  6
Continuous
 62
     7
420
 16777215
100
AcDbLine
 10
14543.488281
 20
-6983.177246
 30
0.0
 11
14553.292969
 21
-6973.372559
 31
0.0
  0
LINE
  5
40E
330
373
100
AcDbEntity
  8
0
  6
Continuous
 62
     7
420
 16777215
100
AcDbLine
 10
14552.024414
 20
-6973.973145
 30
0.0
 11
14543.713867
 21
-6982.28418
 31
0.0
  0
LINE
  5
40F
330
373
100
AcDbEntity
  8
0
  6
Continuous
 62
     7
420
 16777215
100
AcDbLine
 10
14544.161133
 20
-6981.168457
 30
0.0
 11
14550.470703
 21
-6974.858398
 31
0.0
  0
LINE
  5
410
330
373
100
AcDbEntity
  8
0
  6
Continuous
 62
     7
420
 16777215
100
AcDbLine
 10
14547.915039
 20
-6976.746582
 30
0.0
 11
14545.727539
 21
-6978.934082
 31
0.0
  0
ENDBLK
  5
413
330
373
100
AcDbEntity
  8
0
100
AcDbBlockEnd
  0
BLOCK
  5
46A
330
414
100
AcDbEntity
  8
0
100
AcDbBlockBegin
  2
.TD_XHATCH_6
 70
     0
 10
14295.504883
 20
-7010.983887
 30
0.0
  3
.TD_XHATCH_6
  1

  0
LINE
  5
415
330
414
100
AcDbEntity
  8
0
  6
Continuous
 62
     7
420
 16777215
100
AcDbLine
 10
14309.537109
 20
-6997.285645
 30
0.0
 11
14337.419922
 21
-6969.402832
 31
0.0
  0
LINE
  5
416
330
414
100
AcDbEntity
  8
0
  6
Continuous
 62
     7
420
 16777215
100
AcDbLine
 10
14337.753906
 20
-6969.736816
 30
0.0
 11
14309.871094
 21
-6997.619629
 31
0.0
  0
LINE
  5
417
330
414
100
AcDbEntity
  8
0
  6
Continuous
 62
     7
420
 16777215
100
AcDbLine
 10
14310.205078
 20
-6997.954102
 30
0.0
 11
14338.087891
 21
-6970.071289
 31
0.0
  0
LINE
  5
418
330
414
100
AcDbEntity
  8
0
  6
Continuous
 62
     7
420
 16777215
100
AcDbLine
 10
14338.421875
 20
-6970.405273
 30
0.0
 11
14310.540039
 21
-6998.288086
 31
0.0
  0
LINE
  5
419
330
414
100
AcDbEntity
  8
0
  6
Continuous
 62
     7
420
 16777215
100
AcDbLine
 10
14310.874023
 20
-6998.62207
 30
0.0
 11
14338.756836
 21
-6970.739258
 31
0.0
  0
LINE
  5
41A
330
414
100
AcDbEntity
  8
0
  6
Continuous
 62
     7
420
 16777215
100
AcDbLine
 10
14339.09082
 20
-6971.073242
 30
0.0
 11
14311.208008
 21
-6998.956055
 31
0.0
  0
LINE
  5
41B
330
414
100
AcDbEntity
  8
0
  6
Continuous
 62
     7
420
 16777215
100
AcDbLine
 10
14311.541992
 20
-6999.290527
 30
0.0
 11
14339.424805
 21
-6971.407715
 31
0.0
  0
LINE
  5
41C
330
414
100
AcDbEntity
  8
0
  6
Continuous
 62
     7
420
 16777215
100
AcDbLine
 10
14339.758789
 20
-6971.741699
 30
0.0
 11
14311.875977
 21
-6999.624512
 31
0.0
  0
LINE
  5
41D
330
414
100
AcDbEntity
  8
0
  6
Continuous
 62
     7
420
 16777215
100
AcDbLine
 10
14312.209961
 20
-6999.958496
 30
0.0
 11
14340.092773
 21
-6972.075684
 31
0.0
  0
LINE
  5
41E
330
414
100
AcDbEntity
  8
0
  6
Continuous
 62
     7
420
 16777215
100
AcDbLine
 10
14340.426758
 20
-6972.410156
 30
0.0
 11
14312.543945
 21
-7000.29248
 31
0.0
  0
LINE
  5
41F
330
414
100
AcDbEntity
  8
0
  6
Continuous
 62
     7
420
 16777215
100
AcDbLine
 10
14312.87793
 20
-7000.626953
 30
0.0
 11
14340.760742
 21
-6972.744141
 31
0.0
  0
LINE
  5
420
330
414
100
AcDbEntity
  8
0
  6
Continuous
 62
     7
420
 16777215
100
AcDbLine
 10
14341.094727
 20
-6973.078125
 30
0.0
 11
14313.212891
 21
-7000.960938
 31
0.0
  0
LINE
  5
421
330
414
100
AcDbEntity
  8
0
  6
Continuous
 62
     7
420
 16777215
100
AcDbLine
 10
14313.546875
 20
-7001.294922
 30
0.0
 11
14341.429688
 21
-6973.412109
 31
0.0
  0
LINE
  5
422
330
414
100
AcDbEntity
  8
0
  6
Continuous
 62
     7
420
 16777215
100
AcDbLine
 10
14341.763672
 20
-6973.746582
 30
0.0
 11
14313.880859
 21
-7001.628906
 31
0.0
  0
LINE
  5
423
330
414
100
AcDbEntity
  8
0
  6
Continuous
 62
     7
420
 16777215
100
AcDbLine
 10
14314.214844
 20
-7001.963379
 30
0.0
 11
14342.097656
 21
-6974.080566
 31
0.0
  0
LINE
  5
424
330
414
100
AcDbEntity
  8
0
  6
Continuous
 62
     7
420
 16777215
100
AcDbLine
 10
14342.431641
 20
-6974.414551
 30
0.0
 11
14314.548828
 21
-7002.297363
 31
0.0
  0
LINE
  5
425
330
414
100
AcDbEntity
  8
0
  6
Continuous
 62
     7
420
 16777215
100
AcDbLine
 10
14314.882812
 20
-7002.631348
 30
0.0
 11
14342.765625
 21
-6974.748535
 31
0.0
  0
LINE
  5
426
330
414
100
AcDbEntity
  8
0
  6
Continuous
 62
     7
420
 16777215
100
AcDbLine
 10
14343.099609
 20
-6975.083008
 30
0.0
 11
14315.216797
 21
-7002.965332
 31
0.0
  0
LINE
  5
427
330
414
100
AcDbEntity
  8
0
  6
Continuous
 62
     7
420
 16777215
100
AcDbLine
 10
14315.550781
 20
-7003.299805
 30
0.0
 11
14343.433594
 21
-6975.416992
 31
0.0
  0
LINE
  5
428
330
414
100
AcDbEntity
  8
0
  6
Continuous
 62
     7
420
 16777215
100
AcDbLine
 10
14343.767578
 20
-6975.750977
 30
0.0
 11
14315.885742
 21
-7003.633789
 31
0.0
  0
LINE
  5
429
330
414
100
AcDbEntity
  8
0
  6
Continuous
 62
     7
420
 16777215
100
AcDbLine
 10
14316.219727
 20
-7003.967773
 30
0.0
 11
14344.102539
 21
-6976.084961
 31
0.0
  0
LINE
  5
42A
330
414
100
AcDbEntity
  8
0
  6
Continuous
 62
     7
420
 16777215
100
AcDbLine
 10
14344.436523
 20
-6976.419434
 30
0.0
 11
14316.553711
 21
-7004.301758
 31
0.0
  0
LINE
  5
42B
330
414
100
AcDbEntity
  8
0
  6
Continuous
 62
     7
420
 16777215
100
AcDbLine
 10
14316.887695
 20
-7004.63623
 30
0.0
 11
14344.770508
 21
-6976.753418
 31
0.0
  0
LINE
  5
42C
330
414
100
AcDbEntity
  8
0
  6
Continuous
 62
     7
420
 16777215
100
AcDbLine
 10
14345.104492
 20
-6977.087402
 30
0.0
 11
14317.22168
 21
-7004.970215
 31
0.0
  0
LINE
  5
42D
330
414
100
AcDbEntity
  8
0
  6
Continuous
 62
     7
420
 16777215
100
AcDbLine
 10
14317.555664
 20
-7005.304199
 30
0.0
 11
14345.438477
 21
-6977.421387
 31
0.0
  0
LINE
  5
42E
330
414
100
AcDbEntity
  8
0
  6
Continuous
 62
     7
420
 16777215
100
AcDbLine
 10
14345.772461
 20
-6977.755859
 30
0.0
 11
14317.889648
 21
-7005.638184
 31
0.0
  0
LINE
  5
42F
330
414
100
AcDbEntity
  8
0
  6
Continuous
 62
     7
420
 16777215
100
AcDbLine
 10
14318.223633
 20
-7005.972656
 30
0.0
 11
14346.106445
 21
-6978.089844
 31
0.0
  0
LINE
  5
430
330
414
100
AcDbEntity
  8
0
  6
Continuous
 62
     7
420
 16777215
100
AcDbLine
 10
14346.44043
 20
-6978.423828
 30
0.0
 11
14318.558594
 21
-7006.306641
 31
0.0
  0
LINE
  5
431
330
414
100
AcDbEntity
  8
0
  6
Continuous
 62
     7
420
 16777215
100
AcDbLine
 10
14318.892578
 20
-7006.640625
 30
0.0
 11
14346.775391
 21
-6978.757812
 31
0.0
  0
LINE
  5
432
330
414
100
AcDbEntity
  8
0
  6
Continuous
 62
     7
420
 16777215
100
AcDbLine
 10
14347.109375
 20
-6979.092285
 30
0.0
 11
14319.226562
 21
-7006.974609
 31
0.0
  0
LINE
  5
433
330
414
100
AcDbEntity
  8
0
  6
Continuous
 62
     7
420
 16777215
100
AcDbLine
 10
14319.560547
 20
-7007.309082
 30
0.0
 11
14347.443359
 21
-6979.42627
 31
0.0
  0
LINE
  5
434
330
414
100
AcDbEntity
  8
0
  6
Continuous
 62
     7
420
 16777215
100
AcDbLine
 10
14347.777344
 20
-6979.760254
 30
0.0
 11
14319.894531
 21
-7007.643066
 31
0.0
  0
LINE
  5
435
330
414
100
AcDbEntity
  8
0
  6
Continuous
 62
     7
420
 16777215
100
AcDbLine
 10
14320.228516
 20
-7007.977051
 30
0.0
 11
14348.111328
 21
-6980.094238
 31
0.0
  0
LINE
  5
436
330
414
100
AcDbEntity
  8
0
  6
Continuous
 62
     7
420
 16777215
100
AcDbLine
 10
14348.445312
 20
-6980.428711
 30
0.0
 11
14320.5625
 21
-7008.311035
 31
0.0
  0
LINE
  5
437
330
414
100
AcDbEntity
  8
0
  6
Continuous
 62
     7
420
 16777215
100
AcDbLine
 10
14320.896484
 20
-7008.645508
 30
0.0
 11
14348.779297
 21
-6980.762695
 31
0.0
  0
LINE
  5
438
330
414
100
AcDbEntity
  8
0
  6
Continuous
 62
     7
420
 16777215
100
AcDbLine
 10
14349.113281
 20
-6981.09668
 30
0.0
 11
14321.231445
 21
-7008.979492
 31
0.0
  0
LINE
  5
439
330
414
100
AcDbEntity
  8
0
  6
Continuous
 62
     7
420
 16777215
100
AcDbLine
 10
14321.56543
 20
-7009.313477
 30
0.0
 11
14349.448242
 21
-6981.430664
 31
0.0
  0
LINE
  5
43A
330
414
100
AcDbEntity
  8
0
  6
Continuous
 62
     7
420
 16777215
100
AcDbLine
 10
14349.782227
 20
-6981.765137
 30
0.0
 11
14321.899414
 21
-7009.647461
 31
0.0
  0
LINE
  5
43B
330
414
100
AcDbEntity
  8
0
  6
Continuous
 62
     7
420
 16777215
100
AcDbLine
 10
14322.233398
 20
-7009.981934
 30
0.0
 11
14350.116211
 21
-6982.099121
 31
0.0
  0
LINE
  5
43C
330
414
100
AcDbEntity
  8
0
  6
Continuous
 62
     7
420
 16777215
100
AcDbLine
 10
14350.450195
 20
-6982.433105
 30
0.0
 11
14322.567383
 21
-7010.315918
 31
0.0
  0
LINE
  5
43D
330
414
100
AcDbEntity
  8
0
  6
Continuous
 62
     7
420
 16777215
100
AcDbLine
 10
14322.901367
 20
-7010.649902
 30
0.0
 11
14350.78418
 21
-6982.76709
 31
0.0
  0
LINE
  5
43E
330
414
100
AcDbEntity
  8
0
  6
Continuous
 62
     7
420
 16777215
100
AcDbLine
 10
14351.118164
 20
-6983.101562
 30
0.0
 11
14323.235352
 21
-7010.983887
 31
0.0
  0
LINE
  5
43F
330
414
100
AcDbEntity
  8
0
  6
Continuous
 62
     7
420
 16777215
100
AcDbLine
 10
14309.203125
 20
-6996.95166
 30
0.0
 11
14337.085938
 21
-6969.068848
 31
0.0
  0
LINE
  5
440
330
414
100
AcDbEntity
  8
0
  6
Continuous
 62
     7
420
 16777215
100
AcDbLine
 10
14336.751953
 20
-6968.734863
 30
0.0
 11
14308.869141
 21
-6996.617676
 31
0.0
  0
LINE
  5
441
330
414
100
AcDbEntity
  8
0
  6
Continuous
 62
     7
420
 16777215
100
AcDbLine
 10
14308.535156
 20
-6996.283203
 30
0.0
 11
14336.417969
 21
-6968.400391
 31
0.0
  0
LINE
  5
442
330
414
100
AcDbEntity
  8
0
  6
Continuous
 62
     7
420
 16777215
100
AcDbLine
 10
14336.083984
 20
-6968.066406
 30
0.0
 11
14308.201172
 21
-6995.949219
 31
0.0
  0
LINE
  5
443
330
414
100
AcDbEntity
  8
0
  6
Continuous
 62
     7
420
 16777215
100
AcDbLine
 10
14307.867188
 20
-6995.615234
 30
0.0
 11
14335.749023
 21
-6967.732422
 31
0.0
  0
LINE
  5
444
330
414
100
AcDbEntity
  8
0
  6
Continuous
 62
     7
420
 16777215
100
AcDbLine
 10
14335.415039
 20
-6967.398438
 30
0.0
 11
14307.532227
 21
-6995.28125
 31
0.0
  0
LINE
  5
445
330
414
100
AcDbEntity
  8
0
  6
Continuous
 62
     7
420
 16777215
100
AcDbLine
 10
14307.198242
 20
-6994.946777
 30
0.0
 11
14335.081055
 21
-6967.063965
 31
0.0
  0
LINE
  5
446
330
414
100
AcDbEntity
  8
0
  6
Continuous
 62
     7
420
 16777215
100
AcDbLine
 10
14334.74707
 20
-6966.72998
 30
0.0
 11
14306.864258
 21
-6994.612793
 31
0.0
  0
LINE
  5
447
330
414
100
AcDbEntity
  8
0
  6
Continuous
 62
     7
420
 16777215
100
AcDbLine
 10
14306.530273
 20
-6994.278809
 30
0.0
 11
14334.413086
 21
-6966.395996
 31
0.0
  0
LINE
  5
448
330
414
100
AcDbEntity
  8
0
  6
Continuous
 62
     7
420
 16777215
100
AcDbLine
 10
14334.079102
 20
-6966.062012
 30
0.0
 11
14306.196289
 21
-6993.944824
 31
0.0
  0
LINE
  5
449
330
414
100
AcDbEntity
  8
0
  6
Continuous
 62
     7
420
 16777215
100
AcDbLine
 10
14305.862305
 20
-6993.610352
 30
0.0
 11
14333.745117
 21
-6965.727539
 31
0.0
  0
LINE
  5
44A
330
414
100
AcDbEntity
  8
0
  6
Continuous
 62
     7
420
 16777215
100
AcDbLine
 10
14333.411133
 20
-6965.393555
 30
0.0
 11
14305.52832
 21
-6993.276367
 31
0.0
  0
LINE
  5
44B
330
414
100
AcDbEntity
  8
0
  6
Continuous
 62
     7
420
 16777215
100
AcDbLine
 10
14305.193359
 20
-6992.942383
 30
0.0
 11
14333.076172
 21
-6965.05957
 31
0.0
  0
LINE
  5
44C
330
414
100
AcDbEntity
  8
0
  6
Continuous
 62
     7
420
 16777215
100
AcDbLine
 10
14332.742188
 20
-6964.725586
 30
0.0
 11
14304.859375
 21
-6992.608398
 31
0.0
  0
LINE
  5
44D
330
414
100
AcDbEntity
  8
0
  6
Continuous
 62
     7
420
 16777215
100
AcDbLine
 10
14304.525391
 20
-6992.273926
 30
0.0
 11
14332.408203
 21
-6964.391113
 31
0.0
  0
LINE
  5
44E
330
414
100
AcDbEntity
  8
0
  6
Continuous
 62
     7
420
 16777215
100
AcDbLine
 10
14332.074219
 20
-6964.057129
 30
0.0
 11
14304.191406
 21
-6991.939941
 31
0.0
  0
LINE
  5
44F
330
414
100
AcDbEntity
  8
0
  6
Continuous
 62
     7
420
 16777215
100
AcDbLine
 10
14303.857422
 20
-6991.605957
 30
0.0
 11
14331.740234
 21
-6963.723145
 31
0.0
  0
LINE
  5
450
330
414
100
AcDbEntity
  8
0
  6
Continuous
 62
     7
420
 16777215
100
AcDbLine
 10
14331.40625
 20
-6963.38916
 30
0.0
 11
14303.523438
 21
-6991.271973
 31
0.0
  0
LINE
  5
451
330
414
100
AcDbEntity
  8
0
  6
Continuous
 62
     7
420
 16777215
100
AcDbLine
 10
14303.189453
 20
-6990.9375
 30
0.0
 11
14331.072266
 21
-6963.054688
 31
0.0
  0
LINE
  5
452
330
414
100
AcDbEntity
  8
0
  6
Continuous
 62
     7
420
 16777215
100
AcDbLine
 10
14330.738281
 20
-6962.720703
 30
0.0
 11
14302.855469
 21
-6990.603516
 31
0.0
  0
LINE
  5
453
330
414
100
AcDbEntity
  8
0
  6
Continuous
 62
     7
420
 16777215
100
AcDbLine
 10
14302.520508
 20
-6990.269531
 30
0.0
 11
14330.40332
 21
-6962.386719
 31
0.0
  0
LINE
  5
454
330
414
100
AcDbEntity
  8
0
  6
Continuous
 62
     7
420
 16777215
100
AcDbLine
 10
14330.069336
 20
-6962.052734
 30
0.0
 11
14302.186523
 21
-6989.935547
 31
0.0
  0
LINE
  5
455
330
414
100
AcDbEntity
  8
0
  6
Continuous
 62
     7
420
 16777215
100
AcDbLine
 10
14301.852539
 20
-6989.601074
 30
0.0
 11
14329.735352
 21
-6961.718262
 31
0.0
  0
LINE
  5
456
330
414
100
AcDbEntity
  8
0
  6
Continuous
 62
     7
420
 16777215
100
AcDbLine
 10
14329.401367
 20
-6961.384277
 30
0.0
 11
14301.518555
 21
-6989.26709
 31
0.0
  0
LINE
  5
457
330
414
100
AcDbEntity
  8
0
  6
Continuous
 62
     7
420
 16777215
100
AcDbLine
 10
14301.18457
 20
-6988.933105
 30
0.0
 11
14329.067383
 21
-6961.050293
 31
0.0
  0
LINE
  5
458
330
414
100
AcDbEntity
  8
0
  6
Continuous
 62
     7
420
 16777215
100
AcDbLine
 10
14328.733398
 20
-6960.716309
 30
0.0
 11
14300.850586
 21
-6988.598633
 31
0.0
  0
LINE
  5
459
330
414
100
AcDbEntity
  8
0
  6
Continuous
 62
     7
420
 16777215
100
AcDbLine
 10
14300.516602
 20
-6988.264648
 30
0.0
 11
14328.399414
 21
-6960.381836
 31
0.0
  0
LINE
  5
45A
330
414
100
AcDbEntity
  8
0
  6
Continuous
 62
     7
420
 16777215
100
AcDbLine
 10
14328.06543
 20
-6960.047852
 30
0.0
 11
14300.182617
 21
-6987.930664
 31
0.0
  0
LINE
  5
45B
330
414
100
AcDbEntity
  8
0
  6
Continuous
 62
     7
420
 16777215
100
AcDbLine
 10
14299.847656
 20
-6987.59668
 30
0.0
 11
14327.730469
 21
-6959.713867
 31
0.0
  0
LINE
  5
45C
330
414
100
AcDbEntity
  8
0
  6
Continuous
 62
     7
420
 16777215
100
AcDbLine
 10
14327.396484
 20
-6959.379883
 30
0.0
 11
14299.513672
 21
-6987.262207
 31
0.0
  0
LINE
  5
45D
330
414
100
AcDbEntity
  8
0
  6
Continuous
 62
     7
420
 16777215
100
AcDbLine
 10
14299.179688
 20
-6986.928223
 30
0.0
 11
14327.0625
 21
-6959.04541
 31
0.0
  0
LINE
  5
45E
330
414
100
AcDbEntity
  8
0
  6
Continuous
 62
     7
420
 16777215
100
AcDbLine
 10
14326.728516
 20
-6958.711426
 30
0.0
 11
14298.845703
 21
-6986.594238
 31
0.0
  0
LINE
  5
45F
330
414
100
AcDbEntity
  8
0
  6
Continuous
 62
     7
420
 16777215
100
AcDbLine
 10
14298.511719
 20
-6986.260254
 30
0.0
 11
14326.394531
 21
-6958.377441
 31
0.0
  0
LINE
  5
460
330
414
100
AcDbEntity
  8
0
  6
Continuous
 62
     7
420
 16777215
100
AcDbLine
 10
14326.060547
 20
-6958.043457
 30
0.0
 11
14298.177734
 21
-6985.925781
 31
0.0
  0
LINE
  5
461
330
414
100
AcDbEntity
  8
0
  6
Continuous
 62
     7
420
 16777215
100
AcDbLine
 10
14297.84375
 20
-6985.591797
 30
0.0
 11
14325.726562
 21
-6957.708984
 31
0.0
  0
LINE
  5
462
330
414
100
AcDbEntity
  8
0
  6
Continuous
 62
     7
420
 16777215
100
AcDbLine
 10
14325.392578
 20
-6957.375
 30
0.0
 11
14297.509766
 21
-6985.257812
 31
0.0
  0
LINE
  5
463
330
414
100
AcDbEntity
  8
0
  6
Continuous
 62
     7
420
 16777215
100
AcDbLine
 10
14297.174805
 20
-6984.923828
 30
0.0
 11
14325.057617
 21
-6957.041016
 31
0.0
  0
LINE
  5
464
330
414
100
AcDbEntity
  8
0
  6
Continuous
 62
     7
420
 16777215
100
AcDbLine
 10
14324.723633
 20
-6956.707031
 30
0.0
 11
14296.84082
 21
-6984.589355
 31
0.0
  0
LINE
  5
465
330
414
100
AcDbEntity
  8
0
  6
Continuous
 62
     7
420
 16777215
100
AcDbLine
 10
14296.506836
 20
-6984.255371
 30
0.0
 11
14324.389648
 21
-6956.372559
 31
0.0
  0
LINE
  5
466
330
414
100
AcDbEntity
  8
0
  6
Continuous
 62
     7
420
 16777215
100
AcDbLine
 10
14324.055664
 20
-6956.038574
 30
0.0
 11
14296.172852
 21
-6983.921387
 31
0.0
  0
LINE
  5
467
330
414
100
AcDbEntity
  8
0
  6
Continuous
 62
     7
420
 16777215
100
AcDbLine
 10
14295.838867
 20
-6983.587402
 30
0.0
 11
14323.72168
 21
-6955.70459
 31
0.0
  0
LINE
  5
468
330
414
100
AcDbEntity
  8
0
  6
Continuous
 62
     7
420
 16777215
100
AcDbLine
 10
14323.387695
 20
-6955.370605
 30
0.0
 11
14295.504883
 21
-6983.25293
 31
0.0
  0
ENDBLK
  5
46B
330
414
100
AcDbEntity
  8
0
100
AcDbBlockEnd
  0
BLOCK
  5
4D4
330
46C
100
AcDbEntity
  8
0
100
AcDbBlockBegin
  2
.TD_XHATCH_7
 70
     0
 10
14289.321289
 20
-7011.007812
 30
0.0
  3
.TD_XHATCH_7
  1

  0
LINE
  5
46D
330
46C
100
AcDbEntity
  8
0
  6
Continuous
 62
     3
420
    65280
100
AcDbLine
 10
14302.030273
 20
-6998.778809
 30
0.0
 11
14306.530273
 21
-6994.278809
 31
0.0
  0
LINE
  5
46E
330
46C
100
AcDbEntity
  8
0
  6
Continuous
 62
     3
420
    65280
100
AcDbLine
 10
14306.864258
 20
-6994.612793
 30
0.0
 11
14302.454102
 21
-6999.022949
 31
0.0
  0
LINE
  5
46F
330
46C
100
AcDbEntity
  8
0
  6
Continuous
 62
     3
420
    65280
100
AcDbLine
 10
14302.87793
 20
-6999.267578
 30
0.0
 11
14307.198242
 21
-6994.946777
 31
0.0
  0
LINE
  5
470
330
46C
100
AcDbEntity
  8
0
  6
Continuous
 62
     3
420
    65280
100
AcDbLine
 10
14307.532227
 20
-6995.28125
 30
0.0
 11
14303.301758
 21
-6999.512207
 31
0.0
  0
LINE
  5
471
330
46C
100
AcDbEntity
  8
0
  6
Continuous
 62
     3
420
    65280
100
AcDbLine
 10
14303.724609
 20
-6999.756836
 30
0.0
 11
14307.867188
 21
-6995.615234
 31
0.0
  0
LINE
  5
472
330
46C
100
AcDbEntity
  8
0
  6
Continuous
 62
     3
420
    65280
100
AcDbLine
 10
14308.201172
 20
-6995.949219
 30
0.0
 11
14304.148438
 21
-7000.001465
 31
0.0
  0
LINE
  5
473
330
46C
100
AcDbEntity
  8
0
  6
Continuous
 62
     3
420
    65280
100
AcDbLine
 10
14304.572266
 20
-7000.246094
 30
0.0
 11
14308.535156
 21
-6996.283203
 31
0.0
  0
LINE
  5
474
330
46C
100
AcDbEntity
  8
0
  6
Continuous
 62
     3
420
    65280
100
AcDbLine
 10
14308.869141
 20
-6996.617676
 30
0.0
 11
14304.996094
 21
-7000.490723
 31
0.0
  0
LINE
  5
475
330
46C
100
AcDbEntity
  8
0
  6
Continuous
 62
     3
420
    65280
100
AcDbLine
 10
14305.419922
 20
-7000.735352
 30
0.0
 11
14309.203125
 21
-6996.95166
 31
0.0
  0
LINE
  5
476
330
46C
100
AcDbEntity
  8
0
  6
Continuous
 62
     3
420
    65280
100
AcDbLine
 10
14309.537109
 20
-6997.285645
 30
0.0
 11
14305.842773
 21
-7000.97998
 31
0.0
  0
LINE
  5
477
330
46C
100
AcDbEntity
  8
0
  6
Continuous
 62
     3
420
    65280
100
AcDbLine
 10
14306.266602
 20
-7001.224609
 30
0.0
 11
14309.871094
 21
-6997.619629
 31
0.0
  0
LINE
  5
478
330
46C
100
AcDbEntity
  8
0
  6
Continuous
 62
     3
420
    65280
100
AcDbLine
 10
14310.205078
 20
-6997.954102
 30
0.0
 11
14306.69043
 21
-7001.46875
 31
0.0
  0
LINE
  5
479
330
46C
100
AcDbEntity
  8
0
  6
Continuous
 62
     3
420
    65280
100
AcDbLine
 10
14307.114258
 20
-7001.713379
 30
0.0
 11
14310.540039
 21
-6998.288086
 31
0.0
  0
LINE
  5
47A
330
46C
100
AcDbEntity
  8
0
  6
Continuous
 62
     3
420
    65280
100
AcDbLine
 10
14310.874023
 20
-6998.62207
 30
0.0
 11
14307.538086
 21
-7001.958008
 31
0.0
  0
LINE
  5
47B
330
46C
100
AcDbEntity
  8
0
  6
Continuous
 62
     3
420
    65280
100
AcDbLine
 10
14307.960938
 20
-7002.202637
 30
0.0
 11
14311.208008
 21
-6998.956055
 31
0.0
  0
LINE
  5
47C
330
46C
100
AcDbEntity
  8
0
  6
Continuous
 62
     3
420
    65280
100
AcDbLine
 10
14311.541992
 20
-6999.290527
 30
0.0
 11
14308.384766
 21
-7002.447266
 31
0.0
  0
LINE
  5
47D
330
46C
100
AcDbEntity
  8
0
  6
Continuous
 62
     3
420
    65280
100
AcDbLine
 10
14308.808594
 20
-7002.691895
 30
0.0
 11
14311.875977
 21
-6999.624512
 31
0.0
  0
LINE
  5
47E
330
46C
100
AcDbEntity
  8
0
  6
Continuous
 62
     3
420
    65280
100
AcDbLine
 10
14312.209961
 20
-6999.958496
 30
0.0
 11
14309.232422
 21
-7002.936523
 31
0.0
  0
LINE
  5
47F
330
46C
100
AcDbEntity
  8
0
  6
Continuous
 62
     3
420
    65280
100
AcDbLine
 10
14309.65625
 20
-7003.181152
 30
0.0
 11
14312.543945
 21
-7000.29248
 31
0.0
  0
LINE
  5
480
330
46C
100
AcDbEntity
  8
0
  6
Continuous
 62
     3
420
    65280
100
AcDbLine
 10
14312.87793
 20
-7000.626953
 30
0.0
 11
14310.079102
 21
-7003.425781
 31
0.0
  0
LINE
  5
481
330
46C
100
AcDbEntity
  8
0
  6
Continuous
 62
     3
420
    65280
100
AcDbLine
 10
14310.50293
 20
-7003.67041
 30
0.0
 11
14313.212891
 21
-7000.960938
 31
0.0
  0
LINE
  5
482
330
46C
100
AcDbEntity
  8
0
  6
Continuous
 62
     3
420
    65280
100
AcDbLine
 10
14313.546875
 20
-7001.294922
 30
0.0
 11
14310.926758
 21
-7003.915039
 31
0.0
  0
LINE
  5
483
330
46C
100
AcDbEntity
  8
0
  6
Continuous
 62
     3
420
    65280
100
AcDbLine
 10
14311.350586
 20
-7004.15918
 30
0.0
 11
14313.880859
 21
-7001.628906
 31
0.0
  0
LINE
  5
484
330
46C
100
AcDbEntity
  8
0
  6
Continuous
 62
     3
420
    65280
100
AcDbLine
 10
14314.214844
 20
-7001.963379
 30
0.0
 11
14311.774414
 21
-7004.403809
 31
0.0
  0
LINE
  5
485
330
46C
100
AcDbEntity
  8
0
  6
Continuous
 62
     3
420
    65280
100
AcDbLine
 10
14312.197266
 20
-7004.648438
 30
0.0
 11
14314.548828
 21
-7002.297363
 31
0.0
  0
LINE
  5
486
330
46C
100
AcDbEntity
  8
0
  6
Continuous
 62
     3
420
    65280
100
AcDbLine
 10
14314.882812
 20
-7002.631348
 30
0.0
 11
14312.621094
 21
-7004.893066
 31
0.0
  0
LINE
  5
487
330
46C
100
AcDbEntity
  8
0
  6
Continuous
 62
     3
420
    65280
100
AcDbLine
 10
14313.044922
 20
-7005.137695
 30
0.0
 11
14315.216797
 21
-7002.965332
 31
0.0
  0
LINE
  5
488
330
46C
100
AcDbEntity
  8
0
  6
Continuous
 62
     3
420
    65280
100
AcDbLine
 10
14315.550781
 20
-7003.299805
 30
0.0
 11
14313.46875
 21
-7005.382324
 31
0.0
  0
LINE
  5
489
330
46C
100
AcDbEntity
  8
0
  6
Continuous
 62
     3
420
    65280
100
AcDbLine
 10
14313.892578
 20
-7005.626953
 30
0.0
 11
14315.885742
 21
-7003.633789
 31
0.0
  0
LINE
  5
48A
330
46C
100
AcDbEntity
  8
0
  6
Continuous
 62
     3
420
    65280
100
AcDbLine
 10
14316.219727
 20
-7003.967773
 30
0.0
 11
14314.31543
 21
-7005.871582
 31
0.0
  0
LINE
  5
48B
330
46C
100
AcDbEntity
  8
0
  6
Continuous
 62
     3
420
    65280
100
AcDbLine
 10
14314.739258
 20
-7006.116211
 30
0.0
 11
14316.553711
 21
-7004.301758
 31
0.0
  0
LINE
  5
48C
330
46C
100
AcDbEntity
  8
0
  6
Continuous
 62
     3
420
    65280
100
AcDbLine
 10
14316.887695
 20
-7004.63623
 30
0.0
 11
14315.163086
 21
-7006.36084
 31
0.0
  0
LINE
  5
48D
330
46C
100
AcDbEntity
  8
0
  6
Continuous
 62
     3
420
    65280
100
AcDbLine
 10
14315.586914
 20
-7006.605469
 30
0.0
 11
14317.22168
 21
-7004.970215
 31
0.0
  0
LINE
  5
48E
330
46C
100
AcDbEntity
  8
0
  6
Continuous
 62
     3
420
    65280
100
AcDbLine
 10
14317.555664
 20
-7005.304199
 30
0.0
 11
14316.010742
 21
-7006.849609
 31
0.0
  0
LINE
  5
48F
330
46C
100
AcDbEntity
  8
0
  6
Continuous
 62
     3
420
    65280
100
AcDbLine
 10
14316.433594
 20
-7007.094238
 30
0.0
 11
14317.889648
 21
-7005.638184
 31
0.0
  0
LINE
  5
490
330
46C
100
AcDbEntity
  8
0
  6
Continuous
 62
     3
420
    65280
100
AcDbLine
 10
14318.223633
 20
-7005.972656
 30
0.0
 11
14316.857422
 21
-7007.338867
 31
0.0
  0
LINE
  5
491
330
46C
100
AcDbEntity
  8
0
  6
Continuous
 62
     3
420
    65280
100
AcDbLine
 10
14317.28125
 20
-7007.583496
 30
0.0
 11
14318.558594
 21
-7006.306641
 31
0.0
  0
LINE
  5
492
330
46C
100
AcDbEntity
  8
0
  6
Continuous
 62
     3
420
    65280
100
AcDbLine
 10
14318.892578
 20
-7006.640625
 30
0.0
 11
14317.705078
 21
-7007.828125
 31
0.0
  0
LINE
  5
493
330
46C
100
AcDbEntity
  8
0
  6
Continuous
 62
     3
420
    65280
100
AcDbLine
 10
14318.128906
 20
-7008.072754
 30
0.0
 11
14319.226562
 21
-7006.974609
 31
0.0
  0
LINE
  5
494
330
46C
100
AcDbEntity
  8
0
  6
Continuous
 62
     3
420
    65280
100
AcDbLine
 10
14319.560547
 20
-7007.309082
 30
0.0
 11
14318.551758
 21
-7008.317383
 31
0.0
  0
LINE
  5
495
330
46C
100
AcDbEntity
  8
0
  6
Continuous
 62
     3
420
    65280
100
AcDbLine
 10
14318.975586
 20
-7008.562012
 30
0.0
 11
14319.894531
 21
-7007.643066
 31
0.0
  0
LINE
  5
496
330
46C
100
AcDbEntity
  8
0
  6
Continuous
 62
     3
420
    65280
100
AcDbLine
 10
14320.228516
 20
-7007.977051
 30
0.0
 11
14319.399414
 21
-7008.806641
 31
0.0
  0
LINE
  5
497
330
46C
100
AcDbEntity
  8
0
  6
Continuous
 62
     3
420
    65280
100
AcDbLine
 10
14319.823242
 20
-7009.05127
 30
0.0
 11
14320.5625
 21
-7008.311035
 31
0.0
  0
LINE
  5
498
330
46C
100
AcDbEntity
  8
0
  6
Continuous
 62
     3
420
    65280
100
AcDbLine
 10
14320.896484
 20
-7008.645508
 30
0.0
 11
14320.24707
 21
-7009.295898
 31
0.0
  0
LINE
  5
499
330
46C
100
AcDbEntity
  8
0
  6
Continuous
 62
     3
420
    65280
100
AcDbLine
 10
14320.669922
 20
-7009.540039
 30
0.0
 11
14321.231445
 21
-7008.979492
 31
0.0
  0
LINE
  5
49A
330
46C
100
AcDbEntity
  8
0
  6
Continuous
 62
     3
420
    65280
100
AcDbLine
 10
14321.56543
 20
-7009.313477
 30
0.0
 11
14321.09375
 21
-7009.784668
 31
0.0
  0
LINE
  5
49B
330
46C
100
AcDbEntity
  8
0
  6
Continuous
 62
     3
420
    65280
100
AcDbLine
 10
14321.517578
 20
-7010.029297
 30
0.0
 11
14321.899414
 21
-7009.647461
 31
0.0
  0
LINE
  5
49C
330
46C
100
AcDbEntity
  8
0
  6
Continuous
 62
     3
420
    65280
100
AcDbLine
 10
14322.233398
 20
-7009.981934
 30
0.0
 11
14321.941406
 21
-7010.273926
 31
0.0
  0
LINE
  5
49D
330
46C
100
AcDbEntity
  8
0
  6
Continuous
 62
     3
420
    65280
100
AcDbLine
 10
14322.365234
 20
-7010.518555
 30
0.0
 11
14322.567383
 21
-7010.315918
 31
0.0
  0
LINE
  5
49E
330
46C
100
AcDbEntity
  8
0
  6
Continuous
 62
     3
420
    65280
100
AcDbLine
 10
14322.901367
 20
-7010.649902
 30
0.0
 11
14322.788086
 21
-7010.763184
 31
0.0
  0
LINE
  5
49F
330
46C
100
AcDbEntity
  8
0
  6
Continuous
 62
     3
420
    65280
100
AcDbLine
 10
14323.211914
 20
-7011.007812
 30
0.0
 11
14323.235352
 21
-7010.983887
 31
0.0
  0
LINE
  5
4A0
330
46C
100
AcDbEntity
  8
0
  6
Continuous
 62
     3
420
    65280
100
AcDbLine
 10
14306.196289
 20
-6993.944824
 30
0.0
 11
14301.606445
 21
-6998.53418
 31
0.0
  0
LINE
  5
4A1
330
46C
100
AcDbEntity
  8
0
  6
Continuous
 62
     3
420
    65280
100
AcDbLine
 10
14301.183594
 20
-6998.289551
 30
0.0
 11
14305.862305
 21
-6993.610352
 31
0.0
  0
LINE
  5
4A2
330
46C
100
AcDbEntity
  8
0
  6
Continuous
 62
     3
420
    65280
100
AcDbLine
 10
14305.52832
 20
-6993.276367
 30
0.0
 11
14300.759766
 21
-6998.044922
 31
0.0
  0
LINE
  5
4A3
330
46C
100
AcDbEntity
  8
0
  6
Continuous
 62
     3
420
    65280
100
AcDbLine
 10
14300.335938
 20
-6997.800293
 30
0.0
 11
14305.193359
 21
-6992.942383
 31
0.0
  0
LINE
  5
4A4
330
46C
100
AcDbEntity
  8
0
  6
Continuous
 62
     3
420
    65280
100
AcDbLine
 10
14304.859375
 20
-6992.608398
 30
0.0
 11
14299.912109
 21
-6997.555664
 31
0.0
  0
LINE
  5
4A5
330
46C
100
AcDbEntity
  8
0
  6
Continuous
 62
     3
420
    65280
100
AcDbLine
 10
14299.488281
 20
-6997.311035
 30
0.0
 11
14304.525391
 21
-6992.273926
 31
0.0
  0
LINE
  5
4A6
330
46C
100
AcDbEntity
  8
0
  6
Continuous
 62
     3
420
    65280
100
AcDbLine
 10
14304.191406
 20
-6991.939941
 30
0.0
 11
14299.06543
 21
-6997.066406
 31
0.0
  0
LINE
  5
4A7
330
46C
100
AcDbEntity
  8
0
  6
Continuous
 62
     3
420
    65280
100
AcDbLine
 10
14298.641602
 20
-6996.821777
 30
0.0
 11
14303.857422
 21
-6991.605957
 31
0.0
  0
LINE
  5
4A8
330
46C
100
AcDbEntity
  8
0
  6
Continuous
 62
     3
420
    65280
100
AcDbLine
 10
14303.523438
 20
-6991.271973
 30
0.0
 11
14298.217773
 21
-6996.577148
 31
0.0
  0
LINE
  5
4A9
330
46C
100
AcDbEntity
  8
0
  6
Continuous
 62
     3
420
    65280
100
AcDbLine
 10
14297.793945
 20
-6996.33252
 30
0.0
 11
14303.189453
 21
-6990.9375
 31
0.0
  0
LINE
  5
4AA
330
46C
100
AcDbEntity
  8
0
  6
Continuous
 62
     3
420
    65280
100
AcDbLine
 10
14302.855469
 20
-6990.603516
 30
0.0
 11
14297.370117
 21
-6996.088379
 31
0.0
  0
LINE
  5
4AB
330
46C
100
AcDbEntity
  8
0
  6
Continuous
 62
     3
420
    65280
100
AcDbLine
 10
14296.947266
 20
-6995.84375
 30
0.0
 11
14302.520508
 21
-6990.269531
 31
0.0
  0
LINE
  5
4AC
330
46C
100
AcDbEntity
  8
0
  6
Continuous
 62
     3
420
    65280
100
AcDbLine
 10
14302.186523
 20
-6989.935547
 30
0.0
 11
14296.523438
 21
-6995.599121
 31
0.0
  0
LINE
  5
4AD
330
46C
100
AcDbEntity
  8
0
  6
Continuous
 62
     3
420
    65280
100
AcDbLine
 10
14296.099609
 20
-6995.354492
 30
0.0
 11
14301.852539
 21
-6989.601074
 31
0.0
  0
LINE
  5
4AE
330
46C
100
AcDbEntity
  8
0
  6
Continuous
 62
     3
420
    65280
100
AcDbLine
 10
14301.518555
 20
-6989.26709
 30
0.0
 11
14295.675781
 21
-6995.109863
 31
0.0
  0
LINE
  5
4AF
330
46C
100
AcDbEntity
  8
0
  6
Continuous
 62
     3
420
    65280
100
AcDbLine
 10
14295.251953
 20
-6994.865234
 30
0.0
 11
14301.18457
 21
-6988.933105
 31
0.0
  0
LINE
  5
4B0
330
46C
100
AcDbEntity
  8
0
  6
Continuous
 62
     3
420
    65280
100
AcDbLine
 10
14300.850586
 20
-6988.598633
 30
0.0
 11
14294.829102
 21
-6994.620605
 31
0.0
  0
LINE
  5
4B1
330
46C
100
AcDbEntity
  8
0
  6
Continuous
 62
     3
420
    65280
100
AcDbLine
 10
14294.405273
 20
-6994.375977
 30
0.0
 11
14300.516602
 21
-6988.264648
 31
0.0
  0
LINE
  5
4B2
330
46C
100
AcDbEntity
  8
0
  6
Continuous
 62
     3
420
    65280
100
AcDbLine
 10
14300.182617
 20
-6987.930664
 30
0.0
 11
14293.981445
 21
-6994.131348
 31
0.0
  0
LINE
  5
4B3
330
46C
100
AcDbEntity
  8
0
  6
Continuous
 62
     3
420
    65280
100
AcDbLine
 10
14293.557617
 20
-6993.886719
 30
0.0
 11
14299.847656
 21
-6987.59668
 31
0.0
  0
LINE
  5
4B4
330
46C
100
AcDbEntity
  8
0
  6
Continuous
 62
     3
420
    65280
100
AcDbLine
 10
14299.513672
 20
-6987.262207
 30
0.0
 11
14293.133789
 21
-6993.64209
 31
0.0
  0
LINE
  5
4B5
330
46C
100
AcDbEntity
  8
0
  6
Continuous
 62
     3
420
    65280
100
AcDbLine
 10
14292.710938
 20
-6993.397949
 30
0.0
 11
14299.179688
 21
-6986.928223
 31
0.0
  0
LINE
  5
4B6
330
46C
100
AcDbEntity
  8
0
  6
Continuous
 62
     3
420
    65280
100
AcDbLine
 10
14298.845703
 20
-6986.594238
 30
0.0
 11
14292.287109
 21
-6993.15332
 31
0.0
  0
LINE
  5
4B7
330
46C
100
AcDbEntity
  8
0
  6
Continuous
 62
     3
420
    65280
100
AcDbLine
 10
14291.863281
 20
-6992.908691
 30
0.0
 11
14298.511719
 21
-6986.260254
 31
0.0
  0
LINE
  5
4B8
330
46C
100
AcDbEntity
  8
0
  6
Continuous
 62
     3
420
    65280
100
AcDbLine
 10
14298.177734
 20
-6985.925781
 30
0.0
 11
14291.439453
 21
-6992.664062
 31
0.0
  0
LINE
  5
4B9
330
46C
100
AcDbEntity
  8
0
  6
Continuous
 62
     3
420
    65280
100
AcDbLine
 10
14291.015625
 20
-6992.419434
 30
0.0
 11
14297.84375
 21
-6985.591797
 31
0.0
  0
LINE
  5
4BA
330
46C
100
AcDbEntity
  8
0
  6
Continuous
 62
     3
420
    65280
100
AcDbLine
 10
14297.509766
 20
-6985.257812
 30
0.0
 11
14290.592773
 21
-6992.174805
 31
0.0
  0
LINE
  5
4BB
330
46C
100
AcDbEntity
  8
0
  6
Continuous
 62
     3
420
    65280
100
AcDbLine
 10
14290.168945
 20
-6991.930176
 30
0.0
 11
14297.174805
 21
-6984.923828
 31
0.0
  0
LINE
  5
4BC
330
46C
100
AcDbEntity
  8
0
  6
Continuous
 62
     3
420
    65280
100
AcDbLine
 10
14296.84082
 20
-6984.589355
 30
0.0
 11
14289.745117
 21
-6991.685547
 31
0.0
  0
LINE
  5
4BD
330
46C
100
AcDbEntity
  8
0
  6
Continuous
 62
     3
420
    65280
100
AcDbLine
 10
14289.321289
 20
-6991.440918
 30
0.0
 11
14296.506836
 21
-6984.255371
 31
0.0
  0
LINE
  5
4BE
330
46C
100
AcDbEntity
  8
0
  6
Continuous
 62
     3
420
    65280
100
AcDbLine
 10
14296.172852
 20
-6983.921387
 30
0.0
 11
14289.771484
 21
-6990.322754
 31
0.0
  0
LINE
  5
4BF
330
46C
100
AcDbEntity
  8
0
  6
Continuous
 62
     3
420
    65280
100
AcDbLine
 10
14290.68457
 20
-6988.741699
 30
0.0
 11
14295.838867
 21
-6983.587402
 31
0.0
  0
LINE
  5
4C0
330
46C
100
AcDbEntity
  8
0
  6
Continuous
 62
     3
420
    65280
100
AcDbLine
 10
14295.504883
 20
-6983.25293
 30
0.0
 11
14291.59668
 21
-6987.160645
 31
0.0
  0
LINE
  5
4C1
330
46C
100
AcDbEntity
  8
0
  6
Continuous
 62
     3
420
    65280
100
AcDbLine
 10
14292.509766
 20
-6985.580078
 30
0.0
 11
14316.493164
 21
-6961.596191
 31
0.0
  0
LINE
  5
4C2
330
46C
100
AcDbEntity
  8
0
  6
Continuous
 62
     3
420
    65280
100
AcDbLine
 10
14316.069336
 20
-6961.351562
 30
0.0
 11
14293.422852
 21
-6983.999023
 31
0.0
  0
LINE
  5
4C3
330
46C
100
AcDbEntity
  8
0
  6
Continuous
 62
     3
420
    65280
100
AcDbLine
 10
14294.334961
 20
-6982.417969
 30
0.0
 11
14315.646484
 21
-6961.107422
 31
0.0
  0
LINE
  5
4C4
330
46C
100
AcDbEntity
  8
0
  6
Continuous
 62
     3
420
    65280
100
AcDbLine
 10
14315.222656
 20
-6960.862793
 30
0.0
 11
14295.248047
 21
-6980.836914
 31
0.0
  0
LINE
  5
4C5
330
46C
100
AcDbEntity
  8
0
  6
Continuous
 62
     3
420
    65280
100
AcDbLine
 10
14296.161133
 20
-6979.255859
 30
0.0
 11
14314.798828
 21
-6960.618164
 31
0.0
  0
LINE
  5
4C6
330
46C
100
AcDbEntity
  8
0
  6
Continuous
 62
     3
420
    65280
100
AcDbLine
 10
14314.375
 20
-6960.373535
 30
0.0
 11
14297.074219
 21
-6977.674805
 31
0.0
  0
LINE
  5
4C7
330
46C
100
AcDbEntity
  8
0
  6
Continuous
 62
     3
420
    65280
100
AcDbLine
 10
14297.986328
 20
-6976.09375
 30
0.0
 11
14313.951172
 21
-6960.128906
 31
0.0
  0
LINE
  5
4C8
330
46C
100
AcDbEntity
  8
0
  6
Continuous
 62
     3
420
    65280
100
AcDbLine
 10
14313.52832
 20
-6959.884277
 30
0.0
 11
14298.899414
 21
-6974.512695
 31
0.0
  0
LINE
  5
4C9
330
46C
100
AcDbEntity
  8
0
  6
Continuous
 62
     3
420
    65280
100
AcDbLine
 10
14299.8125
 20
-6972.931641
 30
0.0
 11
14313.104492
 21
-6959.639648
 31
0.0
  0
LINE
  5
4CA
330
46C
100
AcDbEntity
  8
0
  6
Continuous
 62
     3
420
    65280
100
AcDbLine
 10
14312.680664
 20
-6959.39502
 30
0.0
 11
14300.724609
 21
-6971.350586
 31
0.0
  0
LINE
  5
4CB
330
46C
100
AcDbEntity
  8
0
  6
Continuous
 62
     3
420
    65280
100
AcDbLine
 10
14301.637695
 20
-6969.769531
 30
0.0
 11
14312.256836
 21
-6959.150391
 31
0.0
  0
LINE
  5
4CC
330
46C
100
AcDbEntity
  8
0
  6
Continuous
 62
     3
420
    65280
100
AcDbLine
 10
14311.833008
 20
-6958.905762
 30
0.0
 11
14302.550781
 21
-6968.188477
 31
0.0
  0
LINE
  5
4CD
330
46C
100
AcDbEntity
  8
0
  6
Continuous
 62
     3
420
    65280
100
AcDbLine
 10
14303.463867
 20
-6966.607422
 30
0.0
 11
14311.410156
 21
-6958.661133
 31
0.0
  0
LINE
  5
4CE
330
46C
100
AcDbEntity
  8
0
  6
Continuous
 62
     3
420
    65280
100
AcDbLine
 10
14310.986328
 20
-6958.416992
 30
0.0
 11
14304.375977
 21
-6965.026855
 31
0.0
  0
LINE
  5
4CF
330
46C
100
AcDbEntity
  8
0
  6
Continuous
 62
     3
420
    65280
100
AcDbLine
 10
14305.289062
 20
-6963.445801
 30
0.0
 11
14310.5625
 21
-6958.172363
 31
0.0
  0
LINE
  5
4D0
330
46C
100
AcDbEntity
  8
0
  6
Continuous
 62
     3
420
    65280
100
AcDbLine
 10
14310.138672
 20
-6957.927734
 30
0.0
 11
14306.202148
 21
-6961.864746
 31
0.0
  0
LINE
  5
4D1
330
46C
100
AcDbEntity
  8
0
  6
Continuous
 62
     3
420
    65280
100
AcDbLine
 10
14307.114258
 20
-6960.283691
 30
0.0
 11
14309.714844
 21
-6957.683105
 31
0.0
  0
LINE
  5
4D2
330
46C
100
AcDbEntity
  8
0
  6
Continuous
 62
     3
420
    65280
100
AcDbLine
 10
14309.291992
 20
-6957.438477
 30
0.0
 11
14308.027344
 21
-6958.702637
 31
0.0
  0
ENDBLK
  5
4D5
330
46C
100
AcDbEntity
  8
0
100
AcDbBlockEnd
  0
BLOCK
  5
4E1
330
4D7
100
AcDbEntity
  8
0
100
AcDbBlockBegin
  2
*D9
 70
     1
 10
0.0
 20
0.0
 30
0.0
  3
*D9
  1

  0
LINE
  5
4D8
330
4D7
100
AcDbEntity
  8
0
  6
Continuous
 62
     7
370
    -2
100
AcDbLine
 10
14750.488529
 20
-4824.371081
 30
0.0
 11
14750.488529
 21
-4747.55664
 31
0.0
  0
LINE
  5
4D9
330
4D7
100
AcDbEntity
  8
0
  6
Continuous
 62
     7
370
    -2
100
AcDbLine
 10
15588.688529
 20
-4824.371081
 30
0.0
 11
15588.688529
 21
-4747.55664
 31
0.0
  0
LINE
  5
4DA
330
4D7
100
AcDbEntity
  8
0
  6
Continuous
 62
     7
370
    -2
100
AcDbLine
 10
14778.488528
 20
-4763.556641
 30
0.0
 11
15560.688529
 21
-4763.556641
 31
0.0
  0
INSERT
  5
4DB
330
4D7
100
AcDbEntity
  8
0
 62
     7
370
    -2
100
AcDbBlockReference
  2
_CLOSED
 10
14750.488529
 20
-4763.556641
 30
0.0
 41
28.0
 42
28.0
 43
28.0
 50
180.0
  0
INSERT
  5
4DC
330
4D7
100
AcDbEntity
  8
0
 62
     7
370
    -2
100
AcDbBlockReference
  2
_CLOSED
 10
15588.688529
 20
-4763.556641
 30
0.0
 41
28.0
 42
28.0
 43
28.0
  0
MTEXT
  5
4DD
330
4D7
100
AcDbEntity
  8
0
 62
     2
370
     0
100
AcDbMText
 10
15169.588529
 20
-4729.356641
 30
0.0
 40
40.0
 41
0.0
 46
0.0
 71
     5
 72
     1
  1
\A1;\fArial|b0|i0|c0|p0;838 (33")
  7
Default
 73
     1
 44
1.0
  0
POINT
  5
4DE
330
4D7
100
AcDbEntity
  8
DEFPOINTS
 62
     0
100
AcDbPoint
 10
14750.488529
 20
-4864.371081
 30
0.0
  0
POINT
  5
4DF
330
4D7
100
AcDbEntity
  8
DEFPOINTS
 62
     0
100
AcDbPoint
 10
15588.688529
 20
-4864.371081
 30
0.0
  0
POINT
  5
4E0
330
4D7
100
AcDbEntity
  8
DEFPOINTS
 62
     0
100
AcDbPoint
 10
15588.688529
 20
-4763.556641
 30
0.0
  0
ENDBLK
  5
4E2
330
4D7
100
AcDbEntity
  8
0
100
AcDbBlockEnd
  0
BLOCK
  5
4EE
330
4E4
100
AcDbEntity
  8
0
100
AcDbBlockBegin
  2
*D10
 70
     1
 10
0.0
 20
0.0
 30
0.0
  3
*D10
  1

  0
LINE
  5
4E5
330
4E4
100
AcDbEntity
  8
0
  6
Continuous
 62
     7
370
    -2
100
AcDbLine
 10
14738.988529
 20
-4882.371081
 30
0.0
 11
14564.524414
 21
-4882.371081
 31
0.0
  0
LINE
  5
4E6
330
4E4
100
AcDbEntity
  8
0
  6
Continuous
 62
     7
370
    -2
100
AcDbLine
 10
14738.988529
 20
-5316.371081
 30
0.0
 11
14564.524414
 21
-5316.371081
 31
0.0
  0
LINE
  5
4E7
330
4E4
100
AcDbEntity
  8
0
  6
Continuous
 62
     7
370
    -2
100
AcDbLine
 10
14578.524414
 20
-4906.871081
 30
0.0
 11
14578.524414
 21
-5291.871082
 31
0.0
  0
INSERT
  5
4E8
330
4E4
100
AcDbEntity
  8
0
 62
     7
370
    -2
100
AcDbBlockReference
  2
_CLOSED
 10
14578.524414
 20
-4882.371081
 30
0.0
 41
24.5
 42
24.5
 43
24.5
 50
90.0
  0
INSERT
  5
4E9
330
4E4
100
AcDbEntity
  8
0
 62
     7
370
    -2
100
AcDbBlockReference
  2
_CLOSED
 10
14578.524414
 20
-5316.371081
 30
0.0
 41
24.5
 42
24.5
 43
24.5
 50
270.0
  0
MTEXT
  5
4EA
330
4E4
100
AcDbEntity
  8
0
 62
     2
370
     0
100
AcDbMText
 10
14545.099414
 20
-5099.371081
 30
0.0
 40
35.0
 41
0.0
 46
0.0
 71
     5
 72
     1
  1
\A1;\fArial|b0|i0|c0|p0;434 (17 1/8")
  7
Default
 11
8.382439647676758E-15
 21
1.0
 31
0.0
 73
     1
 44
1.0
  0
POINT
  5
4EB
330
4E4
100
AcDbEntity
  8
DEFPOINTS
 62
     0
100
AcDbPoint
 10
14791.488529
 20
-4882.371081
 30
0.0
  0
POINT
  5
4EC
330
4E4
100
AcDbEntity
  8
DEFPOINTS
 62
     0
100
AcDbPoint
 10
14791.488529
 20
-5316.371081
 30
0.0
  0
POINT
  5
4ED
330
4E4
100
AcDbEntity
  8
DEFPOINTS
 62
     0
100
AcDbPoint
 10
14578.524414
 20
-5316.371081
 30
0.0
  0
ENDBLK
  5
4EF
330
4E4
100
AcDbEntity
  8
0
100
AcDbBlockEnd
  0
BLOCK
  5
4FB
330
4F1
100
AcDbEntity
  8
0
100
AcDbBlockBegin
  2
*D11
 70
     1
 10
0.0
 20
0.0
 30
0.0
  3
*D11
  1

  0
LINE
  5
4F2
330
4F1
100
AcDbEntity
  8
0
  6
Continuous
 62
     7
370
    -2
100
AcDbLine
 10
14785.488529
 20
-5363.871081
 30
0.0
 11
14785.488529
 21
-5559.451172
 31
0.0
  0
LINE
  5
4F3
330
4F1
100
AcDbEntity
  8
0
  6
Continuous
 62
     7
370
    -2
100
AcDbLine
 10
15553.688529
 20
-5363.871081
 30
0.0
 11
15553.688529
 21
-5559.451172
 31
0.0
  0
LINE
  5
4F4
330
4F1
100
AcDbEntity
  8
0
  6
Continuous
 62
     7
370
    -2
100
AcDbLine
 10
14809.988528
 20
-5545.451172
 30
0.0
 11
15529.188529
 21
-5545.451172
 31
0.0
  0
INSERT
  5
4F5
330
4F1
100
AcDbEntity
  8
0
 62
     7
370
    -2
100
AcDbBlockReference
  2
_CLOSED
 10
14785.488529
 20
-5545.451172
 30
0.0
 41
24.5
 42
24.5
 43
24.5
 50
180.0
  0
INSERT
  5
4F6
330
4F1
100
AcDbEntity
  8
0
 62
     7
370
    -2
100
AcDbBlockReference
  2
_CLOSED
 10
15553.688529
 20
-5545.451172
 30
0.0
 41
24.5
 42
24.5
 43
24.5
  0
MTEXT
  5
4F7
330
4F1
100
AcDbEntity
  8
0
 62
     2
370
     0
100
AcDbMText
 10
15169.588529
 20
-5515.526172
 30
0.0
 40
35.0
 41
0.0
 46
0.0
 71
     5
 72
     1
  1
\A1;\fArial|b0|i0|c0|p0;768 (30 1/4")
  7
Default
 73
     1
 44
1.0
  0
POINT
  5
4F8
330
4F1
100
AcDbEntity
  8
DEFPOINTS
 62
     0
100
AcDbPoint
 10
14785.488529
 20
-5311.371081
 30
0.0
  0
POINT
  5
4F9
330
4F1
100
AcDbEntity
  8
DEFPOINTS
 62
     0
100
AcDbPoint
 10
15553.688529
 20
-5311.371081
 30
0.0
  0
POINT
  5
4FA
330
4F1
100
AcDbEntity
  8
DEFPOINTS
 62
     0
100
AcDbPoint
 10
15553.688529
 20
-5545.451172
 30
0.0
  0
ENDBLK
  5
4FC
330
4F1
100
AcDbEntity
  8
0
100
AcDbBlockEnd
  0
BLOCK
  5
508
330
4FE
100
AcDbEntity
  8
0
100
AcDbBlockBegin
  2
*D12
 70
     1
 10
0.0
 20
0.0
 30
0.0
  3
*D12
  1

  0
LINE
  5
4FF
330
4FE
100
AcDbEntity
  8
0
  6
Continuous
 62
     7
370
    -2
100
AcDbLine
 10
14785.488529
 20
-5362.871081
 30
0.0
 11
14785.488529
 21
-5458.672852
 31
0.0
  0
LINE
  5
500
330
4FE
100
AcDbEntity
  8
0
  6
Continuous
 62
     7
370
    -2
100
AcDbLine
 10
15154.588529
 20
-5358.871081
 30
0.0
 11
15154.588529
 21
-5458.672852
 31
0.0
  0
LINE
  5
501
330
4FE
100
AcDbEntity
  8
0
  6
Continuous
 62
     7
370
    -2
100
AcDbLine
 10
14809.988528
 20
-5444.672852
 30
0.0
 11
15130.088529
 21
-5444.672852
 31
0.0
  0
INSERT
  5
502
330
4FE
100
AcDbEntity
  8
0
 62
     7
370
    -2
100
AcDbBlockReference
  2
_CLOSED
 10
14785.488529
 20
-5444.672852
 30
0.0
 41
24.5
 42
24.5
 43
24.5
 50
180.0
  0
INSERT
  5
503
330
4FE
100
AcDbEntity
  8
0
 62
     7
370
    -2
100
AcDbBlockReference
  2
_CLOSED
 10
15154.588529
 20
-5444.672852
 30
0.0
 41
24.5
 42
24.5
 43
24.5
  0
MTEXT
  5
504
330
4FE
100
AcDbEntity
  8
0
 62
     2
370
     0
100
AcDbMText
 10
14970.038529
 20
-5414.747851
 30
0.0
 40
35.0
 41
0.0
 46
0.0
 71
     5
 72
     1
  1
\A1;\fArial|b0|i0|c0|p0;369 (14 3/5")
  7
Default
 73
     1
 44
1.0
  0
POINT
  5
505
330
4FE
100
AcDbEntity
  8
DEFPOINTS
 62
     0
100
AcDbPoint
 10
14785.488529
 20
-5310.371081
 30
0.0
  0
POINT
  5
506
330
4FE
100
AcDbEntity
  8
DEFPOINTS
 62
     0
100
AcDbPoint
 10
15154.588529
 20
-5306.371081
 30
0.0
  0
POINT
  5
507
330
4FE
100
AcDbEntity
  8
DEFPOINTS
 62
     0
100
AcDbPoint
 10
15154.588529
 20
-5444.672852
 30
0.0
  0
ENDBLK
  5
509
330
4FE
100
AcDbEntity
  8
0
100
AcDbBlockEnd
  0
BLOCK
  5
515
330
50B
100
AcDbEntity
  8
0
100
AcDbBlockBegin
  2
*D13
 70
     1
 10
0.0
 20
0.0
 30
0.0
  3
*D13
  1

  0
LINE
  5
50C
330
50B
100
AcDbEntity
  8
0
  6
Continuous
 62
     7
370
    -2
100
AcDbLine
 10
15184.588529
 20
-5358.871081
 30
0.0
 11
15184.588529
 21
-5458.672852
 31
0.0
  0
LINE
  5
50D
330
50B
100
AcDbEntity
  8
0
  6
Continuous
 62
     7
370
    -2
100
AcDbLine
 10
15553.688529
 20
-5362.871081
 30
0.0
 11
15553.688529
 21
-5458.672852
 31
0.0
  0
LINE
  5
50E
330
50B
100
AcDbEntity
  8
0
  6
Continuous
 62
     7
370
    -2
100
AcDbLine
 10
15209.088528
 20
-5444.672852
 30
0.0
 11
15529.188529
 21
-5444.672852
 31
0.0
  0
INSERT
  5
50F
330
50B
100
AcDbEntity
  8
0
 62
     7
370
    -2
100
AcDbBlockReference
  2
_CLOSED
 10
15184.588529
 20
-5444.672852
 30
0.0
 41
24.5
 42
24.5
 43
24.5
 50
180.0
  0
INSERT
  5
510
330
50B
100
AcDbEntity
  8
0
 62
     7
370
    -2
100
AcDbBlockReference
  2
_CLOSED
 10
15553.688529
 20
-5444.672852
 30
0.0
 41
24.5
 42
24.5
 43
24.5
  0
MTEXT
  5
511
330
50B
100
AcDbEntity
  8
0
 62
     2
370
     0
100
AcDbMText
 10
15369.138529
 20
-5414.747851
 30
0.0
 40
35.0
 41
0.0
 46
0.0
 71
     5
 72
     1
  1
\A1;\fArial|b0|i0|c0|p0;369 (14 3/5")
  7
Default
 73
     1
 44
1.0
  0
POINT
  5
512
330
50B
100
AcDbEntity
  8
DEFPOINTS
 62
     0
100
AcDbPoint
 10
15184.588529
 20
-5306.371081
 30
0.0
  0
POINT
  5
513
330
50B
100
AcDbEntity
  8
DEFPOINTS
 62
     0
100
AcDbPoint
 10
15553.688529
 20
-5310.371081
 30
0.0
  0
POINT
  5
514
330
50B
100
AcDbEntity
  8
DEFPOINTS
 62
     0
100
AcDbPoint
 10
15553.688529
 20
-5444.672852
 30
0.0
  0
ENDBLK
  5
516
330
50B
100
AcDbEntity
  8
0
100
AcDbBlockEnd
  0
BLOCK
  5
522
330
518
100
AcDbEntity
  8
0
100
AcDbBlockBegin
  2
*D14
 70
     1
 10
0.0
 20
0.0
 30
0.0
  3
*D14
  1

  0
LINE
  5
519
330
518
100
AcDbEntity
  8
0
  6
Continuous
 62
     7
370
    -2
100
AcDbLine
 10
15628.688529
 20
-5334.371081
 30
0.0
 11
15815.208985
 21
-5334.371081
 31
0.0
  0
LINE
  5
51A
330
518
100
AcDbEntity
  8
0
  6
Continuous
 62
     7
370
    -2
100
AcDbLine
 10
15628.688529
 20
-4864.371081
 30
0.0
 11
15815.208985
 21
-4864.371081
 31
0.0
  0
LINE
  5
51B
330
518
100
AcDbEntity
  8
0
  6
Continuous
 62
     7
370
    -2
100
AcDbLine
 10
15799.208984
 20
-5306.371082
 30
0.0
 11
15799.208984
 21
-4892.371081
 31
0.0
  0
INSERT
  5
51C
330
518
100
AcDbEntity
  8
0
 62
     7
370
    -2
100
AcDbBlockReference
  2
_CLOSED
 10
15799.208984
 20
-5334.371081
 30
0.0
 41
28.0
 42
28.0
 43
28.0
 50
270.0
  0
INSERT
  5
51D
330
518
100
AcDbEntity
  8
0
 62
     7
370
    -2
100
AcDbBlockReference
  2
_CLOSED
 10
15799.208984
 20
-4864.371081
 30
0.0
 41
28.0
 42
28.0
 43
28.0
 50
90.0
  0
MTEXT
  5
51E
330
518
100
AcDbEntity
  8
0
 62
     2
370
     0
100
AcDbMText
 10
15765.008984
 20
-5099.371081
 30
0.0
 40
40.0
 41
0.0
 46
0.0
 71
     5
 72
     1
  1
\A1;\fArial|b0|i0|c0|p0;470 (18 1/2")
  7
Default
 11
0.0
 21
1.0
 31
0.0
 73
     1
 44
1.0
  0
POINT
  5
51F
330
518
100
AcDbEntity
  8
DEFPOINTS
 62
     0
100
AcDbPoint
 10
15588.688529
 20
-5334.371081
 30
0.0
  0
POINT
  5
520
330
518
100
AcDbEntity
  8
DEFPOINTS
 62
     0
100
AcDbPoint
 10
15588.688529
 20
-4864.371081
 30
0.0
  0
POINT
  5
521
330
518
100
AcDbEntity
  8
DEFPOINTS
 62
     0
100
AcDbPoint
 10
15799.208984
 20
-4864.371081
 30
0.0
  0
ENDBLK
  5
523
330
518
100
AcDbEntity
  8
0
100
AcDbBlockEnd
  0
BLOCK
  5
586
330
57C
100
AcDbEntity
  8
0
100
AcDbBlockBegin
  2
*D15
 70
     1
 10
0.0
 20
0.0
 30
0.0
  3
*D15
  1

  0
LINE
  5
57D
330
57C
100
AcDbEntity
  8
0
  6
Continuous
 62
     7
370
    -2
100
AcDbLine
 10
14712.433528
 20
-6050.652452
 30
0.0
 11
14712.433527
 21
-6131.135741
 31
0.0
  0
LINE
  5
57E
330
57C
100
AcDbEntity
  8
0
  6
Continuous
 62
     7
370
    -2
100
AcDbLine
 10
15626.833528
 20
-6050.652462
 30
0.0
 11
15626.833527
 21
-6131.135751
 31
0.0
  0
LINE
  5
57F
330
57C
100
AcDbEntity
  8
0
  6
Continuous
 62
     7
370
    -2
100
AcDbLine
 10
14740.433527
 20
-6115.135741
 30
0.0
 11
15598.833527
 21
-6115.13575
 31
0.0
  0
INSERT
  5
580
330
57C
100
AcDbEntity
  8
0
 62
     7
370
    -2
100
AcDbBlockReference
  2
_CLOSED
 10
14712.433527
 20
-6115.135741
 30
0.0
 41
28.0
 42
28.0
 43
28.0
 50
179.999999
  0
INSERT
  5
581
330
57C
100
AcDbEntity
  8
0
 62
     7
370
    -2
100
AcDbBlockReference
  2
_CLOSED
 10
15626.833527
 20
-6115.135751
 30
0.0
 41
28.0
 42
28.0
 43
28.0
 50
359.999999
  0
MTEXT
  5
582
330
57C
100
AcDbEntity
  8
0
 62
     2
370
     0
100
AcDbMText
 10
15169.632813
 20
-6080.915746
 30
0.0
 40
40.0
 41
0.0
 46
0.0
 71
     5
 72
     1
  1
\A1;\fArial|b0|i0|c0|p0;BASE 900 (CABINET 36")
  7
Default
 11
1.0
 21
-1.082531041962734E-8
 31
0.0
 73
     1
 44
1.0
  0
POINT
  5
583
330
57C
100
AcDbEntity
  8
DEFPOINTS
 62
     0
100
AcDbPoint
 10
14712.433528
 20
-6010.652452
 30
0.0
  0
POINT
  5
584
330
57C
100
AcDbEntity
  8
DEFPOINTS
 62
     0
100
AcDbPoint
 10
15626.833528
 20
-6010.652462
 30
0.0
  0
POINT
  5
585
330
57C
100
AcDbEntity
  8
DEFPOINTS
 62
     0
100
AcDbPoint
 10
15626.833527
 20
-6115.135751
 30
0.0
  0
ENDBLK
  5
587
330
57C
100
AcDbEntity
  8
0
100
AcDbBlockEnd
  0
BLOCK
  5
593
330
589
100
AcDbEntity
  8
0
100
AcDbBlockBegin
  2
*D16
 70
     1
 10
0.0
 20
0.0
 30
0.0
  3
*D16
  1

  0
LINE
  5
58A
330
589
100
AcDbEntity
  8
0
  6
Continuous
 62
     7
370
    -2
100
AcDbLine
 10
15521.686515
 20
-5734.652452
 30
0.0
 11
15164.245117
 21
-5734.652452
 31
0.0
  0
LINE
  5
58B
330
589
100
AcDbEntity
  8
0
  6
Continuous
 62
     7
370
    -2
100
AcDbLine
 10
15149.235343
 20
-5836.252452
 30
0.0
 11
15164.245117
 21
-5836.252452
 31
0.0
  0
LINE
  5
58C
330
589
100
AcDbEntity
  8
0
  6
Continuous
 62
    45
370
    -2
100
AcDbLine
 10
15174.245117
 20
-5759.652452
 30
0.0
 11
15174.245117
 21
-5811.252452
 31
0.0
  0
INSERT
  5
58D
330
589
100
AcDbEntity
  8
0
 62
    45
370
    -2
100
AcDbBlockReference
  2
_CLOSED
 10
15174.245117
 20
-5734.652452
 30
0.0
 41
25.0
 42
25.0
 43
25.0
 50
90.0
  0
INSERT
  5
58E
330
589
100
AcDbEntity
  8
0
 62
    45
370
    -2
100
AcDbBlockReference
  2
_CLOSED
 10
15174.245117
 20
-5836.252452
 30
0.0
 41
25.0
 42
25.0
 43
25.0
 50
270.0
  0
MTEXT
  5
58F
330
589
100
AcDbEntity
  8
0
 62
     2
370
     0
100
AcDbMText
 10
15156.482617
 20
-5785.452452
 30
0.0
 40
25.0
 41
0.0
 46
0.0
 71
     5
 72
     1
  1
\fArial|b0|i0|c0|p0;\A1;101.6
  7
Default
 11
0.0
 21
1.0
 31
0.0
 73
     1
 44
1.0
  0
POINT
  5
590
330
589
100
AcDbEntity
  8
DEFPOINTS
 62
     0
100
AcDbPoint
 10
15559.186515
 20
-5734.652452
 30
0.0
  0
POINT
  5
591
330
589
100
AcDbEntity
  8
DEFPOINTS
 62
     0
100
AcDbPoint
 10
15186.735343
 20
-5836.252452
 30
0.0
  0
POINT
  5
592
330
589
100
AcDbEntity
  8
DEFPOINTS
 62
     0
100
AcDbPoint
 10
15174.245117
 20
-5836.252452
 30
0.0
  0
ENDBLK
  5
594
330
589
100
AcDbEntity
  8
0
100
AcDbBlockEnd
  0
BLOCK
  5
5A0
330
596
100
AcDbEntity
  8
0
100
AcDbBlockBegin
  2
*D17
 70
     1
 10
0.0
 20
0.0
 30
0.0
  3
*D17
  1

  0
LINE
  5
597
330
596
100
AcDbEntity
  8
0
  6
Continuous
 62
     7
370
    -2
100
AcDbLine
 10
14822.79521
 20
-5734.652452
 30
0.0
 11
15017.053711
 21
-5734.652452
 31
0.0
  0
LINE
  5
598
330
596
100
AcDbEntity
  8
0
  6
Continuous
 62
     7
370
    -2
100
AcDbLine
 10
14979.538528
 20
-5974.652452
 30
0.0
 11
14997.053711
 21
-5974.652452
 31
0.0
  0
LINE
  5
599
330
596
100
AcDbEntity
  8
0
  6
Continuous
 62
     7
370
    -2
100
AcDbLine
 10
15007.053711
 20
-5752.152452
 30
0.0
 11
15007.053711
 21
-5957.152453
 31
0.0
  0
INSERT
  5
59A
330
596
100
AcDbEntity
  8
0
 62
     7
370
    -2
100
AcDbBlockReference
  2
_CLOSED
 10
15007.053711
 20
-5734.652452
 30
0.0
 41
17.5
 42
17.5
 43
17.5
 50
90.0
  0
INSERT
  5
59B
330
596
100
AcDbEntity
  8
0
 62
     7
370
    -2
100
AcDbBlockReference
  2
_CLOSED
 10
15007.053711
 20
-5974.652452
 30
0.0
 41
17.5
 42
17.5
 43
17.5
 50
270.0
  0
MTEXT
  5
59C
330
596
100
AcDbEntity
  8
0
 62
     2
370
     0
100
AcDbMText
 10
14985.678711
 20
-5854.652452
 30
0.0
 40
25.0
 41
0.0
 46
0.0
 71
     5
 72
     1
  1
\A1;\fArial|b0|i0|c0|p0;240 (9 7/16")
  7
Default
 11
0.0
 21
1.0
 31
0.0
 73
     1
 44
1.0
  0
POINT
  5
59D
330
596
100
AcDbEntity
  8
DEFPOINTS
 62
     0
100
AcDbPoint
 10
14785.29521
 20
-5734.652452
 30
0.0
  0
POINT
  5
59E
330
596
100
AcDbEntity
  8
DEFPOINTS
 62
     0
100
AcDbPoint
 10
15017.038528
 20
-5974.652452
 30
0.0
  0
POINT
  5
59F
330
596
100
AcDbEntity
  8
DEFPOINTS
 62
     0
100
AcDbPoint
 10
15007.053711
 20
-5974.652452
 30
0.0
  0
ENDBLK
  5
5A1
330
596
100
AcDbEntity
  8
0
100
AcDbBlockEnd
  0
BLOCK
  5
5AD
330
5A3
100
AcDbEntity
  8
0
100
AcDbBlockBegin
  2
*D18
 70
     1
 10
0.0
 20
0.0
 30
0.0
  3
*D18
  1

  0
LINE
  5
5A4
330
5A3
100
AcDbEntity
  8
0
  6
Continuous
 62
     7
370
    -2
100
AcDbLine
 10
15213.196442
 20
-5836.252452
 30
0.0
 11
15282.926758
 21
-5836.252452
 31
0.0
  0
LINE
  5
5A5
330
5A3
100
AcDbEntity
  8
0
  6
Continuous
 62
     7
370
    -2
100
AcDbLine
 10
15278.638528
 20
-5966.652452
 30
0.0
 11
15266.926758
 21
-5966.652452
 31
0.0
  0
LINE
  5
5A6
330
5A3
100
AcDbEntity
  8
0
  6
Continuous
 62
    45
370
    -2
100
AcDbLine
 10
15274.926758
 20
-5856.252452
 30
0.0
 11
15274.926758
 21
-5946.652452
 31
0.0
  0
INSERT
  5
5A7
330
5A3
100
AcDbEntity
  8
0
 62
    45
370
    -2
100
AcDbBlockReference
  2
_CLOSED
 10
15274.926758
 20
-5836.252452
 30
0.0
 41
20.0
 42
20.0
 43
20.0
 50
90.0
  0
INSERT
  5
5A8
330
5A3
100
AcDbEntity
  8
0
 62
    45
370
    -2
100
AcDbBlockReference
  2
_CLOSED
 10
15274.926758
 20
-5966.652452
 30
0.0
 41
20.0
 42
20.0
 43
20.0
 50
270.0
  0
MTEXT
  5
5A9
330
5A3
100
AcDbEntity
  8
0
 62
     2
370
     0
100
AcDbMText
 10
15258.596758
 20
-5898.915527
 30
0.0
 40
20.0
 41
0.0
 46
0.0
 71
     5
 72
     1
  1
\A1;\fArial|b0|i0|c0|p0;5 1/8"
  7
Default
 11
0.0
 21
1.0
 31
0.0
 73
     1
 44
1.0
  0
POINT
  5
5AA
330
5A3
100
AcDbEntity
  8
DEFPOINTS
 62
     0
100
AcDbPoint
 10
15183.196442
 20
-5836.252452
 30
0.0
  0
POINT
  5
5AB
330
5A3
100
AcDbEntity
  8
DEFPOINTS
 62
     0
100
AcDbPoint
 10
15308.638528
 20
-5966.652452
 30
0.0
  0
POINT
  5
5AC
330
5A3
100
AcDbEntity
  8
DEFPOINTS
 62
     0
100
AcDbPoint
 10
15274.926758
 20
-5966.652452
 30
0.0
  0
ENDBLK
  5
5AE
330
5A3
100
AcDbEntity
  8
0
100
AcDbBlockEnd
  0
BLOCK
  5
5BB
330
5B1
100
AcDbEntity
  8
0
100
AcDbBlockBegin
  2
*D19
 70
     1
 10
0.0
 20
0.0
 30
0.0
  3
*D19
  1

  0
ARC
  5
5B2
330
5B1
100
AcDbEntity
  8
0
  6
Continuous
 62
    45
370
    -2
100
AcDbCircle
 10
15169.920255
 20
-5734.652452
 30
0.0
 40
117.7165172022358
100
AcDbArc
 50
189.746282
 51
253.253718
  0
INSERT
  5
5B3
330
5B1
100
AcDbEntity
  8
0
 62
    45
370
    -2
100
AcDbBlockReference
  2
_CLOSED
 10
15052.203737
 20
-5734.652452
 30
0.0
 41
20.0
 42
20.0
 43
20.0
 50
94.873141
  0
INSERT
  5
5B4
330
5B1
100
AcDbEntity
  8
0
 62
    45
370
    -2
100
AcDbBlockReference
  2
_CLOSED
 10
15155.57422
 20
-5851.491529
 30
0.0
 41
20.0
 42
20.0
 43
20.0
 50
348.126859
  0
MTEXT
  5
5B5
330
5B1
100
AcDbEntity
  8
0
 62
     2
370
     0
100
AcDbMText
 10
15093.926326
 20
-5801.886201
 30
0.0
 40
20.0
 41
0.0
 46
0.0
 71
     5
 72
     1
  1
\A1;83%%d
  7
Default
 11
0.6626200482157367
 21
-0.7489557207890029
 31
0.0
 73
     1
 44
1.0
  0
POINT
  5
5B6
330
5B1
100
AcDbEntity
  8
DEFPOINTS
 62
     0
100
AcDbPoint
 10
15081.755796
 20
-5812.653777
 30
0.0
  0
POINT
  5
5B7
330
5B1
100
AcDbEntity
  8
DEFPOINTS
 62
     0
100
AcDbPoint
 10
15142.731816
 20
-5956.084518
 30
0.0
  0
POINT
  5
5B8
330
5B1
100
AcDbEntity
  8
DEFPOINTS
 62
     0
100
AcDbPoint
 10
14785.29521
 20
-5734.652452
 30
0.0
  0
POINT
  5
5B9
330
5B1
100
AcDbEntity
  8
DEFPOINTS
 62
     0
100
AcDbPoint
 10
15553.881847
 20
-5734.652452
 30
0.0
  0
POINT
  5
5BA
330
5B1
100
AcDbEntity
  8
DEFPOINTS
 62
     0
100
AcDbPoint
 10
15157.01406
 20
-5839.764975
 30
0.0
  0
ENDBLK
  5
5BC
330
5B1
100
AcDbEntity
  8
0
100
AcDbBlockEnd
  0
BLOCK
  5
5C8
330
5BE
100
AcDbEntity
  8
0
100
AcDbBlockBegin
  2
*D20
 70
     1
 10
0.0
 20
0.0
 30
0.0
  3
*D20
  1

  0
ARC
  5
5BF
330
5BE
100
AcDbEntity
  8
0
  6
Continuous
 62
    45
370
    -2
100
AcDbCircle
 10
14785.29521
 20
-5734.652452
 30
0.0
 40
81.05940617667235
100
AcDbArc
 50
291.172844
 51
345.827156
  0
INSERT
  5
5C0
330
5BE
100
AcDbEntity
  8
0
 62
    45
370
    -2
100
AcDbBlockReference
  2
_CLOSED
 10
14795.173867
 20
-5815.107654
 30
0.0
 41
20.0
 42
20.0
 43
20.0
 50
194.086422
  0
INSERT
  5
5C1
330
5BE
100
AcDbEntity
  8
0
 62
    45
370
    -2
100
AcDbBlockReference
  2
_CLOSED
 10
14866.354616
 20
-5734.652452
 30
0.0
 41
20.0
 42
20.0
 43
20.0
 50
82.913578
  0
MTEXT
  5
5C2
330
5BE
100
AcDbEntity
  8
0
 62
     2
370
     0
100
AcDbMText
 10
14833.834586
 20
-5777.596464
 30
0.0
 40
20.0
 41
0.0
 46
0.0
 71
     5
 72
     1
  1
\A1;83%%d
  7
Default
 11
0.6626200482157347
 21
0.7489557207890046
 31
0.0
 73
     1
 44
1.0
  0
POINT
  5
5C3
330
5BE
100
AcDbEntity
  8
DEFPOINTS
 62
     0
100
AcDbPoint
 10
14846.005116
 20
-5788.36404
 30
0.0
  0
POINT
  5
5C4
330
5BE
100
AcDbEntity
  8
DEFPOINTS
 62
     0
100
AcDbPoint
 10
15553.881847
 20
-5734.652452
 30
0.0
  0
POINT
  5
5C5
330
5BE
100
AcDbEntity
  8
DEFPOINTS
 62
     0
100
AcDbPoint
 10
14812.516165
 20
-5956.34934
 30
0.0
  0
POINT
  5
5C6
330
5BE
100
AcDbEntity
  8
DEFPOINTS
 62
     0
100
AcDbPoint
 10
14785.942136
 20
-5739.921236
 30
0.0
  0
POINT
  5
5C7
330
5BE
100
AcDbEntity
  8
DEFPOINTS
 62
     0
100
AcDbPoint
 10
14785.29521
 20
-5734.652452
 30
0.0
  0
ENDBLK
  5
5C9
330
5BE
100
AcDbEntity
  8
0
100
AcDbBlockEnd
  0
BLOCK
  5
5DF
330
5D5
100
AcDbEntity
  8
0
100
AcDbBlockBegin
  2
*D21
 70
     1
 10
0.0
 20
0.0
 30
0.0
  3
*D21
  1

  0
LINE
  5
5D6
330
5D5
100
AcDbEntity
  8
0
  6
Continuous
 62
     7
370
    -2
100
AcDbLine
 10
15555.090343
 20
-6766.774329
 30
0.0
 11
15555.090343
 21
-6830.47168
 31
0.0
  0
LINE
  5
5D7
330
5D5
100
AcDbEntity
  8
0
  6
Continuous
 62
     7
370
    -2
100
AcDbLine
 10
14789.090343
 20
-6766.774329
 30
0.0
 11
14789.090343
 21
-6830.47168
 31
0.0
  0
LINE
  5
5D8
330
5D5
100
AcDbEntity
  8
0
  6
Continuous
 62
     7
370
    -2
100
AcDbLine
 10
15530.590344
 20
-6816.47168
 30
0.0
 11
14813.590343
 21
-6816.47168
 31
0.0
  0
INSERT
  5
5D9
330
5D5
100
AcDbEntity
  8
0
 62
     7
370
    -2
100
AcDbBlockReference
  2
_CLOSED
 10
15555.090343
 20
-6816.47168
 30
0.0
 41
24.5
 42
24.5
 43
24.5
  0
INSERT
  5
5DA
330
5D5
100
AcDbEntity
  8
0
 62
     7
370
    -2
100
AcDbBlockReference
  2
_CLOSED
 10
14789.090343
 20
-6816.47168
 30
0.0
 41
24.5
 42
24.5
 43
24.5
 50
180.0
  0
MTEXT
  5
5DB
330
5D5
100
AcDbEntity
  8
0
 62
     2
370
     0
100
AcDbMText
 10
15172.090343
 20
-6783.046679
 30
0.0
 40
35.0
 41
0.0
 46
0.0
 71
     5
 72
     1
  1
\A1;\fArial|b0|i0|c0|p0;766  (30 5/32")
  7
Default
 73
     1
 44
1.0
  0
POINT
  5
5DC
330
5D5
100
AcDbEntity
  8
DEFPOINTS
 62
     0
100
AcDbPoint
 10
15555.090343
 20
-6714.274329
 30
0.0
  0
POINT
  5
5DD
330
5D5
100
AcDbEntity
  8
DEFPOINTS
 62
     0
100
AcDbPoint
 10
14789.090343
 20
-6714.274329
 30
0.0
  0
POINT
  5
5DE
330
5D5
100
AcDbEntity
  8
DEFPOINTS
 62
     0
100
AcDbPoint
 10
14789.090343
 20
-6816.47168
 30
0.0
  0
ENDBLK
  5
5E0
330
5D5
100
AcDbEntity
  8
0
100
AcDbBlockEnd
  0
BLOCK
  5
5EC
330
5E2
100
AcDbEntity
  8
0
100
AcDbBlockBegin
  2
*D22
 70
     1
 10
0.0
 20
0.0
 30
0.0
  3
*D22
  1

  0
LINE
  5
5E3
330
5E2
100
AcDbEntity
  8
0
  6
Continuous
 62
     7
370
    -2
100
AcDbLine
 10
15602.590343
 20
-6719.274329
 30
0.0
 11
15701.789063
 21
-6719.274329
 31
0.0
  0
LINE
  5
5E4
330
5E2
100
AcDbEntity
  8
0
  6
Continuous
 62
     7
370
    -2
100
AcDbLine
 10
15602.590343
 20
-6287.274329
 30
0.0
 11
15701.789063
 21
-6287.274329
 31
0.0
  0
LINE
  5
5E5
330
5E2
100
AcDbEntity
  8
0
  6
Continuous
 62
     7
370
    -2
100
AcDbLine
 10
15687.789062
 20
-6694.77433
 30
0.0
 11
15687.789062
 21
-6311.774329
 31
0.0
  0
INSERT
  5
5E6
330
5E2
100
AcDbEntity
  8
0
 62
     7
370
    -2
100
AcDbBlockReference
  2
_CLOSED
 10
15687.789062
 20
-6719.274329
 30
0.0
 41
24.5
 42
24.5
 43
24.5
 50
270.0
  0
INSERT
  5
5E7
330
5E2
100
AcDbEntity
  8
0
 62
     7
370
    -2
100
AcDbBlockReference
  2
_CLOSED
 10
15687.789062
 20
-6287.274329
 30
0.0
 41
24.5
 42
24.5
 43
24.5
 50
90.0
  0
MTEXT
  5
5E8
330
5E2
100
AcDbEntity
  8
0
 62
     2
370
     0
100
AcDbMText
 10
15654.364062
 20
-6503.274329
 30
0.0
 40
35.0
 41
0.0
 46
0.0
 71
     5
 72
     1
  1
\A1;\fArial|b0|i0|c0|p0;432  (17 1/64")
  7
Default
 11
0.0
 21
1.0
 31
0.0
 73
     1
 44
1.0
  0
POINT
  5
5E9
330
5E2
100
AcDbEntity
  8
DEFPOINTS
 62
     0
100
AcDbPoint
 10
15550.090343
 20
-6719.274329
 30
0.0
  0
POINT
  5
5EA
330
5E2
100
AcDbEntity
  8
DEFPOINTS
 62
     0
100
AcDbPoint
 10
15550.090343
 20
-6287.274329
 30
0.0
  0
POINT
  5
5EB
330
5E2
100
AcDbEntity
  8
DEFPOINTS
 62
     0
100
AcDbPoint
 10
15687.789062
 20
-6287.274329
 30
0.0
  0
ENDBLK
  5
5ED
330
5E2
100
AcDbEntity
  8
0
100
AcDbBlockEnd
  0
BLOCK
  5
5F5
330
5EE
100
AcDbEntity
  8
0
100
AcDbBlockBegin
  2
.TD_DIMENSION_1
 70
     0
 10
14742.492188
 20
-6434.598633
 30
0.0
  3
.TD_DIMENSION_1
  1

  0
LINE
  5
5EF
330
5EE
100
AcDbEntity
  8
0
  6
Continuous
 62
     7
420
 16777215
100
AcDbLine
 10
14791.227539
 20
-6288.175293
 30
0.0
 11
14794.09082
 21
-6292.274414
 31
0.0
  0
LINE
  5
5F0
330
5EE
100
AcDbEntity
  8
0
  6
Continuous
 62
     7
420
 16777215
100
AcDbLine
 10
14794.09082
 20
-6292.274414
 30
0.0
 11
14893.492188
 21
-6434.598633
 31
0.0
  0
MTEXT
  5
5F1
330
5EE
100
AcDbEntity
  8
0
  6
Continuous
 62
     2
420
 16776960
100
AcDbMText
 10
14838.433509
 20
-6290.273575
 30
0.0
 40
25.0
 41
0.0
 46
0.0
 71
     1
 72
     1
  1
{\fArial|b0|i0|c0|p0;R}
  7
Default
 11
0.5725921511000945
 21
-0.8198403676927396
 31
0.0
 73
     1
 44
1.0
  0
MTEXT
  5
5F2
330
5EE
100
AcDbEntity
  8
0
  6
Continuous
 62
     2
420
 16776960
100
AcDbMText
 10
14852.747962
 20
-6310.769669
 30
0.0
 40
25.0
 41
0.0
 46
0.0
 71
     1
 72
     1
  1
{\fArial|b0|i0|c0|p0;5  (1/5")}
  7
Default
 11
0.5725921511000945
 21
-0.8198403676927396
 31
0.0
 73
     1
 44
1.0
  0
LWPOLYLINE
  5
5F3
330
5EE
100
AcDbEntity
  8
0
  6
Continuous
 62
     1
420
 16711680
100
AcDbPolyline
 90
        4
 70
     0
 43
0.0
 10
14804.03125
 20
-6300.578613
 10
14791.227539
 20
-6288.175293
 10
14798.464844
 20
-6304.466309
 10
14804.03125
 20
-6300.578613
  0
ENDBLK
  5
5F6
330
5EE
100
AcDbEntity
  8
0
100
AcDbBlockEnd
  0
ENDSEC
  0
SECTION
  2
ENTITIES
  0
LINE
  5
6B
330
1F
100
AcDbEntity
  8
0
  6
Continuous
 62
     4
420
    65535
370
     0
100
AcDbLine
 10
14228.28102
 20
-7178.672531
 30
0.0
 11
14228.28102
 21
-4540.850998
 31
0.0
  0
LINE
  5
6C
330
1F
100
AcDbEntity
  8
0
  6
Continuous
 62
     4
420
    65535
370
     0
100
AcDbLine
 10
14228.28102
 20
-4540.850998
 30
0.0
 11
16052.661513
 21
-4540.850998
 31
0.0
  0
LINE
  5
6D
330
1F
100
AcDbEntity
  8
0
  6
Continuous
 62
     4
420
    65535
370
     0
100
AcDbLine
 10
16052.661513
 20
-4540.850998
 30
0.0
 11
16052.661513
 21
-7178.672531
 31
0.0
  0
LINE
  5
6E
330
1F
100
AcDbEntity
  8
0
  6
Continuous
 62
     4
420
    65535
370
     0
100
AcDbLine
 10
16052.661513
 20
-7178.672531
 30
0.0
 11
14228.28102
 21
-7178.672531
 31
0.0
  0
LINE
  5
6F
330
1F
100
AcDbEntity
  8
0
  6
Continuous
 62
     4
420
    65535
370
     0
100
AcDbLine
 10
16042.661513
 20
-4550.850998
 30
0.0
 11
14238.28102
 21
-4550.850998
 31
0.0
  0
LINE
  5
70
330
1F
100
AcDbEntity
  8
0
  6
Continuous
 62
     4
420
    65535
370
     0
100
AcDbLine
 10
14238.28102
 20
-4550.850998
 30
0.0
 11
14238.28102
 21
-7168.672531
 31
0.0
  0
LINE
  5
71
330
1F
100
AcDbEntity
  8
0
  6
Continuous
 62
     4
420
    65535
370
     0
100
AcDbLine
 10
14238.28102
 20
-7168.672531
 30
0.0
 11
16042.661513
 21
-7168.672531
 31
0.0
  0
LINE
  5
72
330
1F
100
AcDbEntity
  8
0
  6
Continuous
 62
     4
420
    65535
370
     0
100
AcDbLine
 10
16042.661513
 20
-7168.672531
 30
0.0
 11
16042.661513
 21
-4550.850998
 31
0.0
  0
LINE
  5
73
330
1F
100
AcDbEntity
  8
0
  6
Continuous
 62
     7
420
 16777215
370
     0
100
AcDbLine
 10
15399.265733
 20
-7155.522134
 30
0.0
 11
15399.265733
 21
-6953.022134
 31
0.0
  0
LINE
  5
74
330
1F
100
AcDbEntity
  8
0
  6
Continuous
 62
     7
420
 16777215
370
     0
100
AcDbLine
 10
14251.765733
 20
-7155.522134
 30
0.0
 11
15399.265733
 21
-7155.522134
 31
0.0
  0
LINE
  5
75
330
1F
100
AcDbEntity
  8
0
  6
Continuous
 62
     7
420
 16777215
370
     0
100
AcDbLine
 10
14251.765733
 20
-7155.522134
 30
0.0
 11
14251.765733
 21
-6953.022134
 31
0.0
  0
LINE
  5
76
330
1F
100
AcDbEntity
  8
0
  6
Continuous
 62
     7
420
 16777215
370
     0
100
AcDbLine
 10
14623.015733
 20
-7155.522134
 30
0.0
 11
14623.015733
 21
-6953.022134
 31
0.0
  0
LINE
  5
77
330
1F
100
AcDbEntity
  8
0
  6
Continuous
 62
     7
420
 16777215
370
     0
100
AcDbLine
 10
14994.265733
 20
-7155.522134
 30
0.0
 11
14994.265733
 21
-7115.022134
 31
0.0
  0
LINE
  5
78
330
1F
100
AcDbEntity
  8
0
  6
Continuous
 62
     7
420
 16777215
370
     0
100
AcDbLine
 10
14251.765733
 20
-7115.022134
 30
0.0
 11
15399.265733
 21
-7115.022134
 31
0.0
  0
LINE
  5
79
330
1F
100
AcDbEntity
  8
0
  6
Continuous
 62
     7
420
 16777215
370
     0
100
AcDbLine
 10
15095.515733
 20
-7115.022134
 30
0.0
 11
15095.515733
 21
-6953.022134
 31
0.0
  0
MTEXT
  5
9C
330
1F
100
AcDbEntity
  8
0
  6
Continuous
 62
     2
420
 16776960
370
     0
100
AcDbMText
 10
14640.442801
 20
-7126.280203
 30
0.0
 40
16.875
 41
0.0
 46
0.0
 71
     1
 72
     1
  1
{\W1.03;{\fTimes New Roman|b0|i0;{\fTimes New Roman|b0|i1;Codice :}}}
  7
Default
 73
     1
 44
1.0
  0
MTEXT
  5
9D
330
1F
100
AcDbEntity
  8
0
  6
Continuous
 62
     2
420
 16776960
370
     0
100
AcDbMText
 10
15005.153739
 20
-7126.10552
 30
0.0
 40
16.875
 41
0.0
 46
0.0
 71
     1
 72
     1
  1
{\fTimes New Roman|b0|i1|c0|p0;File :}
  7
Default
 73
     1
 44
1.0
  0
MTEXT
  5
9E
330
1F
100
AcDbEntity
  8
0
  6
Continuous
 62
     2
420
 16776960
370
     0
100
AcDbMText
 10
15102.264262
 20
-7014.610074
 30
0.0
 40
16.875
 41
0.0
 46
0.0
 71
     1
 72
     1
  1
{\fTimes New Roman|b0|i1|c0|p0;Data}
  7
Default
 73
     1
 44
1.0
  0
MTEXT
  5
9F
330
1F
100
AcDbEntity
  8
0
  6
Continuous
 62
     2
420
 16776960
370
     0
100
AcDbMText
 10
15102.264262
 20
-7088.860074
 30
0.0
 40
16.875
 41
0.0
 46
0.0
 71
     1
 72
     1
  1
{\fTimes New Roman|b0|i1|c0|p0;Controllo}
  7
Default
 73
     1
 44
1.0
  0
MTEXT
  5
A0
330
1F
100
AcDbEntity
  8
0
  6
Continuous
 62
     2
420
 16776960
370
     0
100
AcDbMText
 10
15102.264262
 20
-7051.735074
 30
0.0
 40
16.875
 41
0.0
 46
0.0
 71
     1
 72
     1
  1
{\fTimes New Roman|b0|i1|c0|p0;Eseguita da}
  7
Default
 73
     1
 44
1.0
  0
MTEXT
  5
A1
330
1F
100
AcDbEntity
  8
0
  6
Continuous
 62
     2
420
 16776960
370
     0
100
AcDbMText
 10
15241.957415
 20
-7013.801754
 30
0.0
 40
16.875
 41
0.0
 46
0.0
 71
     1
 72
     1
  1
{\fTimes New Roman|b0|i0|c0|p0;04/07/2016}
  7
Default
 73
     1
 44
1.0
  0
MTEXT
  5
A2
330
1F
100
AcDbEntity
  8
0
  6
Continuous
 62
     2
420
 16776960
370
     0
100
AcDbMText
 10
15244.014056
 20
-7088.860074
 30
0.0
 40
16.875
 41
0.0
 46
0.0
 71
     1
 72
     1
  1
{\W1.03;{\fTimes New Roman|b0|i0;D.D.}}
  7
Default
 73
     1
 44
1.0
  0
MTEXT
  5
A3
330
1F
100
AcDbEntity
  8
0
  6
Continuous
 62
     2
420
 16776960
370
     0
100
AcDbMText
 10
15244.014056
 20
-7051.735074
 30
0.0
 40
16.875
 41
0.0
 46
0.0
 71
     1
 72
     1
  1
{\W1.03;{\fTimes New Roman|b0|i0;D.D.}}
  7
Default
 73
     1
 44
1.0
  0
MTEXT
  5
A4
330
1F
100
AcDbEntity
  8
0
  6
Continuous
 62
     2
420
 16776960
370
     0
100
AcDbMText
 10
14771.51409
 20
-7125.147238
 30
0.0
 40
16.875
 41
0.0
 46
0.0
 71
     1
 72
     1
  1
{\fTimes New Roman|b0|i0|c0|p0;ON8420ST}
  7
Default
 73
     1
 44
1.0
  0
MTEXT
  5
A5
330
1F
100
AcDbEntity
  8
0
  6
Continuous
 62
     2
420
 16776960
370
     0
100
AcDbMText
 10
15073.286551
 20
-7127.784781
 30
0.0
 40
16.875
 41
0.0
 46
0.0
 71
     1
 72
     1
  1
{\fTimes New Roman|b0|i0|c0|p0;ON 8420.e2}
  7
Default
 73
     1
 44
1.0
  0
MTEXT
  5
A6
330
1F
100
AcDbEntity
  8
0
  6
Continuous
 62
     7
420
 16777215
370
     0
100
AcDbMText
 10
14261.716056
 20
-7119.01489
 30
0.0
 40
8.099999
 41
0.0
 46
0.0
 71
     1
 72
     1
  1
{\W1.58;\p;{\fTimes New Roman|b0|i0;  E' vietata ogni riproduzione non autorizzata^M}\P\p;{\fTimes New Roman|b0|i0; Reproduction not permitted all right reserved^M}\P\p;{\fTimes New Roman|b0|i0; Toute reproduction non autorisee est interdite}\P}
  7
Default
 73
     2
 44
0.899982
  0
LINE
  5
A7
330
1F
100
AcDbEntity
  8
0
  6
Continuous
 62
     7
420
 16777215
370
     0
100
AcDbLine
 10
14251.765733
 20
-6953.022134
 30
0.0
 11
15399.265733
 21
-6953.022134
 31
0.0
  0
LINE
  5
A8
330
1F
100
AcDbEntity
  8
0
  6
Continuous
 62
     7
420
 16777215
370
     0
100
AcDbLine
 10
14926.765733
 20
-7003.647134
 30
0.0
 11
14926.765733
 21
-6953.022134
 31
0.0
  0
LINE
  5
A9
330
1F
100
AcDbEntity
  8
0
  6
Continuous
 62
     7
420
 16777215
370
     0
100
AcDbLine
 10
15007.765733
 20
-7003.647134
 30
0.0
 11
15007.765733
 21
-6953.022134
 31
0.0
  0
MTEXT
  5
AA
330
1F
100
AcDbEntity
  8
0
  6
Continuous
 62
     2
420
 16776960
370
     0
100
AcDbMText
 10
14939.525809
 20
-6958.650809
 30
0.0
 40
16.875
 41
0.0
 46
0.0
 71
     1
 72
     1
  1
{\fTimes New Roman|b0|i1|c0|p0;Scala}
  7
Default
 73
     1
 44
1.0
  0
MTEXT
  5
AB
330
1F
100
AcDbEntity
  8
0
  6
Continuous
 62
     2
420
 16776960
370
     0
100
AcDbMText
 10
14629.790457
 20
-6958.085562
 30
0.0
 40
16.875
 41
0.0
 46
0.0
 71
     1
 72
     1
  1
{\fTimes New Roman|b0|i1|c0|p0;Disegno:}
  7
Default
 73
     1
 44
1.0
  0
MTEXT
  5
AC
330
1F
100
AcDbEntity
  8
0
  6
Continuous
 62
     2
420
 16776960
370
     0
100
AcDbMText
 10
14627.509736
 20
-6982.047494
 30
0.0
 40
16.875
 41
0.0
 46
0.0
 71
     1
 72
     1
  1
{\fTimes New Roman|b0|i1|c0|p0;Data:}
  7
Default
 73
     1
 44
1.0
  0
MTEXT
  5
AD
330
1F
100
AcDbEntity
  8
0
  6
Continuous
 62
     2
420
 16776960
370
     0
100
AcDbMText
 10
15102.26409
 20
-6969.898062
 30
0.0
 40
16.875
 41
0.0
 46
0.0
 71
     1
 72
     1
  1
{\fTimes New Roman|b0|i1|c0|p0;Modifica N°}
  7
Default
 73
     1
 44
1.0
  0
CIRCLE
  5
AE
330
1F
100
AcDbEntity
  8
0
  6
Continuous
 62
     3
420
    65280
370
     0
100
AcDbCircle
 10
15069.636569
 20
-6979.022672
 30
0.0
 40
18.22500000000026
  0
CIRCLE
  5
AF
330
1F
100
AcDbEntity
  8
0
  6
Continuous
 62
     3
420
    65280
370
     0
100
AcDbCircle
 10
15069.636569
 20
-6979.022672
 30
0.0
 40
10.125
  0
LINE
  5
B0
330
1F
100
AcDbEntity
  8
0
  6
Continuous
 62
     3
420
    65280
370
     0
100
AcDbLine
 10
15045.336569
 20
-6997.247672
 30
0.0
 11
15045.336569
 21
-6960.797672
 31
0.0
  0
LINE
  5
B1
330
1F
100
AcDbEntity
  8
0
  6
Continuous
 62
     3
420
    65280
370
     0
100
AcDbLine
 10
15014.961569
 20
-6968.897672
 30
0.0
 11
15014.961569
 21
-6989.147672
 31
0.0
  0
LINE
  5
B3
330
1F
100
AcDbEntity
  8
0
  6
CENTER2
 62
     2
420
 16776960
370
     0
100
AcDbLine
 10
15014.961569
 20
-6979.022672
 30
0.0
 11
15087.861569
 21
-6979.022672
 31
0.0
  0
LINE
  5
B4
330
1F
100
AcDbEntity
  8
0
  6
CENTER2
 62
     2
420
 16776960
370
     0
100
AcDbLine
 10
15069.636569
 20
-7000.209548
 30
0.0
 11
15069.636569
 21
-6957.702273
 31
0.0
  0
LINE
  5
B5
330
1F
100
AcDbEntity
  8
0
  6
Continuous
 62
     3
420
    65280
370
     0
100
AcDbLine
 10
15014.961569
 20
-6968.897672
 30
0.0
 11
15045.336569
 21
-6960.797672
 31
0.0
  0
LINE
  5
B6
330
1F
100
AcDbEntity
  8
0
  6
Continuous
 62
     3
420
    65280
370
     0
100
AcDbLine
 10
15014.961569
 20
-6989.147672
 30
0.0
 11
15045.336569
 21
-6997.247672
 31
0.0
  0
MTEXT
  5
B7
330
1F
100
AcDbEntity
  8
0
  6
Continuous
 62
     2
420
 16776960
370
     0
100
AcDbMText
 10
14758.040457
 20
-6958.648337
 30
0.0
 40
16.875
 41
0.0
 46
0.0
 71
     1
 72
     1
  1
{\W1.03;{\fTimes New Roman|b0|i0;D.D.}}
  7
Default
 73
     1
 44
1.0
  0
MTEXT
  5
B8
330
1F
100
AcDbEntity
  8
0
  6
Continuous
 62
     2
420
 16776960
370
     0
100
AcDbMText
 10
14755.759736
 20
-6982.610269
 30
0.0
 40
16.875
 41
0.0
 46
0.0
 71
     1
 72
     1
  1
{\fTimes New Roman|b0|i0|c0|p0;15 - 06 - 2016}
  7
Default
 73
     1
 44
1.0
  0
MTEXT
  5
B9
330
1F
100
AcDbEntity
  8
0
  6
Continuous
 62
     2
420
 16776960
370
     0
100
AcDbMText
 10
14949.413504
 20
-6982.561728
 30
0.0
 40
16.875
 41
0.0
 46
0.0
 71
     1
 72
     1
  1
{\W1.13;{\fTimes New Roman|b0|i0;1:2}}
  7
Default
 73
     1
 44
1.0
  0
MTEXT
  5
BA
330
1F
100
AcDbEntity
  8
0
  6
Continuous
 62
     2
420
 16776960
370
     0
100
AcDbMText
 10
15244.013884
 20
-6969.898062
 30
0.0
 40
16.875
 41
0.0
 46
0.0
 71
     1
 72
     1
  1
{\fTimes New Roman|b0|i0|c0|p0;4}
  7
Default
 73
     1
 44
1.0
  0
LINE
  5
BB
330
1F
100
AcDbEntity
  8
0
  6
Continuous
 62
     2
420
 16776960
370
     0
100
AcDbLine
 10
14359.918233
 20
-7028.33298
 30
0.0
 11
14359.918233
 21
-7028.23011
 31
0.0
  0
MTEXT
  5
BC
330
1F
100
AcDbEntity
  8
0
  6
Continuous
 62
     4
420
    65535
370
     0
100
AcDbMText
 10
14279.040483
 20
-7078.382033
 30
0.0
 40
12.21002
 41
0.0
 46
0.0
 71
     1
 72
     1
  1
{\fTimes New Roman|b0|i1|c0|p0;tel. +39 0733 290592 Fax +39 0733 298070}
  7
Default
 73
     1
 44
1.0
  0
MTEXT
  5
BD
330
1F
100
AcDbEntity
  8
0
  6
Continuous
 62
     4
420
    65535
370
     0
100
AcDbMText
 10
14300.851915
 20
-7041.09677
 30
0.0
 40
12.21002
 41
0.0
 46
0.0
 71
     1
 72
     1
  1
{\fTimes New Roman|b0|i1|c0|p0;PLADOS Spa - Via Grazia Deledda, 3^M\P  62010 Montecassiano (MC) - ITALY}
  7
Default
 73
     2
 44
0.899982
  0
MTEXT
  5
BE
330
1F
100
AcDbEntity
  8
0
  6
Continuous
 62
     4
420
    65535
370
     0
100
AcDbMText
 10
14288.554094
 20
-7095.865126
 30
0.0
 40
12.21002
 41
0.0
 46
0.0
 71
     1
 72
     1
  1
{\fTimes New Roman|b0|i1|c0|p0;e-mail: plados@plados.it  www.plados.it}
  7
Default
 73
     1
 44
1.0
  0
LINE
  5
BF
330
1F
100
AcDbEntity
  8
0
  6
Continuous
 62
     1
420
 16711680
370
     0
100
AcDbLine
 10
14362.756114
 20
-7011.072408
 30
0.0
 11
14369.709062
 21
-6971.640281
 31
0.0
  0
LINE
  5
C0
330
1F
100
AcDbEntity
  8
0
  6
Continuous
 62
     1
420
 16711680
370
     0
100
AcDbLine
 10
14362.756114
 20
-7011.072408
 30
0.0
 11
14375.900155
 21
-7011.072408
 31
0.0
  0
LINE
  5
C1
330
1F
100
AcDbEntity
  8
0
  6
Continuous
 62
     1
420
 16711680
370
     0
100
AcDbLine
 10
14369.709062
 20
-6971.640281
 30
0.0
 11
14391.415672
 21
-6971.640281
 31
0.0
  0
LINE
  5
C2
330
1F
100
AcDbEntity
  8
0
  6
Continuous
 62
     1
420
 16711680
370
     0
100
AcDbLine
 10
14400.127183
 20
-7011.072408
 30
0.0
 11
14407.080131
 21
-6971.640281
 31
0.0
  0
ARC
  5
C3
330
1F
100
AcDbEntity
  8
0
  6
Continuous
 62
     1
420
 16711680
370
     0
100
AcDbCircle
 10
14391.415672
 20
-6984.784323
 30
0.0
 40
13.14404234968465
100
AcDbArc
 50
270.0
 51
90.0
  0
LINE
  5
C4
330
1F
100
AcDbEntity
  8
0
  6
Continuous
 62
     1
420
 16711680
370
     0
100
AcDbLine
 10
14375.900155
 20
-7011.072408
 30
0.0
 11
14378.217805
 21
-6997.928365
 31
0.0
  0
LINE
  5
C5
330
1F
100
AcDbEntity
  8
0
  6
Continuous
 62
     1
420
 16711680
370
     0
100
AcDbLine
 10
14391.415672
 20
-6997.928365
 30
0.0
 11
14378.217805
 21
-6997.928365
 31
0.0
  0
LINE
  5
C6
330
1F
100
AcDbEntity
  8
0
  6
Continuous
 62
     1
420
 16711680
370
     0
100
AcDbLine
 10
14415.791645
 20
-6997.928365
 30
0.0
 11
14420.426943
 21
-6971.640281
 31
0.0
  0
LINE
  5
C7
330
1F
100
AcDbEntity
  8
0
  6
Continuous
 62
     1
420
 16711680
370
     0
100
AcDbLine
 10
14407.080131
 20
-6971.640281
 30
0.0
 11
14420.426943
 21
-6971.640281
 31
0.0
  0
LINE
  5
C8
330
1F
100
AcDbEntity
  8
0
  6
Continuous
 62
     1
420
 16711680
370
     0
100
AcDbLine
 10
14415.791645
 20
-6997.928365
 30
0.0
 11
14423.799732
 21
-6997.928365
 31
0.0
  0
LINE
  5
C9
330
1F
100
AcDbEntity
  8
0
  6
Continuous
 62
     1
420
 16711680
370
     0
100
AcDbLine
 10
14400.127183
 20
-7011.072408
 30
0.0
 11
14429.355063
 21
-7011.072408
 31
0.0
  0
LINE
  5
CA
330
1F
100
AcDbEntity
  8
0
  6
Continuous
 62
     1
420
 16711680
370
     0
100
AcDbLine
 10
14423.799732
 20
-6997.928365
 30
0.0
 11
14438.977167
 21
-6971.640281
 31
0.0
  0
LINE
  5
CB
330
1F
100
AcDbEntity
  8
0
  6
Continuous
 62
     1
420
 16711680
370
     0
100
AcDbLine
 10
14438.977167
 20
-6971.640281
 30
0.0
 11
14452.121212
 21
-6971.640281
 31
0.0
  0
LINE
  5
CC
330
1F
100
AcDbEntity
  8
0
  6
Continuous
 62
     1
420
 16711680
370
     0
100
AcDbLine
 10
14452.121212
 20
-6971.640281
 30
0.0
 11
14459.074163
 21
-7011.072408
 31
0.0
  0
LINE
  5
CD
330
1F
100
AcDbEntity
  8
0
  6
Continuous
 62
     1
420
 16711680
370
     0
100
AcDbLine
 10
14446.664271
 20
-7011.072408
 30
0.0
 11
14459.074163
 21
-7011.072408
 31
0.0
  0
LINE
  5
CE
330
1F
100
AcDbEntity
  8
0
  6
Continuous
 62
     1
420
 16711680
370
     0
100
AcDbLine
 10
14442.614684
 20
-6988.106073
 30
0.0
 11
14446.664271
 21
-7011.072408
 31
0.0
  0
LINE
  5
CF
330
1F
100
AcDbEntity
  8
0
  6
Continuous
 62
     1
420
 16711680
370
     0
100
AcDbLine
 10
14429.355063
 20
-7011.072408
 30
0.0
 11
14442.614684
 21
-6988.106073
 31
0.0
  0
CIRCLE
  5
D0
330
1F
100
AcDbEntity
  8
0
  6
Continuous
 62
     3
420
    65280
370
     0
100
AcDbCircle
 10
14439.953018
 20
-7003.201137
 30
0.0
 40
5.242461780635706
  0
LINE
  5
D1
330
1F
100
AcDbEntity
  8
0
  6
Continuous
 62
     1
420
 16711680
370
     0
100
AcDbLine
 10
14459.074162
 20
-7011.072408
 30
0.0
 11
14466.02711
 21
-6971.640281
 31
0.0
  0
LINE
  5
D2
330
1F
100
AcDbEntity
  8
0
  6
Continuous
 62
     1
420
 16711680
370
     0
100
AcDbLine
 10
14466.02711
 20
-6971.640281
 30
0.0
 11
14490.403083
 21
-6971.640281
 31
0.0
  0
LINE
  5
D3
330
1F
100
AcDbEntity
  8
0
  6
Continuous
 62
     1
420
 16711680
370
     0
100
AcDbLine
 10
14502.178904
 20
-6993.693842
 30
0.0
 11
14503.347437
 21
-6987.066762
 31
0.0
  0
ARC
  5
D4
330
1F
100
AcDbEntity
  8
0
  6
Continuous
 62
     1
420
 16711680
370
     0
100
AcDbCircle
 10
14490.403083
 20
-6984.784323
 30
0.0
 40
13.14404234968465
100
AcDbArc
 50
350.0
 51
90.0
  0
ARC
  5
D5
330
1F
100
AcDbEntity
  8
0
  6
Continuous
 62
     1
420
 16711680
370
     0
100
AcDbCircle
 10
14481.467937
 20
-6990.04194
 30
0.0
 40
21.03046775949544
100
AcDbArc
 50
270.0
 51
350.0
  0
LINE
  5
D6
330
1F
100
AcDbEntity
  8
0
  6
Continuous
 62
     1
420
 16711680
370
     0
100
AcDbLine
 10
14459.074162
 20
-7011.072408
 30
0.0
 11
14481.467937
 21
-7011.072408
 31
0.0
  0
LINE
  5
D7
330
1F
100
AcDbEntity
  8
0
  6
Continuous
 62
     1
420
 16711680
370
     0
100
AcDbLine
 10
14473.811563
 20
-7003.185982
 30
0.0
 11
14477.983331
 21
-6979.526706
 31
0.0
  0
LINE
  5
D8
330
1F
100
AcDbEntity
  8
0
  6
Continuous
 62
     1
420
 16711680
370
     0
100
AcDbLine
 10
14490.2421
 20
-6985.697299
 30
0.0
 11
14488.30749
 21
-6996.66902
 31
0.0
  0
LINE
  5
D9
330
1F
100
AcDbEntity
  8
0
  6
Continuous
 62
     1
420
 16711680
370
     0
100
AcDbLine
 10
14477.983331
 20
-6979.526706
 30
0.0
 11
14485.064358
 21
-6979.526706
 31
0.0
  0
LINE
  5
DA
330
1F
100
AcDbEntity
  8
0
  6
Continuous
 62
     1
420
 16711680
370
     0
100
AcDbLine
 10
14473.811563
 20
-7003.185982
 30
0.0
 11
14480.540877
 21
-7003.185982
 31
0.0
  0
ARC
  5
DB
330
1F
100
AcDbEntity
  8
0
  6
Continuous
 62
     1
420
 16711680
370
     0
100
AcDbCircle
 10
14485.064358
 20
-6984.784323
 30
0.0
 40
5.25761693987386
100
AcDbArc
 50
350.0
 51
90.0
  0
ARC
  5
DC
330
1F
100
AcDbEntity
  8
0
  6
Continuous
 62
     1
420
 16711680
370
     0
100
AcDbCircle
 10
14480.540877
 20
-6995.299557
 30
0.0
 40
7.886425409810791
100
AcDbArc
 50
270.0
 51
350.0
  0
ARC
  5
DD
330
1F
100
AcDbEntity
  8
0
  6
Continuous
 62
     1
420
 16711680
370
     0
100
AcDbCircle
 10
14530.443516
 20
-6984.784323
 30
0.0
 40
13.14404234968465
100
AcDbArc
 50
14.187622
 51
94.187625
  0
ARC
  5
DE
330
1F
100
AcDbEntity
  8
0
  6
Continuous
 62
     1
420
 16711680
370
     0
100
AcDbCircle
 10
14514.779054
 20
-6997.928365
 30
0.0
 40
13.14404234968465
100
AcDbArc
 50
165.812378
 51
245.81236
  0
ARC
  5
DF
330
1F
100
AcDbEntity
  8
0
  6
Continuous
 62
     1
420
 16711680
370
     0
100
AcDbCircle
 10
14517.096705
 20
-6984.784323
 30
0.0
 40
26.28808469936929
100
AcDbArc
 50
252.960753
 51
7.039234
  0
ARC
  5
E0
330
1F
100
AcDbEntity
  8
0
  6
Continuous
 62
     1
420
 16711680
370
     0
100
AcDbCircle
 10
14528.125864
 20
-6997.928365
 30
0.0
 40
26.28808469936929
100
AcDbArc
 50
87.039232
 51
172.960766
  0
LINE
  5
E1
330
1F
100
AcDbEntity
  8
0
  6
Continuous
 62
     1
420
 16711680
370
     0
100
AcDbLine
 10
14381.462513
 20
-6979.526706
 30
0.0
 11
14386.076948
 21
-6979.526706
 31
0.0
  0
LINE
  5
E2
330
1F
100
AcDbEntity
  8
0
  6
Continuous
 62
     1
420
 16711680
370
     0
100
AcDbLine
 10
14386.076948
 20
-6990.04194
 30
0.0
 11
14379.608394
 21
-6990.04194
 31
0.0
  0
ARC
  5
E3
330
1F
100
AcDbEntity
  8
0
  6
Continuous
 62
     1
420
 16711680
370
     0
100
AcDbCircle
 10
14386.076948
 20
-6984.784323
 30
0.0
 40
5.25761693987386
100
AcDbArc
 50
270.0
 51
90.0
  0
LINE
  5
E4
330
1F
100
AcDbEntity
  8
0
  6
Continuous
 62
     1
420
 16711680
370
     0
100
AcDbLine
 10
14379.608394
 20
-6990.04194
 30
0.0
 11
14381.462513
 21
-6979.526706
 31
0.0
  0
ARC
  5
E5
330
1F
100
AcDbEntity
  8
0
  6
Continuous
 62
     1
420
 16711680
370
     0
100
AcDbCircle
 10
14524.437239
 20
-6986.339585
 30
0.0
 40
6.572021333114824
100
AcDbArc
 50
15.46769
 51
124.53231
  0
ARC
  5
E6
330
1F
100
AcDbEntity
  8
0
  6
Continuous
 62
     1
420
 16711680
370
     0
100
AcDbCircle
 10
14520.785337
 20
-6996.373105
 30
0.0
 40
6.572021333114861
100
AcDbArc
 50
195.46769
 51
304.53231
  0
ARC
  5
E7
330
1F
100
AcDbEntity
  8
0
  6
Continuous
 62
     1
420
 16711680
370
     0
100
AcDbCircle
 10
14529.652921
 20
-6993.91929
 30
0.0
 40
15.77285081962158
100
AcDbArc
 50
124.53231
 51
195.46769
  0
ARC
  5
E8
330
1F
100
AcDbEntity
  8
0
  6
Continuous
 62
     1
420
 16711680
370
     0
100
AcDbCircle
 10
14515.569654
 20
-6988.7934
 30
0.0
 40
15.77285081962158
100
AcDbArc
 50
304.53231
 51
15.46769
  0
LINE
  5
E9
330
1F
100
AcDbEntity
  8
0
  6
Continuous
 62
     1
420
 16711680
370
     0
100
AcDbLine
 10
14539.489854
 20
-6997.928365
 30
0.0
 11
14552.87359
 21
-6997.928365
 31
0.0
  0
ELLIPSE
  5
EA
330
1F
100
AcDbEntity
  8
0
  6
Continuous
 62
     1
420
 16711680
370
     0
100
AcDbEllipse
 10
14558.131207
 20
-6997.928365
 30
0.0
 11
5.25761693987386
 21
0.0
 31
0.0
210
0.0
220
0.0
230
1.0
 40
0.75
 41
3.141592653589793
 42
7.62307132555159
  0
LINE
  5
EB
330
1F
100
AcDbEntity
  8
0
  6
Continuous
 62
     1
420
 16711680
370
     0
100
AcDbLine
 10
14559.334485
 20
-6994.089811
 30
0.0
 11
14549.866154
 21
-6992.420289
 31
0.0
  0
LINE
  5
EC
330
1F
100
AcDbEntity
  8
0
  6
Continuous
 62
     1
420
 16711680
370
     0
100
AcDbLine
 10
14581.443464
 20
-6984.784323
 30
0.0
 11
14568.059727
 21
-6984.784323
 31
0.0
  0
ELLIPSE
  5
ED
330
1F
100
AcDbEntity
  8
0
  6
Continuous
 62
     1
420
 16711680
370
     0
100
AcDbEllipse
 10
14562.80211
 20
-6984.784323
 30
0.0
 11
-5.25761693987386
 21
0.0
 31
0.0
210
0.0
220
0.0
230
1.0
 40
0.75
 41
3.141592653589793
 42
7.62307132555159
  0
LINE
  5
EE
330
1F
100
AcDbEntity
  8
0
  6
Continuous
 62
     1
420
 16711680
370
     0
100
AcDbLine
 10
14561.598832
 20
-6988.622877
 30
0.0
 11
14571.067163
 21
-6990.292399
 31
0.0
  0
LINE
  5
EF
330
1F
100
AcDbEntity
  8
0
  6
Continuous
 62
     1
420
 16711680
370
     0
100
AcDbLine
 10
14561.651586
 20
-6971.640281
 30
0.0
 11
14565.891223
 21
-6971.640281
 31
0.0
  0
ARC
  5
F0
330
1F
100
AcDbEntity
  8
0
  6
Continuous
 62
     1
420
 16711680
370
     0
100
AcDbCircle
 10
14561.651586
 20
-6992.670748
 30
0.0
 40
21.03046775949544
100
AcDbArc
 50
90.0
 51
142.414862
  0
ARC
  5
F1
330
1F
100
AcDbEntity
  8
0
  6
Continuous
 62
     1
420
 16711680
370
     0
100
AcDbCircle
 10
14565.891223
 20
-6987.413131
 30
0.0
 40
15.77285081962158
100
AcDbArc
 50
9.594068
 51
90.0
  0
ARC
  5
F2
330
1F
100
AcDbEntity
  8
0
  6
Continuous
 62
     1
420
 16711680
370
     0
100
AcDbCircle
 10
14551.235618
 20
-6984.653676
 30
0.0
 40
7.886425409810791
100
AcDbArc
 50
142.414862
 51
260.0
  0
ARC
  5
F3
330
1F
100
AcDbEntity
  8
0
  6
Continuous
 62
     1
420
 16711680
370
     0
100
AcDbCircle
 10
14555.042094
 20
-6995.299557
 30
0.0
 40
15.77285081962158
100
AcDbArc
 50
189.594068
 51
270.0
  0
ARC
  5
F4
330
1F
100
AcDbEntity
  8
0
  6
Continuous
 62
     1
420
 16711680
370
     0
100
AcDbCircle
 10
14559.281731
 20
-6990.04194
 30
0.0
 40
21.03046775949544
100
AcDbArc
 50
270.0
 51
322.414862
  0
LINE
  5
F5
330
1F
100
AcDbEntity
  8
0
  6
Continuous
 62
     1
420
 16711680
370
     0
100
AcDbLine
 10
14559.281731
 20
-7011.072408
 30
0.0
 11
14555.042094
 21
-7011.072408
 31
0.0
  0
ARC
  5
F6
330
1F
100
AcDbEntity
  8
0
  6
Continuous
 62
     1
420
 16711680
370
     0
100
AcDbCircle
 10
14569.6977
 20
-6998.059012
 30
0.0
 40
7.886425409810791
100
AcDbArc
 50
322.414862
 51
80.0
  0
LINE
  5
F7
330
1F
100
AcDbEntity
  8
0
  6
Continuous
 62
     3
420
    65280
370
     0
100
AcDbLine
 10
14323.323982
 20
-7011.072412
 30
0.0
 11
14351.206721
 21
-6983.189673
 31
0.0
  0
LINE
  5
F8
330
1F
100
AcDbEntity
  8
0
  6
Continuous
 62
     3
420
    65280
370
     0
100
AcDbLine
 10
14323.323982
 20
-7011.072412
 30
0.0
 11
14295.441243
 21
-6983.189671
 31
0.0
  0
LINE
  5
F9
330
1F
100
AcDbEntity
  8
0
  6
Continuous
 62
     3
420
    65280
370
     0
100
AcDbLine
 10
14323.323982
 20
-6955.306934
 30
0.0
 11
14295.441243
 21
-6983.189671
 31
0.0
  0
LINE
  5
FA
330
1F
100
AcDbEntity
  8
0
  6
Continuous
 62
     3
420
    65280
370
     0
100
AcDbLine
 10
14351.206721
 20
-6983.189673
 30
0.0
 11
14323.323982
 21
-6955.306934
 31
0.0
  0
LINE
  5
FB
330
1F
100
AcDbEntity
  8
0
  6
Continuous
 62
     1
420
 16711680
370
     0
100
AcDbLine
 10
14308.890814
 20
-6957.207096
 30
0.0
 11
14289.17474
 21
-6991.356336
 31
0.0
  0
LINE
  5
FC
330
1F
100
AcDbEntity
  8
0
  6
Continuous
 62
     1
420
 16711680
370
     0
100
AcDbLine
 10
14316.836421
 20
-6961.794495
 30
0.0
 11
14308.890814
 21
-6957.207096
 31
0.0
  0
LINE
  5
FD
330
1F
100
AcDbEntity
  8
0
  6
Continuous
 62
     1
420
 16711680
370
     0
100
AcDbLine
 10
14323.323982
 20
-7011.072412
 30
0.0
 11
14289.17474
 21
-6991.356336
 31
0.0
  0
MTEXT
  5
FE
330
1F
100
AcDbEntity
  8
0
  6
Continuous
 62
     3
420
    65280
370
     0
100
AcDbMText
 10
14283.932422
 20
-7016.58455
 30
0.0
 40
14.458447
 41
0.0
 46
0.0
 71
     1
 72
     1
  1
{\W0.84;{\fFutura Lt BT|b0|i0;{\fFutura Lt BT|b1|i0;{\fFutura Lt BT|b1|i1;Complementi per cucine d'autore}}}}
  7
Default
 73
     1
 44
1.0
  0
LINE
  5
FF
330
1F
100
AcDbEntity
  8
0
  6
Continuous
 62
     7
420
 16777215
370
     0
100
AcDbLine
 10
15399.265733
 20
-7003.647134
 30
0.0
 11
14623.015733
 21
-7003.647134
 31
0.0
  0
MTEXT
  5
100
330
1F
100
AcDbEntity
  8
0
  6
Continuous
 62
     2
420
 16776960
370
     0
100
AcDbMText
 10
14741.897035
 20
-7020.723378
 30
0.0
 40
30.375
 41
0.0
 46
0.0
 71
     1
 72
     1
  1
{\fTimes New Roman|b0|i0|c0|p0;Sink for USA}
  7
Default
 73
     2
 44
0.899982
  0
MTEXT
  5
101
330
1F
100
AcDbEntity
  8
0
  6
Continuous
 62
     2
420
 16776960
370
     0
100
AcDbMText
 10
14669.881431
 20
-7065.920018
 30
0.0
 40
30.375
 41
0.0
 46
0.0
 71
     1
 72
     1
  1
{\fTimes New Roman|b0|i0|c0|p0;ON8420ST (33"x22")^M\P}
  7
Default
 73
     2
 44
0.899982
  0
MTEXT
  5
102
330
1F
100
AcDbEntity
  8
0
  6
Continuous
 62
     2
420
 16776960
370
     0
100
AcDbMText
 10
14629.790457
 20
-7008.710562
 30
0.0
 40
16.875
 41
0.0
 46
0.0
 71
     1
 72
     1
  1
{\W1.04;{\fTimes New Roman|b0|i0;{\fTimes New Roman|b0|i1;Titolo:}}}
  7
Default
 73
     1
 44
1.0
  0
LINE
  5
103
330
1F
100
AcDbEntity
  8
0
  6
Continuous
 62
     6
420
 16711935
370
     0
100
AcDbLine
 10
15588.688529
 20
-5334.371081
 30
0.0
 11
15588.688529
 21
-4864.371081
 31
0.0
  0
LINE
  5
104
330
1F
100
AcDbEntity
  8
0
  6
Continuous
 62
     6
420
 16711935
370
     0
100
AcDbLine
 10
14750.488529
 20
-4864.371081
 30
0.0
 11
14750.488529
 21
-5334.371081
 31
0.0
  0
LINE
  5
105
330
1F
100
AcDbEntity
  8
0
  6
CENTER2
 62
    47
420
  8351551
370
     0
100
AcDbLine
 10
14970.038529
 20
-4949.371081
 30
0.0
 11
14970.038529
 21
-5069.371081
 31
0.0
  0
LINE
  5
106
330
1F
100
AcDbEntity
  8
0
  6
CENTER2
 62
    47
420
  8351551
370
     0
100
AcDbLine
 10
15030.038529
 20
-5009.371081
 30
0.0
 11
14910.038529
 21
-5009.371081
 31
0.0
  0
LINE
  5
107
330
1F
100
AcDbEntity
  8
0
  6
Continuous
 62
     6
420
 16711935
370
     0
100
AcDbLine
 10
14785.488529
 20
-5310.371081
 30
0.0
 11
14785.488529
 21
-4888.371081
 31
0.0
  0
LINE
  5
108
330
1F
100
AcDbEntity
  8
0
  6
Continuous
 62
     6
420
 16711935
370
     0
100
AcDbLine
 10
14791.488529
 20
-4882.371081
 30
0.0
 11
15547.688529
 21
-4882.371081
 31
0.0
  0
LINE
  5
109
330
1F
100
AcDbEntity
  8
0
  6
Continuous
 62
     6
420
 16711935
370
     0
100
AcDbLine
 10
15553.688529
 20
-4888.371081
 30
0.0
 11
15553.688529
 21
-5310.371081
 31
0.0
  0
LINE
  5
10A
330
1F
100
AcDbEntity
  8
0
  6
Continuous
 62
     6
420
 16711935
370
     0
100
AcDbLine
 10
15547.688529
 20
-5316.371081
 30
0.0
 11
14791.488529
 21
-5316.371081
 31
0.0
  0
CIRCLE
  5
10B
330
1F
100
AcDbEntity
  8
0
  6
Continuous
 62
     1
420
 16711680
370
     0
100
AcDbCircle
 10
14970.038529
 20
-5009.371081
 30
0.0
 40
47.0
  0
CIRCLE
  5
10C
330
1F
100
AcDbEntity
  8
0
  6
Continuous
 62
     7
420
 16777215
370
     0
100
AcDbCircle
 10
14970.038529
 20
-5009.371081
 30
0.0
 40
58.5
  0
ARC
  5
10D
330
1F
100
AcDbEntity
  8
0
  6
Continuous
 62
     6
420
 16711935
370
     0
100
AcDbCircle
 10
14791.488529
 20
-4888.371081
 30
0.0
 40
6.0
100
AcDbArc
 50
90.0
 51
180.0
  0
ARC
  5
10E
330
1F
100
AcDbEntity
  8
0
  6
Continuous
 62
     6
420
 16711935
370
     0
100
AcDbCircle
 10
14791.488529
 20
-5310.371081
 30
0.0
 40
6.0
100
AcDbArc
 50
180.0
 51
270.0
  0
ARC
  5
10F
330
1F
100
AcDbEntity
  8
0
  6
Continuous
 62
     6
420
 16711935
370
     0
100
AcDbCircle
 10
15547.688529
 20
-5310.371081
 30
0.0
 40
6.0
100
AcDbArc
 50
270.0
 51
360.0
  0
ARC
  5
110
330
1F
100
AcDbEntity
  8
0
  6
Continuous
 62
     6
420
 16711935
370
     0
100
AcDbCircle
 10
15547.688529
 20
-4888.371081
 30
0.0
 40
6.0
100
AcDbArc
 50
0.0
 51
90.0
  0
LINE
  5
111
330
1F
100
AcDbEntity
  8
0
  6
Continuous
 62
     6
420
 16711935
370
     0
100
AcDbLine
 10
15154.588529
 20
-4892.371081
 30
0.0
 11
15154.588529
 21
-5306.371081
 31
0.0
  0
LINE
  5
112
330
1F
100
AcDbEntity
  8
0
  6
Continuous
 62
     6
420
 16711935
370
     0
100
AcDbLine
 10
15184.588529
 20
-5306.371081
 30
0.0
 11
15184.588529
 21
-4892.371081
 31
0.0
  0
ARC
  5
113
330
1F
100
AcDbEntity
  8
0
  6
Continuous
 62
     6
420
 16711935
370
     0
100
AcDbCircle
 10
15194.588529
 20
-5306.371081
 30
0.0
 40
10.0
100
AcDbArc
 50
180.0
 51
270.0
  0
ARC
  5
114
330
1F
100
AcDbEntity
  8
0
  6
Continuous
 62
     6
420
 16711935
370
     0
100
AcDbCircle
 10
15144.588529
 20
-5306.371081
 30
0.0
 40
10.0
100
AcDbArc
 50
270.0
 51
0.0
  0
ARC
  5
115
330
1F
100
AcDbEntity
  8
0
  6
Continuous
 62
     6
420
 16711935
370
     0
100
AcDbCircle
 10
15194.588529
 20
-4892.371081
 30
0.0
 40
10.0
100
AcDbArc
 50
90.0
 51
180.0
  0
ARC
  5
116
330
1F
100
AcDbEntity
  8
0
  6
Continuous
 62
     6
420
 16711935
370
     0
100
AcDbCircle
 10
15144.588529
 20
-4892.371081
 30
0.0
 40
10.0
100
AcDbArc
 50
0.0
 51
90.0
  0
LINE
  5
117
330
1F
100
AcDbEntity
  8
0
  6
CENTER2
 62
    47
420
  8351551
370
     0
100
AcDbLine
 10
15369.138529
 20
-4949.371081
 30
0.0
 11
15369.138529
 21
-5069.371081
 31
0.0
  0
LINE
  5
118
330
1F
100
AcDbEntity
  8
0
  6
CENTER2
 62
    47
420
  8351551
370
     0
100
AcDbLine
 10
15309.138529
 20
-5009.371081
 30
0.0
 11
15429.138529
 21
-5009.371081
 31
0.0
  0
CIRCLE
  5
119
330
1F
100
AcDbEntity
  8
0
  6
Continuous
 62
     1
420
 16711680
370
     0
100
AcDbCircle
 10
15369.138529
 20
-5009.371081
 30
0.0
 40
47.0
  0
CIRCLE
  5
11A
330
1F
100
AcDbEntity
  8
0
  6
Continuous
 62
     7
420
 16777215
370
     0
100
AcDbCircle
 10
15369.138529
 20
-5009.371081
 30
0.0
 40
58.5
  0
LINE
  5
11B
330
1F
100
AcDbEntity
  8
0
  6
Continuous
 62
     1
420
 16711680
370
     0
100
AcDbLine
 10
14821.036621
 20
-5265.821081
 30
0.0
 11
14821.036621
 21
-4932.921081
 31
0.0
  0
LINE
  5
11C
330
1F
100
AcDbEntity
  8
0
  6
Continuous
 62
     1
420
 16711680
370
     0
100
AcDbLine
 10
15134.211362
 20
-5265.821081
 30
0.0
 11
15134.211362
 21
-4932.921081
 31
0.0
  0
LINE
  5
11D
330
1F
100
AcDbEntity
  8
0
  6
Continuous
 62
     1
420
 16711680
370
     0
100
AcDbLine
 10
15119.211362
 20
-4917.921081
 30
0.0
 11
14836.036621
 21
-4917.921081
 31
0.0
  0
ARC
  5
11E
330
1F
100
AcDbEntity
  8
0
  6
Continuous
 62
     1
420
 16711680
370
     0
100
AcDbCircle
 10
14836.036621
 20
-4932.921081
 30
0.0
 40
15.0
100
AcDbArc
 50
90.0
 51
180.0
  0
ARC
  5
11F
330
1F
100
AcDbEntity
  8
0
  6
Continuous
 62
     1
420
 16711680
370
     0
100
AcDbCircle
 10
15119.211362
 20
-4932.921081
 30
0.0
 40
15.0
100
AcDbArc
 50
0.0
 51
90.0
  0
LINE
  5
120
330
1F
100
AcDbEntity
  8
0
  6
Continuous
 62
     1
420
 16711680
370
     0
100
AcDbLine
 10
14836.036621
 20
-5280.821081
 30
0.0
 11
15119.211362
 21
-5280.821081
 31
0.0
  0
ARC
  5
121
330
1F
100
AcDbEntity
  8
0
  6
Continuous
 62
     1
420
 16711680
370
     0
100
AcDbCircle
 10
14836.036621
 20
-5265.821081
 30
0.0
 40
15.0
100
AcDbArc
 50
180.0
 51
270.0
  0
ARC
  5
122
330
1F
100
AcDbEntity
  8
0
  6
Continuous
 62
     1
420
 16711680
370
     0
100
AcDbCircle
 10
15119.211362
 20
-5265.821081
 30
0.0
 40
15.0
100
AcDbArc
 50
270.0
 51
360.0
  0
LINE
  5
123
330
1F
100
AcDbEntity
  8
0
  6
Continuous
 62
     1
420
 16711680
370
     0
100
AcDbLine
 10
15204.965696
 20
-5265.821081
 30
0.0
 11
15204.965696
 21
-4932.921081
 31
0.0
  0
LINE
  5
124
330
1F
100
AcDbEntity
  8
0
  6
Continuous
 62
     1
420
 16711680
370
     0
100
AcDbLine
 10
15219.965696
 20
-4917.921081
 30
0.0
 11
15503.140437
 21
-4917.921081
 31
0.0
  0
ARC
  5
125
330
1F
100
AcDbEntity
  8
0
  6
Continuous
 62
     1
420
 16711680
370
     0
100
AcDbCircle
 10
15219.965696
 20
-4932.921081
 30
0.0
 40
15.0
100
AcDbArc
 50
90.0
 51
180.0
  0
LINE
  5
126
330
1F
100
AcDbEntity
  8
0
  6
Continuous
 62
     1
420
 16711680
370
     0
100
AcDbLine
 10
15503.140437
 20
-5280.821081
 30
0.0
 11
15219.965696
 21
-5280.821081
 31
0.0
  0
ARC
  5
127
330
1F
100
AcDbEntity
  8
0
  6
Continuous
 62
     1
420
 16711680
370
     0
100
AcDbCircle
 10
15219.965696
 20
-5265.821081
 30
0.0
 40
15.0
100
AcDbArc
 50
180.0
 51
270.0
  0
LINE
  5
128
330
1F
100
AcDbEntity
  8
0
  6
Continuous
 62
     1
420
 16711680
370
     0
100
AcDbLine
 10
15518.140437
 20
-5265.821081
 30
0.0
 11
15518.140437
 21
-4932.921081
 31
0.0
  0
ARC
  5
129
330
1F
100
AcDbEntity
  8
0
  6
Continuous
 62
     1
420
 16711680
370
     0
100
AcDbCircle
 10
15503.140437
 20
-4932.921081
 30
0.0
 40
15.0
100
AcDbArc
 50
0.0
 51
90.0
  0
ARC
  5
12A
330
1F
100
AcDbEntity
  8
0
  6
Continuous
 62
     1
420
 16711680
370
     0
100
AcDbCircle
 10
15503.140437
 20
-5265.821081
 30
0.0
 40
15.0
100
AcDbArc
 50
270.0
 51
0.0
  0
MTEXT
  5
12B
330
1F
100
AcDbEntity
  8
0
  6
Continuous
 62
     7
420
 16777215
370
     0
100
AcDbMText
 10
14664.644804
 20
-4585.233778
 30
0.0
 40
52.799999
 41
0.0
 46
0.0
 71
     3
 72
     1
  1
{\fArial|b0|i0|c0|p0;ON8420ST}
  7
ANSI
 73
     1
 44
1.0
  0
LINE
  5
12D
330
1F
100
AcDbEntity
  8
0
  6
HIDDEN2
 62
     6
420
 16711935
370
     0
100
AcDbLine
 10
15658.688529
 20
-4864.371081
 30
0.0
 11
14680.488529
 21
-4864.371081
 31
0.0
  0
LINE
  5
12E
330
1F
100
AcDbEntity
  8
0
  6
HIDDEN2
 62
     6
420
 16711935
370
     0
100
AcDbLine
 10
14680.488529
 20
-5334.371081
 30
0.0
 11
15658.688529
 21
-5334.371081
 31
0.0
  0
INSERT
  5
1A9
330
1F
100
AcDbEntity
  8
0
  6
Continuous
 62
     7
420
 16777215
370
     0
100
AcDbBlockReference
  2
.TD_XHATCH_1
 10
14362.795898
 20
-7011.072266
 30
0.0
  0
INSERT
  5
1C4
330
1F
100
AcDbEntity
  8
0
  6
Continuous
 62
     3
420
    65280
370
     0
100
AcDbBlockReference
  2
.TD_XHATCH_2
 10
14434.711914
 20
-7008.442871
 30
0.0
  0
INSERT
  5
2FA
330
1F
100
AcDbEntity
  8
0
  6
Continuous
 62
     7
420
 16777215
370
     0
100
AcDbBlockReference
  2
.TD_XHATCH_3
 10
14400.15625
 20
-7011.072266
 30
0.0
  0
INSERT
  5
370
330
1F
100
AcDbEntity
  8
0
  6
Continuous
 62
     7
420
 16777215
370
     0
100
AcDbBlockReference
  2
.TD_XHATCH_4
 10
14501.638672
 20
-7011.071777
 30
0.0
  0
INSERT
  5
411
330
1F
100
AcDbEntity
  8
0
  6
Continuous
 62
     7
420
 16777215
370
     0
100
AcDbBlockReference
  2
.TD_XHATCH_5
 10
14539.584961
 20
-7011.072266
 30
0.0
  0
INSERT
  5
469
330
1F
100
AcDbEntity
  8
0
  6
Continuous
 62
     7
420
 16777215
370
     0
100
AcDbBlockReference
  2
.TD_XHATCH_6
 10
14295.504883
 20
-7010.983887
 30
0.0
  0
INSERT
  5
4D3
330
1F
100
AcDbEntity
  8
0
  6
Continuous
 62
     3
420
    65280
370
     0
100
AcDbBlockReference
  2
.TD_XHATCH_7
 10
14289.321289
 20
-7011.007812
 30
0.0
  0
DIMENSION
  5
4D6
330
1F
100
AcDbEntity
  8
0
  6
Continuous
 62
     7
420
 16777215
370
     0
100
AcDbDimension
280
     0
  2
*D9
 10
15588.688529
 20
-4763.556641
 30
0.0
 11
15169.588529
 21
-4729.356641
 31
0.0
 70
    33
  1
\fArial|b0|i0|c0|p0;838 (33")
 71
     5
 42
838.2
 73
     0
 74
     0
 75
     0
  3
Default
100
AcDbAlignedDimension
 13
14750.488529
 23
-4864.371081
 33
0.0
 14
15588.688529
 24
-4864.371081
 34
0.0
1001
ACAD
1000
DSTYLE
1002
{
1070
    41
1040
28.0
1070
   176
1070
     7
1070
   177
1070
     7
1070
    44
1040
16.0
1070
    42
1040
40.0
1070
   147
1040
8.0
1070
   140
1040
40.0
1002
}
  0
DIMENSION
  5
4E3
330
1F
100
AcDbEntity
  8
0
  6
Continuous
 62
     7
420
 16777215
370
     0
100
AcDbDimension
280
     0
  2
*D10
 10
14578.524414
 20
-5316.371081
 30
0.0
 11
14545.099414
 21
-5099.371081
 31
0.0
 70
    33
  1
\fArial|b0|i0|c0|p0;434 (17 1/8")
 71
     5
 42
434.0
 73
     0
 74
     0
 75
     0
  3
Default
100
AcDbAlignedDimension
 13
14791.488529
 23
-4882.371081
 33
0.0
 14
14791.488529
 24
-5316.371081
 34
0.0
1001
ACAD
1000
DSTYLE
1002
{
1070
   280
1070
     0
1070
   344
1005
0
1070
   343
1005
0
1070
    76
1070
     0
1070
    75
1070
     0
1070
    41
1040
24.5
1070
   176
1070
     7
1070
   177
1070
     7
1070
    44
1040
14.0
1070
    42
1040
52.5
1070
   147
1040
10.5
1070
   140
1040
35.0
1002
}
  0
DIMENSION
  5
4F0
330
1F
100
AcDbEntity
  8
0
  6
Continuous
 62
     7
420
 16777215
370
     0
100
AcDbDimension
280
     0
  2
*D11
 10
15553.688529
 20
-5545.451172
 30
0.0
 11
15169.588529
 21
-5515.526172
 31
0.0
 70
    33
  1
\fArial|b0|i0|c0|p0;768 (30 1/4")
 71
     5
 42
768.2
 73
     0
 74
     0
 75
     0
  3
Default
100
AcDbAlignedDimension
 13
14785.488529
 23
-5311.371081
 33
0.0
 14
15553.688529
 24
-5311.371081
 34
0.0
1001
ACAD
1000
DSTYLE
1002
{
1070
    41
1040
24.5
1070
   176
1070
     7
1070
   177
1070
     7
1070
    44
1040
14.0
1070
    42
1040
52.5
1070
   147
1040
7.0
1070
   140
1040
35.0
1002
}
  0
DIMENSION
  5
4FD
330
1F
100
AcDbEntity
  8
0
  6
Continuous
 62
     7
420
 16777215
370
     0
100
AcDbDimension
280
     0
  2
*D12
 10
15154.588529
 20
-5444.672852
 30
0.0
 11
14970.038529
 21
-5414.747851
 31
0.0
 70
    32
  1
\fArial|b0|i0|c0|p0;369 (14 3/5")
 71
     5
 42
369.1
 73
     0
 74
     0
 75
     0
  3
Default
100
AcDbAlignedDimension
 13
14785.488529
 23
-5310.371081
 33
0.0
 14
15154.588529
 24
-5306.371081
 34
0.0
100
AcDbRotatedDimension
1001
ACAD
1000
DSTYLE
1002
{
1070
    41
1040
24.5
1070
   176
1070
     7
1070
   177
1070
     7
1070
    44
1040
14.0
1070
    42
1040
52.5
1070
   147
1040
7.0
1070
   140
1040
35.0
1002
}
  0
DIMENSION
  5
50A
330
1F
100
AcDbEntity
  8
0
  6
Continuous
 62
     7
420
 16777215
370
     0
100
AcDbDimension
280
     0
  2
*D13
 10
15553.688529
 20
-5444.672852
 30
0.0
 11
15369.138529
 21
-5414.747851
 31
0.0
 70
    32
  1
\fArial|b0|i0|c0|p0;369 (14 3/5")
 71
     5
 42
369.1
 73
     0
 74
     0
 75
     0
  3
Default
100
AcDbAlignedDimension
 13
15184.588529
 23
-5306.371081
 33
0.0
 14
15553.688529
 24
-5310.371081
 34
0.0
100
AcDbRotatedDimension
1001
ACAD
1000
DSTYLE
1002
{
1070
    41
1040
24.5
1070
   176
1070
     7
1070
   177
1070
     7
1070
    44
1040
14.0
1070
    42
1040
52.5
1070
   147
1040
7.0
1070
   140
1040
35.0
1002
}
  0
DIMENSION
  5
517
330
1F
100
AcDbEntity
  8
0
  6
Continuous
 62
     7
420
 16777215
370
     0
100
AcDbDimension
280
     0
  2
*D14
 10
15799.208984
 20
-4864.371081
 30
0.0
 11
15765.008984
 21
-5099.371081
 31
0.0
 70
    33
  1
\fArial|b0|i0|c0|p0;470 (18 1/2")
 71
     5
 42
470.0
 73
     0
 74
     0
 75
     0
  3
Default
100
AcDbAlignedDimension
 13
15588.688529
 23
-5334.371081
 33
0.0
 14
15588.688529
 24
-4864.371081
 34
0.0
1001
ACAD
1000
DSTYLE
1002
{
1070
    41
1040
28.0
1070
   176
1070
     7
1070
   177
1070
     7
1070
    44
1040
16.0
1070
    42
1040
40.0
1070
   147
1040
8.0
1070
   140
1040
40.0
1002
}
  0
LINE
  5
524
330
1F
100
AcDbEntity
  8
0
  6
Continuous
 62
     6
420
 16711935
370
     0
100
AcDbLine
 10
15581.688528
 20
-5745.652463
 30
0.0
 11
15588.688528
 21
-5745.652463
 31
0.0
  0
LINE
  5
525
330
1F
100
AcDbEntity
  8
0
  6
Continuous
 62
     6
420
 16711935
370
     0
100
AcDbLine
 10
15588.688528
 20
-5745.652463
 30
0.0
 11
15588.688528
 21
-5739.652463
 31
0.0
  0
LINE
  5
526
330
1F
100
AcDbEntity
  8
0
  6
Continuous
 62
     6
420
 16711935
370
     0
100
AcDbLine
 10
15553.234921
 20
-5739.921247
 30
0.0
 11
15526.660892
 21
-5956.34934
 31
0.0
  0
LINE
  5
527
330
1F
100
AcDbEntity
  8
0
  6
Continuous
 62
     6
420
 16711935
370
     0
100
AcDbLine
 10
14812.516165
 20
-5956.34934
 30
0.0
 11
14785.942136
 21
-5739.921236
 31
0.0
  0
LINE
  5
528
330
1F
100
AcDbEntity
  8
0
  6
Continuous
 62
     6
420
 16711935
370
     0
100
AcDbLine
 10
14779.986859
 20
-5734.652452
 30
0.0
 11
14755.488528
 21
-5734.652452
 31
0.0
  0
LINE
  5
529
330
1F
100
AcDbEntity
  8
0
  6
Continuous
 62
     6
420
 16711935
370
     0
100
AcDbLine
 10
14750.488528
 20
-5739.652452
 30
0.0
 11
14750.488528
 21
-5745.652452
 31
0.0
  0
LINE
  5
52A
330
1F
100
AcDbEntity
  8
0
  6
Continuous
 62
     6
420
 16711935
370
     0
100
AcDbLine
 10
14750.488528
 20
-5745.652452
 30
0.0
 11
14757.488528
 21
-5745.652452
 31
0.0
  0
LINE
  5
52B
330
1F
100
AcDbEntity
  8
0
  6
Continuous
 62
     6
420
 16711935
370
     0
100
AcDbLine
 10
14757.488528
 20
-5745.652452
 30
0.0
 11
14757.488528
 21
-5744.652452
 31
0.0
  0
LINE
  5
52C
330
1F
100
AcDbEntity
  8
0
  6
Continuous
 62
     6
420
 16711935
370
     0
100
AcDbLine
 10
14760.488528
 20
-5741.652452
 30
0.0
 11
14775.563232
 21
-5741.652452
 31
0.0
  0
LINE
  5
52D
330
1F
100
AcDbEntity
  8
0
  6
Continuous
 62
     6
420
 16711935
370
     0
100
AcDbLine
 10
14779.533417
 20
-5745.164975
 30
0.0
 11
14805.556324
 21
-5957.104548
 31
0.0
  0
LINE
  5
52E
330
1F
100
AcDbEntity
  8
0
  6
Continuous
 62
     6
420
 16711935
370
     0
100
AcDbLine
 10
15533.620733
 20
-5957.104548
 30
0.0
 11
15559.643639
 21
-5745.164985
 31
0.0
  0
LINE
  5
52F
330
1F
100
AcDbEntity
  8
0
  6
Continuous
 62
     6
420
 16711935
370
     0
100
AcDbLine
 10
15563.613824
 20
-5741.652463
 30
0.0
 11
15578.688528
 21
-5741.652463
 31
0.0
  0
LINE
  5
530
330
1F
100
AcDbEntity
  8
0
  6
Continuous
 62
     6
420
 16711935
370
     0
100
AcDbLine
 10
15581.688528
 20
-5744.652463
 30
0.0
 11
15581.688528
 21
-5745.652463
 31
0.0
  0
LINE
  5
531
330
1F
100
AcDbEntity
  8
7
  6
Continuous
 62
     7
420
 16777215
370
     0
100
AcDbLine
 10
15553.881847
 20
-5734.652452
 30
0.0
 11
14785.29521
 21
-5734.652452
 31
0.0
  0
LINE
  5
532
330
1F
100
AcDbEntity
  8
0
  6
Continuous
 62
     7
420
 16777215
370
     0
100
AcDbLine
 10
14730.433528
 20
-5734.652452
 30
0.0
 11
14730.433528
 21
-6010.652452
 31
0.0
  0
LINE
  5
533
330
1F
100
AcDbEntity
  8
0
  6
Continuous
 62
     7
420
 16777215
370
     0
100
AcDbLine
 10
14712.433528
 20
-6010.652452
 30
0.0
 11
14712.433528
 21
-5734.652452
 31
0.0
  0
LINE
  5
534
330
1F
100
AcDbEntity
  8
0
  6
Continuous
 62
     7
420
 16777215
370
     0
100
AcDbLine
 10
14730.433528
 20
-6010.652452
 30
0.0
 11
14712.433528
 21
-6010.652452
 31
0.0
  0
LINE
  5
535
330
1F
100
AcDbEntity
  8
0
  6
Continuous
 62
     7
420
 16777215
370
     0
100
AcDbLine
 10
14785.29521
 20
-5734.652452
 30
0.0
 11
14675.072807
 21
-5734.652452
 31
0.0
  0
SPLINE
  5
536
330
1F
100
AcDbEntity
  8
0
  6
Continuous
 62
     7
420
 16777215
370
     0
100
AcDbSpline
210
0.0
220
0.0
230
1.0
 70
     8
 71
     3
 72
     8
 73
     4
 74
     0
 42
0.0
 43
0.0
 40
-0.0215776957494816
 40
-0.0215776957494816
 40
-0.0215776957494816
 40
-0.0215776957494816
 40
0.8108738981105282
 40
0.8108738981105282
 40
0.8108738981105282
 40
0.8108738981105282
 10
14675.07280675337
 20
-5734.652452405151
 30
0.0
 10
14680.36946063246
 20
-5723.619545054667
 30
0.0
 10
14673.67565662579
 20
-5712.193838255518
 30
0.0
 10
14672.3083676804
 20
-5704.652452405151
 30
0.0
  0
LINE
  5
537
330
1F
100
AcDbEntity
  8
0
  6
Continuous
 62
     7
420
 16777215
370
     0
100
AcDbLine
 10
14785.29521
 20
-5704.652452
 30
0.0
 11
14785.29521
 21
-5734.652452
 31
0.0
  0
LINE
  5
538
330
1F
100
AcDbEntity
  8
0
  6
Continuous
 62
     7
420
 16777215
370
     0
100
AcDbLine
 10
14730.433528
 20
-5734.652453
 30
0.0
 11
14712.433528
 21
-5734.652452
 31
0.0
  0
LINE
  5
539
330
1F
100
AcDbEntity
  8
0
  6
Continuous
 62
     7
420
 16777215
370
     0
100
AcDbLine
 10
14672.308368
 20
-5704.652452
 30
0.0
 11
14785.29521
 21
-5704.652452
 31
0.0
  0
LINE
  5
53A
330
1F
100
AcDbEntity
  8
0
  6
Continuous
 62
     7
420
 16777215
370
     0
100
AcDbLine
 10
15608.833528
 20
-5734.652462
 30
0.0
 11
15608.833528
 21
-6010.652462
 31
0.0
  0
LINE
  5
53B
330
1F
100
AcDbEntity
  8
0
  6
Continuous
 62
     7
420
 16777215
370
     0
100
AcDbLine
 10
15626.833528
 20
-6010.652462
 30
0.0
 11
15626.833528
 21
-5734.652462
 31
0.0
  0
LINE
  5
53C
330
1F
100
AcDbEntity
  8
0
  6
Continuous
 62
     7
420
 16777215
370
     0
100
AcDbLine
 10
15608.833528
 20
-6010.652462
 30
0.0
 11
15626.833528
 21
-6010.652462
 31
0.0
  0
LINE
  5
53D
330
1F
100
AcDbEntity
  8
0
  6
Continuous
 62
     7
420
 16777215
370
     0
100
AcDbLine
 10
15553.881847
 20
-5734.652463
 30
0.0
 11
15664.10425
 21
-5734.652463
 31
0.0
  0
SPLINE
  5
53E
330
1F
100
AcDbEntity
  8
0
  6
Continuous
 62
     7
420
 16777215
370
     0
100
AcDbSpline
210
0.0
220
0.0
230
1.0
 70
     8
 71
     3
 72
     8
 73
     4
 74
     0
 42
0.0
 43
0.0
 40
-0.0215776957494816
 40
-0.0215776957494816
 40
-0.0215776957494816
 40
-0.0215776957494816
 40
0.8108738981105282
 40
0.8108738981105282
 40
0.8108738981105282
 40
0.8108738981105282
 10
15664.10424952894
 20
-5734.652462733358
 30
0.0
 10
15658.80759564985
 20
-5723.619555382875
 30
0.0
 10
15665.50139965652
 20
-5712.193848583725
 30
0.0
 10
15666.8686886019
 20
-5704.652462733358
 30
0.0
  0
LINE
  5
53F
330
1F
100
AcDbEntity
  8
0
  6
Continuous
 62
     7
420
 16777215
370
     0
100
AcDbLine
 10
15666.868689
 20
-5704.652463
 30
0.0
 11
15553.881847
 21
-5704.652463
 31
0.0
  0
LINE
  5
540
330
1F
100
AcDbEntity
  8
0
  6
Continuous
 62
     7
420
 16777215
370
     0
100
AcDbLine
 10
15553.881847
 20
-5704.652452
 30
0.0
 11
15553.881847
 21
-5734.652452
 31
0.0
  0
LINE
  5
541
330
1F
100
AcDbEntity
  8
0
  6
Continuous
 62
     7
420
 16777215
370
     0
100
AcDbLine
 10
15614.233528
 20
-5734.652462
 30
0.0
 11
15632.233528
 21
-5734.652462
 31
0.0
  0
LINE
  5
542
330
1F
100
AcDbEntity
  8
0
  6
Continuous
 62
     6
420
 16711935
370
     0
100
AcDbLine
 10
15559.190198
 20
-5734.652463
 30
0.0
 11
15583.688528
 21
-5734.652463
 31
0.0
  0
ARC
  5
543
330
1F
100
AcDbEntity
  8
0
  6
Continuous
 62
     6
420
 16711935
370
     0
100
AcDbCircle
 10
14760.488528
 20
-5744.652452
 30
0.0
 40
3.0
100
AcDbArc
 50
90.0
 51
180.0
  0
ARC
  5
544
330
1F
100
AcDbEntity
  8
0
  6
Continuous
 62
     6
420
 16711935
370
     0
100
AcDbCircle
 10
15578.688528
 20
-5744.652463
 30
0.0
 40
3.0
100
AcDbArc
 50
0.0
 51
90.0
  0
ARC
  5
545
330
1F
100
AcDbEntity
  8
0
  6
Continuous
 62
     6
420
 16711935
370
     0
100
AcDbCircle
 10
15583.688528
 20
-5739.652463
 30
0.0
 40
5.0
100
AcDbArc
 50
0.0
 51
90.0
  0
ARC
  5
546
330
1F
100
AcDbEntity
  8
0
  6
Continuous
 62
     6
420
 16711935
370
     0
100
AcDbCircle
 10
14755.488528
 20
-5739.652452
 30
0.0
 40
5.0
100
AcDbArc
 50
90.0
 51
180.0
  0
LINE
  5
547
330
1F
100
AcDbEntity
  8
0
  6
Continuous
 62
     6
420
 16711935
370
     0
100
AcDbLine
 10
15416.138528
 20
-5974.652452
 30
0.0
 11
15516.069046
 21
-5972.908159
 31
0.0
  0
LINE
  5
548
330
1F
100
AcDbEntity
  8
0
  6
Continuous
 62
     6
420
 16711935
370
     0
100
AcDbLine
 10
15157.01406
 20
-5839.764975
 30
0.0
 11
15142.731816
 21
-5956.084518
 31
0.0
  0
LINE
  5
549
330
1F
100
AcDbEntity
  8
0
  6
Continuous
 62
     6
420
 16711935
370
     0
100
AcDbLine
 10
15163.084352
 20
-5847.764975
 30
0.0
 11
15149.691655
 21
-5956.839739
 31
0.0
  0
LINE
  5
54A
330
1F
100
AcDbEntity
  8
0
  6
Continuous
 62
     6
420
 16711935
370
     0
100
AcDbLine
 10
15187.166627
 20
-5839.764975
 30
0.0
 11
15201.459619
 21
-5956.172057
 31
0.0
  0
LINE
  5
54B
330
1F
100
AcDbEntity
  8
0
  6
Continuous
 62
     6
420
 16711935
370
     0
100
AcDbLine
 10
15181.096334
 20
-5847.764975
 30
0.0
 11
15194.499778
 21
-5956.927265
 31
0.0
  0
LINE
  5
54C
330
1F
100
AcDbEntity
  8
0
  6
Continuous
 62
     6
420
 16711935
370
     0
100
AcDbLine
 10
15183.196442
 20
-5836.252452
 30
0.0
 11
15160.984244
 21
-5836.252452
 31
0.0
  0
LINE
  5
54D
330
1F
100
AcDbEntity
  8
0
  6
Continuous
 62
     6
420
 16711935
370
     0
100
AcDbLine
 10
15177.12615
 20
-5844.252452
 30
0.0
 11
15167.054536
 21
-5844.252452
 31
0.0
  0
ARC
  5
54E
330
1F
100
AcDbEntity
  8
0
  6
Continuous
 62
     6
420
 16711935
370
     0
100
AcDbCircle
 10
15160.984244
 20
-5840.252452
 30
0.0
 40
4.0
100
AcDbArc
 50
90.0
 51
173.0
  0
ARC
  5
54F
330
1F
100
AcDbEntity
  8
0
  6
Continuous
 62
     6
420
 16711935
370
     0
100
AcDbCircle
 10
15183.196442
 20
-5840.252452
 30
0.0
 40
4.0
100
AcDbArc
 50
7.0
 51
90.0
  0
ARC
  5
550
330
1F
100
AcDbEntity
  8
0
  6
Continuous
 62
     6
420
 16711935
370
     0
100
AcDbCircle
 10
15167.054536
 20
-5848.252452
 30
0.0
 40
4.0
100
AcDbArc
 50
90.0
 51
173.0
  0
ARC
  5
551
330
1F
100
AcDbEntity
  8
0
  6
Continuous
 62
     6
420
 16711935
370
     0
100
AcDbCircle
 10
15177.12615
 20
-5848.252452
 30
0.0
 40
4.0
100
AcDbArc
 50
7.0
 51
90.0
  0
LINE
  5
552
330
1F
100
AcDbEntity
  8
0
  6
Continuous
 62
     6
420
 16711935
370
     0
100
AcDbLine
 10
14909.538528
 20
-5966.652452
 30
0.0
 11
14822.267103
 21
-5965.129124
 31
0.0
  0
LINE
  5
553
330
1F
100
AcDbEntity
  8
0
  6
Continuous
 62
     6
420
 16711935
370
     0
100
AcDbLine
 10
15308.638528
 20
-5966.652452
 30
0.0
 11
15211.210557
 21
-5964.951841
 31
0.0
  0
LINE
  5
554
330
1F
100
AcDbEntity
  8
0
  6
Continuous
 62
     6
420
 16711935
370
     0
100
AcDbLine
 10
15017.038528
 20
-5974.652452
 30
0.0
 11
15132.139967
 21
-5972.643349
 31
0.0
  0
ARC
  5
555
330
1F
100
AcDbEntity
  8
0
  6
Continuous
 62
     6
420
 16711935
370
     0
100
AcDbCircle
 10
14775.563232
 20
-5745.652452
 30
0.0
 40
4.0
100
AcDbArc
 50
7.0
 51
90.0
  0
ARC
  5
556
330
1F
100
AcDbEntity
  8
0
  6
Continuous
 62
     6
420
 16711935
370
     0
100
AcDbCircle
 10
14779.986859
 20
-5740.652452
 30
0.0
 40
6.0
100
AcDbArc
 50
7.0
 51
90.0
  0
ARC
  5
557
330
1F
100
AcDbEntity
  8
0
  6
Continuous
 62
     6
420
 16711935
370
     0
100
AcDbCircle
 10
15559.190198
 20
-5740.652463
 30
0.0
 40
6.0
100
AcDbArc
 50
90.0
 51
173.0
  0
ARC
  5
558
330
1F
100
AcDbEntity
  8
0
  6
Continuous
 62
     6
420
 16711935
370
     0
100
AcDbCircle
 10
15563.613824
 20
-5745.652463
 30
0.0
 40
4.0
100
AcDbArc
 50
90.0
 51
173.0
  0
LINE
  5
559
330
1F
100
AcDbEntity
  8
0
  6
Continuous
 62
     6
420
 16711935
370
     0
100
AcDbLine
 10
14923.038528
 20
-5969.652452
 30
0.0
 11
14923.038528
 21
-5974.652452
 31
0.0
  0
LINE
  5
55A
330
1F
100
AcDbEntity
  8
0
  6
Continuous
 62
     6
420
 16711935
370
     0
100
AcDbLine
 10
14911.538528
 20
-5968.652452
 30
0.0
 11
14922.038528
 21
-5968.652452
 31
0.0
  0
ARC
  5
55B
330
1F
100
AcDbEntity
  8
0
  6
Continuous
 62
     6
420
 16711935
370
     0
100
AcDbCircle
 10
14909.538528
 20
-5968.652452
 30
0.0
 40
2.0
100
AcDbArc
 50
0.0
 51
90.0
  0
LINE
  5
55C
330
1F
100
AcDbEntity
  8
0
  6
Continuous
 62
     6
420
 16711935
370
     0
100
AcDbLine
 10
15017.038528
 20
-5969.652452
 30
0.0
 11
15017.038528
 21
-5974.652452
 31
0.0
  0
LINE
  5
55D
330
1F
100
AcDbEntity
  8
0
  6
Continuous
 62
     6
420
 16711935
370
     0
100
AcDbLine
 10
15028.538528
 20
-5968.652452
 30
0.0
 11
15018.038528
 21
-5968.652452
 31
0.0
  0
ARC
  5
55E
330
1F
100
AcDbEntity
  8
0
  6
Continuous
 62
     6
420
 16711935
370
     0
100
AcDbCircle
 10
15030.538528
 20
-5968.652452
 30
0.0
 40
2.0
100
AcDbArc
 50
90.0
 51
180.0
  0
LINE
  5
55F
330
1F
100
AcDbEntity
  8
0
  6
Continuous
 62
     7
420
 16777215
370
     0
100
AcDbLine
 10
14923.038528
 20
-5974.652452
 30
0.0
 11
15017.038528
 21
-5974.652452
 31
0.0
  0
LINE
  5
560
330
1F
100
AcDbEntity
  8
0
  6
Continuous
 62
     7
420
 16777215
370
     0
100
AcDbLine
 10
14921.038528
 20
-5968.652452
 30
0.0
 11
15019.038528
 21
-5968.652452
 31
0.0
  0
ARC
  5
561
330
1F
100
AcDbEntity
  8
0
  6
Continuous
 62
     6
420
 16711935
370
     0
100
AcDbCircle
 10
14922.038528
 20
-5969.652452
 30
0.0
 40
1.0
100
AcDbArc
 50
0.0
 51
90.0
  0
ARC
  5
562
330
1F
100
AcDbEntity
  8
0
  6
Continuous
 62
     6
420
 16711935
370
     0
100
AcDbCircle
 10
15018.038528
 20
-5969.652452
 30
0.0
 40
1.0
100
AcDbArc
 50
90.0
 51
180.0
  0
ARC
  5
563
330
1F
100
AcDbEntity
  8
0
  6
Continuous
 62
     6
420
 16711935
370
     0
100
AcDbCircle
 10
15417.138528
 20
-5969.652452
 30
0.0
 40
1.0
100
AcDbArc
 50
90.0
 51
180.0
  0
ARC
  5
564
330
1F
100
AcDbEntity
  8
0
  6
Continuous
 62
     6
420
 16711935
370
     0
100
AcDbCircle
 10
15321.138528
 20
-5969.652452
 30
0.0
 40
1.0
100
AcDbArc
 50
0.0
 51
90.0
  0
LINE
  5
565
330
1F
100
AcDbEntity
  8
0
  6
Continuous
 62
     6
420
 16711935
370
     0
100
AcDbLine
 10
15416.138528
 20
-5969.652452
 30
0.0
 11
15416.138528
 21
-5974.652452
 31
0.0
  0
LINE
  5
566
330
1F
100
AcDbEntity
  8
0
  6
Continuous
 62
     6
420
 16711935
370
     0
100
AcDbLine
 10
15427.638528
 20
-5968.652452
 30
0.0
 11
15417.138528
 21
-5968.652452
 31
0.0
  0
ARC
  5
567
330
1F
100
AcDbEntity
  8
0
  6
Continuous
 62
     6
420
 16711935
370
     0
100
AcDbCircle
 10
15429.638528
 20
-5968.652452
 30
0.0
 40
2.0
100
AcDbArc
 50
90.0
 51
180.0
  0
LINE
  5
568
330
1F
100
AcDbEntity
  8
0
  6
Continuous
 62
     6
420
 16711935
370
     0
100
AcDbLine
 10
15322.138528
 20
-5969.652452
 30
0.0
 11
15322.138528
 21
-5974.652452
 31
0.0
  0
LINE
  5
569
330
1F
100
AcDbEntity
  8
0
  6
Continuous
 62
     6
420
 16711935
370
     0
100
AcDbLine
 10
15310.638528
 20
-5968.652452
 30
0.0
 11
15321.138528
 21
-5968.652452
 31
0.0
  0
ARC
  5
56A
330
1F
100
AcDbEntity
  8
0
  6
Continuous
 62
     6
420
 16711935
370
     0
100
AcDbCircle
 10
15308.638528
 20
-5968.652452
 30
0.0
 40
2.0
100
AcDbArc
 50
0.0
 51
90.0
  0
LINE
  5
56B
330
1F
100
AcDbEntity
  8
0
  6
Continuous
 62
     7
420
 16777215
370
     0
100
AcDbLine
 10
15416.138528
 20
-5974.652452
 30
0.0
 11
15322.138528
 21
-5974.652452
 31
0.0
  0
LINE
  5
56C
330
1F
100
AcDbEntity
  8
0
  6
Continuous
 62
     7
420
 16777215
370
     0
100
AcDbLine
 10
15418.138528
 20
-5968.652452
 30
0.0
 11
15320.138528
 21
-5968.652452
 31
0.0
  0
LINE
  5
56D
330
1F
100
AcDbEntity
  8
0
  6
Continuous
 62
     6
420
 16711935
370
     0
100
AcDbLine
 10
15132.980878
 20
-5964.864301
 30
0.0
 11
15030.538531
 21
-5966.652439
 31
0.0
  0
LINE
  5
56E
330
1F
100
AcDbEntity
  8
0
  6
Continuous
 62
     7
420
 16777215
370
     0
100
AcDbLine
 10
14909.538528
 20
-5966.652452
 30
0.0
 11
15030.538528
 21
-5966.652452
 31
0.0
  0
LINE
  5
56F
330
1F
100
AcDbEntity
  8
0
  6
Continuous
 62
     6
420
 16711935
370
     0
100
AcDbLine
 10
15516.909955
 20
-5965.129124
 30
0.0
 11
15429.638528
 21
-5966.652452
 31
0.0
  0
LINE
  5
570
330
1F
100
AcDbEntity
  8
0
  6
Continuous
 62
     7
420
 16777215
370
     0
100
AcDbLine
 10
15308.638528
 20
-5966.652452
 30
0.0
 11
15429.638528
 21
-5966.652452
 31
0.0
  0
LINE
  5
571
330
1F
100
AcDbEntity
  8
0
  6
Continuous
 62
     6
420
 16711935
370
     0
100
AcDbLine
 10
14823.108012
 20
-5972.908159
 30
0.0
 11
14923.038528
 21
-5974.652452
 31
0.0
  0
LINE
  5
572
330
1F
100
AcDbEntity
  8
0
  6
Continuous
 62
     6
420
 16711935
370
     0
100
AcDbLine
 10
15212.051466
 20
-5972.730876
 30
0.0
 11
15322.138528
 21
-5974.652452
 31
0.0
  0
ARC
  5
573
330
1F
100
AcDbEntity
  8
0
  6
Continuous
 62
     6
420
 16711935
370
     0
100
AcDbCircle
 10
14822.441627
 20
-5955.130647
 30
0.0
 40
10.0
100
AcDbArc
 50
187.0
 51
269.0
  0
ARC
  5
574
330
1F
100
AcDbEntity
  8
0
  6
Continuous
 62
     6
420
 16711935
370
     0
100
AcDbCircle
 10
15132.806354
 20
-5954.865824
 30
0.0
 40
10.0
100
AcDbArc
 50
271.0
 51
353.0
  0
ARC
  5
575
330
1F
100
AcDbEntity
  8
0
  6
Continuous
 62
     6
420
 16711935
370
     0
100
AcDbCircle
 10
15211.385081
 20
-5954.953364
 30
0.0
 40
10.0
100
AcDbArc
 50
187.0
 51
269.0
  0
ARC
  5
576
330
1F
100
AcDbEntity
  8
0
  6
Continuous
 62
     6
420
 16711935
370
     0
100
AcDbCircle
 10
15516.735431
 20
-5955.130647
 30
0.0
 40
10.0
100
AcDbArc
 50
271.0
 51
353.0
  0
ARC
  5
577
330
1F
100
AcDbEntity
  8
0
  6
Continuous
 62
     6
420
 16711935
370
     0
100
AcDbCircle
 10
14823.422155
 20
-5954.9109
 30
0.0
 40
18.0
100
AcDbArc
 50
187.0
 51
269.0
  0
ARC
  5
578
330
1F
100
AcDbEntity
  8
0
  6
Continuous
 62
     6
420
 16711935
370
     0
100
AcDbCircle
 10
15131.825824
 20
-5954.646091
 30
0.0
 40
18.0
100
AcDbArc
 50
271.0
 51
353.0
  0
ARC
  5
579
330
1F
100
AcDbEntity
  8
0
  6
Continuous
 62
     6
420
 16711935
370
     0
100
AcDbCircle
 10
15212.365609
 20
-5954.733617
 30
0.0
 40
18.0
100
AcDbArc
 50
187.0
 51
269.0
  0
ARC
  5
57A
330
1F
100
AcDbEntity
  8
0
  6
Continuous
 62
     6
420
 16711935
370
     0
100
AcDbCircle
 10
15515.754902
 20
-5954.9109
 30
0.0
 40
18.0
100
AcDbArc
 50
271.0
 51
353.0
  0
DIMENSION
  5
57B
330
1F
100
AcDbEntity
  8
0
  6
Continuous
 62
     7
420
 16777215
370
     0
100
AcDbDimension
280
     0
  2
*D15
 10
15626.833527
 20
-6115.135751
 30
0.0
 11
15169.632812
 21
-6115.135746
 31
0.0
 70
   161
  1
\fArial|b0|i0|c0|p0;BASE 900 (CABINET 36")
 71
     5
 42
914.4
 73
     0
 74
     0
 75
     0
  3
Default
100
AcDbAlignedDimension
 13
14712.433528
 23
-6010.652452
 33
0.0
 14
15626.833528
 24
-6010.652462
 34
0.0
1001
ACAD
1000
DSTYLE
1002
{
1070
   279
1070
     0
1070
    41
1040
28.0
1070
   176
1070
     7
1070
   177
1070
     7
1070
    44
1040
16.0
1070
    42
1040
40.0
1070
   147
1040
8.0
1070
   140
1040
40.0
1002
}
  0
DIMENSION
  5
588
330
1F
100
AcDbEntity
  8
0
  6
Continuous
 62
     7
420
 16777215
370
     0
100
AcDbDimension
280
     0
  2
*D16
 10
15174.245117
 20
-5836.252452
 30
0.0
 11
15156.482617
 21
-5785.452452
 31
0.0
 70
    32
  1
\fArial|b0|i0|c0|p0;<>
 71
     5
 42
101.6
 73
     0
 74
     0
 75
     0
  3
Default
100
AcDbAlignedDimension
 13
15559.186515
 23
-5734.652452
 33
0.0
 14
15186.735343
 24
-5836.252452
 34
0.0
 50
90.0
100
AcDbRotatedDimension
1001
ACAD
1000
DSTYLE
1002
{
1070
   280
1070
     0
1070
   344
1005
0
1070
   343
1005
0
1070
    76
1070
     0
1070
    75
1070
     0
1070
    41
1040
25.0
1070
   176
1070
    45
1070
   177
1070
     7
1070
    44
1040
10.0
1070
    42
1040
37.5
1070
   147
1040
5.0
1070
     3
1000

1070
   140
1040
25.0
1070
   284
1070
    12
1002
}
  0
DIMENSION
  5
595
330
1F
100
AcDbEntity
  8
0
  6
Continuous
 62
     7
420
 16777215
370
     0
100
AcDbDimension
280
     0
  2
*D17
 10
15007.053711
 20
-5974.652452
 30
0.0
 11
14985.678711
 21
-5854.652452
 31
0.0
 70
    32
  1
\fArial|b0|i0|c0|p0;240 (9 7/16")
 71
     5
 42
240.0
 73
     0
 74
     0
 75
     0
  3
Default
100
AcDbAlignedDimension
 13
14785.29521
 23
-5734.652452
 33
0.0
 14
15017.038528
 24
-5974.652452
 34
0.0
 50
90.0
100
AcDbRotatedDimension
1001
ACAD
1000
DSTYLE
1002
{
1070
   280
1070
     0
1070
   344
1005
0
1070
   343
1005
0
1070
    76
1070
     0
1070
    75
1070
     0
1070
    41
1040
17.5
1070
   176
1070
     7
1070
   177
1070
     7
1070
    44
1040
10.0
1070
    42
1040
37.5
1070
   147
1040
5.0
1070
   140
1040
25.0
1002
}
  0
DIMENSION
  5
5A2
330
1F
100
AcDbEntity
  8
0
  6
Continuous
 62
     7
420
 16777215
370
     0
100
AcDbDimension
280
     0
  2
*D18
 10
15274.926758
 20
-5966.652452
 30
0.0
 11
15274.926758
 21
-5898.915527
 31
0.0
 70
   160
  1
\fArial|b0|i0|c0|p0;5 1/8"
 71
     5
 42
130.4
 73
     0
 74
     0
 75
     0
  3
Default
100
AcDbAlignedDimension
 13
15183.196442
 23
-5836.252452
 33
0.0
 14
15308.638528
 24
-5966.652452
 34
0.0
 50
90.0
100
AcDbRotatedDimension
1001
ACAD
1000
DSTYLE
1002
{
1070
   280
1070
     0
1070
   344
1005
0
1070
   343
1005
0
1070
    76
1070
     0
1070
    75
1070
     0
1070
   279
1070
     0
1070
    41
1040
20.0
1070
   176
1070
    45
1070
   177
1070
     7
1070
    44
1040
8.0
1070
    42
1040
30.0
1070
   147
1040
6.0
1070
   140
1040
20.0
1070
   284
1070
    12
1002
}
  0
HATCH
  5
5AF
330
1F
100
AcDbEntity
  8
0
  6
Continuous
 62
     7
420
 16777215
370
     0
100
AcDbHatch
 10
0.0
 20
0.0
 30
0.0
210
0.0
220
0.0
230
1.0
  2
_USER
 70
     0
 71
     0
 91
        3
 92
        1
 93
       20
 72
     1
 10
14779.98686156172
 20
-5734.652689102631
 11
14755.48853109241
 21
-5734.652689102631
 72
     2
 10
14755.48853109241
 20
-5739.652689102632
 40
5.000000000000909
 50
90.0
 51
179.9999999999896
 73
     1
 72
     1
 10
14750.48853109241
 20
-5739.652689102631
 11
14750.48853109241
 21
-5745.652689102631
 72
     1
 10
14750.48853109241
 20
-5745.652689102631
 11
14757.48853109241
 21
-5745.652689102631
 72
     1
 10
14757.48853109241
 20
-5745.652689102631
 11
14757.48853109241
 21
-5744.652689102631
 72
     2
 10
14760.48853109241
 20
-5744.652689102631
 40
3.0
 50
179.9999999999827
 51
270.0
 73
     0
 72
     1
 10
14760.48853109241
 20
-5741.652689102631
 11
14775.56323523894
 21
-5741.652689102631
 72
     2
 10
14775.56323523894
 20
-5745.652689102635
 40
4.000000000003638
 50
270.0
 51
352.9999999999426
 73
     0
 72
     1
 10
14779.5334198455
 20
-5745.16521172901
 11
14805.5563273022
 21
-5957.104785119445
 72
     2
 10
14823.42215803174
 20
-5954.91113693815
 40
18.00000000000299
 50
187.0000000000107
 51
268.9999999999955
 73
     1
 72
     1
 10
14823.10801471587
 20
-5972.908395450968
 11
14923.03853109241
 21
-5974.652689102631
 72
     1
 10
14923.03853109241
 20
-5974.652689102631
 11
14923.03853109241
 21
-5969.652689102631
 72
     2
 10
14922.03853109241
 20
-5969.652689102631
 40
0.999999999998181
 50
0.0
 51
90.00000000010422
 73
     1
 72
     1
 10
14922.03853109241
 20
-5968.652689102631
 11
14921.03853109241
 21
-5968.652689102631
 72
     1
 10
14921.03853109241
 20
-5968.652689102631
 11
14911.53853109241
 21
-5968.652689102631
 72
     2
 10
14909.53853109241
 20
-5968.652689102631
 40
1.999999999998181
 50
359.999999999974
 51
450.0000000001043
 73
     1
 72
     1
 10
14909.53853109241
 20
-5966.652689102631
 11
14822.26710565817
 21
-5965.129360705298
 72
     2
 10
14822.44162972254
 20
-5955.130883753735
 40
9.999999999999181
 50
90.99999999998623
 51
173.0000000000035
 73
     0
 72
     1
 10
14812.51616820613
 20
-5956.349577187786
 11
14785.94213847156
 21
-5739.921473042201
 72
     2
 10
14779.98686156172
 20
-5740.652689102633
 40
6.000000000000433
 50
7.000000000014226
 51
90.0
 73
     1
 97
        0
 92
        1
 93
       28
 72
     1
 10
15017.03853109241
 20
-5974.652689102633
 11
15132.13997042991
 21
-5972.643586005664
 72
     2
 10
15131.82582711404
 20
-5954.646327492846
 40
18.0000000000039
 50
271.0000000000045
 51
352.9999999999894
 73
     1
 72
     1
 10
15149.69165784358
 20
-5956.839975674142
 11
15163.08435484017
 21
-5847.765211729011
 72
     2
 10
15167.05453944674
 20
-5848.252689102635
 40
4.000000000000659
 50
187.0000000000573
 51
270.0
 73
     0
 72
     1
 10
15167.05453944674
 20
-5844.252689102632
 11
15177.12615274831
 21
-5844.252689102632
 72
     2
 10
15177.12615274831
 20
-5848.252689102635
 40
4.000000000003638
 50
270.0
 51
352.9999999999426
 73
     0
 72
     1
 10
15181.09633735488
 20
-5847.765211729011
 11
15194.4997812266
 21
-5956.927501948252
 72
     2
 10
15212.36561195615
 20
-5954.733853766955
 40
18.00000000000299
 50
187.0000000000107
 51
268.9999999999955
 73
     1
 72
     1
 10
15212.05146864028
 20
-5972.731112279773
 11
15322.13853109241
 21
-5974.652689102631
 72
     1
 10
15322.13853109241
 20
-5974.652689102631
 11
15322.13853109241
 21
-5969.652689102631
 72
     2
 10
15321.13853109241
 20
-5969.652689102631
 40
0.999999999998181
 50
0.0
 51
90.00000000010422
 73
     1
 72
     1
 10
15321.13853109241
 20
-5968.652689102631
 11
15320.13853109241
 21
-5968.652689102631
 72
     1
 10
15320.13853109241
 20
-5968.652689102631
 11
15310.63853109241
 21
-5968.652689102631
 72
     2
 10
15308.6385310924
 20
-5968.652689102635
 40
2.000000000003638
 50
0.0000000001042204
 51
90.0
 73
     1
 72
     1
 10
15308.6385310924
 20
-5966.65268910263
 11
15211.21055958258
 21
-5964.952077534103
 72
     2
 10
15211.38508364695
 20
-5954.953600582538
 40
10.00000000000106
 50
91.00000000000689
 51
172.9999999999957
 73
     0
 72
     1
 10
15201.45962213053
 20
-5956.172294016591
 11
15187.16662964587
 21
-5839.765211729011
 72
     2
 10
15183.1964450393
 20
-5840.252689102635
 40
4.000000000000659
 50
7.000000000057328
 51
90.0
 73
     1
 72
     1
 10
15183.1964450393
 20
-5836.252689102632
 11
15160.98424715575
 21
-5836.252689102632
 72
     2
 10
15160.98424715575
 20
-5840.252689102635
 40
4.000000000003638
 50
90.0
 51
172.9999999999427
 73
     1
 72
     1
 10
15157.01406254918
 20
-5839.765211729011
 11
15142.73181859405
 21
-5956.084754268428
 72
     2
 10
15132.80635707764
 20
-5954.866060834377
 40
9.99999999999851
 50
6.999999999996532
 51
89.0000000000138
 73
     0
 72
     1
 10
15132.98088114201
 20
-5964.864537785939
 11
15030.53853395208
 21
-5966.652675607538
 72
     2
 10
15030.53853109241
 20
-5968.652689102633
 40
2.000000000002044
 50
89.99991807712527
 51
179.9999999999479
 73
     1
 72
     1
 10
15028.53853109241
 20
-5968.652689102631
 11
15019.03853109241
 21
-5968.652689102631
 72
     1
 10
15019.03853109241
 20
-5968.652689102631
 11
15018.03853109241
 21
-5968.652689102631
 72
     2
 10
15018.03853109241
 20
-5969.652689102631
 40
1.0
 50
89.99999999989578
 51
180.0
 73
     1
 72
     1
 10
15017.03853109241
 20
-5969.652689102631
 11
15017.03853109241
 21
-5974.652689102631
 97
        0
 92
        1
 93
       20
 72
     1
 10
15416.13853109241
 20
-5974.652689102631
 11
15516.0690487398
 21
-5972.908395428785
 72
     2
 10
15515.75490542393
 20
-5954.911136915967
 40
18.0000000000039
 50
271.0000000000045
 51
352.9999999999894
 73
     1
 72
     1
 10
15533.62073615348
 20
-5957.104785097265
 11
15559.6436423393
 21
-5745.165222057218
 72
     2
 10
15563.61382694587
 20
-5745.652699430842
 40
4.000000000000659
 50
187.0000000000573
 51
270.0
 73
     0
 72
     1
 10
15563.61382694587
 20
-5741.652699430839
 11
15578.68853109241
 21
-5741.652699430839
 72
     2
 10
15578.68853109241
 20
-5744.652699430838
 40
2.999999999999091
 50
270.0
 51
360.0000000000175
 73
     0
 72
     1
 10
15581.68853109241
 20
-5744.652699430839
 11
15581.68853109241
 21
-5745.652699430839
 72
     1
 10
15581.68853109241
 20
-5745.652699430839
 11
15588.68853109241
 21
-5745.652699430839
 72
     1
 10
15588.68853109241
 20
-5745.652699430839
 11
15588.68853109241
 21
-5739.652699430839
 72
     2
 10
15583.68853109241
 20
-5739.65269943084
 40
5.0
 50
0.000000000010422
 51
90.0
 73
     1
 72
     1
 10
15583.68853109241
 20
-5734.652699430839
 11
15559.19020062309
 21
-5734.652699430839
 72
     2
 10
15559.19020062309
 20
-5740.652699430841
 40
6.000000000001819
 50
90.0
 51
172.9999999999858
 73
     1
 72
     1
 10
15553.23492371324
 20
-5739.921483370408
 11
15526.66089524955
 21
-5956.349577165603
 72
     2
 10
15516.73543373314
 20
-5955.130883731553
 40
9.99999999999851
 50
6.999999999996532
 51
89.0000000000138
 73
     0
 72
     1
 10
15516.90995779751
 20
-5965.129360683115
 11
15429.6385310924
 21
-5966.652689102631
 72
     2
 10
15429.63853109241
 20
-5968.652689102631
 40
2.0
 50
90.00000000015633
 51
180.0
 73
     1
 72
     1
 10
15427.63853109241
 20
-5968.652689102631
 11
15418.13853109241
 21
-5968.652689102631
 72
     1
 10
15418.13853109241
 20
-5968.652689102631
 11
15417.13853109241
 21
-5968.652689102631
 72
     2
 10
15417.13853109241
 20
-5969.652689102631
 40
1.0
 50
89.99999999989578
 51
180.0
 73
     1
 72
     1
 10
15416.13853109241
 20
-5969.652689102631
 11
15416.13853109241
 21
-5974.652689102631
 97
        0
 75
     0
 76
     0
 52
135.0
 41
4.0
 77
     0
 78
     1
 53
134.9999999996651
 43
0.0
 44
0.0
 45
-2.828427124762722
 46
-2.828427124729659
 79
     0
 98
        0
  0
DIMENSION
  5
5B0
330
1F
100
AcDbEntity
  8
0
  6
Continuous
 62
     7
420
 16777215
370
     0
100
AcDbDimension
280
     0
  2
*D19
 10
15157.01406
 20
-5839.764975
 30
0.0
 11
15093.926326
 21
-5801.886201
 31
0.0
 70
    34
  1
<>
 71
     5
 42
1.448623
 73
     0
 74
     0
 75
     0
  3
Default
100
AcDb2LineAngularDimension
 13
14785.29521
 23
-5734.652452
 33
0.0
 14
15553.881847
 24
-5734.652452
 34
0.0
 15
15142.731816
 25
-5956.084518
 35
0.0
 16
15081.755796
 26
-5812.653777
 36
0.0
1001
ACAD
1000
DSTYLE
1002
{
1070
   179
1070
     1
1070
    41
1040
20.0
1070
    79
1070
     3
1070
   176
1070
    45
1070
   177
1070
     7
1070
    44
1040
8.0
1070
    42
1040
30.0
1070
   147
1040
6.0
1070
     3
1000

1070
   272
1070
     2
1070
   140
1040
20.0
1070
   284
1070
    12
1002
}
  0
DIMENSION
  5
5BD
330
1F
100
AcDbEntity
  8
0
  6
Continuous
 62
     7
420
 16777215
370
     0
100
AcDbDimension
280
     0
  2
*D20
 10
14785.29521
 20
-5734.652452
 30
0.0
 11
14833.834586
 21
-5777.596464
 31
0.0
 70
    34
  1
<>
 71
     5
 42
1.448623
 73
     0
 74
     0
 75
     0
  3
Default
100
AcDb2LineAngularDimension
 13
14812.516165
 23
-5956.34934
 33
0.0
 14
14785.942136
 24
-5739.921236
 34
0.0
 15
15553.881847
 25
-5734.652452
 35
0.0
 16
14846.005116
 26
-5788.36404
 36
0.0
1001
ACAD
1000
DSTYLE
1002
{
1070
   179
1070
     1
1070
    41
1040
20.0
1070
    79
1070
     3
1070
   176
1070
    45
1070
   177
1070
     7
1070
    44
1040
8.0
1070
    42
1040
30.0
1070
   147
1040
6.0
1070
     3
1000

1070
   272
1070
     2
1070
   140
1040
20.0
1070
   284
1070
    12
1002
}
  0
MTEXT
  5
5CA
330
1F
100
AcDbEntity
  8
0
  6
Continuous
 62
     7
420
 16777215
370
     0
100
AcDbMText
 10
15189.391217
 20
-5761.297514
 30
0.0
 40
26.4
 41
0.0
 46
0.0
 71
     3
 72
     1
  1
{\W1.05;{\fArial|b0|i0;(4")}}
  7
ANSI
 11
3.896499959564406E-12
 21
1.0
 31
0.0
 73
     1
 44
1.0
  0
LINE
  5
5CB
330
1F
100
AcDbEntity
  8
0
  6
Continuous
 62
     6
420
 16711935
370
     0
100
AcDbLine
 10
14789.090343
 20
-6292.274329
 30
0.0
 11
14789.090343
 21
-6714.274329
 31
0.0
  0
LINE
  5
5CC
330
1F
100
AcDbEntity
  8
0
  6
Continuous
 62
     6
420
 16711935
370
     0
100
AcDbLine
 10
15555.090343
 20
-6714.274329
 30
0.0
 11
15555.090343
 21
-6292.274329
 31
0.0
  0
LINE
  5
5CD
330
1F
100
AcDbEntity
  8
0
  6
Continuous
 62
     6
420
 16711935
370
     0
100
AcDbLine
 10
15550.090343
 20
-6287.274329
 30
0.0
 11
14794.090343
 21
-6287.274329
 31
0.0
  0
LINE
  5
5CE
330
1F
100
AcDbEntity
  8
0
  6
Continuous
 62
     6
420
 16711935
370
     0
100
AcDbLine
 10
14794.090343
 20
-6719.274329
 30
0.0
 11
15550.090343
 21
-6719.274329
 31
0.0
  0
ARC
  5
5CF
330
1F
100
AcDbEntity
  8
0
  6
Continuous
 62
     6
420
 16711935
370
     0
100
AcDbCircle
 10
14794.090343
 20
-6292.274329
 30
0.0
 40
5.0
100
AcDbArc
 50
90.0
 51
180.0
  0
ARC
  5
5D0
330
1F
100
AcDbEntity
  8
0
  6
Continuous
 62
     6
420
 16711935
370
     0
100
AcDbCircle
 10
15550.090343
 20
-6292.274329
 30
0.0
 40
5.0
100
AcDbArc
 50
0.0
 51
90.0
  0
ARC
  5
5D1
330
1F
100
AcDbEntity
  8
0
  6
Continuous
 62
     6
420
 16711935
370
     0
100
AcDbCircle
 10
15550.090343
 20
-6714.274329
 30
0.0
 40
5.0
100
AcDbArc
 50
270.0
 51
0.0
  0
ARC
  5
5D2
330
1F
100
AcDbEntity
  8
0
  6
Continuous
 62
     6
420
 16711935
370
     0
100
AcDbCircle
 10
14794.090343
 20
-6714.274329
 30
0.0
 40
5.0
100
AcDbArc
 50
180.0
 51
270.0
  0
MTEXT
  5
5D3
330
1F
100
AcDbEntity
  8
0
  6
Continuous
 62
     7
420
 16777215
370
     0
100
AcDbMText
 10
15383.497715
 20
-6484.750738
 30
0.0
 40
52.799999
 41
0.0
 46
0.0
 71
     3
 72
     1
  1
{\fArial|b0|i0|c0|p0;Undermount}
  7
ANSI
 73
     1
 44
1.0
  0
DIMENSION
  5
5D4
330
1F
100
AcDbEntity
  8
0
  6
Continuous
 62
     7
420
 16777215
370
     0
100
AcDbDimension
280
     0
  2
*D21
 10
14789.090343
 20
-6816.47168
 30
0.0
 11
15172.090343
 21
-6783.046679
 31
0.0
 70
    33
  1
\fArial|b0|i0|c0|p0;766  (30 5/32")
 71
     5
 42
766.0
 73
     0
 74
     0
 75
     0
  3
Default
100
AcDbAlignedDimension
 13
15555.090343
 23
-6714.274329
 33
0.0
 14
14789.090343
 24
-6714.274329
 34
0.0
1001
ACAD
1000
DSTYLE
1002
{
1070
   280
1070
     0
1070
   344
1005
0
1070
   343
1005
0
1070
    76
1070
     0
1070
    75
1070
     0
1070
    41
1040
24.5
1070
   176
1070
     7
1070
   177
1070
     7
1070
    44
1040
14.0
1070
    42
1040
52.5
1070
   147
1040
10.5
1070
   140
1040
35.0
1002
}
  0
DIMENSION
  5
5E1
330
1F
100
AcDbEntity
  8
0
  6
Continuous
 62
     7
420
 16777215
370
     0
100
AcDbDimension
280
     0
  2
*D22
 10
15687.789062
 20
-6287.274329
 30
0.0
 11
15654.364062
 21
-6503.274329
 31
0.0
 70
    33
  1
\fArial|b0|i0|c0|p0;432  (17 1/64")
 71
     5
 42
432.0
 73
     0
 74
     0
 75
     0
  3
Default
100
AcDbAlignedDimension
 13
15550.090343
 23
-6719.274329
 33
0.0
 14
15550.090343
 24
-6287.274329
 34
0.0
1001
ACAD
1000
DSTYLE
1002
{
1070
    41
1040
24.5
1070
   176
1070
     7
1070
   177
1070
     7
1070
    44
1040
14.0
1070
    42
1040
52.5
1070
   147
1040
10.5
1070
   140
1040
35.0
1002
}
  0
INSERT
  5
5F4
330
1F
100
AcDbEntity
  8
0
  6
Continuous
 62
     7
420
 16777215
370
     0
100
AcDbBlockReference
  2
.TD_DIMENSION_1
 10
14742.492188
 20
-6434.598633
 30
0.0
  0
MTEXT
  5
5F7
330
1F
100
AcDbEntity
  8
0
  6
Continuous
 62
     7
420
 16777215
370
     0
100
AcDbMText
 10
16011.884171
 20
-7093.854517
 30
0.0
 40
42.239998
 41
0.0
 46
0.0
 71
     3
 72
     1
  1
{\fArial|b0|i0|c0|p0;Soluzione A (mm/inch)}
  7
ANSI
 73
     1
 44
1.0
  0
ENDSEC
  0
SECTION
  2
OBJECTS
  0
DICTIONARY
  5
C
330
0
100
AcDbDictionary
281
     1
  3
ACAD_GROUP
350
D
  3
ACAD_LAYOUT
350
1A
  3
ACAD_MATERIAL
350
3B
  3
ACAD_MLEADERSTYLE
350
5FB
  3
ACAD_MLINESTYLE
350
17
  3
ACAD_PLOTSETTINGS
350
19
  3
ACAD_PLOTSTYLENAME
350
E
  3
ACAD_SCALELIST
350
7A
  3
ACAD_TABLESTYLE
350
5FA
  3
ACAD_VISUALSTYLE
350
2A
  3
AcDbVariableDictionary
350
5F8
  0
DICTIONARY
  5
D
102
{ACAD_REACTORS
330
C
102
}
330
C
100
AcDbDictionary
281
     1
  0
DICTIONARY
  5
1A
102
{ACAD_REACTORS
330
C
102
}
330
C
100
AcDbDictionary
281
     1
  3
Layout1
350
1E
  3
Layout2
350
26
  3
Model
350
22
  0
DICTIONARY
  5
3B
102
{ACAD_REACTORS
330
C
102
}
330
C
100
AcDbDictionary
281
     1
  3
ByBlock
350
3D
  3
ByLayer
350
3C
  3
Global
350
3E
  0
DICTIONARY
  5
5FB
102
{ACAD_REACTORS
330
C
102
}
330
C
100
AcDbDictionary
281
     1
  0
DICTIONARY
  5
17
102
{ACAD_REACTORS
330
C
102
}
330
C
100
AcDbDictionary
281
     1
  3
Standard
350
18
  0
DICTIONARY
  5
19
102
{ACAD_REACTORS
330
C
102
}
330
C
100
AcDbDictionary
281
     1
  0
ACDBDICTIONARYWDFLT
  5
E
102
{ACAD_REACTORS
330
C
102
}
330
C
100
AcDbDictionary
281
     1
  3
Normal
350
F
100
AcDbDictionaryWithDefault
340
F
  0
DICTIONARY
  5
7A
102
{ACAD_REACTORS
330
C
102
}
330
C
100
AcDbDictionary
281
     1
  3
A0
350
7B
  3
A1
350
7C
  3
A2
350
7D
  3
A3
350
7E
  3
A4
350
7F
  3
A5
350
80
  3
A6
350
81
  3
A7
350
82
  3
A8
350
83
  3
A9
350
84
  3
B0
350
85
  3
B1
350
86
  3
B2
350
87
  3
B3
350
88
  3
B4
350
89
  3
B5
350
8A
  3
B6
350
8B
  3
B7
350
8C
  3
B8
350
8D
  3
B9
350
8E
  3
C0
350
8F
  3
C1
350
90
  3
C2
350
91
  3
C3
350
92
  3
C4
350
93
  3
C5
350
94
  3
C6
350
95
  3
C7
350
96
  3
C8
350
97
  3
C9
350
98
  3
D0
350
99
  3
D1
350
9A
  3
D2
350
9B
  0
DICTIONARY
  5
5FA
102
{ACAD_REACTORS
330
C
102
}
330
C
100
AcDbDictionary
281
     1
  0
DICTIONARY
  5
2A
102
{ACAD_REACTORS
330
C
102
}
330
C
100
AcDbDictionary
281
     1
  3
2dWireframe
350
2F
  3
3D Hidden
350
31
  3
3dWireframe
350
30
  3
Basic
350
32
  3
Brighten
350
36
  3
ColorChange
350
3A
  3
Conceptual
350
34
  3
Dim
350
35
  3
Facepattern
350
39
  3
Flat
350
2B
  3
FlatWithEdges
350
2C
  3
Gouraud
350
2D
  3
GouraudWithEdges
350
2E
  3
Linepattern
350
38
  3
Realistic
350
33
  3
Thicken
350
37
  0
DICTIONARY
  5
5F8
102
{ACAD_REACTORS
330
C
102
}
330
C
100
AcDbDictionary
281
     1
  3
CANNOSCALE
350
5F9
  0
LAYOUT
  5
1E
102
{ACAD_REACTORS
330
1A
102
}
330
1A
100
AcDbPlotSettings
  1

  2
none_device
  4

  6

 40
0.0
 41
0.0
 42
0.0
 43
0.0
 44
0.0
 45
0.0
 46
0.0
 47
0.0
 48
0.0
 49
0.0
140
0.0
141
0.0
142
1.0
143
1.0
 70
   688
 72
     0
 73
     0
 74
     5
  7

 75
    16
 76
     0
 77
     2
 78
   300
147
1.0
148
0.0
149
0.0
100
AcDbLayout
  1
Layout1
 70
     1
 71
     1
 10
0.0
 20
0.0
 11
420.0
 21
297.0
 12
0.0
 22
0.0
 32
0.0
 14
1.000000E+20
 24
1.000000E+20
 34
1.000000E+20
 15
-1.000000E+20
 25
-1.000000E+20
 35
-1.000000E+20
146
0.0
 13
0.0
 23
0.0
 33
0.0
 16
1.0
 26
0.0
 36
0.0
 17
0.0
 27
1.0
 37
0.0
 76
     0
330
1B
  0
LAYOUT
  5
26
102
{ACAD_REACTORS
330
1A
102
}
330
1A
100
AcDbPlotSettings
  1

  2
none_device
  4

  6

 40
0.0
 41
0.0
 42
0.0
 43
0.0
 44
0.0
 45
0.0
 46
0.0
 47
0.0
 48
0.0
 49
0.0
140
0.0
141
0.0
142
1.0
143
1.0
 70
   688
 72
     0
 73
     0
 74
     5
  7

 75
    16
 76
     0
 77
     2
 78
   300
147
1.0
148
0.0
149
0.0
100
AcDbLayout
  1
Layout2
 70
     1
 71
     2
 10
0.0
 20
0.0
 11
0.0
 21
0.0
 12
0.0
 22
0.0
 32
0.0
 14
0.0
 24
0.0
 34
0.0
 15
0.0
 25
0.0
 35
0.0
146
0.0
 13
0.0
 23
0.0
 33
0.0
 16
1.0
 26
0.0
 36
0.0
 17
0.0
 27
1.0
 37
0.0
 76
     0
330
23
  0
LAYOUT
  5
22
102
{ACAD_REACTORS
330
1A
102
}
330
1A
100
AcDbPlotSettings
  1

  2
none_device
  4

  6

 40
0.0
 41
0.0
 42
0.0
 43
0.0
 44
0.0
 45
0.0
 46
0.0
 47
0.0
 48
0.0
 49
0.0
140
0.0
141
0.0
142
1.0
143
1.0
 70
  1712
 72
     0
 73
     0
 74
     0
  7

 75
     0
 76
     0
 77
     2
 78
   300
147
1.0
148
0.0
149
0.0
100
AcDbLayout
  1
Model
 70
     1
 71
     0
 10
0.0
 20
0.0
 11
420.0
 21
297.0
 12
0.0
 22
0.0
 32
0.0
 14
1.000000E+20
 24
1.000000E+20
 34
1.000000E+20
 15
-1.000000E+20
 25
-1.000000E+20
 35
-1.000000E+20
146
0.0
 13
0.0
 23
0.0
 33
0.0
 16
1.0
 26
0.0
 36
0.0
 17
0.0
 27
1.0
 37
0.0
 76
     0
330
1F
331
29
  0
MATERIAL
  5
3D
102
{ACAD_REACTORS
330
3B
102
}
330
3B
100
AcDbMaterial
  1
ByBlock
 72
     1
 94
      127
  0
MATERIAL
  5
3C
102
{ACAD_REACTORS
330
3B
102
}
330
3B
100
AcDbMaterial
  1
ByLayer
 72
     1
 94
      127
  0
MATERIAL
  5
3E
102
{ACAD_REACTORS
330
3B
102
}
330
3B
100
AcDbMaterial
  1
Global
 72
     1
 94
      127
  0
MLINESTYLE
  5
18
102
{ACAD_REACTORS
330
17
102
}
330
17
100
AcDbMlineStyle
  2
Standard
 70
     0
  3

 62
   256
 51
90.0
 52
90.0
 71
     2
 49
0.5
 62
   256
  6
BYLAYER
 49
-0.5
 62
   256
  6
BYLAYER
  0
ACDBPLACEHOLDER
  5
F
102
{ACAD_REACTORS
330
E
102
}
330
E
  0
SCALE
  5
7B
102
{ACAD_REACTORS
330
7A
102
}
330
7A
100
AcDbScale
 70
     0
300
1:1
140
1.0
141
1.0
290
     1
  0
SCALE
  5
7C
102
{ACAD_REACTORS
330
7A
102
}
330
7A
100
AcDbScale
 70
     0
300
1:2
140
1.0
141
2.0
290
     0
  0
SCALE
  5
7D
102
{ACAD_REACTORS
330
7A
102
}
330
7A
100
AcDbScale
 70
     0
300
1:4
140
1.0
141
4.0
290
     0
  0
SCALE
  5
7E
102
{ACAD_REACTORS
330
7A
102
}
330
7A
100
AcDbScale
 70
     0
300
1:5
140
1.0
141
5.0
290
     0
  0
SCALE
  5
7F
102
{ACAD_REACTORS
330
7A
102
}
330
7A
100
AcDbScale
 70
     0
300
1:8
140
1.0
141
8.0
290
     0
  0
SCALE
  5
80
102
{ACAD_REACTORS
330
7A
102
}
330
7A
100
AcDbScale
 70
     0
300
1:10
140
1.0
141
10.0
290
     0
  0
SCALE
  5
81
102
{ACAD_REACTORS
330
7A
102
}
330
7A
100
AcDbScale
 70
     0
300
1:16
140
1.0
141
16.0
290
     0
  0
SCALE
  5
82
102
{ACAD_REACTORS
330
7A
102
}
330
7A
100
AcDbScale
 70
     0
300
1:20
140
1.0
141
20.0
290
     0
  0
SCALE
  5
83
102
{ACAD_REACTORS
330
7A
102
}
330
7A
100
AcDbScale
 70
     0
300
1:30
140
1.0
141
30.0
290
     0
  0
SCALE
  5
84
102
{ACAD_REACTORS
330
7A
102
}
330
7A
100
AcDbScale
 70
     0
300
1:40
140
1.0
141
40.0
290
     0
  0
SCALE
  5
85
102
{ACAD_REACTORS
330
7A
102
}
330
7A
100
AcDbScale
 70
     0
300
1:50
140
1.0
141
50.0
290
     0
  0
SCALE
  5
86
102
{ACAD_REACTORS
330
7A
102
}
330
7A
100
AcDbScale
 70
     0
300
1:100
140
1.0
141
100.0
290
     0
  0
SCALE
  5
87
102
{ACAD_REACTORS
330
7A
102
}
330
7A
100
AcDbScale
 70
     0
300
2:1
140
2.0
141
1.0
290
     0
  0
SCALE
  5
88
102
{ACAD_REACTORS
330
7A
102
}
330
7A
100
AcDbScale
 70
     0
300
4:1
140
4.0
141
1.0
290
     0
  0
SCALE
  5
89
102
{ACAD_REACTORS
330
7A
102
}
330
7A
100
AcDbScale
 70
     0
300
8:1
140
8.0
141
1.0
290
     0
  0
SCALE
  5
8A
102
{ACAD_REACTORS
330
7A
102
}
330
7A
100
AcDbScale
 70
     0
300
10:1
140
10.0
141
1.0
290
     0
  0
SCALE
  5
8B
102
{ACAD_REACTORS
330
7A
102
}
330
7A
100
AcDbScale
 70
     0
300
100:1
140
100.0
141
1.0
290
     0
  0
SCALE
  5
8C
102
{ACAD_REACTORS
330
7A
102
}
330
7A
100
AcDbScale
 70
     0
300
1/128" = 1'-0"
140
0.007812
141
12.0
290
     0
  0
SCALE
  5
8D
102
{ACAD_REACTORS
330
7A
102
}
330
7A
100
AcDbScale
 70
     0
300
1/64" = 1'-0"
140
0.015625
141
12.0
290
     0
  0
SCALE
  5
8E
102
{ACAD_REACTORS
330
7A
102
}
330
7A
100
AcDbScale
 70
     0
300
1/32" = 1'-0"
140
0.03125
141
12.0
290
     0
  0
SCALE
  5
8F
102
{ACAD_REACTORS
330
7A
102
}
330
7A
100
AcDbScale
 70
     0
300
1/16" = 1'-0"
140
0.0625
141
12.0
290
     0
  0
SCALE
  5
90
102
{ACAD_REACTORS
330
7A
102
}
330
7A
100
AcDbScale
 70
     0
300
3/32" = 1'-0"
140
0.09375
141
12.0
290
     0
  0
SCALE
  5
91
102
{ACAD_REACTORS
330
7A
102
}
330
7A
100
AcDbScale
 70
     0
300
1/8" = 1'-0"
140
0.125
141
12.0
290
     0
  0
SCALE
  5
92
102
{ACAD_REACTORS
330
7A
102
}
330
7A
100
AcDbScale
 70
     0
300
3/16" = 1'-0"
140
0.1875
141
12.0
290
     0
  0
SCALE
  5
93
102
{ACAD_REACTORS
330
7A
102
}
330
7A
100
AcDbScale
 70
     0
300
1/4" = 1'-0"
140
0.25
141
12.0
290
     0
  0
SCALE
  5
94
102
{ACAD_REACTORS
330
7A
102
}
330
7A
100
AcDbScale
 70
     0
300
3/8" = 1'-0"
140
0.375
141
12.0
290
     0
  0
SCALE
  5
95
102
{ACAD_REACTORS
330
7A
102
}
330
7A
100
AcDbScale
 70
     0
300
1/2" = 1'-0"
140
0.5
141
12.0
290
     0
  0
SCALE
  5
96
102
{ACAD_REACTORS
330
7A
102
}
330
7A
100
AcDbScale
 70
     0
300
3/4" = 1'-0"
140
0.75
141
12.0
290
     0
  0
SCALE
  5
97
102
{ACAD_REACTORS
330
7A
102
}
330
7A
100
AcDbScale
 70
     0
300
1" = 1'-0"
140
1.0
141
12.0
290
     0
  0
SCALE
  5
98
102
{ACAD_REACTORS
330
7A
102
}
330
7A
100
AcDbScale
 70
     0
300
1-1/2" = 1'-0"
140
1.5
141
12.0
290
     0
  0
SCALE
  5
99
102
{ACAD_REACTORS
330
7A
102
}
330
7A
100
AcDbScale
 70
     0
300
3" = 1'-0"
140
3.0
141
12.0
290
     0
  0
SCALE
  5
9A
102
{ACAD_REACTORS
330
7A
102
}
330
7A
100
AcDbScale
 70
     0
300
6" = 1'-0"
140
6.0
141
12.0
290
     0
  0
SCALE
  5
9B
102
{ACAD_REACTORS
330
7A
102
}
330
7A
100
AcDbScale
 70
     0
300
1'-0" = 1'-0"
140
12.0
141
12.0
290
     0
  0
VISUALSTYLE
  5
2F
102
{ACAD_REACTORS
330
2A
102
}
330
2A
100
AcDbVisualStyle
  2
2dWireframe
 70
     4
177
     2
291
     0
 71
     0
176
     1
 72
     2
176
     1
 73
     0
176
     1
 90
        0
176
     1
 40
-0.6
176
     1
 41
-30.0
176
     1
 62
     5
 63
     7
421
 16777215
176
     1
 74
     1
176
     1
 91
        4
176
     1
 64
     7
176
     1
 65
   257
176
     1
 75
     1
176
     1
175
     1
176
     1
 42
1.0
176
     1
 92
        0
176
     1
 66
   257
176
     1
 43
1.0
176
     1
 76
     1
176
     1
 77
     6
176
     1
 78
     2
176
     1
 67
     7
176
     1
 79
     5
176
     1
170
     0
176
     1
171
     0
176
     1
290
     0
176
     1
 93
        1
176
     1
 44
0.0
176
     1
173
     0
176
     1
  0
VISUALSTYLE
  5
31
102
{ACAD_REACTORS
330
2A
102
}
330
2A
100
AcDbVisualStyle
  2
3D Hidden
 70
     6
177
     2
291
     0
 71
     1
176
     1
 72
     2
176
     1
 73
     2
176
     1
 90
        0
176
     1
 40
-0.6
176
     1
 41
-30.0
176
     1
 62
     5
 63
     7
421
 16777215
176
     1
 74
     2
176
     1
 91
        2
176
     1
 64
     7
176
     1
 65
   257
176
     1
 75
     2
176
     1
175
     1
176
     1
 42
40.0
176
     1
 92
        0
176
     1
 66
   257
176
     1
 43
1.0
176
     1
 76
     1
176
     1
 77
     6
176
     1
 78
     2
176
     1
 67
     7
176
     1
 79
     3
176
     1
170
     0
176
     1
171
     0
176
     1
290
     0
176
     1
 93
        1
176
     1
 44
0.0
176
     1
173
     0
176
     1
  0
VISUALSTYLE
  5
30
102
{ACAD_REACTORS
330
2A
102
}
330
2A
100
AcDbVisualStyle
  2
3dWireframe
 70
     5
177
     2
291
     0
 71
     0
176
     1
 72
     2
176
     1
 73
     0
176
     1
 90
        0
176
     1
 40
-0.6
176
     1
 41
-30.0
176
     1
 62
     5
 63
     7
421
 16777215
176
     1
 74
     1
176
     1
 91
        4
176
     1
 64
     7
176
     1
 65
   257
176
     1
 75
     1
176
     1
175
     1
176
     1
 42
1.0
176
     1
 92
        0
176
     1
 66
   257
176
     1
 43
1.0
176
     1
 76
     1
176
     1
 77
     6
176
     1
 78
     2
176
     1
 67
     7
176
     1
 79
     5
176
     1
170
     0
176
     1
171
     0
176
     1
290
     0
176
     1
 93
        1
176
     1
 44
0.0
176
     1
173
     0
176
     1
  0
VISUALSTYLE
  5
32
102
{ACAD_REACTORS
330
2A
102
}
330
2A
100
AcDbVisualStyle
  2
Basic
 70
     7
177
     2
291
     1
 71
     1
176
     1
 72
     0
176
     1
 73
     1
176
     1
 90
        0
176
     1
 40
-0.6
176
     1
 41
-30.0
176
     1
 62
     5
 63
     7
421
 16777215
176
     1
 74
     0
176
     1
 91
        4
176
     1
 64
     7
176
     1
 65
   257
176
     1
 75
     1
176
     1
175
     1
176
     1
 42
1.0
176
     1
 92
        8
176
     1
 66
     7
176
     1
 43
1.0
176
     1
 76
     1
176
     1
 77
     6
176
     1
 78
     2
176
     1
 67
     7
176
     1
 79
     5
176
     1
170
     0
176
     1
171
     0
176
     1
290
     0
176
     1
 93
        1
176
     1
 44
0.0
176
     1
173
     0
176
     1
  0
VISUALSTYLE
  5
36
102
{ACAD_REACTORS
330
2A
102
}
330
2A
100
AcDbVisualStyle
  2
Brighten
 70
    12
177
     2
291
     1
 71
     2
176
     1
 72
     2
176
     1
 73
     0
176
     1
 90
        0
176
     1
 40
-0.6
176
     1
 41
-30.0
176
     1
 62
     5
 63
     7
421
 16777215
176
     1
 74
     1
176
     1
 91
        4
176
     1
 64
     7
176
     1
 65
   257
176
     1
 75
     1
176
     1
175
     1
176
     1
 42
1.0
176
     1
 92
        8
176
     1
 66
     7
176
     1
 43
1.0
176
     1
 76
     1
176
     1
 77
     6
176
     1
 78
     2
176
     1
 67
     7
176
     1
 79
     5
176
     1
170
     0
176
     1
171
     0
176
     1
290
     0
176
     1
 93
        1
176
     1
 44
50.0
176
     1
173
     0
176
     1
  0
VISUALSTYLE
  5
3A
102
{ACAD_REACTORS
330
2A
102
}
330
2A
100
AcDbVisualStyle
  2
ColorChange
 70
    16
177
     2
291
     1
 71
     2
176
     1
 72
     2
176
     1
 73
     3
176
     1
 90
        0
176
     1
 40
-0.6
176
     1
 41
-30.0
176
     1
 62
     5
 63
     8
421
  8421504
176
     1
 74
     1
176
     1
 91
        4
176
     1
 64
     7
176
     1
 65
   257
176
     1
 75
     1
176
     1
175
     1
176
     1
 42
1.0
176
     1
 92
        8
176
     1
 66
     8
424
  8421504
176
     1
 43
1.0
176
     1
 76
     1
176
     1
 77
     6
176
     1
 78
     2
176
     1
 67
     7
176
     1
 79
     5
176
     1
170
     0
176
     1
171
     0
176
     1
290
     0
176
     1
 93
        1
176
     1
 44
0.0
176
     1
173
     0
176
     1
  0
VISUALSTYLE
  5
34
102
{ACAD_REACTORS
330
2A
102
}
330
2A
100
AcDbVisualStyle
  2
Conceptual
 70
     9
177
     2
291
     0
 71
     3
176
     1
 72
     2
176
     1
 73
     0
176
     1
 90
        0
176
     1
 40
-0.6
176
     1
 41
-30.0
176
     1
 62
     5
 63
     7
421
 16777215
176
     1
 74
     2
176
     1
 91
        2
176
     1
 64
     7
176
     1
 65
   257
176
     1
 75
     1
176
     1
175
     1
176
     1
 42
40.0
176
     1
 92
        8
176
     1
 66
     7
176
     1
 43
1.0
176
     1
 76
     1
176
     1
 77
     6
176
     1
 78
     2
176
     1
 67
     7
176
     1
 79
     3
176
     1
170
     0
176
     1
171
     0
176
     1
290
     0
176
     1
 93
        1
176
     1
 44
0.0
176
     1
173
     0
176
     1
  0
VISUALSTYLE
  5
35
102
{ACAD_REACTORS
330
2A
102
}
330
2A
100
AcDbVisualStyle
  2
Dim
 70
    11
177
     2
291
     1
 71
     2
176
     1
 72
     2
176
     1
 73
     0
176
     1
 90
        0
176
     1
 40
-0.6
176
     1
 41
-30.0
176
     1
 62
     5
 63
     7
421
 16777215
176
     1
 74
     1
176
     1
 91
        4
176
     1
 64
     7
176
     1
 65
   257
176
     1
 75
     1
176
     1
175
     1
176
     1
 42
1.0
176
     1
 92
        8
176
     1
 66
     7
176
     1
 43
1.0
176
     1
 76
     1
176
     1
 77
     6
176
     1
 78
     2
176
     1
 67
     7
176
     1
 79
     5
176
     1
170
     0
176
     1
171
     0
176
     1
290
     0
176
     1
 93
        1
176
     1
 44
-50.0
176
     1
173
     0
176
     1
  0
VISUALSTYLE
  5
39
102
{ACAD_REACTORS
330
2A
102
}
330
2A
100
AcDbVisualStyle
  2
Facepattern
 70
    15
177
     2
291
     1
 71
     2
176
     1
 72
     2
176
     1
 73
     0
176
     1
 90
        0
176
     1
 40
-0.6
176
     1
 41
-30.0
176
     1
 62
     5
 63
     7
421
 16777215
176
     1
 74
     1
176
     1
 91
        4
176
     1
 64
     7
176
     1
 65
   257
176
     1
 75
     1
176
     1
175
     1
176
     1
 42
1.0
176
     1
 92
        8
176
     1
 66
     7
176
     1
 43
1.0
176
     1
 76
     1
176
     1
 77
     6
176
     1
 78
     2
176
     1
 67
     7
176
     1
 79
     5
176
     1
170
     0
176
     1
171
     0
176
     1
290
     0
176
     1
 93
        1
176
     1
 44
0.0
176
     1
173
     0
176
     1
  0
VISUALSTYLE
  5
2B
102
{ACAD_REACTORS
330
2A
102
}
330
2A
100
AcDbVisualStyle
  2
Flat
 70
     0
177
     2
291
     1
 71
     2
176
     1
 72
     1
176
     1
 73
     1
176
     1
 90
        2
176
     1
 40
-0.6
176
     1
 41
30.0
176
     1
 62
     5
 63
     7
421
 16777215
176
     1
 74
     0
176
     1
 91
        4
176
     1
 64
     7
176
     1
 65
   257
176
     1
 75
     1
176
     1
175
     1
176
     1
 42
1.0
176
     1
 92
        8
176
     1
 66
     7
176
     1
 43
1.0
176
     1
 76
     1
176
     1
 77
     6
176
     1
 78
     2
176
     1
 67
     7
176
     1
 79
     5
176
     1
170
     0
176
     1
171
     0
176
     1
290
     0
176
     1
 93
       13
176
     1
 44
0.0
176
     1
173
     0
176
     1
  0
VISUALSTYLE
  5
2C
102
{ACAD_REACTORS
330
2A
102
}
330
2A
100
AcDbVisualStyle
  2
FlatWithEdges
 70
     1
177
     2
291
     1
 71
     2
176
     1
 72
     1
176
     1
 73
     1
176
     1
 90
        2
176
     1
 40
-0.6
176
     1
 41
30.0
176
     1
 62
     5
 63
     7
421
 16777215
176
     1
 74
     1
176
     1
 91
        4
176
     1
 64
     7
176
     1
 65
   257
176
     1
 75
     1
176
     1
175
     1
176
     1
 42
1.0
176
     1
 92
        0
176
     1
 66
   257
176
     1
 43
1.0
176
     1
 76
     1
176
     1
 77
     6
176
     1
 78
     2
176
     1
 67
     7
176
     1
 79
     5
176
     1
170
     0
176
     1
171
     0
176
     1
290
     0
176
     1
 93
       13
176
     1
 44
0.0
176
     1
173
     0
176
     1
  0
VISUALSTYLE
  5
2D
102
{ACAD_REACTORS
330
2A
102
}
330
2A
100
AcDbVisualStyle
  2
Gouraud
 70
     2
177
     2
291
     1
 71
     2
176
     1
 72
     2
176
     1
 73
     1
176
     1
 90
        2
176
     1
 40
-0.6
176
     1
 41
30.0
176
     1
 62
     5
 63
     7
421
 16777215
176
     1
 74
     0
176
     1
 91
        4
176
     1
 64
     7
176
     1
 65
   257
176
     1
 75
     1
176
     1
175
     1
176
     1
 42
1.0
176
     1
 92
        0
176
     1
 66
     7
176
     1
 43
1.0
176
     1
 76
     1
176
     1
 77
     6
176
     1
 78
     2
176
     1
 67
     7
176
     1
 79
     5
176
     1
170
     0
176
     1
171
     0
176
     1
290
     0
176
     1
 93
       13
176
     1
 44
0.0
176
     1
173
     0
176
     1
  0
VISUALSTYLE
  5
2E
102
{ACAD_REACTORS
330
2A
102
}
330
2A
100
AcDbVisualStyle
  2
GouraudWithEdges
 70
     3
177
     2
291
     1
 71
     2
176
     1
 72
     2
176
     1
 73
     1
176
     1
 90
        2
176
     1
 40
-0.6
176
     1
 41
30.0
176
     1
 62
     5
 63
     7
421
 16777215
176
     1
 74
     1
176
     1
 91
        4
176
     1
 64
     7
176
     1
 65
   257
176
     1
 75
     1
176
     1
175
     1
176
     1
 42
1.0
176
     1
 92
        0
176
     1
 66
   257
176
     1
 43
1.0
176
     1
 76
     1
176
     1
 77
     6
176
     1
 78
     2
176
     1
 67
     7
176
     1
 79
     5
176
     1
170
     0
176
     1
171
     0
176
     1
290
     0
176
     1
 93
       13
176
     1
 44
0.0
176
     1
173
     0
176
     1
  0
VISUALSTYLE
  5
38
102
{ACAD_REACTORS
330
2A
102
}
330
2A
100
AcDbVisualStyle
  2
Linepattern
 70
    14
177
     2
291
     1
 71
     2
176
     1
 72
     2
176
     1
 73
     0
176
     1
 90
        0
176
     1
 40
-0.6
176
     1
 41
-30.0
176
     1
 62
     5
 63
     7
421
 16777215
176
     1
 74
     1
176
     1
 91
        4
176
     1
 64
     7
176
     1
 65
   257
176
     1
 75
     7
176
     1
175
     7
176
     1
 42
1.0
176
     1
 92
        8
176
     1
 66
     7
176
     1
 43
1.0
176
     1
 76
     1
176
     1
 77
     6
176
     1
 78
     2
176
     1
 67
     7
176
     1
 79
     5
176
     1
170
     0
176
     1
171
     0
176
     1
290
     0
176
     1
 93
        1
176
     1
 44
0.0
176
     1
173
     0
176
     1
  0
VISUALSTYLE
  5
33
102
{ACAD_REACTORS
330
2A
102
}
330
2A
100
AcDbVisualStyle
  2
Realistic
 70
     8
177
     2
291
     0
 71
     2
176
     1
 72
     2
176
     1
 73
     0
176
     1
 90
        0
176
     1
 40
-0.6
176
     1
 41
-30.0
176
     1
 62
     5
 63
     7
421
 16777215
176
     1
 74
     1
176
     1
 91
        0
176
     1
 64
     7
176
     1
 65
   257
176
     1
 75
     1
176
     1
175
     1
176
     1
 42
1.0
176
     1
 92
        8
176
     1
 66
     8
424
  7895160
176
     1
 43
1.0
176
     1
 76
     1
176
     1
 77
     6
176
     1
 78
     2
176
     1
 67
     7
176
     1
 79
     5
176
     1
170
     0
176
     1
171
     0
176
     1
290
     0
176
     1
 93
       13
176
     1
 44
0.0
176
     1
173
     0
176
     1
  0
VISUALSTYLE
  5
37
102
{ACAD_REACTORS
330
2A
102
}
330
2A
100
AcDbVisualStyle
  2
Thicken
 70
    13
177
     2
291
     1
 71
     2
176
     1
 72
     2
176
     1
 73
     0
176
     1
 90
        0
176
     1
 40
-0.6
176
     1
 41
-30.0
176
     1
 62
     5
 63
     7
421
 16777215
176
     1
 74
     1
176
     1
 91
        4
176
     1
 64
     7
176
     1
 65
   257
176
     1
 75
     1
176
     1
175
     1
176
     1
 42
1.0
176
     1
 92
       12
176
     1
 66
     7
176
     1
 43
1.0
176
     1
 76
     1
176
     1
 77
     6
176
     1
 78
     2
176
     1
 67
     7
176
     1
 79
     5
176
     1
170
     0
176
     1
171
     0
176
     1
290
     0
176
     1
 93
        1
176
     1
 44
0.0
176
     1
173
     0
176
     1
  0
DICTIONARYVAR
  5
5F9
102
{ACAD_REACTORS
330
5F8
102
}
330
5F8
100
DictionaryVariables
280
     0
  1
1:1
  0
ENDSEC
  0
EOF
