  0
SECTION
  2
HEADER
  9
$ACADVER
  1
AC1024
  9
$ACADMAINTVER
 70
     6
  9
$DWGCODEPAGE
  3
ANSI_1252
  9
$INSBASE
 10
0.0
 20
0.0
 30
0.0
  9
$EXTMIN
 10
1.000000E+20
 20
1.000000E+20
 30
1.000000E+20
  9
$EXTMAX
 10
-1.000000E+20
 20
-1.000000E+20
 30
-1.000000E+20
  9
$LIMMIN
 10
0.0
 20
0.0
  9
$LIMMAX
 10
420.0
 20
297.0
  9
$ORTHOMODE
 70
     0
  9
$REGENMODE
 70
     1
  9
$FILLMODE
 70
     1
  9
$QTEXTMODE
 70
     0
  9
$MIRRTEXT
 70
     1
  9
$LTSCALE
 40
1.0
  9
$ATTMODE
 70
     1
  9
$TEXTSIZE
 40
2.5
  9
$TRACEWID
 40
1.0
  9
$TEXTSTYLE
  7
Standard
  9
$CLAYER
  8
0
  9
$CELTYPE
  6
ByLayer
  9
$CECOLOR
 62
   256
  9
$CELTSCALE
 40
1.0
  9
$DISPSILH
 70
     0
  9
$DIMSCALE
 40
1.0
  9
$DIMASZ
 40
2.5
  9
$DIMEXO
 40
0.625
  9
$DIMDLI
 40
3.75
  9
$DIMRND
 40
0.0
  9
$DIMDLE
 40
0.0
  9
$DIMEXE
 40
1.25
  9
$DIMTP
 40
0.0
  9
$DIMTM
 40
0.0
  9
$DIMTXT
 40
2.5
  9
$DIMCEN
 40
2.5
  9
$DIMTSZ
 40
0.0
  9
$DIMTOL
 70
     0
  9
$DIMLIM
 70
     0
  9
$DIMTIH
 70
     0
  9
$DIMTOH
 70
     0
  9
$DIMSE1
 70
     0
  9
$DIMSE2
 70
     0
  9
$DIMTAD
 70
     1
  9
$DIMZIN
 70
     8
  9
$DIMBLK
  1

  9
$DIMASO
 70
     1
  9
$DIMSHO
 70
     1
  9
$DIMPOST
  1

  9
$DIMAPOST
  1

  9
$DIMALT
 70
     0
  9
$DIMALTD
 70
     3
  9
$DIMALTF
 40
0.03937
  9
$DIMLFAC
 40
1.0
  9
$DIMTOFL
 70
     1
  9
$DIMTVP
 40
0.0
  9
$DIMTIX
 70
     0
  9
$DIMSOXD
 70
     0
  9
$DIMSAH
 70
     0
  9
$DIMBLK1
  1

  9
$DIMBLK2
  1

  9
$DIMSTYLE
  2
ISO-25
  9
$DIMCLRD
 70
     0
  9
$DIMCLRE
 70
     0
  9
$DIMCLRT
 70
     0
  9
$DIMTFAC
 40
1.0
  9
$DIMGAP
 40
0.625
  9
$DIMJUST
 70
     0
  9
$DIMSD1
 70
     0
  9
$DIMSD2
 70
     0
  9
$DIMTOLJ
 70
     0
  9
$DIMTZIN
 70
     8
  9
$DIMALTZ
 70
     0
  9
$DIMALTTZ
 70
     0
  9
$DIMUPT
 70
     0
  9
$DIMDEC
 70
     2
  9
$DIMTDEC
 70
     2
  9
$DIMALTU
 70
     2
  9
$DIMALTTD
 70
     3
  9
$DIMTXSTY
  7
Standard
  9
$DIMAUNIT
 70
     0
  9
$DIMADEC
 70
     0
  9
$DIMALTRND
 40
0.0
  9
$DIMAZIN
 70
     0
  9
$DIMDSEP
 70
    44
  9
$DIMATFIT
 70
     3
  9
$DIMFRAC
 70
     0
  9
$DIMLDRBLK
  1

  9
$DIMLUNIT
 70
     2
  9
$DIMLWD
 70
    -2
  9
$DIMLWE
 70
    -2
  9
$DIMTMOVE
 70
     0
  9
$DIMFXL
 40
1.0
  9
$DIMFXLON
 70
     0
  9
$DIMJOGANG
 40
0.785398
  9
$DIMTFILL
 70
     0
  9
$DIMTFILLCLR
 70
     0
  9
$DIMARCSYM
 70
     0
  9
$DIMLTYPE
  6

  9
$DIMLTEX1
  6

  9
$DIMLTEX2
  6

  9
$DIMTXTDIRECTION
 70
     0
  9
$LUNITS
 70
     2
  9
$LUPREC
 70
     4
  9
$SKETCHINC
 40
1.0
  9
$FILLETRAD
 40
10.0
  9
$AUNITS
 70
     0
  9
$AUPREC
 70
     0
  9
$MENU
  1
.
  9
$ELEVATION
 40
0.0
  9
$PELEVATION
 40
0.0
  9
$THICKNESS
 40
0.0
  9
$LIMCHECK
 70
     0
  9
$CHAMFERA
 40
10.0
  9
$CHAMFERB
 40
10.0
  9
$CHAMFERC
 40
20.0
  9
$CHAMFERD
 40
0.0
  9
$SKPOLY
 70
     0
  9
$TDCREATE
 40
2458732.517607361
  9
$TDUCREATE
 40
2458732.434274028
  9
$TDUPDATE
 40
2458732.517607373
  9
$TDUUPDATE
 40
2458732.434274039
  9
$TDINDWG
 40
0.0000000116
  9
$TDUSRTIMER
 40
0.0000000116
  9
$USRTIMER
 70
     1
  9
$ANGBASE
 50
0.0
  9
$ANGDIR
 70
     0
  9
$PDMODE
 70
     0
  9
$PDSIZE
 40
0.0
  9
$PLINEWID
 40
0.0
  9
$SPLFRAME
 70
     0
  9
$SPLINETYPE
 70
     6
  9
$SPLINESEGS
 70
     8
  9
$HANDSEED
  5
154
  9
$SURFTAB1
 70
     6
  9
$SURFTAB2
 70
     6
  9
$SURFTYPE
 70
     6
  9
$SURFU
 70
     6
  9
$SURFV
 70
     6
  9
$UCSBASE
  2

  9
$UCSNAME
  2

  9
$UCSORG
 10
0.0
 20
0.0
 30
0.0
  9
$UCSXDIR
 10
1.0
 20
0.0
 30
0.0
  9
$UCSYDIR
 10
0.0
 20
1.0
 30
0.0
  9
$UCSORTHOREF
  2

  9
$UCSORTHOVIEW
 70
     0
  9
$UCSORGTOP
 10
0.0
 20
0.0
 30
0.0
  9
$UCSORGBOTTOM
 10
0.0
 20
0.0
 30
0.0
  9
$UCSORGLEFT
 10
0.0
 20
0.0
 30
0.0
  9
$UCSORGRIGHT
 10
0.0
 20
0.0
 30
0.0
  9
$UCSORGFRONT
 10
0.0
 20
0.0
 30
0.0
  9
$UCSORGBACK
 10
0.0
 20
0.0
 30
0.0
  9
$PUCSBASE
  2

  9
$PUCSNAME
  2

  9
$PUCSORG
 10
0.0
 20
0.0
 30
0.0
  9
$PUCSXDIR
 10
1.0
 20
0.0
 30
0.0
  9
$PUCSYDIR
 10
0.0
 20
1.0
 30
0.0
  9
$PUCSORTHOREF
  2

  9
$PUCSORTHOVIEW
 70
     0
  9
$PUCSORGTOP
 10
0.0
 20
0.0
 30
0.0
  9
$PUCSORGBOTTOM
 10
0.0
 20
0.0
 30
0.0
  9
$PUCSORGLEFT
 10
0.0
 20
0.0
 30
0.0
  9
$PUCSORGRIGHT
 10
0.0
 20
0.0
 30
0.0
  9
$PUCSORGFRONT
 10
0.0
 20
0.0
 30
0.0
  9
$PUCSORGBACK
 10
0.0
 20
0.0
 30
0.0
  9
$USERI1
 70
     0
  9
$USERI2
 70
     0
  9
$USERI3
 70
     0
  9
$USERI4
 70
     0
  9
$USERI5
 70
     0
  9
$USERR1
 40
0.0
  9
$USERR2
 40
0.0
  9
$USERR3
 40
0.0
  9
$USERR4
 40
0.0
  9
$USERR5
 40
0.0
  9
$WORLDVIEW
 70
     1
  9
$SHADEDGE
 70
     3
  9
$SHADEDIF
 70
    70
  9
$TILEMODE
 70
     1
  9
$MAXACTVP
 70
    64
  9
$PINSBASE
 10
0.0
 20
0.0
 30
0.0
  9
$PLIMCHECK
 70
     0
  9
$PEXTMIN
 10
1.000000E+20
 20
1.000000E+20
 30
1.000000E+20
  9
$PEXTMAX
 10
-1.000000E+20
 20
-1.000000E+20
 30
-1.000000E+20
  9
$PLIMMIN
 10
0.0
 20
0.0
  9
$PLIMMAX
 10
420.0
 20
297.0
  9
$UNITMODE
 70
     0
  9
$VISRETAIN
 70
     1
  9
$PLINEGEN
 70
     0
  9
$PSLTSCALE
 70
     1
  9
$TREEDEPTH
 70
  3020
  9
$CMLSTYLE
  2
Standard
  9
$CMLJUST
 70
     0
  9
$CMLSCALE
 40
20.0
  9
$PROXYGRAPHICS
 70
     1
  9
$MEASUREMENT
 70
     1
  9
$CELWEIGHT
370
    -1
  9
$ENDCAPS
280
     0
  9
$JOINSTYLE
280
     0
  9
$LWDISPLAY
290
     0
  9
$INSUNITS
 70
     4
  9
$HYPERLINKBASE
  1

  9
$STYLESHEET
  1

  9
$XEDIT
290
     1
  9
$CEPSNTYPE
380
     0
  9
$PSTYLEMODE
290
     1
  9
$FINGERPRINTGUID
  2
{824D4278-4FB2-43D6-80CE-BBEBE777CACF}
  9
$VERSIONGUID
  2
{FAEB1C32-E019-11D5-929B-00C0DF256EC4}
  9
$EXTNAMES
290
     1
  9
$PSVPSCALE
 40
0.0
  9
$OLESTARTUP
290
     0
  9
$SORTENTS
280
   127
  9
$INDEXCTL
280
     0
  9
$HIDETEXT
280
     1
  9
$XCLIPFRAME
280
     2
  9
$HALOGAP
280
     0
  9
$OBSCOLOR
 70
   257
  9
$OBSLTYPE
280
     0
  9
$INTERSECTIONDISPLAY
280
     0
  9
$INTERSECTIONCOLOR
 70
   257
  9
$DIMASSOC
280
     2
  9
$PROJECTNAME
  1

  9
$CAMERADISPLAY
290
     0
  9
$LENSLENGTH
 40
50.0
  9
$CAMERAHEIGHT
 40
0.0
  9
$STEPSPERSEC
 40
2.0
  9
$STEPSIZE
 40
6.0
  9
$3DDWFPREC
 40
2.0
  9
$PSOLWIDTH
 40
5.0
  9
$PSOLHEIGHT
 40
80.0
  9
$LOFTANG1
 40
1.570796
  9
$LOFTANG2
 40
1.570796
  9
$LOFTMAG1
 40
0.0
  9
$LOFTMAG2
 40
0.0
  9
$LOFTPARAM
 70
     7
  9
$LOFTNORMALS
280
     1
  9
$LATITUDE
 40
37.795
  9
$LONGITUDE
 40
-122.394
  9
$NORTHDIRECTION
 40
0.0
  9
$TIMEZONE
 70
 -8000
  9
$LIGHTGLYPHDISPLAY
280
     1
  9
$TILEMODELIGHTSYNCH
280
     1
  9
$SOLIDHIST
280
     1
  9
$SHOWHIST
280
     1
  9
$DWFFRAME
280
     2
  9
$DGNFRAME
280
     2
  9
$REALWORLDSCALE
290
     1
  9
$INTERFERECOLOR
 62
   256
  9
$CSHADOW
280
     0
  9
$SHADOWPLANELOCATION
 40
0.0
  0
ENDSEC
  0
SECTION
  2
CLASSES
  0
CLASS
  1
ACDBDICTIONARYWDFLT
  2
AcDbDictionaryWithDefault
  3
ObjectDBX Classes
 90
        0
 91
        4
280
     0
281
     0
  0
CLASS
  1
VISUALSTYLE
  2
AcDbVisualStyle
  3
ObjectDBX Classes
 90
     4095
 91
        4
280
     0
281
     0
  0
CLASS
  1
MATERIAL
  2
AcDbMaterial
  3
ObjectDBX Classes
 90
     1153
 91
        4
280
     0
281
     0
  0
CLASS
  1
SCALE
  2
AcDbScale
  3
ObjectDBX Classes
 90
     1153
 91
        4
280
     0
281
     0
  0
CLASS
  1
DICTIONARYVAR
  2
AcDbDictionaryVar
  3
ObjectDBX Classes
 90
        0
 91
        4
280
     0
281
     0
  0
ENDSEC
  0
SECTION
  2
TABLES
  0
TABLE
  2
VPORT
  5
8
330
0
100
AcDbSymbolTable
 70
     1
  0
VPORT
  5
29
330
8
100
AcDbSymbolTableRecord
100
AcDbViewportTableRecord
  2
*Active
 70
     0
 10
0.0
 20
0.0
 11
1.0
 21
1.0
 12
344.186916
 22
148.5
 13
0.0
 23
0.0
 14
10.0
 24
10.0
 15
10.0
 25
10.0
 16
0.0
 26
0.0
 36
1.0
 17
0.0
 27
0.0
 37
0.0
 40
297.0
 41
1.972973
 42
50.0
 43
0.0
 44
0.0
 50
0.0
 51
0.0
 71
     0
 72
   100
 73
     1
 74
     3
 75
     0
 76
     0
 77
     0
 78
     0
281
     0
 65
     1
110
0.0
120
0.0
130
0.0
111
1.0
121
0.0
131
0.0
112
0.0
122
1.0
132
0.0
 79
     0
146
0.0
 60
     3
 61
     5
292
     1
282
     1
141
0.0
142
0.0
 63
   250
  0
ENDTAB
  0
TABLE
  2
LTYPE
  5
5
330
0
100
AcDbSymbolTable
 70
     3
  0
LTYPE
  5
14
330
5
100
AcDbSymbolTableRecord
100
AcDbLinetypeTableRecord
  2
ByBlock
 70
     0
  3

 72
    65
 73
     0
 40
0.0
  0
LTYPE
  5
15
330
5
100
AcDbSymbolTableRecord
100
AcDbLinetypeTableRecord
  2
ByLayer
 70
     0
  3

 72
    65
 73
     0
 40
0.0
  0
LTYPE
  5
16
330
5
100
AcDbSymbolTableRecord
100
AcDbLinetypeTableRecord
  2
Continuous
 70
     0
  3
Solid line
 72
    65
 73
     0
 40
0.0
  0
LTYPE
  5
C7
330
5
100
AcDbSymbolTableRecord
100
AcDbLinetypeTableRecord
  2
CENTER2
 70
     0
  3
Center (.5x) ___ _ ___ _ ___ _ ___ _ ___ _ ___
 72
    65
 73
     4
 40
28.575
 49
19.05
 74
     0
 49
-3.175
 74
     0
 49
3.175
 74
     0
 49
-3.175
 74
     0
  0
LTYPE
  5
CB
330
5
100
AcDbSymbolTableRecord
100
AcDbLinetypeTableRecord
  2
HIDDEN2
 70
     0
  3
Hidden (.5x) _ _ _ _ _ _ _ _ _ _ _ _ _ _ _ _ _ 
 72
    65
 73
     2
 40
4.7625
 49
3.175
 74
     0
 49
-1.5875
 74
     0
  0
ENDTAB
  0
TABLE
  2
LAYER
  5
2
330
0
100
AcDbSymbolTable
 70
    22
  0
LAYER
  5
10
330
2
100
AcDbSymbolTableRecord
100
AcDbLayerTableRecord
  2
0
 70
     0
 62
     7
  6
Continuous
370
     0
390
F
347
3E
  0
LAYER
  5
3F
330
2
100
AcDbSymbolTableRecord
100
AcDbLayerTableRecord
  2
1
 70
     0
 62
     7
  6
Continuous
370
     0
390
F
347
3E
1001
AcAecLayerStandard
1000

1000
1
  0
LAYER
  5
41
330
2
100
AcDbSymbolTableRecord
100
AcDbLayerTableRecord
  2
2
 70
     0
 62
     7
  6
Continuous
370
     0
390
F
347
3E
1001
AcAecLayerStandard
1000

1000
2
  0
LAYER
  5
42
330
2
100
AcDbSymbolTableRecord
100
AcDbLayerTableRecord
  2
3
 70
     0
 62
     7
  6
Continuous
370
     0
390
F
347
3E
1001
AcAecLayerStandard
1000

1000
255
  0
LAYER
  5
43
330
2
100
AcDbSymbolTableRecord
100
AcDbLayerTableRecord
  2
4
 70
     0
 62
     7
  6
Continuous
370
     0
390
F
347
3E
1001
AcAecLayerStandard
1000

1000
DEFPOINTS
  0
LAYER
  5
44
330
2
100
AcDbSymbolTableRecord
100
AcDbLayerTableRecord
  2
5
 70
     0
 62
     7
  6
Continuous
370
     0
390
F
347
3E
1001
AcAecLayerStandard
1000

1000
__BYBLOCK
  0
LAYER
  5
45
330
2
100
AcDbSymbolTableRecord
100
AcDbLayerTableRecord
  2
6
 70
     0
 62
     7
  6
Continuous
370
     0
390
F
347
3E
1001
AcAecLayerStandard
1000

1000
255_1
  0
LAYER
  5
46
330
2
100
AcDbSymbolTableRecord
100
AcDbLayerTableRecord
  2
7
 70
     0
 62
     7
  6
Continuous
370
     0
390
F
347
3E
1001
AcAecLayerStandard
1000

1000
255_2
  0
LAYER
  5
47
330
2
100
AcDbSymbolTableRecord
100
AcDbLayerTableRecord
  2
8
 70
     0
 62
     7
  6
Continuous
370
     0
390
F
347
3E
1001
AcAecLayerStandard
1000

1000
quote
  0
LAYER
  5
48
330
2
100
AcDbSymbolTableRecord
100
AcDbLayerTableRecord
  2
255
 70
     0
 62
     1
  6
Continuous
370
     0
390
F
347
3E
  0
LAYER
  5
49
330
2
100
AcDbSymbolTableRecord
100
AcDbLayerTableRecord
  2
DEFPOINTS
 70
     0
 62
     1
  6
Continuous
290
     0
370
     0
390
F
347
3E
  0
LAYER
  5
4A
330
2
100
AcDbSymbolTableRecord
100
AcDbLayerTableRecord
  2
255_1
 70
     0
 62
     1
  6
Continuous
370
     0
390
F
347
3E
  0
LAYER
  5
4B
330
2
100
AcDbSymbolTableRecord
100
AcDbLayerTableRecord
  2
255_2
 70
     0
 62
     1
  6
Continuous
370
     0
390
F
347
3E
  0
LAYER
  5
4C
330
2
100
AcDbSymbolTableRecord
100
AcDbLayerTableRecord
  2
255_3
 70
     0
 62
     1
  6
Continuous
370
     0
390
F
347
3E
  0
LAYER
  5
4D
330
2
100
AcDbSymbolTableRecord
100
AcDbLayerTableRecord
  2
9
 70
     0
 62
     7
  6
Continuous
370
     0
390
F
347
3E
  0
LAYER
  5
4E
330
2
100
AcDbSymbolTableRecord
100
AcDbLayerTableRecord
  2
taglio
 70
     0
 62
     7
  6
Continuous
370
     0
390
F
347
3E
  0
LAYER
  5
4F
330
2
100
AcDbSymbolTableRecord
100
AcDbLayerTableRecord
  2
cordone
 70
     0
 62
     7
  6
Continuous
370
     0
390
F
347
3E
  0
LAYER
  5
50
330
2
100
AcDbSymbolTableRecord
100
AcDbLayerTableRecord
  2
Design
 70
     0
 62
     7
  6
Continuous
370
     0
390
F
347
3E
  0
LAYER
  5
51
330
2
100
AcDbSymbolTableRecord
100
AcDbLayerTableRecord
  2
Immaginedistampa
 70
     0
 62
     7
  6
Continuous
370
     0
390
F
347
3E
  0
LAYER
  5
52
330
2
100
AcDbSymbolTableRecord
100
AcDbLayerTableRecord
  2
Annotation1
 70
     0
 62
     7
  6
Continuous
370
     0
390
F
347
3E
  0
LAYER
  5
53
330
2
100
AcDbSymbolTableRecord
100
AcDbLayerTableRecord
  2
Unknown
 70
     0
 62
     7
  6
Continuous
370
     0
390
F
347
3E
  0
LAYER
  5
54
330
2
100
AcDbSymbolTableRecord
100
AcDbLayerTableRecord
  2
1023
 70
     0
 62
     1
  6
Continuous
370
     0
390
F
347
3E
  0
ENDTAB
  0
TABLE
  2
STYLE
  5
3
330
0
100
AcDbSymbolTable
 70
     6
  0
STYLE
  5
11
330
3
100
AcDbSymbolTableRecord
100
AcDbTextStyleTableRecord
  2
Standard
 70
     0
 40
0.0
 41
1.0
 50
0.0
 71
     0
 42
2.5
  3
txt
  4

1001
ACAD
1000
txt
1071
        0
  0
STYLE
  5
55
330
3
100
AcDbSymbolTableRecord
100
AcDbTextStyleTableRecord
  2
Default
 70
     0
 40
0.0
 41
1.0
 50
0.0
 71
     0
 42
0.2
  3

  4

1001
ACAD
1000
txt
1071
        0
  0
STYLE
  5
56
330
3
100
AcDbSymbolTableRecord
100
AcDbTextStyleTableRecord
  2
ANSI
 70
     0
 40
0.0
 41
1.0
 50
0.0
 71
     0
 42
0.2
  3

  4

1001
ACAD
1000
txt
1071
        0
  0
STYLE
  5
57
330
3
100
AcDbSymbolTableRecord
100
AcDbTextStyleTableRecord
  2
Testo nota (ISO)
 70
     0
 40
0.0
 41
1.0
 50
0.0
 71
     0
 42
0.2
  3

  4

1001
ACAD
1000
Tahoma
1071
        0
  0
STYLE
  5
58
330
3
100
AcDbSymbolTableRecord
100
AcDbTextStyleTableRecord
  2
SEACAD_arial_ttf
 70
     0
 40
0.0
 41
1.0
 50
0.0
 71
     0
 42
0.2
  3

  4

1001
ACAD
1000
arial
1071
        0
  0
STYLE
  5
59
330
3
100
AcDbSymbolTableRecord
100
AcDbTextStyleTableRecord
  2
ISO
 70
     0
 40
0.0
 41
1.0
 50
0.0
 71
     0
 42
0.2
  3

  4

1001
ACAD
1000
txt
1071
        0
  0
ENDTAB
  0
TABLE
  2
VIEW
  5
6
330
0
100
AcDbSymbolTable
 70
     0
  0
ENDTAB
  0
TABLE
  2
UCS
  5
7
330
0
100
AcDbSymbolTable
 70
     0
  0
ENDTAB
  0
TABLE
  2
APPID
  5
9
330
0
100
AcDbSymbolTable
 70
     2
  0
APPID
  5
12
330
9
100
AcDbSymbolTableRecord
100
AcDbRegAppTableRecord
  2
ACAD
 70
     0
  0
APPID
  5
40
330
9
100
AcDbSymbolTableRecord
100
AcDbRegAppTableRecord
  2
AcAecLayerStandard
 70
     0
  0
ENDTAB
  0
TABLE
  2
DIMSTYLE
  5
A
330
0
100
AcDbSymbolTable
 70
     6
100
AcDbDimStyleTable
  0
DIMSTYLE
105
27
102
{ACAD_REACTORS
330
F7
330
104
330
111
330
11E
330
12B
330
143
102
}
330
A
100
AcDbSymbolTableRecord
100
AcDbDimStyleTableRecord
  2
ISO-25
 70
     0
 41
2.5
 42
0.625
 43
3.75
 44
1.25
 73
     0
 74
     0
 77
     1
 78
     8
140
2.5
141
2.5
143
0.03937
147
0.625
171
     3
172
     1
271
     2
272
     2
274
     3
278
    44
283
     0
284
     8
340
11
  0
DIMSTYLE
105
5A
330
A
100
AcDbSymbolTableRecord
100
AcDbDimStyleTableRecord
  2
Default
 70
     0
  3
<>
 41
4.375
 42
1.05
 44
2.1
 49
10.01
 73
     0
 74
     0
 77
     1
 78
     8
140
3.5
146
0.4
147
1.75
172
     1
178
     2
271
     2
272
     3
284
     8
340
55
341
5B
342
5B
  0
DIMSTYLE
105
62
330
A
100
AcDbSymbolTableRecord
100
AcDbDimStyleTableRecord
  2
DefaultDimensionStyle
 70
     0
  3
<>
 41
2.5
 42
0.875
 44
1.75
 49
10.01
 73
     0
 74
     0
 77
     1
 78
     8
140
3.5
147
1.75
172
     1
178
     2
271
     2
272
     2
278
    44
284
     8
340
11
  0
DIMSTYLE
105
63
330
A
100
AcDbSymbolTableRecord
100
AcDbDimStyleTableRecord
  2
ANSI
 70
     0
  3
<>
 41
2.0
 42
3.5
 44
2.03
 49
10.01
 73
     0
 74
     0
 77
     1
 78
     8
140
3.5
146
0.4
147
1.75
172
     1
178
     2
271
     2
272
     3
284
    12
340
56
341
5B
342
5B
  0
DIMSTYLE
105
64
330
A
100
AcDbSymbolTableRecord
100
AcDbDimStyleTableRecord
  2
Default (ISO)
 70
     0
  3
<>
 41
5.0
 42
0.035
 44
6.35
 49
10.01
 73
     0
 74
     0
 77
     1
140
3.5
146
1.001486
147
1.524
172
     1
178
     2
271
     2
272
     2
278
    44
340
57
  0
DIMSTYLE
105
65
330
A
100
AcDbSymbolTableRecord
100
AcDbDimStyleTableRecord
  2
DSTYLE1
 70
     0
  3
<>
 41
35.0
 42
9.2414
 44
1.166665
 49
10.01
 73
     0
 74
     0
 78
     8
140
3.5
146
0.6
147
1.225
172
     1
178
     2
340
11
  0
ENDTAB
  0
TABLE
  2
BLOCK_RECORD
  5
1
330
0
100
AcDbSymbolTable
 70
    10
  0
BLOCK_RECORD
  5
1F
330
1
100
AcDbSymbolTableRecord
100
AcDbBlockTableRecord
  2
*Model_Space
340
22
 70
     0
280
     1
281
     0
  0
BLOCK_RECORD
  5
1B
330
1
100
AcDbSymbolTableRecord
100
AcDbBlockTableRecord
  2
*Paper_Space
340
1E
 70
     0
280
     1
281
     0
  0
BLOCK_RECORD
  5
23
330
1
100
AcDbSymbolTableRecord
100
AcDbBlockTableRecord
  2
*Paper_Space0
340
26
 70
     0
280
     1
281
     0
  0
BLOCK_RECORD
  5
5B
330
1
100
AcDbSymbolTableRecord
100
AcDbBlockTableRecord
  2
_CLOSED
340
0
102
{BLKREFS
331
FD
331
FC
331
10A
331
109
331
117
331
116
331
124
331
123
331
131
331
130
331
149
331
148
102
}
 70
     0
280
     1
281
     0
  0
BLOCK_RECORD
  5
EB
330
1
100
AcDbSymbolTableRecord
100
AcDbBlockTableRecord
  2
.TD_DIMENSION_1
340
0
102
{BLKREFS
331
F5
102
}
 70
     0
280
     1
281
     0
  0
BLOCK_RECORD
  5
F8
330
1
100
AcDbSymbolTableRecord
100
AcDbBlockTableRecord
  2
*D3
340
0
 70
     0
280
     1
281
     0
  0
BLOCK_RECORD
  5
105
330
1
100
AcDbSymbolTableRecord
100
AcDbBlockTableRecord
  2
*D4
340
0
 70
     0
280
     1
281
     0
  0
BLOCK_RECORD
  5
112
330
1
100
AcDbSymbolTableRecord
100
AcDbBlockTableRecord
  2
*D5
340
0
 70
     0
280
     1
281
     0
  0
BLOCK_RECORD
  5
11F
330
1
100
AcDbSymbolTableRecord
100
AcDbBlockTableRecord
  2
*D6
340
0
 70
     0
280
     1
281
     0
  0
BLOCK_RECORD
  5
12C
330
1
100
AcDbSymbolTableRecord
100
AcDbBlockTableRecord
  2
*D7
340
0
 70
     0
280
     1
281
     0
  0
BLOCK_RECORD
  5
138
330
1
100
AcDbSymbolTableRecord
100
AcDbBlockTableRecord
  2
.TD_DIMENSION_2
340
0
102
{BLKREFS
331
140
102
}
 70
     0
280
     1
281
     0
  0
BLOCK_RECORD
  5
144
330
1
100
AcDbSymbolTableRecord
100
AcDbBlockTableRecord
  2
*D9
340
0
 70
     0
280
     1
281
     0
  0
ENDTAB
  0
ENDSEC
  0
SECTION
  2
BLOCKS
  0
BLOCK
  5
20
330
1F
100
AcDbEntity
  8
0
100
AcDbBlockBegin
  2
*Model_Space
 70
     0
 10
0.0
 20
0.0
 30
0.0
  3
*Model_Space
  1

  0
ENDBLK
  5
21
330
1F
100
AcDbEntity
  8
0
100
AcDbBlockEnd
  0
BLOCK
  5
1C
330
1B
100
AcDbEntity
 67
     1
  8
0
100
AcDbBlockBegin
  2
*Paper_Space
 70
     0
 10
0.0
 20
0.0
 30
0.0
  3
*Paper_Space
  1

  0
ENDBLK
  5
1D
330
1B
100
AcDbEntity
 67
     1
  8
0
100
AcDbBlockEnd
  0
BLOCK
  5
24
330
23
100
AcDbEntity
  8
0
100
AcDbBlockBegin
  2
*Paper_Space0
 70
     0
 10
0.0
 20
0.0
 30
0.0
  3
*Paper_Space0
  1

  0
ENDBLK
  5
25
330
23
100
AcDbEntity
  8
0
100
AcDbBlockEnd
  0
BLOCK
  5
5C
330
5B
100
AcDbEntity
  8
0
100
AcDbBlockBegin
  2
_CLOSED
 70
     0
 10
0.0
 20
0.0
 30
0.0
  3
_CLOSED
  1

  0
LINE
  5
5E
330
5B
100
AcDbEntity
  8
0
  6
ByBlock
 62
     0
370
    -2
100
AcDbLine
 10
-1.0
 20
0.166667
 30
0.0
 11
0.0
 21
0.0
 31
0.0
  0
LINE
  5
5F
330
5B
100
AcDbEntity
  8
0
  6
ByBlock
 62
     0
370
    -2
100
AcDbLine
 10
0.0
 20
0.0
 30
0.0
 11
-1.0
 21
-0.166667
 31
0.0
  0
LINE
  5
60
330
5B
100
AcDbEntity
  8
0
  6
ByBlock
 62
     0
370
    -2
100
AcDbLine
 10
-1.0
 20
0.166667
 30
0.0
 11
-1.0
 21
-0.166667
 31
0.0
  0
LINE
  5
61
330
5B
100
AcDbEntity
  8
0
  6
ByBlock
 62
     0
370
    -2
100
AcDbLine
 10
0.0
 20
0.0
 30
0.0
 11
-1.0
 21
0.0
 31
0.0
  0
ENDBLK
  5
5D
330
5B
100
AcDbEntity
  8
0
100
AcDbBlockEnd
  0
BLOCK
  5
F3
330
EB
100
AcDbEntity
  8
0
100
AcDbBlockBegin
  2
.TD_DIMENSION_1
 70
     0
 10
-19020.572266
 20
-19009.902344
 30
0.0
  3
.TD_DIMENSION_1
  1

  0
LINE
  5
EC
330
EB
100
AcDbEntity
  8
0
  6
Continuous
 62
     0
100
AcDbLine
 10
-9460.974609
 20
-9360.931641
 30
0.0
 11
-9454.541992
 21
-9368.587891
 31
0.0
  0
LINE
  5
ED
330
EB
100
AcDbEntity
  8
0
  6
Continuous
 62
     0
100
AcDbLine
 10
-9454.541992
 20
-9368.587891
 30
0.0
 11
-9339.979492
 21
-9504.951172
 31
0.0
  0
MTEXT
  5
EE
330
EB
100
AcDbEntity
  8
0
  6
Continuous
 62
     0
100
AcDbMText
 10
-9417.597878
 20
-9362.038834
 30
0.0
 40
25.0
 41
0.0
 46
0.0
 71
     1
 72
     1
  1
{\fArial|b0|i0;R}
 11
0.6432514104592926
 21
-0.7656550286794508
 31
0.0
 73
     2
 44
0.99598
  0
MTEXT
  5
EF
330
EB
100
AcDbEntity
  8
0
  6
Continuous
 62
     0
100
AcDbMText
 10
-9401.516823
 20
-9381.180435
 30
0.0
 40
25.0
 41
0.0
 46
0.0
 71
     1
 72
     1
  1
{\fArial|b0|i0;10 (3/8")}
 11
0.6432514104592926
 21
-0.7656550286794508
 31
0.0
 73
     2
 44
0.99598
  0
LINE
  5
F0
330
EB
100
AcDbEntity
  8
0
  6
Continuous
 62
     0
100
AcDbLine
 10
-9447.118164
 20
-9372.146484
 30
0.0
 11
-9460.974609
 21
-9360.931641
 31
0.0
  0
LINE
  5
F1
330
EB
100
AcDbEntity
  8
0
  6
Continuous
 62
     0
100
AcDbLine
 10
-9460.974609
 20
-9360.931641
 30
0.0
 11
-9452.317383
 21
-9376.514648
 31
0.0
  0
LINE
  5
F2
330
EB
100
AcDbEntity
  8
0
  6
Continuous
 62
     0
100
AcDbLine
 10
-9452.317383
 20
-9376.514648
 30
0.0
 11
-9447.118164
 21
-9372.146484
 31
0.0
  0
ENDBLK
  5
F4
330
EB
100
AcDbEntity
  8
0
100
AcDbBlockEnd
  0
BLOCK
  5
102
330
F8
100
AcDbEntity
  8
0
100
AcDbBlockBegin
  2
*D3
 70
     1
 10
0.0
 20
0.0
 30
0.0
  3
*D3
  1

  0
LINE
  5
F9
330
F8
100
AcDbEntity
  8
0
  6
Continuous
 62
     7
370
    -2
100
AcDbLine
 10
-9490.256044
 20
-9127.167203
 30
0.0
 11
-9490.256044
 21
-9219.250977
 31
0.0
  0
LINE
  5
FA
330
F8
100
AcDbEntity
  8
0
  6
Continuous
 62
     7
370
    -2
100
AcDbLine
 10
-8690.256044
 20
-9127.167203
 30
0.0
 11
-8690.256044
 21
-9219.250977
 31
0.0
  0
LINE
  5
FB
330
F8
100
AcDbEntity
  8
0
  6
Continuous
 62
     7
370
    -2
100
AcDbLine
 10
-9455.256044
 20
-9199.250977
 30
0.0
 11
-8725.256044
 21
-9199.250977
 31
0.0
  0
INSERT
  5
FC
330
F8
100
AcDbEntity
  8
0
 62
     7
370
    -2
100
AcDbBlockReference
  2
_CLOSED
 10
-9490.256044
 20
-9199.250977
 30
0.0
 41
35.0
 42
35.0
 43
35.0
 50
180.0
  0
INSERT
  5
FD
330
F8
100
AcDbEntity
  8
0
 62
     7
370
    -2
100
AcDbBlockReference
  2
_CLOSED
 10
-8690.256044
 20
-9199.250977
 30
0.0
 41
35.0
 42
35.0
 43
35.0
  0
MTEXT
  5
FE
330
F8
100
AcDbEntity
  8
0
 62
     2
370
     0
100
AcDbMText
 10
-8889.505859
 20
-9148.400977
 30
0.0
 40
50.0
 41
0.0
 46
0.0
 71
     5
 72
     1
  1
\fArial|b0|i0|c0|p0;{\fArial|b0|i0;CABINET 31 1/2"}
 73
     1
 44
1.0
  0
POINT
  5
FF
330
F8
100
AcDbEntity
  8
DEFPOINTS
 62
     0
100
AcDbPoint
 10
-9490.256044
 20
-9077.167203
 30
0.0
  0
POINT
  5
100
330
F8
100
AcDbEntity
  8
DEFPOINTS
 62
     0
100
AcDbPoint
 10
-8690.256044
 20
-9077.167203
 30
0.0
  0
POINT
  5
101
330
F8
100
AcDbEntity
  8
DEFPOINTS
 62
     0
100
AcDbPoint
 10
-8690.256044
 20
-9199.250977
 30
0.0
  0
ENDBLK
  5
103
330
F8
100
AcDbEntity
  8
0
100
AcDbBlockEnd
  0
BLOCK
  5
10F
330
105
100
AcDbEntity
  8
0
100
AcDbBlockBegin
  2
*D4
 70
     1
 10
0.0
 20
0.0
 30
0.0
  3
*D4
  1

  0
LINE
  5
106
330
105
100
AcDbEntity
  8
0
  6
Continuous
 62
     7
370
    -2
100
AcDbLine
 10
-8709.542271
 20
-9838.587841
 30
0.0
 11
-8578.261718
 21
-9838.587841
 31
0.0
  0
LINE
  5
107
330
105
100
AcDbEntity
  8
0
  6
Continuous
 62
     7
370
    -2
100
AcDbLine
 10
-8709.542271
 20
-9358.587841
 30
0.0
 11
-8578.261718
 21
-9358.587841
 31
0.0
  0
LINE
  5
108
330
105
100
AcDbEntity
  8
0
  6
Continuous
 62
     7
370
    -2
100
AcDbLine
 10
-8598.261719
 20
-9803.587841
 30
0.0
 11
-8598.261719
 21
-9393.587841
 31
0.0
  0
INSERT
  5
109
330
105
100
AcDbEntity
  8
0
 62
     7
370
    -2
100
AcDbBlockReference
  2
_CLOSED
 10
-8598.261719
 20
-9838.587841
 30
0.0
 41
35.0
 42
35.0
 43
35.0
 50
270.0
  0
INSERT
  5
10A
330
105
100
AcDbEntity
  8
0
 62
     7
370
    -2
100
AcDbBlockReference
  2
_CLOSED
 10
-8598.261719
 20
-9358.587841
 30
0.0
 41
35.0
 42
35.0
 43
35.0
 50
90.0
  0
MTEXT
  5
10B
330
105
100
AcDbEntity
  8
0
 62
     2
370
     0
100
AcDbMText
 10
-8646.011719
 20
-9598.587841
 30
0.0
 40
50.0
 41
0.0
 46
0.0
 71
     5
 72
     1
  1
\fArial|b0|i0|c0|p0;{\fArial|b0|i0;480 (18 7/8")}
 11
0.0
 21
1.0
 31
0.0
 73
     1
 44
1.0
  0
POINT
  5
10C
330
105
100
AcDbEntity
  8
DEFPOINTS
 62
     0
100
AcDbPoint
 10
-8724.542271
 20
-9838.587841
 30
0.0
  0
POINT
  5
10D
330
105
100
AcDbEntity
  8
DEFPOINTS
 62
     0
100
AcDbPoint
 10
-8724.542271
 20
-9358.587841
 30
0.0
  0
POINT
  5
10E
330
105
100
AcDbEntity
  8
DEFPOINTS
 62
     0
100
AcDbPoint
 10
-8598.261719
 20
-9358.587841
 30
0.0
  0
ENDBLK
  5
110
330
105
100
AcDbEntity
  8
0
100
AcDbBlockEnd
  0
BLOCK
  5
11C
330
112
100
AcDbEntity
  8
0
100
AcDbBlockBegin
  2
*D5
 70
     1
 10
0.0
 20
0.0
 30
0.0
  3
*D5
  1

  0
LINE
  5
113
330
112
100
AcDbEntity
  8
0
  6
Continuous
 62
     7
370
    -2
100
AcDbLine
 10
-9464.542271
 20
-7921.885832
 30
0.0
 11
-9464.542271
 21
-7815.52539
 31
0.0
  0
LINE
  5
114
330
112
100
AcDbEntity
  8
0
  6
Continuous
 62
     7
370
    -2
100
AcDbLine
 10
-8704.542271
 20
-7921.885832
 30
0.0
 11
-8704.542271
 21
-7815.52539
 31
0.0
  0
LINE
  5
115
330
112
100
AcDbEntity
  8
0
  6
Continuous
 62
     7
370
    -2
100
AcDbLine
 10
-9429.542271
 20
-7835.525391
 30
0.0
 11
-8739.542271
 21
-7835.525391
 31
0.0
  0
INSERT
  5
116
330
112
100
AcDbEntity
  8
0
 62
     7
370
    -2
100
AcDbBlockReference
  2
_CLOSED
 10
-9464.542271
 20
-7835.525391
 30
0.0
 41
35.0
 42
35.0
 43
35.0
 50
180.0
  0
INSERT
  5
117
330
112
100
AcDbEntity
  8
0
 62
     7
370
    -2
100
AcDbBlockReference
  2
_CLOSED
 10
-8704.542271
 20
-7835.525391
 30
0.0
 41
35.0
 42
35.0
 43
35.0
  0
MTEXT
  5
118
330
112
100
AcDbEntity
  8
0
 62
     2
370
     0
100
AcDbMText
 10
-9084.542271
 20
-7777.775391
 30
0.0
 40
50.0
 41
0.0
 46
0.0
 71
     5
 72
     1
  1
\fArial|b0|i0|c0|p0;{\fArial|b0|i0;760 (29 15/16")}
 73
     1
 44
1.0
  0
POINT
  5
119
330
112
100
AcDbEntity
  8
DEFPOINTS
 62
     0
100
AcDbPoint
 10
-9464.542271
 20
-7971.885832
 30
0.0
  0
POINT
  5
11A
330
112
100
AcDbEntity
  8
DEFPOINTS
 62
     0
100
AcDbPoint
 10
-8704.542271
 20
-7971.885832
 30
0.0
  0
POINT
  5
11B
330
112
100
AcDbEntity
  8
DEFPOINTS
 62
     0
100
AcDbPoint
 10
-8704.542271
 20
-7835.525391
 30
0.0
  0
ENDBLK
  5
11D
330
112
100
AcDbEntity
  8
0
100
AcDbBlockEnd
  0
BLOCK
  5
129
330
11F
100
AcDbEntity
  8
0
100
AcDbBlockBegin
  2
*D6
 70
     1
 10
0.0
 20
0.0
 30
0.0
  3
*D6
  1

  0
LINE
  5
120
330
11F
100
AcDbEntity
  8
0
  6
Continuous
 62
     7
370
    -2
100
AcDbLine
 10
-9428.529774
 20
-8506.680172
 30
0.0
 11
-9428.529774
 21
-8602.280274
 31
0.0
  0
LINE
  5
121
330
11F
100
AcDbEntity
  8
0
  6
Continuous
 62
     7
370
    -2
100
AcDbLine
 10
-8739.781862
 20
-8507.587281
 30
0.0
 11
-8739.781862
 21
-8602.280274
 31
0.0
  0
LINE
  5
122
330
11F
100
AcDbEntity
  8
0
  6
Continuous
 62
     7
370
    -2
100
AcDbLine
 10
-9393.529774
 20
-8582.280273
 30
0.0
 11
-8774.781862
 21
-8582.280273
 31
0.0
  0
INSERT
  5
123
330
11F
100
AcDbEntity
  8
0
 62
     7
370
    -2
100
AcDbBlockReference
  2
_CLOSED
 10
-9428.529774
 20
-8582.280273
 30
0.0
 41
35.0
 42
35.0
 43
35.0
 50
180.0
  0
INSERT
  5
124
330
11F
100
AcDbEntity
  8
0
 62
     7
370
    -2
100
AcDbBlockReference
  2
_CLOSED
 10
-8739.781862
 20
-8582.280273
 30
0.0
 41
35.0
 42
35.0
 43
35.0
  0
MTEXT
  5
125
330
11F
100
AcDbEntity
  8
0
 62
     2
370
     0
100
AcDbMText
 10
-9084.155818
 20
-8524.530273
 30
0.0
 40
50.0
 41
0.0
 46
0.0
 71
     5
 72
     1
  1
\fArial|b0|i0|c0|p0;{\fArial|b0|i0;690 (27 3/16")}
 73
     1
 44
1.0
  0
POINT
  5
126
330
11F
100
AcDbEntity
  8
DEFPOINTS
 62
     0
100
AcDbPoint
 10
-9428.529774
 20
-8431.680172
 30
0.0
  0
POINT
  5
127
330
11F
100
AcDbEntity
  8
DEFPOINTS
 62
     0
100
AcDbPoint
 10
-8739.781862
 20
-8432.587281
 30
0.0
  0
POINT
  5
128
330
11F
100
AcDbEntity
  8
DEFPOINTS
 62
     0
100
AcDbPoint
 10
-8739.781862
 20
-8582.280273
 30
0.0
  0
ENDBLK
  5
12A
330
11F
100
AcDbEntity
  8
0
100
AcDbBlockEnd
  0
BLOCK
  5
136
330
12C
100
AcDbEntity
  8
0
100
AcDbBlockBegin
  2
*D7
 70
     1
 10
0.0
 20
0.0
 30
0.0
  3
*D7
  1

  0
LINE
  5
12D
330
12C
100
AcDbEntity
  8
0
  6
Continuous
 62
     7
370
    -2
100
AcDbLine
 10
-9464.542271
 20
-9913.587841
 30
0.0
 11
-9464.542271
 21
-9990.633789
 31
0.0
  0
LINE
  5
12E
330
12C
100
AcDbEntity
  8
0
  6
Continuous
 62
     7
370
    -2
100
AcDbLine
 10
-8724.542271
 20
-9913.587841
 30
0.0
 11
-8724.542271
 21
-9990.633789
 31
0.0
  0
LINE
  5
12F
330
12C
100
AcDbEntity
  8
0
  6
Continuous
 62
     7
370
    -2
100
AcDbLine
 10
-9429.542271
 20
-9970.633789
 30
0.0
 11
-8759.542271
 21
-9970.633789
 31
0.0
  0
INSERT
  5
130
330
12C
100
AcDbEntity
  8
0
 62
     7
370
    -2
100
AcDbBlockReference
  2
_CLOSED
 10
-9464.542271
 20
-9970.633789
 30
0.0
 41
35.0
 42
35.0
 43
35.0
 50
180.0
  0
INSERT
  5
131
330
12C
100
AcDbEntity
  8
0
 62
     7
370
    -2
100
AcDbBlockReference
  2
_CLOSED
 10
-8724.542271
 20
-9970.633789
 30
0.0
 41
35.0
 42
35.0
 43
35.0
  0
MTEXT
  5
132
330
12C
100
AcDbEntity
  8
0
 62
     2
370
     0
100
AcDbMText
 10
-8966.041992
 20
-9922.883788
 30
0.0
 40
50.0
 41
0.0
 46
0.0
 71
     5
 72
     1
  1
\fArial|b0|i0|c0|p0;{\fArial|b0|i0;740 (29 1/8")}
 73
     1
 44
1.0
  0
POINT
  5
133
330
12C
100
AcDbEntity
  8
DEFPOINTS
 62
     0
100
AcDbPoint
 10
-9464.542271
 20
-9838.587841
 30
0.0
  0
POINT
  5
134
330
12C
100
AcDbEntity
  8
DEFPOINTS
 62
     0
100
AcDbPoint
 10
-8724.542271
 20
-9838.587841
 30
0.0
  0
POINT
  5
135
330
12C
100
AcDbEntity
  8
DEFPOINTS
 62
     0
100
AcDbPoint
 10
-8724.542271
 20
-9970.633789
 30
0.0
  0
ENDBLK
  5
137
330
12C
100
AcDbEntity
  8
0
100
AcDbBlockEnd
  0
BLOCK
  5
141
330
138
100
AcDbEntity
  8
0
100
AcDbBlockBegin
  2
.TD_DIMENSION_2
 70
     0
 10
-8666.519531
 20
-8541.885742
 30
0.0
  3
.TD_DIMENSION_2
  1

  0
LINE
  5
139
330
138
100
AcDbEntity
  8
0
  6
Continuous
 62
     7
420
 16777215
100
AcDbLine
 10
-8561.519531
 20
-8471.885742
 30
0.0
 11
-8561.519531
 21
-7966.885742
 31
0.0
  0
LINE
  5
13A
330
138
100
AcDbEntity
  8
0
  6
Continuous
 62
     7
420
 16777215
100
AcDbLine
 10
-8541.519531
 20
-8471.885742
 30
0.0
 11
-8659.541992
 21
-8471.885742
 31
0.0
  0
LINE
  5
13B
330
138
100
AcDbEntity
  8
0
  6
Continuous
 62
     7
420
 16777215
100
AcDbLine
 10
-8541.519531
 20
-7966.885742
 30
0.0
 11
-8586.019531
 21
-7966.885742
 31
0.0
  0
LINE
  5
13C
330
138
100
AcDbEntity
  8
0
  6
Continuous
 62
     7
420
 16777215
100
AcDbLine
 10
-8637.019531
 20
-7966.885742
 30
0.0
 11
-8659.541992
 21
-7966.885742
 31
0.0
  0
MTEXT
  5
13D
330
138
100
AcDbEntity
  8
0
  6
Continuous
 62
     7
420
 16777215
100
AcDbMText
 10
-8636.519531
 20
-8288.385742
 30
0.0
 40
50.0
 41
0.0
 46
0.0
 71
     1
 72
     1
  1
{\fArial|b0|i0|c0|p0;505 (19 7/8")}
 11
3.896499959564406E-12
 21
1.0
 31
0.0
 73
     1
 44
1.0
  0
LWPOLYLINE
  5
13E
330
138
100
AcDbEntity
  8
0
  6
Continuous
 62
     7
420
 16777215
100
AcDbPolyline
 90
        4
 70
     0
 43
0.0
 10
-8568.30957
 20
-8436.885742
 10
-8561.519531
 20
-8471.885742
 10
-8554.729492
 20
-8436.885742
 10
-8568.30957
 20
-8436.885742
  0
LWPOLYLINE
  5
13F
330
138
100
AcDbEntity
  8
0
  6
Continuous
 62
     7
420
 16777215
100
AcDbPolyline
 90
        4
 70
     0
 43
0.0
 10
-8568.30957
 20
-8001.885742
 10
-8561.519531
 20
-7966.885742
 10
-8554.729492
 20
-8001.885742
 10
-8568.30957
 20
-8001.885742
  0
ENDBLK
  5
142
330
138
100
AcDbEntity
  8
0
100
AcDbBlockEnd
  0
BLOCK
  5
14E
330
144
100
AcDbEntity
  8
0
100
AcDbBlockBegin
  2
*D9
 70
     1
 10
0.0
 20
0.0
 30
0.0
  3
*D9
  1

  0
LINE
  5
145
330
144
100
AcDbEntity
  8
0
  6
Continuous
 62
     7
370
    -2
100
AcDbLine
 10
-9499.30268
 20
-8037.125423
 30
0.0
 11
-9586.509766
 21
-8037.125423
 31
0.0
  0
LINE
  5
146
330
144
100
AcDbEntity
  8
0
  6
Continuous
 62
     7
370
    -2
100
AcDbLine
 10
-9499.30268
 20
-8436.646242
 30
0.0
 11
-9586.509766
 21
-8436.646242
 31
0.0
  0
LINE
  5
147
330
144
100
AcDbEntity
  8
0
  6
Continuous
 62
     7
370
    -2
100
AcDbLine
 10
-9566.509766
 20
-8072.125423
 30
0.0
 11
-9566.509766
 21
-8401.646242
 31
0.0
  0
INSERT
  5
148
330
144
100
AcDbEntity
  8
0
 62
     7
370
    -2
100
AcDbBlockReference
  2
_CLOSED
 10
-9566.509766
 20
-8037.125423
 30
0.0
 41
35.0
 42
35.0
 43
35.0
 50
90.0
  0
INSERT
  5
149
330
144
100
AcDbEntity
  8
0
 62
     7
370
    -2
100
AcDbBlockReference
  2
_CLOSED
 10
-9566.509766
 20
-8436.646242
 30
0.0
 41
35.0
 42
35.0
 43
35.0
 50
270.0
  0
MTEXT
  5
14A
330
144
100
AcDbEntity
  8
0
 62
     2
370
     0
100
AcDbMText
 10
-9624.259766
 20
-8149.885742
 30
0.0
 40
50.0
 41
0.0
 46
0.0
 71
     5
 72
     1
  1
\fArial|b0|i0|c0|p0;{\fArial|b0|i0;395 (15 9/16")}
 11
0.0
 21
1.0
 31
0.0
 73
     1
 44
1.0
  0
POINT
  5
14B
330
144
100
AcDbEntity
  8
DEFPOINTS
 62
     0
100
AcDbPoint
 10
-9424.30268
 20
-8037.125423
 30
0.0
  0
POINT
  5
14C
330
144
100
AcDbEntity
  8
DEFPOINTS
 62
     0
100
AcDbPoint
 10
-9424.30268
 20
-8436.646242
 30
0.0
  0
POINT
  5
14D
330
144
100
AcDbEntity
  8
DEFPOINTS
 62
     0
100
AcDbPoint
 10
-9566.509766
 20
-8436.646242
 30
0.0
  0
ENDBLK
  5
14F
330
144
100
AcDbEntity
  8
0
100
AcDbBlockEnd
  0
ENDSEC
  0
SECTION
  2
ENTITIES
  0
LINE
  5
66
330
1F
100
AcDbEntity
  8
0
  6
Continuous
 62
     6
420
 16711935
370
     0
100
AcDbLine
 10
-8717.256044
 20
-8771.167193
 30
0.0
 11
-8710.256044
 21
-8771.167193
 31
0.0
  0
LINE
  5
67
330
1F
100
AcDbEntity
  8
0
  6
Continuous
 62
     6
420
 16711935
370
     0
100
AcDbLine
 10
-8710.256044
 20
-8771.167193
 30
0.0
 11
-8710.256044
 21
-8763.167193
 31
0.0
  0
ARC
  5
68
330
1F
100
AcDbEntity
  8
0
  6
Continuous
 62
     6
420
 16711935
370
     0
100
AcDbCircle
 10
-8713.256044
 20
-8763.167193
 30
0.0
 40
2.999999999999948
100
AcDbArc
 50
0.0
 51
90.0
  0
ARC
  5
69
330
1F
100
AcDbEntity
  8
0
  6
Continuous
 62
     6
420
 16711935
370
     0
100
AcDbCircle
 10
-8742.507051
 20
-8763.167193
 30
0.0
 40
3.000000000000041
100
AcDbArc
 50
90.0
 51
175.0
  0
LINE
  5
6A
330
1F
100
AcDbEntity
  8
0
  6
Continuous
 62
     6
420
 16711935
370
     0
100
AcDbLine
 10
-8745.495635
 20
-8762.905726
 30
0.0
 11
-8760.920528
 21
-8939.213062
 31
0.0
  0
ARC
  5
6B
330
1F
100
AcDbEntity
  8
0
  6
Continuous
 62
     6
420
 16711935
370
     0
100
AcDbCircle
 10
-8772.874865
 20
-8938.167193
 30
0.0
 40
12.0
100
AcDbArc
 50
270.0
 51
355.0
  0
LINE
  5
6C
330
1F
100
AcDbEntity
  8
0
  6
Continuous
 62
     6
420
 16711935
370
     0
100
AcDbLine
 10
-8772.874865
 20
-8950.167193
 30
0.0
 11
-9407.637224
 21
-8950.167193
 31
0.0
  0
ARC
  5
6D
330
1F
100
AcDbEntity
  8
0
  6
Continuous
 62
     6
420
 16711935
370
     0
100
AcDbCircle
 10
-9407.637224
 20
-8938.167193
 30
0.0
 40
12.00000000000003
100
AcDbArc
 50
185.0
 51
270.0
  0
LINE
  5
6E
330
1F
100
AcDbEntity
  8
0
  6
Continuous
 62
     6
420
 16711935
370
     0
100
AcDbLine
 10
-9419.591561
 20
-8939.213062
 30
0.0
 11
-9435.016454
 21
-8762.905726
 31
0.0
  0
ARC
  5
6F
330
1F
100
AcDbEntity
  8
0
  6
Continuous
 62
     6
420
 16711935
370
     0
100
AcDbCircle
 10
-9438.005038
 20
-8763.167193
 30
0.0
 40
3.000000000000076
100
AcDbArc
 50
5.0
 51
90.0
  0
LINE
  5
70
330
1F
100
AcDbEntity
  8
0
  6
Continuous
 62
     6
420
 16711935
370
     0
100
AcDbLine
 10
-9438.005038
 20
-8760.167193
 30
0.0
 11
-9467.256044
 21
-8760.167193
 31
0.0
  0
ARC
  5
71
330
1F
100
AcDbEntity
  8
0
  6
Continuous
 62
     6
420
 16711935
370
     0
100
AcDbCircle
 10
-9467.256044
 20
-8763.167193
 30
0.0
 40
3.000000000000113
100
AcDbArc
 50
90.0
 51
180.0
  0
LINE
  5
72
330
1F
100
AcDbEntity
  8
0
  6
Continuous
 62
     6
420
 16711935
370
     0
100
AcDbLine
 10
-9470.256044
 20
-8763.167193
 30
0.0
 11
-9470.256044
 21
-8771.167193
 31
0.0
  0
LINE
  5
73
330
1F
100
AcDbEntity
  8
0
  6
Continuous
 62
     6
420
 16711935
370
     0
100
AcDbLine
 10
-9470.256044
 20
-8771.167193
 30
0.0
 11
-9463.256044
 21
-8771.167193
 31
0.0
  0
LINE
  5
74
330
1F
100
AcDbEntity
  8
0
  6
Continuous
 62
     6
420
 16711935
370
     0
100
AcDbLine
 10
-9463.256044
 20
-8771.167193
 30
0.0
 11
-9463.256044
 21
-8770.167193
 31
0.0
  0
LINE
  5
75
330
1F
100
AcDbEntity
  8
0
  6
Continuous
 62
     6
420
 16711935
370
     0
100
AcDbLine
 10
-9460.256044
 20
-8767.167193
 30
0.0
 11
-9447.16835
 21
-8767.167193
 31
0.0
  0
ARC
  5
76
330
1F
100
AcDbEntity
  8
0
  6
Continuous
 62
     6
420
 16711935
370
     0
100
AcDbCircle
 10
-9447.16835
 20
-8773.167193
 30
0.0
 40
5.999999999999906
100
AcDbArc
 50
5.0
 51
90.0
  0
LINE
  5
77
330
1F
100
AcDbEntity
  8
0
  6
Continuous
 62
     6
420
 16711935
370
     0
100
AcDbLine
 10
-9441.191181
 20
-8772.644259
 30
0.0
 11
-9426.564924
 21
-8939.823152
 31
0.0
  0
ARC
  5
78
330
1F
100
AcDbEntity
  8
0
  6
Continuous
 62
     6
420
 16711935
370
     0
100
AcDbCircle
 10
-9407.637224
 20
-8938.167193
 30
0.0
 40
18.99999999999996
100
AcDbArc
 50
185.0
 51
270.0
  0
LINE
  5
79
330
1F
100
AcDbEntity
  8
0
  6
Continuous
 62
     6
420
 16711935
370
     0
100
AcDbLine
 10
-9407.637224
 20
-8957.167193
 30
0.0
 11
-8772.874865
 21
-8957.167193
 31
0.0
  0
ARC
  5
7A
330
1F
100
AcDbEntity
  8
0
  6
Continuous
 62
     6
420
 16711935
370
     0
100
AcDbCircle
 10
-8772.874865
 20
-8938.167193
 30
0.0
 40
19.0
100
AcDbArc
 50
270.0
 51
355.0
  0
LINE
  5
7B
330
1F
100
AcDbEntity
  8
0
  6
Continuous
 62
     6
420
 16711935
370
     0
100
AcDbLine
 10
-8753.947165
 20
-8939.823152
 30
0.0
 11
-8739.320907
 21
-8772.644259
 31
0.0
  0
ARC
  5
7C
330
1F
100
AcDbEntity
  8
0
  6
Continuous
 62
     6
420
 16711935
370
     0
100
AcDbCircle
 10
-8733.343739
 20
-8773.167193
 30
0.0
 40
6.000000000000051
100
AcDbArc
 50
90.0
 51
175.0
  0
LINE
  5
7D
330
1F
100
AcDbEntity
  8
0
  6
Continuous
 62
     6
420
 16711935
370
     0
100
AcDbLine
 10
-8733.343739
 20
-8767.167193
 30
0.0
 11
-8720.256044
 21
-8767.167193
 31
0.0
  0
LINE
  5
7E
330
1F
100
AcDbEntity
  8
0
  6
Continuous
 62
     6
420
 16711935
370
     0
100
AcDbLine
 10
-8717.256044
 20
-8770.167193
 30
0.0
 11
-8717.256044
 21
-8771.167193
 31
0.0
  0
LINE
  5
7F
330
1F
100
AcDbEntity
  8
7
  6
Continuous
 62
     7
420
 16777215
370
     0
100
AcDbLine
 10
-8742.507051
 20
-8760.167193
 30
0.0
 11
-9438.005038
 21
-8760.167193
 31
0.0
  0
LINE
  5
80
330
1F
100
AcDbEntity
  8
0
  6
Continuous
 62
     4
420
    65535
370
     0
100
AcDbLine
 10
-9980.507509
 20
-10332.613599
 30
0.0
 11
-9980.507509
 21
-7694.792066
 31
0.0
  0
LINE
  5
81
330
1F
100
AcDbEntity
  8
0
  6
Continuous
 62
     4
420
    65535
370
     0
100
AcDbLine
 10
-9980.507509
 20
-7694.792066
 30
0.0
 11
-8156.127016
 21
-7694.792066
 31
0.0
  0
LINE
  5
82
330
1F
100
AcDbEntity
  8
0
  6
Continuous
 62
     4
420
    65535
370
     0
100
AcDbLine
 10
-8156.127016
 20
-7694.792066
 30
0.0
 11
-8156.127016
 21
-10332.613599
 31
0.0
  0
LINE
  5
83
330
1F
100
AcDbEntity
  8
0
  6
Continuous
 62
     4
420
    65535
370
     0
100
AcDbLine
 10
-8156.127016
 20
-10332.613599
 30
0.0
 11
-9980.507509
 21
-10332.613599
 31
0.0
  0
LINE
  5
84
330
1F
100
AcDbEntity
  8
0
  6
Continuous
 62
     6
420
 16711935
370
     0
100
AcDbLine
 10
-9454.542271
 20
-9358.587841
 30
0.0
 11
-8734.542271
 21
-9358.587841
 31
0.0
  0
LINE
  5
85
330
1F
100
AcDbEntity
  8
0
  6
Continuous
 62
     6
420
 16711935
370
     0
100
AcDbLine
 10
-8734.542271
 20
-9838.587841
 30
0.0
 11
-9454.542271
 21
-9838.587841
 31
0.0
  0
MTEXT
  5
A8
330
1F
100
AcDbEntity
  8
0
  6
Continuous
 62
     7
420
 16777215
370
     0
100
AcDbMText
 10
-8903.457031
 20
-9571.680664
 30
0.0
 40
52.799999
 41
0.0
 46
0.0
 71
     3
 72
     1
  1
{\fArial|b0|i0;Countertop}
  7
ANSI
 73
     2
 44
0.99598
  0
LINE
  5
A9
330
1F
100
AcDbEntity
  8
0
  6
Continuous
 62
     6
420
 16711935
370
     0
100
AcDbLine
 10
-9464.542271
 20
-9368.587841
 30
0.0
 11
-9464.542271
 21
-9828.587841
 31
0.0
  0
LINE
  5
AA
330
1F
100
AcDbEntity
  8
0
  6
Continuous
 62
     6
420
 16711935
370
     0
100
AcDbLine
 10
-8724.542271
 20
-9828.587841
 30
0.0
 11
-8724.542271
 21
-9368.587841
 31
0.0
  0
LINE
  5
AB
330
1F
100
AcDbEntity
  8
0
  6
Continuous
 62
     7
420
 16777215
370
     0
100
AcDbLine
 10
-9472.256044
 20
-8801.167203
 30
0.0
 11
-9472.256044
 21
-9077.167203
 31
0.0
  0
LINE
  5
AC
330
1F
100
AcDbEntity
  8
0
  6
Continuous
 62
     7
420
 16777215
370
     0
100
AcDbLine
 10
-9490.256044
 20
-9077.167203
 30
0.0
 11
-9490.256044
 21
-8801.167203
 31
0.0
  0
LINE
  5
AD
330
1F
100
AcDbEntity
  8
0
  6
Continuous
 62
     7
420
 16777215
370
     0
100
AcDbLine
 10
-9472.256044
 20
-9077.167203
 30
0.0
 11
-9490.256044
 21
-9077.167203
 31
0.0
  0
LINE
  5
AE
330
1F
100
AcDbEntity
  8
0
  6
Continuous
 62
     7
420
 16777215
370
     0
100
AcDbLine
 10
-9460.256044
 20
-8801.167203
 30
0.0
 11
-9545.671766
 21
-8801.167203
 31
0.0
  0
SPLINE
  5
AF
330
1F
100
AcDbEntity
  8
0
  6
Continuous
 62
     7
420
 16777215
370
     0
100
AcDbSpline
210
0.0
220
0.0
230
1.0
 70
     8
 71
     3
 72
     8
 73
     4
 74
     0
 42
0.0
 43
0.0
 40
0.0
 40
0.0
 40
0.0
 40
0.0
 40
1.0
 40
1.0
 40
1.0
 40
1.0
 10
-9545.671765795538
 20
-8801.167203304281
 30
0.0
 10
-9540.375111916444
 20
-8790.134295953798
 30
0.0
 10
-9547.068915923111
 20
-8778.708589154649
 30
0.0
 10
-9548.436204868507
 20
-8771.167203304281
 30
0.0
  0
LINE
  5
B0
330
1F
100
AcDbEntity
  8
0
  6
Continuous
 62
     7
420
 16777215
370
     0
100
AcDbLine
 10
-9460.256044
 20
-8771.167203
 30
0.0
 11
-9460.256044
 21
-8801.167203
 31
0.0
  0
LINE
  5
B1
330
1F
100
AcDbEntity
  8
0
  6
Continuous
 62
     7
420
 16777215
370
     0
100
AcDbLine
 10
-9472.256044
 20
-8801.167204
 30
0.0
 11
-9490.256044
 21
-8801.167203
 31
0.0
  0
LINE
  5
B2
330
1F
100
AcDbEntity
  8
0
  6
Continuous
 62
     7
420
 16777215
370
     0
100
AcDbLine
 10
-9548.436205
 20
-8771.167203
 30
0.0
 11
-9460.256044
 21
-8771.167203
 31
0.0
  0
LINE
  5
B3
330
1F
100
AcDbEntity
  8
0
  6
Continuous
 62
     7
420
 16777215
370
     0
100
AcDbLine
 10
-8708.256044
 20
-8801.167203
 30
0.0
 11
-8708.256044
 21
-9077.167203
 31
0.0
  0
LINE
  5
B4
330
1F
100
AcDbEntity
  8
0
  6
Continuous
 62
     7
420
 16777215
370
     0
100
AcDbLine
 10
-8690.256044
 20
-9077.167203
 30
0.0
 11
-8690.256044
 21
-8801.167203
 31
0.0
  0
LINE
  5
B5
330
1F
100
AcDbEntity
  8
0
  6
Continuous
 62
     7
420
 16777215
370
     0
100
AcDbLine
 10
-8708.256044
 20
-9077.167203
 30
0.0
 11
-8690.256044
 21
-9077.167203
 31
0.0
  0
LINE
  5
B6
330
1F
100
AcDbEntity
  8
0
  6
Continuous
 62
     7
420
 16777215
370
     0
100
AcDbLine
 10
-8720.256044
 20
-8801.167203
 30
0.0
 11
-8634.840323
 21
-8801.167203
 31
0.0
  0
SPLINE
  5
B7
330
1F
100
AcDbEntity
  8
0
  6
Continuous
 62
     7
420
 16777215
370
     0
100
AcDbSpline
210
0.0
220
0.0
230
1.0
 70
     8
 71
     3
 72
     8
 73
     4
 74
     0
 42
0.0
 43
0.0
 40
0.0
 40
0.0
 40
0.0
 40
0.0
 40
1.0
 40
1.0
 40
1.0
 40
1.0
 10
-8634.840323019962
 20
-8801.167203304281
 30
0.0
 10
-8640.136976899055
 20
-8790.134295953798
 30
0.0
 10
-8633.443172892388
 20
-8778.708589154649
 30
0.0
 10
-8632.075883946996
 20
-8771.167203304281
 30
0.0
  0
LINE
  5
B8
330
1F
100
AcDbEntity
  8
0
  6
Continuous
 62
     7
420
 16777215
370
     0
100
AcDbLine
 10
-8632.075884
 20
-8771.167203
 30
0.0
 11
-8720.256044
 21
-8771.167203
 31
0.0
  0
LINE
  5
B9
330
1F
100
AcDbEntity
  8
0
  6
Continuous
 62
     7
420
 16777215
370
     0
100
AcDbLine
 10
-8720.256044
 20
-8771.167203
 30
0.0
 11
-8720.256044
 21
-8801.167203
 31
0.0
  0
LINE
  5
BA
330
1F
100
AcDbEntity
  8
0
  6
Continuous
 62
     7
420
 16777215
370
     0
100
AcDbLine
 10
-9485.256044
 20
-8801.167203
 30
0.0
 11
-9467.256044
 21
-8801.167203
 31
0.0
  0
LINE
  5
BB
330
1F
100
AcDbEntity
  8
0
  6
Continuous
 62
     7
420
 16777215
370
     0
100
AcDbLine
 10
-8713.256044
 20
-8801.167203
 30
0.0
 11
-8695.256044
 21
-8801.167203
 31
0.0
  0
MTEXT
  5
BC
330
1F
100
AcDbEntity
  8
0
  6
Continuous
 62
     7
420
 16777215
370
     0
100
AcDbMText
 10
-9008.484375
 20
-9670.55957
 30
0.0
 40
52.799999
 41
0.0
 46
0.0
 71
     3
 72
     1
  1
{\W1.04;{\W1.0816;{\fArial|b0|i0;hole}}}
  7
ANSI
 73
     2
 44
0.99598
  0
LINE
  5
BD
330
1F
100
AcDbEntity
  8
0
  6
Continuous
 62
     7
420
 16777215
370
     0
100
AcDbLine
 10
-8708.256044
 20
-8801.167203
 30
0.0
 11
-8690.256044
 21
-8801.167203
 31
0.0
  0
MTEXT
  5
BE
330
1F
100
AcDbEntity
  8
0
  6
Continuous
 62
     7
420
 16777215
370
     0
100
AcDbMText
 10
-9391.258789
 20
-7316.608398
 30
0.0
 40
162.0
 41
0.0
 46
0.0
 71
     1
 72
     1
  1
{\W1.05;{\W1.1025;{\fArial|b0|i0;INCH}}}
  7
ANSI
 73
     2
 44
0.99598
  0
LINE
  5
BF
330
1F
100
AcDbEntity
  8
0
  6
Continuous
 62
     6
420
 16711935
370
     0
100
AcDbLine
 10
-8742.507051
 20
-8760.167193
 30
0.0
 11
-8713.256044
 21
-8760.167193
 31
0.0
  0
ARC
  5
C0
330
1F
100
AcDbEntity
  8
0
  6
Continuous
 62
     6
420
 16711935
370
     0
100
AcDbCircle
 10
-9460.256044
 20
-8770.167193
 30
0.0
 40
3.0
100
AcDbArc
 50
90.0
 51
180.0
  0
ARC
  5
C1
330
1F
100
AcDbEntity
  8
0
  6
Continuous
 62
     6
420
 16711935
370
     0
100
AcDbCircle
 10
-8720.256044
 20
-8770.167193
 30
0.0
 40
3.0
100
AcDbArc
 50
0.0
 51
90.0
  0
LINE
  5
C2
330
1F
100
AcDbEntity
  8
0
  6
Continuous
 62
     6
420
 16711935
370
     0
100
AcDbLine
 10
-9459.542271
 20
-8471.885832
 30
0.0
 11
-8709.542271
 21
-8471.885832
 31
0.0
  0
LINE
  5
C3
330
1F
100
AcDbEntity
  8
0
  6
Continuous
 62
     6
420
 16711935
370
     0
100
AcDbLine
 10
-8704.542271
 20
-8466.885832
 30
0.0
 11
-8704.542271
 21
-7971.885832
 31
0.0
  0
LINE
  5
C4
330
1F
100
AcDbEntity
  8
0
  6
Continuous
 62
     6
420
 16711935
370
     0
100
AcDbLine
 10
-9464.542271
 20
-7971.885832
 30
0.0
 11
-9464.542271
 21
-8466.885832
 31
0.0
  0
LINE
  5
C5
330
1F
100
AcDbEntity
  8
0
  6
Continuous
 62
     6
420
 16711935
370
     0
100
AcDbLine
 10
-8709.542271
 20
-7966.885832
 30
0.0
 11
-9459.542271
 21
-7966.885832
 31
0.0
  0
CIRCLE
  5
C6
330
1F
100
AcDbEntity
  8
0
  6
Continuous
 62
     7
420
 16777215
370
     0
100
AcDbCircle
 10
-9084.541874
 20
-8129.765619
 30
0.0
 40
55.0
  0
LINE
  5
C8
330
1F
100
AcDbEntity
  8
0
  6
CENTER2
 62
     1
420
 16711680
370
     0
100
AcDbLine
 10
-9084.542271
 20
-8069.765832
 30
0.0
 11
-9084.542271
 21
-8189.765832
 31
0.0
  0
LINE
  5
C9
330
1F
100
AcDbEntity
  8
0
  6
CENTER2
 62
     1
420
 16711680
370
     0
100
AcDbLine
 10
-9024.542271
 20
-8129.765832
 30
0.0
 11
-9144.542271
 21
-8129.765832
 31
0.0
  0
CIRCLE
  5
CA
330
1F
100
AcDbEntity
  8
0
  6
Continuous
 62
     7
420
 16777215
370
     0
100
AcDbCircle
 10
-9084.542271
 20
-8129.765832
 30
0.0
 40
37.99999999999959
  0
CIRCLE
  5
CC
330
1F
100
AcDbEntity
  8
0
  6
HIDDEN2
 62
     7
420
 16777215
370
     0
100
AcDbCircle
 10
-9084.542271
 20
-8001.885832
 30
0.0
 40
17.0
  0
CIRCLE
  5
CD
330
1F
100
AcDbEntity
  8
0
  6
HIDDEN2
 62
     7
420
 16777215
370
     0
100
AcDbCircle
 10
-9214.542271
 20
-8001.885832
 30
0.0
 40
17.0
  0
CIRCLE
  5
CE
330
1F
100
AcDbEntity
  8
0
  6
HIDDEN2
 62
     7
420
 16777215
370
     0
100
AcDbCircle
 10
-8954.542271
 20
-8001.885832
 30
0.0
 40
17.0
  0
ARC
  5
CF
330
1F
100
AcDbEntity
  8
0
  6
Continuous
 62
     6
420
 16711935
370
     0
100
AcDbCircle
 10
-9459.542271
 20
-8466.885832
 30
0.0
 40
5.0
100
AcDbArc
 50
180.0
 51
270.0
  0
ARC
  5
D0
330
1F
100
AcDbEntity
  8
0
  6
Continuous
 62
     6
420
 16711935
370
     0
100
AcDbCircle
 10
-9459.542271
 20
-7971.885832
 30
0.0
 40
5.0
100
AcDbArc
 50
90.0
 51
180.0
  0
ARC
  5
D1
330
1F
100
AcDbEntity
  8
0
  6
Continuous
 62
     6
420
 16711935
370
     0
100
AcDbCircle
 10
-8709.542271
 20
-7971.885832
 30
0.0
 40
5.0
100
AcDbArc
 50
0.0
 51
90.0
  0
ARC
  5
D2
330
1F
100
AcDbEntity
  8
0
  6
Continuous
 62
     6
420
 16711935
370
     0
100
AcDbCircle
 10
-8709.542271
 20
-8466.885832
 30
0.0
 40
5.0
100
AcDbArc
 50
270.0
 51
0.0
  0
LINE
  5
D3
330
1F
100
AcDbEntity
  8
0
  6
Continuous
 62
     6
420
 16711935
370
     0
100
AcDbLine
 10
-9429.542271
 20
-8431.885832
 30
0.0
 11
-9429.542271
 21
-8041.885832
 31
0.0
  0
LINE
  5
D4
330
1F
100
AcDbEntity
  8
0
  6
Continuous
 62
     6
420
 16711935
370
     0
100
AcDbLine
 10
-9424.542271
 20
-8036.885832
 30
0.0
 11
-8744.542271
 21
-8036.885832
 31
0.0
  0
LINE
  5
D5
330
1F
100
AcDbEntity
  8
0
  6
Continuous
 62
     6
420
 16711935
370
     0
100
AcDbLine
 10
-8739.542271
 20
-8041.885832
 30
0.0
 11
-8739.542271
 21
-8431.885832
 31
0.0
  0
LINE
  5
D6
330
1F
100
AcDbEntity
  8
0
  6
Continuous
 62
     6
420
 16711935
370
     0
100
AcDbLine
 10
-8744.542271
 20
-8436.885832
 30
0.0
 11
-9424.542271
 21
-8436.885832
 31
0.0
  0
ARC
  5
D7
330
1F
100
AcDbEntity
  8
0
  6
Continuous
 62
     6
420
 16711935
370
     0
100
AcDbCircle
 10
-9424.542271
 20
-8041.885832
 30
0.0
 40
5.0
100
AcDbArc
 50
90.0
 51
180.0
  0
ARC
  5
D8
330
1F
100
AcDbEntity
  8
0
  6
Continuous
 62
     6
420
 16711935
370
     0
100
AcDbCircle
 10
-9424.542271
 20
-8431.885832
 30
0.0
 40
5.0
100
AcDbArc
 50
180.0
 51
270.0
  0
ARC
  5
D9
330
1F
100
AcDbEntity
  8
0
  6
Continuous
 62
     6
420
 16711935
370
     0
100
AcDbCircle
 10
-8744.542271
 20
-8431.885832
 30
0.0
 40
5.0
100
AcDbArc
 50
270.0
 51
0.0
  0
ARC
  5
DA
330
1F
100
AcDbEntity
  8
0
  6
Continuous
 62
     6
420
 16711935
370
     0
100
AcDbCircle
 10
-8744.542271
 20
-8041.885832
 30
0.0
 40
5.0
100
AcDbArc
 50
0.0
 51
90.0
  0
LINE
  5
DB
330
1F
100
AcDbEntity
  8
0
  6
Continuous
 62
     1
420
 16711680
370
     0
100
AcDbLine
 10
-8779.422271
 20
-8064.765832
 30
0.0
 11
-9389.662271
 21
-8064.765832
 31
0.0
  0
LINE
  5
DC
330
1F
100
AcDbEntity
  8
0
  6
Continuous
 62
     1
420
 16711680
370
     0
100
AcDbLine
 10
-9401.662271
 20
-8076.765832
 30
0.0
 11
-9401.662271
 21
-8397.005832
 31
0.0
  0
LINE
  5
DD
330
1F
100
AcDbEntity
  8
0
  6
Continuous
 62
     1
420
 16711680
370
     0
100
AcDbLine
 10
-9389.662271
 20
-8409.005832
 30
0.0
 11
-8779.422271
 21
-8409.005832
 31
0.0
  0
LINE
  5
DE
330
1F
100
AcDbEntity
  8
0
  6
Continuous
 62
     1
420
 16711680
370
     0
100
AcDbLine
 10
-8767.422271
 20
-8397.005832
 30
0.0
 11
-8767.422271
 21
-8076.765832
 31
0.0
  0
ARC
  5
DF
330
1F
100
AcDbEntity
  8
0
  6
Continuous
 62
     1
420
 16711680
370
     0
100
AcDbCircle
 10
-9389.662271
 20
-8076.765832
 30
0.0
 40
12.0
100
AcDbArc
 50
90.0
 51
180.0
  0
ARC
  5
E0
330
1F
100
AcDbEntity
  8
0
  6
Continuous
 62
     1
420
 16711680
370
     0
100
AcDbCircle
 10
-9389.662271
 20
-8397.005832
 30
0.0
 40
12.0
100
AcDbArc
 50
180.0
 51
270.0
  0
ARC
  5
E1
330
1F
100
AcDbEntity
  8
0
  6
Continuous
 62
     1
420
 16711680
370
     0
100
AcDbCircle
 10
-8779.422271
 20
-8397.005832
 30
0.0
 40
12.0
100
AcDbArc
 50
270.0
 51
0.0
  0
ARC
  5
E2
330
1F
100
AcDbEntity
  8
0
  6
Continuous
 62
     1
420
 16711680
370
     0
100
AcDbCircle
 10
-8779.422271
 20
-8076.765832
 30
0.0
 40
12.0
100
AcDbArc
 50
0.0
 51
90.0
  0
LINE
  5
E3
330
1F
100
AcDbEntity
  8
0
  6
Continuous
 62
     4
420
    65535
370
     0
100
AcDbLine
 10
-8166.127016
 20
-7704.792066
 30
0.0
 11
-9970.507509
 21
-7704.792066
 31
0.0
  0
LINE
  5
E4
330
1F
100
AcDbEntity
  8
0
  6
Continuous
 62
     4
420
    65535
370
     0
100
AcDbLine
 10
-9970.507509
 20
-7704.792066
 30
0.0
 11
-9970.507509
 21
-10322.613599
 31
0.0
  0
LINE
  5
E5
330
1F
100
AcDbEntity
  8
0
  6
Continuous
 62
     4
420
    65535
370
     0
100
AcDbLine
 10
-9970.507509
 20
-10322.613599
 30
0.0
 11
-8166.127016
 21
-10322.613599
 31
0.0
  0
LINE
  5
E6
330
1F
100
AcDbEntity
  8
0
  6
Continuous
 62
     4
420
    65535
370
     0
100
AcDbLine
 10
-8166.127016
 20
-10322.613599
 30
0.0
 11
-8166.127016
 21
-7704.792066
 31
0.0
  0
ARC
  5
E7
330
1F
100
AcDbEntity
  8
0
  6
Continuous
 62
     6
420
 16711935
370
     0
100
AcDbCircle
 10
-9454.542271
 20
-9368.587841
 30
0.0
 40
10.0
100
AcDbArc
 50
90.0
 51
180.0
  0
ARC
  5
E8
330
1F
100
AcDbEntity
  8
0
  6
Continuous
 62
     6
420
 16711935
370
     0
100
AcDbCircle
 10
-8734.542271
 20
-9368.587841
 30
0.0
 40
10.0
100
AcDbArc
 50
0.0
 51
90.0
  0
ARC
  5
E9
330
1F
100
AcDbEntity
  8
0
  6
Continuous
 62
     6
420
 16711935
370
     0
100
AcDbCircle
 10
-8734.542271
 20
-9828.587841
 30
0.0
 40
10.0
100
AcDbArc
 50
270.0
 51
0.0
  0
ARC
  5
EA
330
1F
100
AcDbEntity
  8
0
  6
Continuous
 62
     6
420
 16711935
370
     0
100
AcDbCircle
 10
-9454.542271
 20
-9828.587841
 30
0.0
 40
10.0
100
AcDbArc
 50
180.0
 51
270.0
  0
INSERT
  5
F5
330
1F
100
AcDbEntity
  8
0
  6
Continuous
 62
     7
420
 16777215
370
     0
100
AcDbBlockReference
  2
.TD_DIMENSION_1
 10
-19020.572266
 20
-19009.902344
 30
0.0
  0
MTEXT
  5
F6
330
1F
100
AcDbEntity
  8
0
  6
Continuous
 62
     7
420
 16777215
370
     0
100
AcDbMText
 10
-8585.060547
 20
-7742.141113
 30
0.0
 40
72.900002
 41
0.0
 46
0.0
 71
     1
 72
     1
  1
{\fArial|b0|i0;ON7610}
  7
ANSI
 73
     2
 44
0.99598
  0
DIMENSION
  5
F7
330
1F
100
AcDbEntity
  8
0
  6
Continuous
 62
     7
420
 16777215
370
     0
100
AcDbDimension
280
     0
  2
*D3
 10
-8690.256044
 20
-9199.250977
 30
0.0
 11
-8889.505859
 21
-9199.250977
 31
0.0
 70
   161
  1
\fArial|b0|i0|c0|p0;{\fArial|b0|i0;CABINET 31 1/2"}
 71
     5
 42
800.0
 73
     0
 74
     0
 75
     0
  3
ISO-25
100
AcDbAlignedDimension
 13
-9490.256044
 23
-9077.167203
 33
0.0
 14
-8690.256044
 24
-9077.167203
 34
0.0
1001
ACAD
1000
DSTYLE
1002
{
1070
   279
1070
     0
1070
    41
1040
35.0
1070
   342
1005
5B
1070
   176
1070
     7
1070
   177
1070
     7
1070
   178
1070
     2
1070
   278
1070
    46
1070
    44
1040
20.0
1070
    42
1040
50.0
1070
   147
1040
25.0
1070
   272
1070
     3
1070
   146
1040
0.4
1070
   140
1040
50.0
1002
}
  0
DIMENSION
  5
104
330
1F
100
AcDbEntity
  8
0
  6
Continuous
 62
     7
420
 16777215
370
     0
100
AcDbDimension
280
     0
  2
*D4
 10
-8598.261719
 20
-9358.587841
 30
0.0
 11
-8646.011719
 21
-9598.587841
 31
0.0
 70
    33
  1
\fArial|b0|i0|c0|p0;{\fArial|b0|i0;480 (18 7/8")}
 71
     5
 42
480.0
 73
     0
 74
     0
 75
     0
  3
ISO-25
100
AcDbAlignedDimension
 13
-8724.542271
 23
-9838.587841
 33
0.0
 14
-8724.542271
 24
-9358.587841
 34
0.0
1001
ACAD
1000
DSTYLE
1002
{
1070
    41
1040
35.0
1070
   342
1005
5B
1070
   176
1070
     7
1070
   177
1070
     7
1070
   178
1070
     2
1070
   271
1070
     0
1070
   278
1070
    46
1070
    44
1040
20.0
1070
    42
1040
15.0
1070
   147
1040
15.000001
1070
    45
1040
1.0
1070
   272
1070
     3
1070
   146
1040
0.4
1070
   140
1040
50.0
1070
   284
1070
    12
1070
    78
1070
    12
1002
}
  0
DIMENSION
  5
111
330
1F
100
AcDbEntity
  8
0
  6
Continuous
 62
     7
420
 16777215
370
     0
100
AcDbDimension
280
     0
  2
*D5
 10
-8704.542271
 20
-7835.525391
 30
0.0
 11
-9084.542271
 21
-7777.775391
 31
0.0
 70
    33
  1
\fArial|b0|i0|c0|p0;{\fArial|b0|i0;760 (29 15/16")}
 71
     5
 42
760.0
 73
     0
 74
     0
 75
     0
  3
ISO-25
100
AcDbAlignedDimension
 13
-9464.542271
 23
-7971.885832
 33
0.0
 14
-8704.542271
 24
-7971.885832
 34
0.0
1001
ACAD
1000
DSTYLE
1002
{
1070
    41
1040
35.0
1070
   342
1005
5B
1070
   176
1070
     7
1070
   177
1070
     7
1070
   178
1070
     2
1070
   278
1070
    46
1070
    44
1040
20.0
1070
    42
1040
50.0
1070
   147
1040
25.0
1070
   272
1070
     3
1070
   146
1040
0.4
1070
   140
1040
50.0
1002
}
  0
DIMENSION
  5
11E
330
1F
100
AcDbEntity
  8
0
  6
Continuous
 62
     7
420
 16777215
370
     0
100
AcDbDimension
280
     0
  2
*D6
 10
-8739.781862
 20
-8582.280273
 30
0.0
 11
-9084.155818
 21
-8524.530273
 31
0.0
 70
    32
  1
\fArial|b0|i0|c0|p0;{\fArial|b0|i0;690 (27 3/16")}
 71
     5
 42
688.747912
 73
     0
 74
     0
 75
     0
  3
ISO-25
100
AcDbAlignedDimension
 13
-9428.529774
 23
-8431.680172
 33
0.0
 14
-8739.781862
 24
-8432.587281
 34
0.0
100
AcDbRotatedDimension
1001
ACAD
1000
DSTYLE
1002
{
1070
    41
1040
35.0
1070
   342
1005
5B
1070
   176
1070
     7
1070
   177
1070
     7
1070
   178
1070
     2
1070
   278
1070
    46
1070
    44
1040
20.0
1070
    42
1040
75.0
1070
   147
1040
25.0
1070
   272
1070
     3
1070
   146
1040
0.4
1070
   140
1040
50.0
1002
}
  0
DIMENSION
  5
12B
330
1F
100
AcDbEntity
  8
0
  6
Continuous
 62
     7
420
 16777215
370
     0
100
AcDbDimension
280
     0
  2
*D7
 10
-8724.542271
 20
-9970.633789
 30
0.0
 11
-8966.041992
 21
-9970.633789
 31
0.0
 70
   161
  1
\fArial|b0|i0|c0|p0;{\fArial|b0|i0;740 (29 1/8")}
 71
     5
 42
740.0
 73
     0
 74
     0
 75
     0
  3
ISO-25
100
AcDbAlignedDimension
 13
-9464.542271
 23
-9838.587841
 33
0.0
 14
-8724.542271
 24
-9838.587841
 34
0.0
1001
ACAD
1000
DSTYLE
1002
{
1070
   279
1070
     0
1070
    41
1040
35.0
1070
   342
1005
5B
1070
   176
1070
     7
1070
   177
1070
     7
1070
   178
1070
     2
1070
   278
1070
    46
1070
    44
1040
20.0
1070
    42
1040
75.0
1070
   147
1040
15.000001
1070
   272
1070
     3
1070
   146
1040
0.4
1070
   140
1040
50.0
1002
}
  0
INSERT
  5
140
330
1F
100
AcDbEntity
  8
0
  6
Continuous
 62
     7
420
 16777215
370
     0
100
AcDbBlockReference
  2
.TD_DIMENSION_2
 10
-8666.519531
 20
-8541.885742
 30
0.0
  0
DIMENSION
  5
143
330
1F
100
AcDbEntity
  8
0
  6
Continuous
 62
     7
420
 16777215
370
     0
100
AcDbDimension
280
     0
  2
*D9
 10
-9566.509766
 20
-8436.646242
 30
0.0
 11
-9566.509766
 21
-8149.885742
 31
0.0
 70
   161
  1
\fArial|b0|i0|c0|p0;{\fArial|b0|i0;395 (15 9/16")}
 71
     5
 42
399.520819
 73
     0
 74
     0
 75
     0
  3
ISO-25
100
AcDbAlignedDimension
 13
-9424.30268
 23
-8037.125423
 33
0.0
 14
-9424.30268
 24
-8436.646242
 34
0.0
1001
ACAD
1000
DSTYLE
1002
{
1070
   280
1070
     0
1070
   344
1005
0
1070
   343
1005
0
1070
    76
1070
     0
1070
    75
1070
     0
1070
   279
1070
     0
1070
    41
1040
35.0
1070
   342
1005
5B
1070
   176
1070
     7
1070
   177
1070
     7
1070
   178
1070
     2
1070
   278
1070
    46
1070
    44
1040
20.0
1070
    42
1040
75.0
1070
   147
1040
25.0
1070
   272
1070
     3
1070
   146
1040
0.4
1070
   140
1040
50.0
1002
}
  0
ENDSEC
  0
SECTION
  2
OBJECTS
  0
DICTIONARY
  5
C
330
0
100
AcDbDictionary
281
     1
  3
ACAD_GROUP
350
D
  3
ACAD_LAYOUT
350
1A
  3
ACAD_MATERIAL
350
3B
  3
ACAD_MLEADERSTYLE
350
153
  3
ACAD_MLINESTYLE
350
17
  3
ACAD_PLOTSETTINGS
350
19
  3
ACAD_PLOTSTYLENAME
350
E
  3
ACAD_SCALELIST
350
86
  3
ACAD_TABLESTYLE
350
152
  3
ACAD_VISUALSTYLE
350
2A
  3
AcDbVariableDictionary
350
150
  0
DICTIONARY
  5
D
102
{ACAD_REACTORS
330
C
102
}
330
C
100
AcDbDictionary
281
     1
  0
DICTIONARY
  5
1A
102
{ACAD_REACTORS
330
C
102
}
330
C
100
AcDbDictionary
281
     1
  3
Layout1
350
1E
  3
Layout2
350
26
  3
Model
350
22
  0
DICTIONARY
  5
3B
102
{ACAD_REACTORS
330
C
102
}
330
C
100
AcDbDictionary
281
     1
  3
ByBlock
350
3D
  3
ByLayer
350
3C
  3
Global
350
3E
  0
DICTIONARY
  5
153
102
{ACAD_REACTORS
330
C
102
}
330
C
100
AcDbDictionary
281
     1
  0
DICTIONARY
  5
17
102
{ACAD_REACTORS
330
C
102
}
330
C
100
AcDbDictionary
281
     1
  3
Standard
350
18
  0
DICTIONARY
  5
19
102
{ACAD_REACTORS
330
C
102
}
330
C
100
AcDbDictionary
281
     1
  0
ACDBDICTIONARYWDFLT
  5
E
102
{ACAD_REACTORS
330
C
102
}
330
C
100
AcDbDictionary
281
     1
  3
Normal
350
F
100
AcDbDictionaryWithDefault
340
F
  0
DICTIONARY
  5
86
102
{ACAD_REACTORS
330
C
102
}
330
C
100
AcDbDictionary
281
     1
  3
A0
350
87
  3
A1
350
88
  3
A2
350
89
  3
A3
350
8A
  3
A4
350
8B
  3
A5
350
8C
  3
A6
350
8D
  3
A7
350
8E
  3
A8
350
8F
  3
A9
350
90
  3
B0
350
91
  3
B1
350
92
  3
B2
350
93
  3
B3
350
94
  3
B4
350
95
  3
B5
350
96
  3
B6
350
97
  3
B7
350
98
  3
B8
350
99
  3
B9
350
9A
  3
C0
350
9B
  3
C1
350
9C
  3
C2
350
9D
  3
C3
350
9E
  3
C4
350
9F
  3
C5
350
A0
  3
C6
350
A1
  3
C7
350
A2
  3
C8
350
A3
  3
C9
350
A4
  3
D0
350
A5
  3
D1
350
A6
  3
D2
350
A7
  0
DICTIONARY
  5
152
102
{ACAD_REACTORS
330
C
102
}
330
C
100
AcDbDictionary
281
     1
  0
DICTIONARY
  5
2A
102
{ACAD_REACTORS
330
C
102
}
330
C
100
AcDbDictionary
281
     1
  3
2dWireframe
350
2F
  3
3D Hidden
350
31
  3
3dWireframe
350
30
  3
Basic
350
32
  3
Brighten
350
36
  3
ColorChange
350
3A
  3
Conceptual
350
34
  3
Dim
350
35
  3
Facepattern
350
39
  3
Flat
350
2B
  3
FlatWithEdges
350
2C
  3
Gouraud
350
2D
  3
GouraudWithEdges
350
2E
  3
Linepattern
350
38
  3
Realistic
350
33
  3
Thicken
350
37
  0
DICTIONARY
  5
150
102
{ACAD_REACTORS
330
C
102
}
330
C
100
AcDbDictionary
281
     1
  3
CANNOSCALE
350
151
  0
LAYOUT
  5
1E
102
{ACAD_REACTORS
330
1A
102
}
330
1A
100
AcDbPlotSettings
  1

  2
none_device
  4

  6

 40
0.0
 41
0.0
 42
0.0
 43
0.0
 44
0.0
 45
0.0
 46
0.0
 47
0.0
 48
0.0
 49
0.0
140
0.0
141
0.0
142
1.0
143
1.0
 70
   688
 72
     0
 73
     0
 74
     5
  7

 75
    16
 76
     0
 77
     2
 78
   300
147
1.0
148
0.0
149
0.0
100
AcDbLayout
  1
Layout1
 70
     1
 71
     1
 10
0.0
 20
0.0
 11
420.0
 21
297.0
 12
0.0
 22
0.0
 32
0.0
 14
1.000000E+20
 24
1.000000E+20
 34
1.000000E+20
 15
-1.000000E+20
 25
-1.000000E+20
 35
-1.000000E+20
146
0.0
 13
0.0
 23
0.0
 33
0.0
 16
1.0
 26
0.0
 36
0.0
 17
0.0
 27
1.0
 37
0.0
 76
     0
330
1B
  0
LAYOUT
  5
26
102
{ACAD_REACTORS
330
1A
102
}
330
1A
100
AcDbPlotSettings
  1

  2
none_device
  4

  6

 40
0.0
 41
0.0
 42
0.0
 43
0.0
 44
0.0
 45
0.0
 46
0.0
 47
0.0
 48
0.0
 49
0.0
140
0.0
141
0.0
142
1.0
143
1.0
 70
   688
 72
     0
 73
     0
 74
     5
  7

 75
    16
 76
     0
 77
     2
 78
   300
147
1.0
148
0.0
149
0.0
100
AcDbLayout
  1
Layout2
 70
     1
 71
     2
 10
0.0
 20
0.0
 11
0.0
 21
0.0
 12
0.0
 22
0.0
 32
0.0
 14
0.0
 24
0.0
 34
0.0
 15
0.0
 25
0.0
 35
0.0
146
0.0
 13
0.0
 23
0.0
 33
0.0
 16
1.0
 26
0.0
 36
0.0
 17
0.0
 27
1.0
 37
0.0
 76
     0
330
23
  0
LAYOUT
  5
22
102
{ACAD_REACTORS
330
1A
102
}
330
1A
100
AcDbPlotSettings
  1

  2
none_device
  4

  6

 40
0.0
 41
0.0
 42
0.0
 43
0.0
 44
0.0
 45
0.0
 46
0.0
 47
0.0
 48
0.0
 49
0.0
140
0.0
141
0.0
142
1.0
143
1.0
 70
  1712
 72
     0
 73
     0
 74
     0
  7

 75
     0
 76
     0
 77
     2
 78
   300
147
1.0
148
0.0
149
0.0
100
AcDbLayout
  1
Model
 70
     1
 71
     0
 10
0.0
 20
0.0
 11
420.0
 21
297.0
 12
0.0
 22
0.0
 32
0.0
 14
1.000000E+20
 24
1.000000E+20
 34
1.000000E+20
 15
-1.000000E+20
 25
-1.000000E+20
 35
-1.000000E+20
146
0.0
 13
0.0
 23
0.0
 33
0.0
 16
1.0
 26
0.0
 36
0.0
 17
0.0
 27
1.0
 37
0.0
 76
     0
330
1F
331
29
  0
MATERIAL
  5
3D
102
{ACAD_REACTORS
330
3B
102
}
330
3B
100
AcDbMaterial
  1
ByBlock
 72
     1
 94
      127
  0
MATERIAL
  5
3C
102
{ACAD_REACTORS
330
3B
102
}
330
3B
100
AcDbMaterial
  1
ByLayer
 72
     1
 94
      127
  0
MATERIAL
  5
3E
102
{ACAD_REACTORS
330
3B
102
}
330
3B
100
AcDbMaterial
  1
Global
 72
     1
 94
      127
  0
MLINESTYLE
  5
18
102
{ACAD_REACTORS
330
17
102
}
330
17
100
AcDbMlineStyle
  2
Standard
 70
     0
  3

 62
   256
 51
90.0
 52
90.0
 71
     2
 49
0.5
 62
   256
  6
BYLAYER
 49
-0.5
 62
   256
  6
BYLAYER
  0
ACDBPLACEHOLDER
  5
F
102
{ACAD_REACTORS
330
E
102
}
330
E
  0
SCALE
  5
87
102
{ACAD_REACTORS
330
86
102
}
330
86
100
AcDbScale
 70
     0
300
1:1
140
1.0
141
1.0
290
     1
  0
SCALE
  5
88
102
{ACAD_REACTORS
330
86
102
}
330
86
100
AcDbScale
 70
     0
300
1:2
140
1.0
141
2.0
290
     0
  0
SCALE
  5
89
102
{ACAD_REACTORS
330
86
102
}
330
86
100
AcDbScale
 70
     0
300
1:4
140
1.0
141
4.0
290
     0
  0
SCALE
  5
8A
102
{ACAD_REACTORS
330
86
102
}
330
86
100
AcDbScale
 70
     0
300
1:5
140
1.0
141
5.0
290
     0
  0
SCALE
  5
8B
102
{ACAD_REACTORS
330
86
102
}
330
86
100
AcDbScale
 70
     0
300
1:8
140
1.0
141
8.0
290
     0
  0
SCALE
  5
8C
102
{ACAD_REACTORS
330
86
102
}
330
86
100
AcDbScale
 70
     0
300
1:10
140
1.0
141
10.0
290
     0
  0
SCALE
  5
8D
102
{ACAD_REACTORS
330
86
102
}
330
86
100
AcDbScale
 70
     0
300
1:16
140
1.0
141
16.0
290
     0
  0
SCALE
  5
8E
102
{ACAD_REACTORS
330
86
102
}
330
86
100
AcDbScale
 70
     0
300
1:20
140
1.0
141
20.0
290
     0
  0
SCALE
  5
8F
102
{ACAD_REACTORS
330
86
102
}
330
86
100
AcDbScale
 70
     0
300
1:30
140
1.0
141
30.0
290
     0
  0
SCALE
  5
90
102
{ACAD_REACTORS
330
86
102
}
330
86
100
AcDbScale
 70
     0
300
1:40
140
1.0
141
40.0
290
     0
  0
SCALE
  5
91
102
{ACAD_REACTORS
330
86
102
}
330
86
100
AcDbScale
 70
     0
300
1:50
140
1.0
141
50.0
290
     0
  0
SCALE
  5
92
102
{ACAD_REACTORS
330
86
102
}
330
86
100
AcDbScale
 70
     0
300
1:100
140
1.0
141
100.0
290
     0
  0
SCALE
  5
93
102
{ACAD_REACTORS
330
86
102
}
330
86
100
AcDbScale
 70
     0
300
2:1
140
2.0
141
1.0
290
     0
  0
SCALE
  5
94
102
{ACAD_REACTORS
330
86
102
}
330
86
100
AcDbScale
 70
     0
300
4:1
140
4.0
141
1.0
290
     0
  0
SCALE
  5
95
102
{ACAD_REACTORS
330
86
102
}
330
86
100
AcDbScale
 70
     0
300
8:1
140
8.0
141
1.0
290
     0
  0
SCALE
  5
96
102
{ACAD_REACTORS
330
86
102
}
330
86
100
AcDbScale
 70
     0
300
10:1
140
10.0
141
1.0
290
     0
  0
SCALE
  5
97
102
{ACAD_REACTORS
330
86
102
}
330
86
100
AcDbScale
 70
     0
300
100:1
140
100.0
141
1.0
290
     0
  0
SCALE
  5
98
102
{ACAD_REACTORS
330
86
102
}
330
86
100
AcDbScale
 70
     0
300
1/128" = 1'-0"
140
0.007812
141
12.0
290
     0
  0
SCALE
  5
99
102
{ACAD_REACTORS
330
86
102
}
330
86
100
AcDbScale
 70
     0
300
1/64" = 1'-0"
140
0.015625
141
12.0
290
     0
  0
SCALE
  5
9A
102
{ACAD_REACTORS
330
86
102
}
330
86
100
AcDbScale
 70
     0
300
1/32" = 1'-0"
140
0.03125
141
12.0
290
     0
  0
SCALE
  5
9B
102
{ACAD_REACTORS
330
86
102
}
330
86
100
AcDbScale
 70
     0
300
1/16" = 1'-0"
140
0.0625
141
12.0
290
     0
  0
SCALE
  5
9C
102
{ACAD_REACTORS
330
86
102
}
330
86
100
AcDbScale
 70
     0
300
3/32" = 1'-0"
140
0.09375
141
12.0
290
     0
  0
SCALE
  5
9D
102
{ACAD_REACTORS
330
86
102
}
330
86
100
AcDbScale
 70
     0
300
1/8" = 1'-0"
140
0.125
141
12.0
290
     0
  0
SCALE
  5
9E
102
{ACAD_REACTORS
330
86
102
}
330
86
100
AcDbScale
 70
     0
300
3/16" = 1'-0"
140
0.1875
141
12.0
290
     0
  0
SCALE
  5
9F
102
{ACAD_REACTORS
330
86
102
}
330
86
100
AcDbScale
 70
     0
300
1/4" = 1'-0"
140
0.25
141
12.0
290
     0
  0
SCALE
  5
A0
102
{ACAD_REACTORS
330
86
102
}
330
86
100
AcDbScale
 70
     0
300
3/8" = 1'-0"
140
0.375
141
12.0
290
     0
  0
SCALE
  5
A1
102
{ACAD_REACTORS
330
86
102
}
330
86
100
AcDbScale
 70
     0
300
1/2" = 1'-0"
140
0.5
141
12.0
290
     0
  0
SCALE
  5
A2
102
{ACAD_REACTORS
330
86
102
}
330
86
100
AcDbScale
 70
     0
300
3/4" = 1'-0"
140
0.75
141
12.0
290
     0
  0
SCALE
  5
A3
102
{ACAD_REACTORS
330
86
102
}
330
86
100
AcDbScale
 70
     0
300
1" = 1'-0"
140
1.0
141
12.0
290
     0
  0
SCALE
  5
A4
102
{ACAD_REACTORS
330
86
102
}
330
86
100
AcDbScale
 70
     0
300
1-1/2" = 1'-0"
140
1.5
141
12.0
290
     0
  0
SCALE
  5
A5
102
{ACAD_REACTORS
330
86
102
}
330
86
100
AcDbScale
 70
     0
300
3" = 1'-0"
140
3.0
141
12.0
290
     0
  0
SCALE
  5
A6
102
{ACAD_REACTORS
330
86
102
}
330
86
100
AcDbScale
 70
     0
300
6" = 1'-0"
140
6.0
141
12.0
290
     0
  0
SCALE
  5
A7
102
{ACAD_REACTORS
330
86
102
}
330
86
100
AcDbScale
 70
     0
300
1'-0" = 1'-0"
140
12.0
141
12.0
290
     0
  0
VISUALSTYLE
  5
2F
102
{ACAD_REACTORS
330
2A
102
}
330
2A
100
AcDbVisualStyle
  2
2dWireframe
 70
     4
177
     2
291
     0
 71
     0
176
     1
 72
     2
176
     1
 73
     0
176
     1
 90
        0
176
     1
 40
-0.6
176
     1
 41
-30.0
176
     1
 62
     5
 63
     7
421
 16777215
176
     1
 74
     1
176
     1
 91
        4
176
     1
 64
     7
176
     1
 65
   257
176
     1
 75
     1
176
     1
175
     1
176
     1
 42
1.0
176
     1
 92
        0
176
     1
 66
   257
176
     1
 43
1.0
176
     1
 76
     1
176
     1
 77
     6
176
     1
 78
     2
176
     1
 67
     7
176
     1
 79
     5
176
     1
170
     0
176
     1
171
     0
176
     1
290
     0
176
     1
 93
        1
176
     1
 44
0.0
176
     1
173
     0
176
     1
  0
VISUALSTYLE
  5
31
102
{ACAD_REACTORS
330
2A
102
}
330
2A
100
AcDbVisualStyle
  2
3D Hidden
 70
     6
177
     2
291
     0
 71
     1
176
     1
 72
     2
176
     1
 73
     2
176
     1
 90
        0
176
     1
 40
-0.6
176
     1
 41
-30.0
176
     1
 62
     5
 63
     7
421
 16777215
176
     1
 74
     2
176
     1
 91
        2
176
     1
 64
     7
176
     1
 65
   257
176
     1
 75
     2
176
     1
175
     1
176
     1
 42
40.0
176
     1
 92
        0
176
     1
 66
   257
176
     1
 43
1.0
176
     1
 76
     1
176
     1
 77
     6
176
     1
 78
     2
176
     1
 67
     7
176
     1
 79
     3
176
     1
170
     0
176
     1
171
     0
176
     1
290
     0
176
     1
 93
        1
176
     1
 44
0.0
176
     1
173
     0
176
     1
  0
VISUALSTYLE
  5
30
102
{ACAD_REACTORS
330
2A
102
}
330
2A
100
AcDbVisualStyle
  2
3dWireframe
 70
     5
177
     2
291
     0
 71
     0
176
     1
 72
     2
176
     1
 73
     0
176
     1
 90
        0
176
     1
 40
-0.6
176
     1
 41
-30.0
176
     1
 62
     5
 63
     7
421
 16777215
176
     1
 74
     1
176
     1
 91
        4
176
     1
 64
     7
176
     1
 65
   257
176
     1
 75
     1
176
     1
175
     1
176
     1
 42
1.0
176
     1
 92
        0
176
     1
 66
   257
176
     1
 43
1.0
176
     1
 76
     1
176
     1
 77
     6
176
     1
 78
     2
176
     1
 67
     7
176
     1
 79
     5
176
     1
170
     0
176
     1
171
     0
176
     1
290
     0
176
     1
 93
        1
176
     1
 44
0.0
176
     1
173
     0
176
     1
  0
VISUALSTYLE
  5
32
102
{ACAD_REACTORS
330
2A
102
}
330
2A
100
AcDbVisualStyle
  2
Basic
 70
     7
177
     2
291
     1
 71
     1
176
     1
 72
     0
176
     1
 73
     1
176
     1
 90
        0
176
     1
 40
-0.6
176
     1
 41
-30.0
176
     1
 62
     5
 63
     7
421
 16777215
176
     1
 74
     0
176
     1
 91
        4
176
     1
 64
     7
176
     1
 65
   257
176
     1
 75
     1
176
     1
175
     1
176
     1
 42
1.0
176
     1
 92
        8
176
     1
 66
     7
176
     1
 43
1.0
176
     1
 76
     1
176
     1
 77
     6
176
     1
 78
     2
176
     1
 67
     7
176
     1
 79
     5
176
     1
170
     0
176
     1
171
     0
176
     1
290
     0
176
     1
 93
        1
176
     1
 44
0.0
176
     1
173
     0
176
     1
  0
VISUALSTYLE
  5
36
102
{ACAD_REACTORS
330
2A
102
}
330
2A
100
AcDbVisualStyle
  2
Brighten
 70
    12
177
     2
291
     1
 71
     2
176
     1
 72
     2
176
     1
 73
     0
176
     1
 90
        0
176
     1
 40
-0.6
176
     1
 41
-30.0
176
     1
 62
     5
 63
     7
421
 16777215
176
     1
 74
     1
176
     1
 91
        4
176
     1
 64
     7
176
     1
 65
   257
176
     1
 75
     1
176
     1
175
     1
176
     1
 42
1.0
176
     1
 92
        8
176
     1
 66
     7
176
     1
 43
1.0
176
     1
 76
     1
176
     1
 77
     6
176
     1
 78
     2
176
     1
 67
     7
176
     1
 79
     5
176
     1
170
     0
176
     1
171
     0
176
     1
290
     0
176
     1
 93
        1
176
     1
 44
50.0
176
     1
173
     0
176
     1
  0
VISUALSTYLE
  5
3A
102
{ACAD_REACTORS
330
2A
102
}
330
2A
100
AcDbVisualStyle
  2
ColorChange
 70
    16
177
     2
291
     1
 71
     2
176
     1
 72
     2
176
     1
 73
     3
176
     1
 90
        0
176
     1
 40
-0.6
176
     1
 41
-30.0
176
     1
 62
     5
 63
     8
421
  8421504
176
     1
 74
     1
176
     1
 91
        4
176
     1
 64
     7
176
     1
 65
   257
176
     1
 75
     1
176
     1
175
     1
176
     1
 42
1.0
176
     1
 92
        8
176
     1
 66
     8
424
  8421504
176
     1
 43
1.0
176
     1
 76
     1
176
     1
 77
     6
176
     1
 78
     2
176
     1
 67
     7
176
     1
 79
     5
176
     1
170
     0
176
     1
171
     0
176
     1
290
     0
176
     1
 93
        1
176
     1
 44
0.0
176
     1
173
     0
176
     1
  0
VISUALSTYLE
  5
34
102
{ACAD_REACTORS
330
2A
102
}
330
2A
100
AcDbVisualStyle
  2
Conceptual
 70
     9
177
     2
291
     0
 71
     3
176
     1
 72
     2
176
     1
 73
     0
176
     1
 90
        0
176
     1
 40
-0.6
176
     1
 41
-30.0
176
     1
 62
     5
 63
     7
421
 16777215
176
     1
 74
     2
176
     1
 91
        2
176
     1
 64
     7
176
     1
 65
   257
176
     1
 75
     1
176
     1
175
     1
176
     1
 42
40.0
176
     1
 92
        8
176
     1
 66
     7
176
     1
 43
1.0
176
     1
 76
     1
176
     1
 77
     6
176
     1
 78
     2
176
     1
 67
     7
176
     1
 79
     3
176
     1
170
     0
176
     1
171
     0
176
     1
290
     0
176
     1
 93
        1
176
     1
 44
0.0
176
     1
173
     0
176
     1
  0
VISUALSTYLE
  5
35
102
{ACAD_REACTORS
330
2A
102
}
330
2A
100
AcDbVisualStyle
  2
Dim
 70
    11
177
     2
291
     1
 71
     2
176
     1
 72
     2
176
     1
 73
     0
176
     1
 90
        0
176
     1
 40
-0.6
176
     1
 41
-30.0
176
     1
 62
     5
 63
     7
421
 16777215
176
     1
 74
     1
176
     1
 91
        4
176
     1
 64
     7
176
     1
 65
   257
176
     1
 75
     1
176
     1
175
     1
176
     1
 42
1.0
176
     1
 92
        8
176
     1
 66
     7
176
     1
 43
1.0
176
     1
 76
     1
176
     1
 77
     6
176
     1
 78
     2
176
     1
 67
     7
176
     1
 79
     5
176
     1
170
     0
176
     1
171
     0
176
     1
290
     0
176
     1
 93
        1
176
     1
 44
-50.0
176
     1
173
     0
176
     1
  0
VISUALSTYLE
  5
39
102
{ACAD_REACTORS
330
2A
102
}
330
2A
100
AcDbVisualStyle
  2
Facepattern
 70
    15
177
     2
291
     1
 71
     2
176
     1
 72
     2
176
     1
 73
     0
176
     1
 90
        0
176
     1
 40
-0.6
176
     1
 41
-30.0
176
     1
 62
     5
 63
     7
421
 16777215
176
     1
 74
     1
176
     1
 91
        4
176
     1
 64
     7
176
     1
 65
   257
176
     1
 75
     1
176
     1
175
     1
176
     1
 42
1.0
176
     1
 92
        8
176
     1
 66
     7
176
     1
 43
1.0
176
     1
 76
     1
176
     1
 77
     6
176
     1
 78
     2
176
     1
 67
     7
176
     1
 79
     5
176
     1
170
     0
176
     1
171
     0
176
     1
290
     0
176
     1
 93
        1
176
     1
 44
0.0
176
     1
173
     0
176
     1
  0
VISUALSTYLE
  5
2B
102
{ACAD_REACTORS
330
2A
102
}
330
2A
100
AcDbVisualStyle
  2
Flat
 70
     0
177
     2
291
     1
 71
     2
176
     1
 72
     1
176
     1
 73
     1
176
     1
 90
        2
176
     1
 40
-0.6
176
     1
 41
30.0
176
     1
 62
     5
 63
     7
421
 16777215
176
     1
 74
     0
176
     1
 91
        4
176
     1
 64
     7
176
     1
 65
   257
176
     1
 75
     1
176
     1
175
     1
176
     1
 42
1.0
176
     1
 92
        8
176
     1
 66
     7
176
     1
 43
1.0
176
     1
 76
     1
176
     1
 77
     6
176
     1
 78
     2
176
     1
 67
     7
176
     1
 79
     5
176
     1
170
     0
176
     1
171
     0
176
     1
290
     0
176
     1
 93
       13
176
     1
 44
0.0
176
     1
173
     0
176
     1
  0
VISUALSTYLE
  5
2C
102
{ACAD_REACTORS
330
2A
102
}
330
2A
100
AcDbVisualStyle
  2
FlatWithEdges
 70
     1
177
     2
291
     1
 71
     2
176
     1
 72
     1
176
     1
 73
     1
176
     1
 90
        2
176
     1
 40
-0.6
176
     1
 41
30.0
176
     1
 62
     5
 63
     7
421
 16777215
176
     1
 74
     1
176
     1
 91
        4
176
     1
 64
     7
176
     1
 65
   257
176
     1
 75
     1
176
     1
175
     1
176
     1
 42
1.0
176
     1
 92
        0
176
     1
 66
   257
176
     1
 43
1.0
176
     1
 76
     1
176
     1
 77
     6
176
     1
 78
     2
176
     1
 67
     7
176
     1
 79
     5
176
     1
170
     0
176
     1
171
     0
176
     1
290
     0
176
     1
 93
       13
176
     1
 44
0.0
176
     1
173
     0
176
     1
  0
VISUALSTYLE
  5
2D
102
{ACAD_REACTORS
330
2A
102
}
330
2A
100
AcDbVisualStyle
  2
Gouraud
 70
     2
177
     2
291
     1
 71
     2
176
     1
 72
     2
176
     1
 73
     1
176
     1
 90
        2
176
     1
 40
-0.6
176
     1
 41
30.0
176
     1
 62
     5
 63
     7
421
 16777215
176
     1
 74
     0
176
     1
 91
        4
176
     1
 64
     7
176
     1
 65
   257
176
     1
 75
     1
176
     1
175
     1
176
     1
 42
1.0
176
     1
 92
        0
176
     1
 66
     7
176
     1
 43
1.0
176
     1
 76
     1
176
     1
 77
     6
176
     1
 78
     2
176
     1
 67
     7
176
     1
 79
     5
176
     1
170
     0
176
     1
171
     0
176
     1
290
     0
176
     1
 93
       13
176
     1
 44
0.0
176
     1
173
     0
176
     1
  0
VISUALSTYLE
  5
2E
102
{ACAD_REACTORS
330
2A
102
}
330
2A
100
AcDbVisualStyle
  2
GouraudWithEdges
 70
     3
177
     2
291
     1
 71
     2
176
     1
 72
     2
176
     1
 73
     1
176
     1
 90
        2
176
     1
 40
-0.6
176
     1
 41
30.0
176
     1
 62
     5
 63
     7
421
 16777215
176
     1
 74
     1
176
     1
 91
        4
176
     1
 64
     7
176
     1
 65
   257
176
     1
 75
     1
176
     1
175
     1
176
     1
 42
1.0
176
     1
 92
        0
176
     1
 66
   257
176
     1
 43
1.0
176
     1
 76
     1
176
     1
 77
     6
176
     1
 78
     2
176
     1
 67
     7
176
     1
 79
     5
176
     1
170
     0
176
     1
171
     0
176
     1
290
     0
176
     1
 93
       13
176
     1
 44
0.0
176
     1
173
     0
176
     1
  0
VISUALSTYLE
  5
38
102
{ACAD_REACTORS
330
2A
102
}
330
2A
100
AcDbVisualStyle
  2
Linepattern
 70
    14
177
     2
291
     1
 71
     2
176
     1
 72
     2
176
     1
 73
     0
176
     1
 90
        0
176
     1
 40
-0.6
176
     1
 41
-30.0
176
     1
 62
     5
 63
     7
421
 16777215
176
     1
 74
     1
176
     1
 91
        4
176
     1
 64
     7
176
     1
 65
   257
176
     1
 75
     7
176
     1
175
     7
176
     1
 42
1.0
176
     1
 92
        8
176
     1
 66
     7
176
     1
 43
1.0
176
     1
 76
     1
176
     1
 77
     6
176
     1
 78
     2
176
     1
 67
     7
176
     1
 79
     5
176
     1
170
     0
176
     1
171
     0
176
     1
290
     0
176
     1
 93
        1
176
     1
 44
0.0
176
     1
173
     0
176
     1
  0
VISUALSTYLE
  5
33
102
{ACAD_REACTORS
330
2A
102
}
330
2A
100
AcDbVisualStyle
  2
Realistic
 70
     8
177
     2
291
     0
 71
     2
176
     1
 72
     2
176
     1
 73
     0
176
     1
 90
        0
176
     1
 40
-0.6
176
     1
 41
-30.0
176
     1
 62
     5
 63
     7
421
 16777215
176
     1
 74
     1
176
     1
 91
        0
176
     1
 64
     7
176
     1
 65
   257
176
     1
 75
     1
176
     1
175
     1
176
     1
 42
1.0
176
     1
 92
        8
176
     1
 66
     8
424
  7895160
176
     1
 43
1.0
176
     1
 76
     1
176
     1
 77
     6
176
     1
 78
     2
176
     1
 67
     7
176
     1
 79
     5
176
     1
170
     0
176
     1
171
     0
176
     1
290
     0
176
     1
 93
       13
176
     1
 44
0.0
176
     1
173
     0
176
     1
  0
VISUALSTYLE
  5
37
102
{ACAD_REACTORS
330
2A
102
}
330
2A
100
AcDbVisualStyle
  2
Thicken
 70
    13
177
     2
291
     1
 71
     2
176
     1
 72
     2
176
     1
 73
     0
176
     1
 90
        0
176
     1
 40
-0.6
176
     1
 41
-30.0
176
     1
 62
     5
 63
     7
421
 16777215
176
     1
 74
     1
176
     1
 91
        4
176
     1
 64
     7
176
     1
 65
   257
176
     1
 75
     1
176
     1
175
     1
176
     1
 42
1.0
176
     1
 92
       12
176
     1
 66
     7
176
     1
 43
1.0
176
     1
 76
     1
176
     1
 77
     6
176
     1
 78
     2
176
     1
 67
     7
176
     1
 79
     5
176
     1
170
     0
176
     1
171
     0
176
     1
290
     0
176
     1
 93
        1
176
     1
 44
0.0
176
     1
173
     0
176
     1
  0
DICTIONARYVAR
  5
151
102
{ACAD_REACTORS
330
150
102
}
330
150
100
DictionaryVariables
280
     0
  1
1:1
  0
ENDSEC
  0
EOF
