  0
SECTION
  2
HEADER
  9
$ACADVER
  1
AC1024
  9
$ACADMAINTVER
 70
     6
  9
$DWGCODEPAGE
  3
ANSI_1252
  9
$INSBASE
 10
0.0
 20
0.0
 30
0.0
  9
$EXTMIN
 10
1.000000E+20
 20
1.000000E+20
 30
1.000000E+20
  9
$EXTMAX
 10
-1.000000E+20
 20
-1.000000E+20
 30
-1.000000E+20
  9
$LIMMIN
 10
0.0
 20
0.0
  9
$LIMMAX
 10
420.0
 20
297.0
  9
$ORTHOMODE
 70
     0
  9
$REGENMODE
 70
     1
  9
$FILLMODE
 70
     1
  9
$QTEXTMODE
 70
     0
  9
$MIRRTEXT
 70
     1
  9
$LTSCALE
 40
1.0
  9
$ATTMODE
 70
     1
  9
$TEXTSIZE
 40
2.5
  9
$TRACEWID
 40
1.0
  9
$TEXTSTYLE
  7
Standard
  9
$CLAYER
  8
0
  9
$CELTYPE
  6
ByLayer
  9
$CECOLOR
 62
   256
  9
$CELTSCALE
 40
1.0
  9
$DISPSILH
 70
     0
  9
$DIMSCALE
 40
1.0
  9
$DIMASZ
 40
2.5
  9
$DIMEXO
 40
0.625
  9
$DIMDLI
 40
3.75
  9
$DIMRND
 40
0.0
  9
$DIMDLE
 40
0.0
  9
$DIMEXE
 40
1.25
  9
$DIMTP
 40
0.0
  9
$DIMTM
 40
0.0
  9
$DIMTXT
 40
2.5
  9
$DIMCEN
 40
2.5
  9
$DIMTSZ
 40
0.0
  9
$DIMTOL
 70
     0
  9
$DIMLIM
 70
     0
  9
$DIMTIH
 70
     0
  9
$DIMTOH
 70
     0
  9
$DIMSE1
 70
     0
  9
$DIMSE2
 70
     0
  9
$DIMTAD
 70
     1
  9
$DIMZIN
 70
     8
  9
$DIMBLK
  1

  9
$DIMASO
 70
     1
  9
$DIMSHO
 70
     1
  9
$DIMPOST
  1

  9
$DIMAPOST
  1

  9
$DIMALT
 70
     0
  9
$DIMALTD
 70
     3
  9
$DIMALTF
 40
0.03937
  9
$DIMLFAC
 40
1.0
  9
$DIMTOFL
 70
     1
  9
$DIMTVP
 40
0.0
  9
$DIMTIX
 70
     0
  9
$DIMSOXD
 70
     0
  9
$DIMSAH
 70
     0
  9
$DIMBLK1
  1

  9
$DIMBLK2
  1

  9
$DIMSTYLE
  2
ISO-25
  9
$DIMCLRD
 70
     0
  9
$DIMCLRE
 70
     0
  9
$DIMCLRT
 70
     0
  9
$DIMTFAC
 40
1.0
  9
$DIMGAP
 40
0.625
  9
$DIMJUST
 70
     0
  9
$DIMSD1
 70
     0
  9
$DIMSD2
 70
     0
  9
$DIMTOLJ
 70
     0
  9
$DIMTZIN
 70
     8
  9
$DIMALTZ
 70
     0
  9
$DIMALTTZ
 70
     0
  9
$DIMUPT
 70
     0
  9
$DIMDEC
 70
     2
  9
$DIMTDEC
 70
     2
  9
$DIMALTU
 70
     2
  9
$DIMALTTD
 70
     3
  9
$DIMTXSTY
  7
Standard
  9
$DIMAUNIT
 70
     0
  9
$DIMADEC
 70
     0
  9
$DIMALTRND
 40
0.0
  9
$DIMAZIN
 70
     0
  9
$DIMDSEP
 70
    44
  9
$DIMATFIT
 70
     3
  9
$DIMFRAC
 70
     0
  9
$DIMLDRBLK
  1

  9
$DIMLUNIT
 70
     2
  9
$DIMLWD
 70
    -2
  9
$DIMLWE
 70
    -2
  9
$DIMTMOVE
 70
     0
  9
$DIMFXL
 40
1.0
  9
$DIMFXLON
 70
     0
  9
$DIMJOGANG
 40
0.785398
  9
$DIMTFILL
 70
     0
  9
$DIMTFILLCLR
 70
     0
  9
$DIMARCSYM
 70
     0
  9
$DIMLTYPE
  6

  9
$DIMLTEX1
  6

  9
$DIMLTEX2
  6

  9
$DIMTXTDIRECTION
 70
     0
  9
$LUNITS
 70
     2
  9
$LUPREC
 70
     4
  9
$SKETCHINC
 40
1.0
  9
$FILLETRAD
 40
10.0
  9
$AUNITS
 70
     0
  9
$AUPREC
 70
     0
  9
$MENU
  1
.
  9
$ELEVATION
 40
0.0
  9
$PELEVATION
 40
0.0
  9
$THICKNESS
 40
0.0
  9
$LIMCHECK
 70
     0
  9
$CHAMFERA
 40
10.0
  9
$CHAMFERB
 40
10.0
  9
$CHAMFERC
 40
20.0
  9
$CHAMFERD
 40
0.0
  9
$SKPOLY
 70
     0
  9
$TDCREATE
 40
2458641.627249329
  9
$TDUCREATE
 40
2458641.543915995
  9
$TDUPDATE
 40
2458641.62724934
  9
$TDUUPDATE
 40
2458641.543916007
  9
$TDINDWG
 40
0.0000000116
  9
$TDUSRTIMER
 40
0.0000000116
  9
$USRTIMER
 70
     1
  9
$ANGBASE
 50
0.0
  9
$ANGDIR
 70
     0
  9
$PDMODE
 70
     0
  9
$PDSIZE
 40
0.0
  9
$PLINEWID
 40
0.0
  9
$SPLFRAME
 70
     0
  9
$SPLINETYPE
 70
     6
  9
$SPLINESEGS
 70
     8
  9
$HANDSEED
  5
2BF
  9
$SURFTAB1
 70
     6
  9
$SURFTAB2
 70
     6
  9
$SURFTYPE
 70
     6
  9
$SURFU
 70
     6
  9
$SURFV
 70
     6
  9
$UCSBASE
  2

  9
$UCSNAME
  2

  9
$UCSORG
 10
0.0
 20
0.0
 30
0.0
  9
$UCSXDIR
 10
1.0
 20
0.0
 30
0.0
  9
$UCSYDIR
 10
0.0
 20
1.0
 30
0.0
  9
$UCSORTHOREF
  2

  9
$UCSORTHOVIEW
 70
     0
  9
$UCSORGTOP
 10
0.0
 20
0.0
 30
0.0
  9
$UCSORGBOTTOM
 10
0.0
 20
0.0
 30
0.0
  9
$UCSORGLEFT
 10
0.0
 20
0.0
 30
0.0
  9
$UCSORGRIGHT
 10
0.0
 20
0.0
 30
0.0
  9
$UCSORGFRONT
 10
0.0
 20
0.0
 30
0.0
  9
$UCSORGBACK
 10
0.0
 20
0.0
 30
0.0
  9
$PUCSBASE
  2

  9
$PUCSNAME
  2

  9
$PUCSORG
 10
0.0
 20
0.0
 30
0.0
  9
$PUCSXDIR
 10
1.0
 20
0.0
 30
0.0
  9
$PUCSYDIR
 10
0.0
 20
1.0
 30
0.0
  9
$PUCSORTHOREF
  2

  9
$PUCSORTHOVIEW
 70
     0
  9
$PUCSORGTOP
 10
0.0
 20
0.0
 30
0.0
  9
$PUCSORGBOTTOM
 10
0.0
 20
0.0
 30
0.0
  9
$PUCSORGLEFT
 10
0.0
 20
0.0
 30
0.0
  9
$PUCSORGRIGHT
 10
0.0
 20
0.0
 30
0.0
  9
$PUCSORGFRONT
 10
0.0
 20
0.0
 30
0.0
  9
$PUCSORGBACK
 10
0.0
 20
0.0
 30
0.0
  9
$USERI1
 70
     0
  9
$USERI2
 70
     0
  9
$USERI3
 70
     0
  9
$USERI4
 70
     0
  9
$USERI5
 70
     0
  9
$USERR1
 40
0.0
  9
$USERR2
 40
0.0
  9
$USERR3
 40
0.0
  9
$USERR4
 40
0.0
  9
$USERR5
 40
0.0
  9
$WORLDVIEW
 70
     1
  9
$SHADEDGE
 70
     3
  9
$SHADEDIF
 70
    70
  9
$TILEMODE
 70
     1
  9
$MAXACTVP
 70
    64
  9
$PINSBASE
 10
0.0
 20
0.0
 30
0.0
  9
$PLIMCHECK
 70
     0
  9
$PEXTMIN
 10
1.000000E+20
 20
1.000000E+20
 30
1.000000E+20
  9
$PEXTMAX
 10
-1.000000E+20
 20
-1.000000E+20
 30
-1.000000E+20
  9
$PLIMMIN
 10
0.0
 20
0.0
  9
$PLIMMAX
 10
420.0
 20
297.0
  9
$UNITMODE
 70
     0
  9
$VISRETAIN
 70
     1
  9
$PLINEGEN
 70
     0
  9
$PSLTSCALE
 70
     1
  9
$TREEDEPTH
 70
  3020
  9
$CMLSTYLE
  2
Standard
  9
$CMLJUST
 70
     0
  9
$CMLSCALE
 40
20.0
  9
$PROXYGRAPHICS
 70
     1
  9
$MEASUREMENT
 70
     1
  9
$CELWEIGHT
370
    -1
  9
$ENDCAPS
280
     0
  9
$JOINSTYLE
280
     0
  9
$LWDISPLAY
290
     0
  9
$INSUNITS
 70
     4
  9
$HYPERLINKBASE
  1

  9
$STYLESHEET
  1

  9
$XEDIT
290
     1
  9
$CEPSNTYPE
380
     0
  9
$PSTYLEMODE
290
     1
  9
$FINGERPRINTGUID
  2
{BB7C0570-2D2A-443F-8450-EAE0AA69CCB2}
  9
$VERSIONGUID
  2
{FAEB1C32-E019-11D5-929B-00C0DF256EC4}
  9
$EXTNAMES
290
     1
  9
$PSVPSCALE
 40
0.0
  9
$OLESTARTUP
290
     0
  9
$SORTENTS
280
   127
  9
$INDEXCTL
280
     0
  9
$HIDETEXT
280
     1
  9
$XCLIPFRAME
280
     2
  9
$HALOGAP
280
     0
  9
$OBSCOLOR
 70
   257
  9
$OBSLTYPE
280
     0
  9
$INTERSECTIONDISPLAY
280
     0
  9
$INTERSECTIONCOLOR
 70
   257
  9
$DIMASSOC
280
     2
  9
$PROJECTNAME
  1

  9
$CAMERADISPLAY
290
     0
  9
$LENSLENGTH
 40
50.0
  9
$CAMERAHEIGHT
 40
0.0
  9
$STEPSPERSEC
 40
2.0
  9
$STEPSIZE
 40
6.0
  9
$3DDWFPREC
 40
2.0
  9
$PSOLWIDTH
 40
5.0
  9
$PSOLHEIGHT
 40
80.0
  9
$LOFTANG1
 40
1.570796
  9
$LOFTANG2
 40
1.570796
  9
$LOFTMAG1
 40
0.0
  9
$LOFTMAG2
 40
0.0
  9
$LOFTPARAM
 70
     7
  9
$LOFTNORMALS
280
     1
  9
$LATITUDE
 40
37.795
  9
$LONGITUDE
 40
-122.394
  9
$NORTHDIRECTION
 40
0.0
  9
$TIMEZONE
 70
 -8000
  9
$LIGHTGLYPHDISPLAY
280
     1
  9
$TILEMODELIGHTSYNCH
280
     1
  9
$SOLIDHIST
280
     1
  9
$SHOWHIST
280
     1
  9
$DWFFRAME
280
     2
  9
$DGNFRAME
280
     2
  9
$REALWORLDSCALE
290
     1
  9
$INTERFERECOLOR
 62
   256
  9
$CSHADOW
280
     0
  9
$SHADOWPLANELOCATION
 40
0.0
  0
ENDSEC
  0
SECTION
  2
CLASSES
  0
CLASS
  1
ACDBDICTIONARYWDFLT
  2
AcDbDictionaryWithDefault
  3
ObjectDBX Classes
 90
        0
 91
        4
280
     0
281
     0
  0
CLASS
  1
VISUALSTYLE
  2
AcDbVisualStyle
  3
ObjectDBX Classes
 90
     4095
 91
        4
280
     0
281
     0
  0
CLASS
  1
MATERIAL
  2
AcDbMaterial
  3
ObjectDBX Classes
 90
     1153
 91
        4
280
     0
281
     0
  0
CLASS
  1
SCALE
  2
AcDbScale
  3
ObjectDBX Classes
 90
     1153
 91
        4
280
     0
281
     0
  0
CLASS
  1
DICTIONARYVAR
  2
AcDbDictionaryVar
  3
ObjectDBX Classes
 90
        0
 91
        4
280
     0
281
     0
  0
ENDSEC
  0
SECTION
  2
TABLES
  0
TABLE
  2
VPORT
  5
8
330
0
100
AcDbSymbolTable
 70
     1
  0
VPORT
  5
29
330
8
100
AcDbSymbolTableRecord
100
AcDbViewportTableRecord
  2
*Active
 70
     0
 10
0.0
 20
0.0
 11
1.0
 21
1.0
 12
344.186916
 22
148.5
 13
0.0
 23
0.0
 14
10.0
 24
10.0
 15
10.0
 25
10.0
 16
0.0
 26
0.0
 36
1.0
 17
0.0
 27
0.0
 37
0.0
 40
297.0
 41
1.972973
 42
50.0
 43
0.0
 44
0.0
 50
0.0
 51
0.0
 71
     0
 72
   100
 73
     1
 74
     3
 75
     0
 76
     0
 77
     0
 78
     0
281
     0
 65
     1
110
0.0
120
0.0
130
0.0
111
1.0
121
0.0
131
0.0
112
0.0
122
1.0
132
0.0
 79
     0
146
0.0
 60
     3
 61
     5
292
     1
282
     1
141
0.0
142
0.0
 63
   250
  0
ENDTAB
  0
TABLE
  2
LTYPE
  5
5
330
0
100
AcDbSymbolTable
 70
     5
  0
LTYPE
  5
14
330
5
100
AcDbSymbolTableRecord
100
AcDbLinetypeTableRecord
  2
ByBlock
 70
     0
  3

 72
    65
 73
     0
 40
0.0
  0
LTYPE
  5
15
330
5
100
AcDbSymbolTableRecord
100
AcDbLinetypeTableRecord
  2
ByLayer
 70
     0
  3

 72
    65
 73
     0
 40
0.0
  0
LTYPE
  5
16
330
5
100
AcDbSymbolTableRecord
100
AcDbLinetypeTableRecord
  2
Continuous
 70
     0
  3
Solid line
 72
    65
 73
     0
 40
0.0
  0
LTYPE
  5
66
330
5
100
AcDbSymbolTableRecord
100
AcDbLinetypeTableRecord
  2
CENTER2
 70
     0
  3
Center (.5x) ___ _ ___ _ ___ _ ___ _ ___ _ ___
 72
    65
 73
     4
 40
28.575
 49
19.05
 74
     0
 49
-3.175
 74
     0
 49
3.175
 74
     0
 49
-3.175
 74
     0
  0
LTYPE
  5
6A
330
5
100
AcDbSymbolTableRecord
100
AcDbLinetypeTableRecord
  2
BORDER
 70
     0
  3
Border __ __ . __ __ . __ __ . __ __ . __ __ .
 72
    65
 73
     6
 40
44.45
 49
12.7
 74
     0
 49
-6.35
 74
     0
 49
12.7
 74
     0
 49
-6.35
 74
     0
 49
0.0
 74
     0
 49
-6.35
 74
     0
  0
LTYPE
  5
B9
330
5
100
AcDbSymbolTableRecord
100
AcDbLinetypeTableRecord
  2
DASHDOT
 70
     0
  3
Dash dot __ . __ . __ . __ . __ . __ . __ . __
 72
    65
 73
     4
 40
25.4
 49
12.7
 74
     0
 49
-6.35
 74
     0
 49
0.0
 74
     0
 49
-6.35
 74
     0
  0
LTYPE
  5
107
330
5
100
AcDbSymbolTableRecord
100
AcDbLinetypeTableRecord
  2
HIDDEN2
 70
     0
  3
Hidden (.5x) _ _ _ _ _ _ _ _ _ _ _ _ _ _ _ _ _ 
 72
    65
 73
     2
 40
4.7625
 49
3.175
 74
     0
 49
-1.5875
 74
     0
  0
ENDTAB
  0
TABLE
  2
LAYER
  5
2
330
0
100
AcDbSymbolTable
 70
    21
  0
LAYER
  5
10
330
2
100
AcDbSymbolTableRecord
100
AcDbLayerTableRecord
  2
0
 70
     0
 62
     1
  6
Continuous
370
     0
390
F
347
3E
  0
LAYER
  5
3F
330
2
100
AcDbSymbolTableRecord
100
AcDbLayerTableRecord
  2
1
 70
     0
 62
     7
  6
Continuous
370
     0
390
F
347
3E
  0
LAYER
  5
40
330
2
100
AcDbSymbolTableRecord
100
AcDbLayerTableRecord
  2
2
 70
     0
 62
     7
  6
Continuous
370
     0
390
F
347
3E
  0
LAYER
  5
41
330
2
100
AcDbSymbolTableRecord
100
AcDbLayerTableRecord
  2
3
 70
     0
 62
     7
  6
Continuous
370
     0
390
F
347
3E
  0
LAYER
  5
42
330
2
100
AcDbSymbolTableRecord
100
AcDbLayerTableRecord
  2
4
 70
     0
 62
     7
  6
Continuous
370
     0
390
F
347
3E
  0
LAYER
  5
43
330
2
100
AcDbSymbolTableRecord
100
AcDbLayerTableRecord
  2
5
 70
     0
 62
     7
  6
Continuous
370
     0
390
F
347
3E
  0
LAYER
  5
44
330
2
100
AcDbSymbolTableRecord
100
AcDbLayerTableRecord
  2
6
 70
     0
 62
     7
  6
Continuous
370
     0
390
F
347
3E
  0
LAYER
  5
45
330
2
100
AcDbSymbolTableRecord
100
AcDbLayerTableRecord
  2
7
 70
     0
 62
     7
  6
Continuous
370
     0
390
F
347
3E
  0
LAYER
  5
46
330
2
100
AcDbSymbolTableRecord
100
AcDbLayerTableRecord
  2
8
 70
     0
 62
     7
  6
Continuous
370
     0
390
F
347
3E
  0
LAYER
  5
47
330
2
100
AcDbSymbolTableRecord
100
AcDbLayerTableRecord
  2
9
 70
     0
 62
     7
  6
Continuous
370
     0
390
F
347
3E
  0
LAYER
  5
48
330
2
100
AcDbSymbolTableRecord
100
AcDbLayerTableRecord
  2
taglio
 70
     0
 62
     7
  6
Continuous
370
     0
390
F
347
3E
  0
LAYER
  5
49
330
2
100
AcDbSymbolTableRecord
100
AcDbLayerTableRecord
  2
cordone
 70
     0
 62
     7
  6
Continuous
370
     0
390
F
347
3E
  0
LAYER
  5
4A
330
2
100
AcDbSymbolTableRecord
100
AcDbLayerTableRecord
  2
Design
 70
     0
 62
     7
  6
Continuous
370
     0
390
F
347
3E
  0
LAYER
  5
4B
330
2
100
AcDbSymbolTableRecord
100
AcDbLayerTableRecord
  2
Immaginedistampa
 70
     0
 62
     7
  6
Continuous
370
     0
390
F
347
3E
  0
LAYER
  5
4C
330
2
100
AcDbSymbolTableRecord
100
AcDbLayerTableRecord
  2
Annotation1
 70
     0
 62
     7
  6
Continuous
370
     0
390
F
347
3E
  0
LAYER
  5
4D
330
2
100
AcDbSymbolTableRecord
100
AcDbLayerTableRecord
  2
Unknown
 70
     0
 62
     7
  6
Continuous
370
     0
390
F
347
3E
  0
LAYER
  5
4E
330
2
100
AcDbSymbolTableRecord
100
AcDbLayerTableRecord
  2
255
 70
     0
 62
     1
  6
Continuous
370
     0
390
F
347
3E
  0
LAYER
  5
4F
330
2
100
AcDbSymbolTableRecord
100
AcDbLayerTableRecord
  2
DEFPOINTS
 70
     0
 62
     1
  6
Continuous
290
     0
370
     0
390
F
347
3E
  0
LAYER
  5
50
330
2
100
AcDbSymbolTableRecord
100
AcDbLayerTableRecord
  2
255_1
 70
     0
 62
     1
  6
Continuous
370
     0
390
F
347
3E
  0
LAYER
  5
51
330
2
100
AcDbSymbolTableRecord
100
AcDbLayerTableRecord
  2
255_2
 70
     0
 62
     1
  6
Continuous
370
     0
390
F
347
3E
  0
LAYER
  5
52
330
2
100
AcDbSymbolTableRecord
100
AcDbLayerTableRecord
  2
255_3
 70
     0
 62
     1
  6
Continuous
370
     0
390
F
347
3E
  0
ENDTAB
  0
TABLE
  2
STYLE
  5
3
330
0
100
AcDbSymbolTable
 70
     7
  0
STYLE
  5
11
330
3
100
AcDbSymbolTableRecord
100
AcDbTextStyleTableRecord
  2
Standard
 70
     0
 40
0.0
 41
1.0
 50
0.0
 71
     0
 42
2.5
  3
txt
  4

1001
ACAD
1000
txt
1071
        0
  0
STYLE
  5
53
330
3
100
AcDbSymbolTableRecord
100
AcDbTextStyleTableRecord
  2
Default
 70
     0
 40
0.0
 41
1.0
 50
0.0
 71
     0
 42
0.2
  3

  4

1001
ACAD
1000
txt
1071
        0
  0
STYLE
  5
54
330
3
100
AcDbSymbolTableRecord
100
AcDbTextStyleTableRecord
  2
ANSI
 70
     0
 40
0.0
 41
1.0
 50
0.0
 71
     0
 42
0.2
  3

  4

1001
ACAD
1000
txt
1071
        0
  0
STYLE
  5
55
330
3
100
AcDbSymbolTableRecord
100
AcDbTextStyleTableRecord
  2
TSTYLE2
 70
     0
 40
0.0
 41
1.0
 50
0.0
 71
     0
 42
0.2
  3

  4

1001
ACAD
1000
Arial
1071
        0
  0
STYLE
  5
56
330
3
100
AcDbSymbolTableRecord
100
AcDbTextStyleTableRecord
  2
TSTYLE1
 70
     0
 40
0.0
 41
1.0
 50
0.0
 71
     0
 42
0.2
  3

  4

1001
ACAD
1000
Arial
1071
        0
  0
STYLE
  5
57
330
3
100
AcDbSymbolTableRecord
100
AcDbTextStyleTableRecord
  2
TSTYLE4
 70
     0
 40
0.0
 41
1.0
 50
0.0
 71
     0
 42
0.2
  3

  4

1001
ACAD
1000
Arial
1071
        0
  0
STYLE
  5
58
330
3
100
AcDbSymbolTableRecord
100
AcDbTextStyleTableRecord
  2
TSTYLE5
 70
     0
 40
0.0
 41
1.0
 50
0.0
 71
     0
 42
0.2
  3

  4

1001
ACAD
1000
Arial
1071
        0
  0
ENDTAB
  0
TABLE
  2
VIEW
  5
6
330
0
100
AcDbSymbolTable
 70
     0
  0
ENDTAB
  0
TABLE
  2
UCS
  5
7
330
0
100
AcDbSymbolTable
 70
     0
  0
ENDTAB
  0
TABLE
  2
APPID
  5
9
330
0
100
AcDbSymbolTable
 70
     1
  0
APPID
  5
12
330
9
100
AcDbSymbolTableRecord
100
AcDbRegAppTableRecord
  2
ACAD
 70
     0
  0
ENDTAB
  0
TABLE
  2
DIMSTYLE
  5
A
330
0
100
AcDbSymbolTable
 70
     6
100
AcDbDimStyleTable
  0
DIMSTYLE
105
27
102
{ACAD_REACTORS
330
118
330
125
330
132
330
13F
330
14A
330
158
330
166
330
174
330
17E
330
189
330
199
330
1A4
330
1AF
330
1B8
330
1C8
330
1D5
330
1E2
330
1EF
330
204
330
211
330
21E
330
22B
330
238
330
248
330
255
330
262
330
26F
330
27F
330
28C
330
299
330
2A6
102
}
330
A
100
AcDbSymbolTableRecord
100
AcDbDimStyleTableRecord
  2
ISO-25
 70
     0
 41
2.5
 42
0.625
 43
3.75
 44
1.25
 73
     0
 74
     0
 77
     1
 78
     8
140
2.5
141
2.5
143
0.03937
147
0.625
171
     3
172
     1
271
     2
272
     2
274
     3
278
    44
283
     0
284
     8
340
11
  0
DIMSTYLE
105
59
330
A
100
AcDbSymbolTableRecord
100
AcDbDimStyleTableRecord
  2
Default
 70
     0
  3
<>
 41
4.375
 42
1.05
 44
2.1
 49
10.01
 73
     0
 74
     0
 77
     1
 78
     8
140
3.5
146
0.4
147
1.75
172
     1
178
     2
271
     2
272
     3
284
     8
340
53
341
5A
342
5A
  0
DIMSTYLE
105
61
330
A
100
AcDbSymbolTableRecord
100
AcDbDimStyleTableRecord
  2
DefaultDimensionStyle
 70
     0
  3
<>
 41
2.5
 42
0.875
 44
1.75
 49
10.01
 73
     0
 74
     0
 77
     1
 78
     8
140
3.5
147
1.75
172
     1
178
     2
271
     2
272
     2
278
    44
284
     8
340
11
  0
DIMSTYLE
105
62
330
A
100
AcDbSymbolTableRecord
100
AcDbDimStyleTableRecord
  2
ISO
 70
     0
  3
<>
 41
4.375
 42
1.05
 44
2.1
 49
10.01
 73
     0
 74
     0
 77
     1
 78
     8
140
3.5
146
0.4
147
1.75
172
     1
178
     2
271
     2
272
     3
284
     8
340
11
341
5A
342
5A
  0
DIMSTYLE
105
63
330
A
100
AcDbSymbolTableRecord
100
AcDbDimStyleTableRecord
  2
DSTYLE3
 70
     0
  3
<>
 41
11.25
 42
1.05
 44
1.166667
 49
10.01
 73
     0
 74
     0
 77
     1
 78
     8
140
3.5
146
0.6
147
1.225
172
     1
178
     2
271
     2
340
56
  0
DIMSTYLE
105
64
330
A
100
AcDbSymbolTableRecord
100
AcDbDimStyleTableRecord
  2
DSTYLE1
 70
     0
  3
<>
 41
22.5
 42
7.0
 44
1.166667
 49
10.01
 73
     0
 74
     0
 78
     8
140
3.5
146
0.6
147
1.225
172
     1
178
     2
271
     2
340
58
  0
ENDTAB
  0
TABLE
  2
BLOCK_RECORD
  5
1
330
0
100
AcDbSymbolTable
 70
    37
  0
BLOCK_RECORD
  5
1F
330
1
100
AcDbSymbolTableRecord
100
AcDbBlockTableRecord
  2
*Model_Space
340
22
 70
     0
280
     1
281
     0
  0
BLOCK_RECORD
  5
1B
330
1
100
AcDbSymbolTableRecord
100
AcDbBlockTableRecord
  2
*Paper_Space
340
1E
 70
     0
280
     1
281
     0
  0
BLOCK_RECORD
  5
23
330
1
100
AcDbSymbolTableRecord
100
AcDbBlockTableRecord
  2
*Paper_Space0
340
26
 70
     0
280
     1
281
     0
  0
BLOCK_RECORD
  5
5A
330
1
100
AcDbSymbolTableRecord
100
AcDbBlockTableRecord
  2
_CLOSED
340
0
102
{BLKREFS
331
11E
331
11D
331
12B
331
12A
331
138
331
137
331
143
331
14F
331
14E
331
15F
331
15E
331
16D
331
16C
331
179
331
182
331
192
331
191
331
19D
331
1A8
331
1B3
331
1C1
331
1C0
331
1CE
331
1CD
331
1DB
331
1DA
331
1E8
331
1E7
331
1F5
331
1F4
331
20A
331
209
331
217
331
216
331
224
331
223
331
231
331
230
331
241
331
240
331
24E
331
24D
331
25B
331
25A
331
268
331
267
331
278
331
277
331
285
331
284
331
292
331
291
331
29F
331
29E
331
2AC
331
2AB
102
}
 70
     0
280
     1
281
     0
  0
BLOCK_RECORD
  5
6E
330
1
100
AcDbSymbolTableRecord
100
AcDbBlockTableRecord
  2
.TD_DIMENSION_1
340
0
102
{BLKREFS
331
9A
102
}
 70
     0
280
     1
281
     0
  0
BLOCK_RECORD
  5
9B
330
1
100
AcDbSymbolTableRecord
100
AcDbBlockTableRecord
  2
.TD_DIMENSION_2
340
0
102
{BLKREFS
331
A4
102
}
 70
     0
280
     1
281
     0
  0
BLOCK_RECORD
  5
119
330
1
100
AcDbSymbolTableRecord
100
AcDbBlockTableRecord
  2
*D4
340
0
 70
     0
280
     1
281
     0
  0
BLOCK_RECORD
  5
126
330
1
100
AcDbSymbolTableRecord
100
AcDbBlockTableRecord
  2
*D5
340
0
 70
     0
280
     1
281
     0
  0
BLOCK_RECORD
  5
133
330
1
100
AcDbSymbolTableRecord
100
AcDbBlockTableRecord
  2
*D6
340
0
 70
     0
280
     1
281
     0
  0
BLOCK_RECORD
  5
140
330
1
100
AcDbSymbolTableRecord
100
AcDbBlockTableRecord
  2
*D7
340
0
 70
     0
280
     1
281
     0
  0
BLOCK_RECORD
  5
14B
330
1
100
AcDbSymbolTableRecord
100
AcDbBlockTableRecord
  2
*D8
340
0
 70
     0
280
     1
281
     0
  0
BLOCK_RECORD
  5
159
330
1
100
AcDbSymbolTableRecord
100
AcDbBlockTableRecord
  2
*D9
340
0
 70
     0
280
     1
281
     0
  0
BLOCK_RECORD
  5
167
330
1
100
AcDbSymbolTableRecord
100
AcDbBlockTableRecord
  2
*D10
340
0
 70
     0
280
     1
281
     0
  0
BLOCK_RECORD
  5
175
330
1
100
AcDbSymbolTableRecord
100
AcDbBlockTableRecord
  2
*D11
340
0
 70
     0
280
     1
281
     0
  0
BLOCK_RECORD
  5
17F
330
1
100
AcDbSymbolTableRecord
100
AcDbBlockTableRecord
  2
*D12
340
0
 70
     0
280
     1
281
     0
  0
BLOCK_RECORD
  5
18A
330
1
100
AcDbSymbolTableRecord
100
AcDbBlockTableRecord
  2
*D13
340
0
 70
     0
280
     1
281
     0
  0
BLOCK_RECORD
  5
19A
330
1
100
AcDbSymbolTableRecord
100
AcDbBlockTableRecord
  2
*D14
340
0
 70
     0
280
     1
281
     0
  0
BLOCK_RECORD
  5
1A5
330
1
100
AcDbSymbolTableRecord
100
AcDbBlockTableRecord
  2
*D15
340
0
 70
     0
280
     1
281
     0
  0
BLOCK_RECORD
  5
1B0
330
1
100
AcDbSymbolTableRecord
100
AcDbBlockTableRecord
  2
*D16
340
0
 70
     0
280
     1
281
     0
  0
BLOCK_RECORD
  5
1B9
330
1
100
AcDbSymbolTableRecord
100
AcDbBlockTableRecord
  2
*D17
340
0
 70
     0
280
     1
281
     0
  0
BLOCK_RECORD
  5
1C9
330
1
100
AcDbSymbolTableRecord
100
AcDbBlockTableRecord
  2
*D18
340
0
 70
     0
280
     1
281
     0
  0
BLOCK_RECORD
  5
1D6
330
1
100
AcDbSymbolTableRecord
100
AcDbBlockTableRecord
  2
*D19
340
0
 70
     0
280
     1
281
     0
  0
BLOCK_RECORD
  5
1E3
330
1
100
AcDbSymbolTableRecord
100
AcDbBlockTableRecord
  2
*D20
340
0
 70
     0
280
     1
281
     0
  0
BLOCK_RECORD
  5
1F0
330
1
100
AcDbSymbolTableRecord
100
AcDbBlockTableRecord
  2
*D21
340
0
 70
     0
280
     1
281
     0
  0
BLOCK_RECORD
  5
1FC
330
1
100
AcDbSymbolTableRecord
100
AcDbBlockTableRecord
  2
.TD_DIMENSION_3
340
0
102
{BLKREFS
331
201
102
}
 70
     0
280
     1
281
     0
  0
BLOCK_RECORD
  5
205
330
1
100
AcDbSymbolTableRecord
100
AcDbBlockTableRecord
  2
*D23
340
0
 70
     0
280
     1
281
     0
  0
BLOCK_RECORD
  5
212
330
1
100
AcDbSymbolTableRecord
100
AcDbBlockTableRecord
  2
*D24
340
0
 70
     0
280
     1
281
     0
  0
BLOCK_RECORD
  5
21F
330
1
100
AcDbSymbolTableRecord
100
AcDbBlockTableRecord
  2
*D25
340
0
 70
     0
280
     1
281
     0
  0
BLOCK_RECORD
  5
22C
330
1
100
AcDbSymbolTableRecord
100
AcDbBlockTableRecord
  2
*D26
340
0
 70
     0
280
     1
281
     0
  0
BLOCK_RECORD
  5
239
330
1
100
AcDbSymbolTableRecord
100
AcDbBlockTableRecord
  2
*D27
340
0
 70
     0
280
     1
281
     0
  0
BLOCK_RECORD
  5
249
330
1
100
AcDbSymbolTableRecord
100
AcDbBlockTableRecord
  2
*D28
340
0
 70
     0
280
     1
281
     0
  0
BLOCK_RECORD
  5
256
330
1
100
AcDbSymbolTableRecord
100
AcDbBlockTableRecord
  2
*D29
340
0
 70
     0
280
     1
281
     0
  0
BLOCK_RECORD
  5
263
330
1
100
AcDbSymbolTableRecord
100
AcDbBlockTableRecord
  2
*D30
340
0
 70
     0
280
     1
281
     0
  0
BLOCK_RECORD
  5
270
330
1
100
AcDbSymbolTableRecord
100
AcDbBlockTableRecord
  2
*D31
340
0
 70
     0
280
     1
281
     0
  0
BLOCK_RECORD
  5
280
330
1
100
AcDbSymbolTableRecord
100
AcDbBlockTableRecord
  2
*D32
340
0
 70
     0
280
     1
281
     0
  0
BLOCK_RECORD
  5
28D
330
1
100
AcDbSymbolTableRecord
100
AcDbBlockTableRecord
  2
*D33
340
0
 70
     0
280
     1
281
     0
  0
BLOCK_RECORD
  5
29A
330
1
100
AcDbSymbolTableRecord
100
AcDbBlockTableRecord
  2
*D34
340
0
 70
     0
280
     1
281
     0
  0
BLOCK_RECORD
  5
2A7
330
1
100
AcDbSymbolTableRecord
100
AcDbBlockTableRecord
  2
*D35
340
0
 70
     0
280
     1
281
     0
  0
BLOCK_RECORD
  5
2B3
330
1
100
AcDbSymbolTableRecord
100
AcDbBlockTableRecord
  2
.TD_DIMENSION_4
340
0
102
{BLKREFS
331
2B8
102
}
 70
     0
280
     1
281
     0
  0
ENDTAB
  0
ENDSEC
  0
SECTION
  2
BLOCKS
  0
BLOCK
  5
20
330
1F
100
AcDbEntity
  8
0
100
AcDbBlockBegin
  2
*Model_Space
 70
     0
 10
0.0
 20
0.0
 30
0.0
  3
*Model_Space
  1

  0
ENDBLK
  5
21
330
1F
100
AcDbEntity
  8
0
100
AcDbBlockEnd
  0
BLOCK
  5
1C
330
1B
100
AcDbEntity
 67
     1
  8
0
100
AcDbBlockBegin
  2
*Paper_Space
 70
     0
 10
0.0
 20
0.0
 30
0.0
  3
*Paper_Space
  1

  0
ENDBLK
  5
1D
330
1B
100
AcDbEntity
 67
     1
  8
0
100
AcDbBlockEnd
  0
BLOCK
  5
24
330
23
100
AcDbEntity
  8
0
100
AcDbBlockBegin
  2
*Paper_Space0
 70
     0
 10
0.0
 20
0.0
 30
0.0
  3
*Paper_Space0
  1

  0
ENDBLK
  5
25
330
23
100
AcDbEntity
  8
0
100
AcDbBlockEnd
  0
BLOCK
  5
5B
330
5A
100
AcDbEntity
  8
0
100
AcDbBlockBegin
  2
_CLOSED
 70
     0
 10
0.0
 20
0.0
 30
0.0
  3
_CLOSED
  1

  0
LINE
  5
5D
330
5A
100
AcDbEntity
  8
0
  6
ByBlock
 62
     0
370
    -2
100
AcDbLine
 10
-1.0
 20
0.166667
 30
0.0
 11
0.0
 21
0.0
 31
0.0
  0
LINE
  5
5E
330
5A
100
AcDbEntity
  8
0
  6
ByBlock
 62
     0
370
    -2
100
AcDbLine
 10
0.0
 20
0.0
 30
0.0
 11
-1.0
 21
-0.166667
 31
0.0
  0
LINE
  5
5F
330
5A
100
AcDbEntity
  8
0
  6
ByBlock
 62
     0
370
    -2
100
AcDbLine
 10
-1.0
 20
0.166667
 30
0.0
 11
-1.0
 21
-0.166667
 31
0.0
  0
LINE
  5
60
330
5A
100
AcDbEntity
  8
0
  6
ByBlock
 62
     0
370
    -2
100
AcDbLine
 10
0.0
 20
0.0
 30
0.0
 11
-1.0
 21
0.0
 31
0.0
  0
ENDBLK
  5
5C
330
5A
100
AcDbEntity
  8
0
100
AcDbBlockEnd
  0
BLOCK
  5
98
330
6E
100
AcDbEntity
  8
0
100
AcDbBlockBegin
  2
.TD_DIMENSION_1
 70
     0
 10
-1414.65857
 20
-2284.251954
 30
0.0
  3
.TD_DIMENSION_1
  1

  0
LINE
  5
6F
330
6E
100
AcDbEntity
  8
0
  6
Continuous
 62
     0
100
AcDbLine
 10
-699.533142
 20
-1129.299805
 30
0.0
 11
-671.668701
 21
-1140.416138
 31
0.0
  0
LINE
  5
70
330
6E
100
AcDbEntity
  8
0
  6
Continuous
 62
     0
100
AcDbLine
 10
-671.668701
 20
-1140.416138
 30
0.0
 11
-667.382874
 21
-1142.125977
 31
0.0
  0
TEXT
  5
93
330
6E
100
AcDbEntity
  8
0
  6
Continuous
 62
     0
100
AcDbText
 10
-682.660706
 20
-1132.747192
 30
0.0
 40
6.1
  1
R
 50
338.25061
100
AcDbText
  0
TEXT
  5
94
330
6E
100
AcDbEntity
  8
0
  6
Continuous
 62
     0
100
AcDbText
 10
-677.278259
 20
-1134.894531
 30
0.0
 40
6.1
  1
30
 50
338.25061
100
AcDbText
  0
LINE
  5
95
330
6E
100
AcDbEntity
  8
0
  6
Continuous
 62
     0
100
AcDbLine
 10
-696.531067
 20
-1129.87085
 30
0.0
 11
-699.533142
 21
-1129.299805
 31
0.0
  0
LINE
  5
96
330
6E
100
AcDbEntity
  8
0
  6
Continuous
 62
     0
100
AcDbLine
 10
-699.533142
 20
-1129.299805
 30
0.0
 11
-696.962341
 21
-1130.952026
 31
0.0
  0
LINE
  5
97
330
6E
100
AcDbEntity
  8
0
  6
Continuous
 62
     0
100
AcDbLine
 10
-696.962341
 20
-1130.952026
 30
0.0
 11
-696.531067
 21
-1129.87085
 31
0.0
  0
ENDBLK
  5
99
330
6E
100
AcDbEntity
  8
0
100
AcDbBlockEnd
  0
BLOCK
  5
A2
330
9B
100
AcDbEntity
  8
0
100
AcDbBlockBegin
  2
.TD_DIMENSION_2
 70
     0
 10
-177.062362
 20
-3072.79248
 30
0.0
  3
.TD_DIMENSION_2
  1

  0
LINE
  5
9C
330
9B
100
AcDbEntity
  8
0
  6
Continuous
 62
     0
100
AcDbLine
 10
-81.518188
 20
-1445.081177
 30
0.0
 11
-79.299644
 21
-1530.163696
 31
0.0
  0
TEXT
  5
9D
330
9B
100
AcDbEntity
  8
0
  6
Continuous
 62
     0
100
AcDbText
 10
-78.469223
 20
-1445.001709
 30
0.0
 40
6.1
  1
R
 50
271.493652
100
AcDbText
  0
TEXT
  5
9E
330
9B
100
AcDbEntity
  8
0
  6
Continuous
 62
     0
100
AcDbText
 10
-78.318169
 20
-1450.7948
 30
0.0
 40
6.1
  1
8962.37
 50
271.493652
 41
1.19
100
AcDbText
  0
LINE
  5
9F
330
9B
100
AcDbEntity
  8
0
  6
Continuous
 62
     0
100
AcDbLine
 10
-79.959648
 20
-1527.179932
 30
0.0
 11
-79.299644
 21
-1530.163696
 31
0.0
  0
LINE
  5
A0
330
9B
100
AcDbEntity
  8
0
  6
Continuous
 62
     0
100
AcDbLine
 10
-79.299644
 20
-1530.163696
 30
0.0
 11
-78.796043
 21
-1527.149536
 31
0.0
  0
LINE
  5
A1
330
9B
100
AcDbEntity
  8
0
  6
Continuous
 62
     0
100
AcDbLine
 10
-78.796043
 20
-1527.149536
 30
0.0
 11
-79.959648
 21
-1527.179932
 31
0.0
  0
ENDBLK
  5
A3
330
9B
100
AcDbEntity
  8
0
100
AcDbBlockEnd
  0
BLOCK
  5
123
330
119
100
AcDbEntity
  8
0
100
AcDbBlockBegin
  2
*D4
 70
     1
 10
0.0
 20
0.0
 30
0.0
  3
*D4
  1

  0
LINE
  5
11A
330
119
100
AcDbEntity
  8
0
  6
Continuous
 62
     1
370
    -2
100
AcDbLine
 10
129.08429
 20
-1317.708923
 30
0.0
 11
129.08429
 21
-987.098252
 31
0.0
  0
LINE
  5
11B
330
119
100
AcDbEntity
  8
0
  6
Continuous
 62
     1
370
    -2
100
AcDbLine
 10
-754.91571
 20
-1317.708923
 30
0.0
 11
-754.91571
 21
-987.098252
 31
0.0
  0
LINE
  5
11C
330
119
100
AcDbEntity
  8
0
  6
Continuous
 62
     1
370
    -2
100
AcDbLine
 10
126.08429
 20
-987.708252
 30
0.0
 11
-751.91571
 21
-987.708252
 31
0.0
  0
INSERT
  5
11D
330
119
100
AcDbEntity
  8
0
 62
     1
370
    -2
100
AcDbBlockReference
  2
_CLOSED
 10
129.08429
 20
-987.708252
 30
0.0
 41
3.0
 42
3.0
 43
3.0
  0
INSERT
  5
11E
330
119
100
AcDbEntity
  8
0
 62
     1
370
    -2
100
AcDbBlockReference
  2
_CLOSED
 10
-754.91571
 20
-987.708252
 30
0.0
 41
3.0
 42
3.0
 43
3.0
 50
180.0
  0
MTEXT
  5
11F
330
119
100
AcDbEntity
  8
0
 62
     2
370
     0
100
AcDbMText
 10
-297.435699
 20
-981.477103
 30
0.0
 40
6.099999
 41
0.0
 46
0.0
 71
     5
 72
     1
  1
\ftxt|b0|i0|c0|p0;884
 73
     1
 44
1.0
  0
POINT
  5
120
330
119
100
AcDbEntity
  8
DEFPOINTS
 62
     0
100
AcDbPoint
 10
129.08429
 20
-1318.208923
 30
0.0
  0
POINT
  5
121
330
119
100
AcDbEntity
  8
DEFPOINTS
 62
     0
100
AcDbPoint
 10
-754.91571
 20
-1318.208923
 30
0.0
  0
POINT
  5
122
330
119
100
AcDbEntity
  8
DEFPOINTS
 62
     0
100
AcDbPoint
 10
-754.91571
 20
-987.708252
 30
0.0
  0
ENDBLK
  5
124
330
119
100
AcDbEntity
  8
0
100
AcDbBlockEnd
  0
BLOCK
  5
130
330
126
100
AcDbEntity
  8
0
100
AcDbBlockBegin
  2
*D5
 70
     1
 10
0.0
 20
0.0
 30
0.0
  3
*D5
  1

  0
LINE
  5
127
330
126
100
AcDbEntity
  8
0
  6
Continuous
 62
     1
370
    -2
100
AcDbLine
 10
-313.41571
 20
-1068.208923
 30
0.0
 11
-816.877944
 21
-1068.208923
 31
0.0
  0
LINE
  5
128
330
126
100
AcDbEntity
  8
0
  6
Continuous
 62
     1
370
    -2
100
AcDbLine
 10
-313.41571
 20
-1568.208923
 30
0.0
 11
-816.877944
 21
-1568.208923
 31
0.0
  0
LINE
  5
129
330
126
100
AcDbEntity
  8
0
  6
Continuous
 62
     1
370
    -2
100
AcDbLine
 10
-816.267944
 20
-1071.208923
 30
0.0
 11
-816.267944
 21
-1565.208923
 31
0.0
  0
INSERT
  5
12A
330
126
100
AcDbEntity
  8
0
 62
     1
370
    -2
100
AcDbBlockReference
  2
_CLOSED
 10
-816.267944
 20
-1068.208923
 30
0.0
 41
3.0
 42
3.0
 43
3.0
 50
90.0
  0
INSERT
  5
12B
330
126
100
AcDbEntity
  8
0
 62
     1
370
    -2
100
AcDbBlockReference
  2
_CLOSED
 10
-816.267944
 20
-1568.208923
 30
0.0
 41
3.0
 42
3.0
 43
3.0
 50
270.0
  0
MTEXT
  5
12C
330
126
100
AcDbEntity
  8
0
 62
     2
370
     0
100
AcDbMText
 10
-822.431993
 20
-1284.544189
 30
0.0
 40
6.099999
 41
0.0
 46
0.0
 71
     5
 72
     1
  1
\ftxt|b0|i0|c0|p0;500
 11
0.0
 21
1.0
 31
0.0
 73
     1
 44
1.0
  0
POINT
  5
12D
330
126
100
AcDbEntity
  8
DEFPOINTS
 62
     0
100
AcDbPoint
 10
-312.91571
 20
-1068.208923
 30
0.0
  0
POINT
  5
12E
330
126
100
AcDbEntity
  8
DEFPOINTS
 62
     0
100
AcDbPoint
 10
-312.91571
 20
-1568.208923
 30
0.0
  0
POINT
  5
12F
330
126
100
AcDbEntity
  8
DEFPOINTS
 62
     0
100
AcDbPoint
 10
-816.267944
 20
-1568.208923
 30
0.0
  0
ENDBLK
  5
131
330
126
100
AcDbEntity
  8
0
100
AcDbBlockEnd
  0
BLOCK
  5
13D
330
133
100
AcDbEntity
  8
0
100
AcDbBlockBegin
  2
*D6
 70
     1
 10
0.0
 20
0.0
 30
0.0
  3
*D6
  1

  0
LINE
  5
134
330
133
100
AcDbEntity
  8
0
  6
Continuous
 62
     1
370
    -2
100
AcDbLine
 10
117.08429
 20
-1067.708923
 30
0.0
 11
117.08429
 21
-1027.100571
 31
0.0
  0
LINE
  5
135
330
133
100
AcDbEntity
  8
0
  6
Continuous
 62
     1
370
    -2
100
AcDbLine
 10
-742.91571
 20
-1067.708923
 30
0.0
 11
-742.91571
 21
-1027.100571
 31
0.0
  0
LINE
  5
136
330
133
100
AcDbEntity
  8
0
  6
Continuous
 62
     1
370
    -2
100
AcDbLine
 10
114.08429
 20
-1027.710571
 30
0.0
 11
-739.91571
 21
-1027.710571
 31
0.0
  0
INSERT
  5
137
330
133
100
AcDbEntity
  8
0
 62
     1
370
    -2
100
AcDbBlockReference
  2
_CLOSED
 10
117.08429
 20
-1027.710571
 30
0.0
 41
3.0
 42
3.0
 43
3.0
  0
INSERT
  5
138
330
133
100
AcDbEntity
  8
0
 62
     1
370
    -2
100
AcDbBlockReference
  2
_CLOSED
 10
-742.91571
 20
-1027.710571
 30
0.0
 41
3.0
 42
3.0
 43
3.0
 50
180.0
  0
MTEXT
  5
139
330
133
100
AcDbEntity
  8
0
 62
     2
370
     0
100
AcDbMText
 10
-296.985748
 20
-1021.546522
 30
0.0
 40
6.099999
 41
0.0
 46
0.0
 71
     5
 72
     1
  1
\ftxt|b0|i0|c0|p0;860
 73
     1
 44
1.0
  0
POINT
  5
13A
330
133
100
AcDbEntity
  8
DEFPOINTS
 62
     0
100
AcDbPoint
 10
117.08429
 20
-1068.208923
 30
0.0
  0
POINT
  5
13B
330
133
100
AcDbEntity
  8
DEFPOINTS
 62
     0
100
AcDbPoint
 10
-742.91571
 20
-1068.208923
 30
0.0
  0
POINT
  5
13C
330
133
100
AcDbEntity
  8
DEFPOINTS
 62
     0
100
AcDbPoint
 10
-742.91571
 20
-1027.710571
 30
0.0
  0
ENDBLK
  5
13E
330
133
100
AcDbEntity
  8
0
100
AcDbBlockEnd
  0
BLOCK
  5
148
330
140
100
AcDbEntity
  8
0
100
AcDbBlockBegin
  2
*D7
 70
     1
 10
0.0
 20
0.0
 30
0.0
  3
*D7
  1

  0
LINE
  5
141
330
140
100
AcDbEntity
  8
0
  6
Continuous
 62
     1
370
    -2
100
AcDbLine
 10
120.529738
 20
-1560.5132
 30
0.0
 11
154.729433
 21
-1570.757697
 31
0.0
  0
MTEXT
  5
142
330
140
100
AcDbEntity
  8
0
 62
     2
370
     0
100
AcDbMText
 10
146.695808
 20
-1561.916571
 30
0.0
 40
6.099999
 41
0.0
 46
0.0
 71
     5
 72
     1
  1
R12
 11
0.9579450190682176
 21
-0.2869518085713911
 31
0.0
 73
     1
 44
1.0
  0
INSERT
  5
143
330
140
100
AcDbEntity
  8
0
 62
     1
370
    -2
100
AcDbBlockReference
  2
_CLOSED
 10
117.655903
 20
-1559.652345
 30
0.0
 41
3.0
 42
3.0
 43
3.0
 50
163.324447
  0
LINE
  5
144
330
140
100
AcDbEntity
  8
0
  6
Continuous
 62
     0
370
    -2
100
AcDbLine
 10
103.660562
 20
-1556.208923
 30
0.0
 11
108.660562
 21
-1556.208923
 31
0.0
  0
LINE
  5
145
330
140
100
AcDbEntity
  8
0
  6
Continuous
 62
     0
370
    -2
100
AcDbLine
 10
106.160562
 20
-1558.708923
 30
0.0
 11
106.160562
 21
-1553.708923
 31
0.0
  0
POINT
  5
146
330
140
100
AcDbEntity
  8
DEFPOINTS
 62
     0
100
AcDbPoint
 10
117.655903
 20
-1559.652345
 30
0.0
  0
POINT
  5
147
330
140
100
AcDbEntity
  8
DEFPOINTS
 62
     0
100
AcDbPoint
 10
106.160562
 20
-1556.208923
 30
0.0
  0
ENDBLK
  5
149
330
140
100
AcDbEntity
  8
0
100
AcDbBlockEnd
  0
BLOCK
  5
156
330
14B
100
AcDbEntity
  8
0
100
AcDbBlockBegin
  2
*D8
 70
     1
 10
0.0
 20
0.0
 30
0.0
  3
*D8
  1

  0
LINE
  5
14C
330
14B
100
AcDbEntity
  8
0
  6
Continuous
 62
     1
370
    -2
100
AcDbLine
 10
-742.915648
 20
-1108.047661
 30
0.0
 11
-742.915627
 21
-1121.824278
 31
0.0
  0
ARC
  5
14D
330
14B
100
AcDbEntity
  8
0
  6
Continuous
 62
     1
370
    -2
100
AcDbCircle
 10
-742.91571
 20
-1068.208923
 30
0.0
 40
53.00535501037262
100
AcDbArc
 50
273.243352
 51
311.756694
  0
INSERT
  5
14E
330
14B
100
AcDbEntity
  8
0
 62
     1
370
    -2
100
AcDbBlockReference
  2
_CLOSED
 10
-742.915628
 20
-1121.214278
 30
0.0
 41
3.0
 42
3.0
 43
3.0
 50
181.62172
  0
INSERT
  5
14F
330
14B
100
AcDbEntity
  8
0
 62
     1
370
    -2
100
AcDbBlockReference
  2
_CLOSED
 10
-705.435293
 20
-1105.689398
 30
0.0
 41
3.0
 42
3.0
 43
3.0
 50
43.378325
  0
MTEXT
  5
150
330
14B
100
AcDbEntity
  8
0
 62
     2
370
     0
100
AcDbMText
 10
-727.294964
 20
-1112.297682
 30
0.0
 40
6.099999
 41
0.0
 46
0.0
 71
     5
 72
     1
  1
45%%d
 11
0.9425870002296418
 21
0.3339606967864409
 31
0.0
 73
     1
 44
1.0
  0
POINT
  5
151
330
14B
100
AcDbEntity
  8
DEFPOINTS
 62
     0
100
AcDbPoint
 10
-716.413032
 20
-1114.112907
 30
0.0
  0
POINT
  5
152
330
14B
100
AcDbEntity
  8
DEFPOINTS
 62
     0
100
AcDbPoint
 10
-699.571317
 20
-1111.553382
 30
0.0
  0
POINT
  5
153
330
14B
100
AcDbEntity
  8
DEFPOINTS
 62
     0
100
AcDbPoint
 10
-742.915649
 20
-1107.547661
 30
0.0
  0
POINT
  5
154
330
14B
100
AcDbEntity
  8
DEFPOINTS
 62
     0
100
AcDbPoint
 10
-742.91571
 20
-1068.208923
 30
0.0
  0
POINT
  5
155
330
14B
100
AcDbEntity
  8
DEFPOINTS
 62
     0
100
AcDbPoint
 10
-742.91571
 20
-1068.208923
 30
0.0
  0
ENDBLK
  5
157
330
14B
100
AcDbEntity
  8
0
100
AcDbBlockEnd
  0
BLOCK
  5
164
330
159
100
AcDbEntity
  8
0
100
AcDbBlockBegin
  2
*D9
 70
     1
 10
0.0
 20
0.0
 30
0.0
  3
*D9
  1

  0
LINE
  5
15A
330
159
100
AcDbEntity
  8
0
  6
Continuous
 62
     1
370
    -2
100
AcDbLine
 10
-312.415659
 20
-1533.208924
 30
0.0
 11
-312.305579
 21
-1533.208924
 31
0.0
  0
LINE
  5
15B
330
159
100
AcDbEntity
  8
0
  6
Continuous
 62
     1
370
    -2
100
AcDbLine
 10
-312.41571
 20
-1568.208924
 30
0.0
 11
-312.30563
 21
-1568.208924
 31
0.0
  0
LINE
  5
15C
330
159
100
AcDbEntity
  8
0
  6
Continuous
 62
     1
370
    -2
100
AcDbLine
 10
-312.91563
 20
-1568.208923
 30
0.0
 11
-312.915661
 21
-1589.84855
 31
0.0
  0
LINE
  5
15D
330
159
100
AcDbEntity
  8
0
  6
Continuous
 62
     1
370
    -2
100
AcDbLine
 10
-312.915583
 20
-1536.208923
 30
0.0
 11
-312.915625
 21
-1565.208923
 31
0.0
  0
INSERT
  5
15E
330
159
100
AcDbEntity
  8
0
 62
     1
370
    -2
100
AcDbBlockReference
  2
_CLOSED
 10
-312.915579
 20
-1533.208923
 30
0.0
 41
3.0
 42
3.0
 43
3.0
 50
89.999917
  0
INSERT
  5
15F
330
159
100
AcDbEntity
  8
0
 62
     1
370
    -2
100
AcDbBlockReference
  2
_CLOSED
 10
-312.91563
 20
-1568.208923
 30
0.0
 41
3.0
 42
3.0
 43
3.0
 50
269.999917
  0
MTEXT
  5
160
330
159
100
AcDbEntity
  8
0
 62
     2
370
     0
100
AcDbMText
 10
-319.079698
 20
-1581.659293
 30
0.0
 40
6.099999
 41
0.0
 46
0.0
 71
     5
 72
     1
  1
\ftxt|b0|i0|c0|p0;35
 11
1.457142856710574E-6
 21
0.9999999999989384
 31
0.0
 73
     1
 44
1.0
  0
POINT
  5
161
330
159
100
AcDbEntity
  8
DEFPOINTS
 62
     0
100
AcDbPoint
 10
-312.915659
 20
-1533.208923
 30
0.0
  0
POINT
  5
162
330
159
100
AcDbEntity
  8
DEFPOINTS
 62
     0
100
AcDbPoint
 10
-312.91571
 20
-1568.208923
 30
0.0
  0
POINT
  5
163
330
159
100
AcDbEntity
  8
DEFPOINTS
 62
     0
100
AcDbPoint
 10
-312.91563
 20
-1568.208923
 30
0.0
  0
ENDBLK
  5
165
330
159
100
AcDbEntity
  8
0
100
AcDbBlockEnd
  0
BLOCK
  5
172
330
167
100
AcDbEntity
  8
0
100
AcDbBlockBegin
  2
*D10
 70
     1
 10
0.0
 20
0.0
 30
0.0
  3
*D10
  1

  0
LINE
  5
168
330
167
100
AcDbEntity
  8
0
  6
Continuous
 62
     1
370
    -2
100
AcDbLine
 10
82.08429
 20
-1318.708923
 30
0.0
 11
82.08429
 21
-1320.850855
 31
0.0
  0
LINE
  5
169
330
167
100
AcDbEntity
  8
0
  6
Continuous
 62
     1
370
    -2
100
AcDbLine
 10
129.08429
 20
-1318.708923
 30
0.0
 11
129.08429
 21
-1320.850855
 31
0.0
  0
LINE
  5
16A
330
167
100
AcDbEntity
  8
0
  6
Continuous
 62
     1
370
    -2
100
AcDbLine
 10
129.08429
 20
-1320.250854
 30
0.0
 11
151.776426
 21
-1320.250854
 31
0.0
  0
LINE
  5
16B
330
167
100
AcDbEntity
  8
0
  6
Continuous
 62
     1
370
    -2
100
AcDbLine
 10
85.08429
 20
-1320.250854
 30
0.0
 11
126.08429
 21
-1320.250854
 31
0.0
  0
INSERT
  5
16C
330
167
100
AcDbEntity
  8
0
 62
     1
370
    -2
100
AcDbBlockReference
  2
_CLOSED
 10
82.08429
 20
-1320.250854
 30
0.0
 41
3.0
 42
3.0
 43
3.0
 50
180.0
  0
INSERT
  5
16D
330
167
100
AcDbEntity
  8
0
 62
     1
370
    -2
100
AcDbBlockReference
  2
_CLOSED
 10
129.08429
 20
-1320.250854
 30
0.0
 41
3.0
 42
3.0
 43
3.0
  0
MTEXT
  5
16E
330
167
100
AcDbEntity
  8
0
 62
     2
370
     0
100
AcDbMText
 10
143.655426
 20
-1314.136854
 30
0.0
 40
6.0
 41
0.0
 46
0.0
 71
     5
 72
     1
  1
\ftxt|b0|i0|c0|p0;47
 73
     1
 44
1.0
  0
POINT
  5
16F
330
167
100
AcDbEntity
  8
DEFPOINTS
 62
     0
100
AcDbPoint
 10
82.08429
 20
-1318.208923
 30
0.0
  0
POINT
  5
170
330
167
100
AcDbEntity
  8
DEFPOINTS
 62
     0
100
AcDbPoint
 10
129.08429
 20
-1318.208923
 30
0.0
  0
POINT
  5
171
330
167
100
AcDbEntity
  8
DEFPOINTS
 62
     0
100
AcDbPoint
 10
129.08429
 20
-1320.250854
 30
0.0
  0
ENDBLK
  5
173
330
167
100
AcDbEntity
  8
0
100
AcDbBlockEnd
  0
BLOCK
  5
17C
330
175
100
AcDbEntity
  8
0
100
AcDbBlockBegin
  2
*D11
 70
     1
 10
0.0
 20
0.0
 30
0.0
  3
*D11
  1

  0
LINE
  5
176
330
175
100
AcDbEntity
  8
0
  6
Continuous
 62
     1
370
    -2
100
AcDbLine
 10
-2417.057868
 20
-1125.775024
 30
0.0
 11
-615.627998
 21
-1234.596073
 31
0.0
  0
LINE
  5
177
330
175
100
AcDbEntity
  8
0
  6
Continuous
 62
     1
370
    -2
100
AcDbLine
 10
-2387.112456
 20
-1127.583971
 30
0.0
 11
-2414.063327
 21
-1125.955919
 31
0.0
  0
MTEXT
  5
178
330
175
100
AcDbEntity
  8
0
 62
     2
370
     0
100
AcDbMText
 10
-625.978869
 20
-1227.79551
 30
0.0
 40
6.099999
 41
0.0
 46
0.0
 71
     5
 72
     1
  1
R30
 11
0.9981804060674622
 21
-0.0602982333322979
 31
0.0
 73
     1
 44
1.0
  0
INSERT
  5
179
330
175
100
AcDbEntity
  8
0
 62
     1
370
    -2
100
AcDbBlockReference
  2
_CLOSED
 10
-2417.057868
 20
-1125.775024
 30
0.0
 41
3.0
 42
3.0
 43
3.0
 50
176.543069
  0
POINT
  5
17A
330
175
100
AcDbEntity
  8
DEFPOINTS
 62
     0
100
AcDbPoint
 10
-2417.057868
 20
-1125.775024
 30
0.0
  0
POINT
  5
17B
330
175
100
AcDbEntity
  8
DEFPOINTS
 62
     0
100
AcDbPoint
 10
-2387.112456
 20
-1127.583971
 30
0.0
  0
ENDBLK
  5
17D
330
175
100
AcDbEntity
  8
0
100
AcDbBlockEnd
  0
BLOCK
  5
187
330
17F
100
AcDbEntity
  8
0
100
AcDbBlockBegin
  2
*D12
 70
     1
 10
0.0
 20
0.0
 30
0.0
  3
*D12
  1

  0
LINE
  5
180
330
17F
100
AcDbEntity
  8
0
  6
Continuous
 62
     1
370
    -2
100
AcDbLine
 10
-752.040989
 20
-1143.083985
 30
0.0
 11
-802.596865
 21
-1139.68828
 31
0.0
  0
MTEXT
  5
181
330
17F
100
AcDbEntity
  8
0
 62
     2
370
     0
100
AcDbMText
 10
-780.285318
 20
-1135.00895
 30
0.0
 40
6.099999
 41
0.0
 46
0.0
 71
     5
 72
     1
  1
R2610.17
 11
0.9977518762009924
 21
-0.06701636768282437
 31
0.0
 73
     1
 44
1.0
  0
INSERT
  5
182
330
17F
100
AcDbEntity
  8
0
 62
     1
370
    -2
100
AcDbBlockReference
  2
_CLOSED
 10
-749.047733
 20
-1143.285034
 30
0.0
 41
3.0
 42
3.0
 43
3.0
 50
356.157365
  0
LINE
  5
183
330
17F
100
AcDbEntity
  8
0
  6
Continuous
 62
     0
370
    -2
100
AcDbLine
 10
1852.750956
 20
-1318.208923
 30
0.0
 11
1857.750956
 21
-1318.208923
 31
0.0
  0
LINE
  5
184
330
17F
100
AcDbEntity
  8
0
  6
Continuous
 62
     0
370
    -2
100
AcDbLine
 10
1855.250956
 20
-1320.708923
 30
0.0
 11
1855.250956
 21
-1315.708923
 31
0.0
  0
POINT
  5
185
330
17F
100
AcDbEntity
  8
DEFPOINTS
 62
     0
100
AcDbPoint
 10
-749.047733
 20
-1143.285034
 30
0.0
  0
POINT
  5
186
330
17F
100
AcDbEntity
  8
DEFPOINTS
 62
     0
100
AcDbPoint
 10
1855.250956
 20
-1318.208923
 30
0.0
  0
ENDBLK
  5
188
330
17F
100
AcDbEntity
  8
0
100
AcDbBlockEnd
  0
BLOCK
  5
197
330
18A
100
AcDbEntity
  8
0
100
AcDbBlockBegin
  2
*D13
 70
     1
 10
0.0
 20
0.0
 30
0.0
  3
*D13
  1

  0
LINE
  5
18B
330
18A
100
AcDbEntity
  8
0
  6
Continuous
 62
     1
370
    -2
100
AcDbLine
 10
-742.91571
 20
-1067.708923
 30
0.0
 11
-742.91571
 21
-1027.100571
 31
0.0
  0
LINE
  5
18C
330
18A
100
AcDbEntity
  8
0
  6
Continuous
 62
     1
370
    -2
100
AcDbLine
 10
-754.91571
 20
-1317.708923
 30
0.0
 11
-754.91571
 21
-1027.100571
 31
0.0
  0
LINE
  5
18D
330
18A
100
AcDbEntity
  8
0
  6
Continuous
 62
     1
370
    -2
100
AcDbLine
 10
-754.91571
 20
-1027.710571
 30
0.0
 11
-775.262908
 21
-1027.710571
 31
0.0
  0
LINE
  5
18E
330
18A
100
AcDbEntity
  8
0
  6
Continuous
 62
     1
370
    -2
100
AcDbLine
 10
-742.91571
 20
-1027.710571
 30
0.0
 11
-754.91571
 21
-1027.710571
 31
0.0
  0
LINE
  5
18F
330
18A
100
AcDbEntity
  8
0
  6
Continuous
 62
     1
370
    -2
100
AcDbLine
 10
-739.91571
 20
-1027.710571
 30
0.0
 11
-736.91571
 21
-1027.710571
 31
0.0
  0
LINE
  5
190
330
18A
100
AcDbEntity
  8
0
  6
Continuous
 62
     1
370
    -2
100
AcDbLine
 10
-757.91571
 20
-1027.710571
 30
0.0
 11
-760.91571
 21
-1027.710571
 31
0.0
  0
INSERT
  5
191
330
18A
100
AcDbEntity
  8
0
 62
     1
370
    -2
100
AcDbBlockReference
  2
_CLOSED
 10
-742.91571
 20
-1027.710571
 30
0.0
 41
3.0
 42
3.0
 43
3.0
 50
180.0
  0
INSERT
  5
192
330
18A
100
AcDbEntity
  8
0
 62
     1
370
    -2
100
AcDbBlockReference
  2
_CLOSED
 10
-754.91571
 20
-1027.710571
 30
0.0
 41
3.0
 42
3.0
 43
3.0
  0
MTEXT
  5
193
330
18A
100
AcDbEntity
  8
0
 62
     2
370
     0
100
AcDbMText
 10
-768.089309
 20
-1021.546522
 30
0.0
 40
6.099999
 41
0.0
 46
0.0
 71
     5
 72
     1
  1
\ftxt|b0|i0|c0|p0;12
 73
     1
 44
1.0
  0
POINT
  5
194
330
18A
100
AcDbEntity
  8
DEFPOINTS
 62
     0
100
AcDbPoint
 10
-742.91571
 20
-1068.208923
 30
0.0
  0
POINT
  5
195
330
18A
100
AcDbEntity
  8
DEFPOINTS
 62
     0
100
AcDbPoint
 10
-754.91571
 20
-1318.208923
 30
0.0
  0
POINT
  5
196
330
18A
100
AcDbEntity
  8
DEFPOINTS
 62
     0
100
AcDbPoint
 10
-754.91571
 20
-1027.710571
 30
0.0
  0
ENDBLK
  5
198
330
18A
100
AcDbEntity
  8
0
100
AcDbBlockEnd
  0
BLOCK
  5
1A2
330
19A
100
AcDbEntity
  8
0
100
AcDbBlockBegin
  2
*D14
 70
     1
 10
0.0
 20
0.0
 30
0.0
  3
*D14
  1

  0
LINE
  5
19B
330
19A
100
AcDbEntity
  8
0
  6
Continuous
 62
     1
370
    -2
100
AcDbLine
 10
-733.401408
 20
-1086.659297
 30
0.0
 11
-783.142105
 21
-1053.15357
 31
0.0
  0
MTEXT
  5
19C
330
19A
100
AcDbEntity
  8
0
 62
     2
370
     0
100
AcDbMText
 10
-770.789057
 20
-1054.042598
 30
0.0
 40
6.099999
 41
0.0
 46
0.0
 71
     5
 72
     1
  1
R20
 11
0.8293836930001327
 21
-0.5586794159314101
 31
0.0
 73
     1
 44
1.0
  0
INSERT
  5
19D
330
19A
100
AcDbEntity
  8
0
 62
     1
370
    -2
100
AcDbBlockReference
  2
_CLOSED
 10
-730.913257
 20
-1088.335335
 30
0.0
 41
3.0
 42
3.0
 43
3.0
 50
326.03548
  0
LINE
  5
19E
330
19A
100
AcDbEntity
  8
0
  6
Continuous
 62
     0
370
    -2
100
AcDbLine
 10
-716.825584
 20
-1099.508923
 30
0.0
 11
-711.825584
 21
-1099.508923
 31
0.0
  0
LINE
  5
19F
330
19A
100
AcDbEntity
  8
0
  6
Continuous
 62
     0
370
    -2
100
AcDbLine
 10
-714.325584
 20
-1102.008923
 30
0.0
 11
-714.325584
 21
-1097.008923
 31
0.0
  0
POINT
  5
1A0
330
19A
100
AcDbEntity
  8
DEFPOINTS
 62
     0
100
AcDbPoint
 10
-730.913257
 20
-1088.335335
 30
0.0
  0
POINT
  5
1A1
330
19A
100
AcDbEntity
  8
DEFPOINTS
 62
     0
100
AcDbPoint
 10
-714.325584
 20
-1099.508923
 30
0.0
  0
ENDBLK
  5
1A3
330
19A
100
AcDbEntity
  8
0
100
AcDbBlockEnd
  0
BLOCK
  5
1AD
330
1A5
100
AcDbEntity
  8
0
100
AcDbBlockBegin
  2
*D15
 70
     1
 10
0.0
 20
0.0
 30
0.0
  3
*D15
  1

  0
LINE
  5
1A6
330
1A5
100
AcDbEntity
  8
0
  6
Continuous
 62
     1
370
    -2
100
AcDbLine
 10
-722.190642
 20
-1102.19734
 30
0.0
 11
-783.742407
 21
-1087.90292
 31
0.0
  0
MTEXT
  5
1A7
330
1A5
100
AcDbEntity
  8
0
 62
     2
370
     0
100
AcDbMText
 10
-772.380521
 20
-1084.21345
 30
0.0
 40
6.099999
 41
0.0
 46
0.0
 71
     5
 72
     1
  1
R15
 11
0.9740776163884288
 21
-0.2262140518425788
 31
0.0
 73
     1
 44
1.0
  0
INSERT
  5
1A8
330
1A5
100
AcDbEntity
  8
0
 62
     1
370
    -2
100
AcDbBlockReference
  2
_CLOSED
 10
-719.268409
 20
-1102.875982
 30
0.0
 41
3.0
 42
3.0
 43
3.0
 50
346.925721
  0
LINE
  5
1A9
330
1A5
100
AcDbEntity
  8
0
  6
Continuous
 62
     0
370
    -2
100
AcDbLine
 10
-707.157244
 20
-1106.269193
 30
0.0
 11
-702.157244
 21
-1106.269193
 31
0.0
  0
LINE
  5
1AA
330
1A5
100
AcDbEntity
  8
0
  6
Continuous
 62
     0
370
    -2
100
AcDbLine
 10
-704.657244
 20
-1108.769193
 30
0.0
 11
-704.657244
 21
-1103.769193
 31
0.0
  0
POINT
  5
1AB
330
1A5
100
AcDbEntity
  8
DEFPOINTS
 62
     0
100
AcDbPoint
 10
-719.268409
 20
-1102.875982
 30
0.0
  0
POINT
  5
1AC
330
1A5
100
AcDbEntity
  8
DEFPOINTS
 62
     0
100
AcDbPoint
 10
-704.657244
 20
-1106.269193
 30
0.0
  0
ENDBLK
  5
1AE
330
1A5
100
AcDbEntity
  8
0
100
AcDbBlockEnd
  0
BLOCK
  5
1B6
330
1B0
100
AcDbEntity
  8
0
100
AcDbBlockBegin
  2
*D16
 70
     1
 10
0.0
 20
0.0
 30
0.0
  3
*D16
  1

  0
LINE
  5
1B1
330
1B0
100
AcDbEntity
  8
0
  6
Continuous
 62
     1
370
    -2
100
AcDbLine
 10
-654.387493
 20
-1163.395426
 30
0.0
 11
-628.8807
 21
-1180.149805
 31
0.0
  0
MTEXT
  5
1B2
330
1B0
100
AcDbEntity
  8
0
 62
     2
370
     0
100
AcDbMText
 10
-634.474958
 20
-1169.10026
 30
0.0
 40
6.099999
 41
0.0
 46
0.0
 71
     5
 72
     1
  1
R20
 11
0.8358141520911399
 21
-0.5490124799712379
 31
0.0
 73
     1
 44
1.0
  0
INSERT
  5
1B3
330
1B0
100
AcDbEntity
  8
0
 62
     1
370
    -2
100
AcDbBlockReference
  2
_CLOSED
 10
-656.894935
 20
-1161.748388
 30
0.0
 41
3.0
 42
3.0
 43
3.0
 50
146.700709
  0
POINT
  5
1B4
330
1B0
100
AcDbEntity
  8
DEFPOINTS
 62
     0
100
AcDbPoint
 10
-656.894935
 20
-1161.748388
 30
0.0
  0
POINT
  5
1B5
330
1B0
100
AcDbEntity
  8
DEFPOINTS
 62
     0
100
AcDbPoint
 10
-640.178652
 20
-1172.728638
 30
0.0
  0
ENDBLK
  5
1B7
330
1B0
100
AcDbEntity
  8
0
100
AcDbBlockEnd
  0
BLOCK
  5
1C6
330
1B9
100
AcDbEntity
  8
0
100
AcDbBlockBegin
  2
*D17
 70
     1
 10
0.0
 20
0.0
 30
0.0
  3
*D17
  1

  0
LINE
  5
1BA
330
1B9
100
AcDbEntity
  8
0
  6
Continuous
 62
     1
370
    -2
100
AcDbLine
 10
-707.914832
 20
-1319.280499
 30
0.0
 11
-707.914832
 21
-1303.401587
 31
0.0
  0
LINE
  5
1BB
330
1B9
100
AcDbEntity
  8
0
  6
Continuous
 62
     1
370
    -2
100
AcDbLine
 10
-713.314834
 20
-1319.280499
 30
0.0
 11
-713.314834
 21
-1303.401587
 31
0.0
  0
LINE
  5
1BC
330
1B9
100
AcDbEntity
  8
0
  6
Continuous
 62
     1
370
    -2
100
AcDbLine
 10
-707.914832
 20
-1305.501587
 30
0.0
 11
-688.629832
 21
-1305.501587
 31
0.0
  0
LINE
  5
1BD
330
1B9
100
AcDbEntity
  8
0
  6
Continuous
 62
     1
370
    -2
100
AcDbLine
 10
-707.914832
 20
-1305.501587
 30
0.0
 11
-713.314834
 21
-1305.501587
 31
0.0
  0
LINE
  5
1BE
330
1B9
100
AcDbEntity
  8
0
  6
Continuous
 62
     1
370
    -2
100
AcDbLine
 10
-703.539832
 20
-1305.501587
 30
0.0
 11
-699.164832
 21
-1305.501587
 31
0.0
  0
LINE
  5
1BF
330
1B9
100
AcDbEntity
  8
0
  6
Continuous
 62
     1
370
    -2
100
AcDbLine
 10
-717.689834
 20
-1305.501587
 30
0.0
 11
-722.064834
 21
-1305.501587
 31
0.0
  0
INSERT
  5
1C0
330
1B9
100
AcDbEntity
  8
0
 62
     1
370
    -2
100
AcDbBlockReference
  2
_CLOSED
 10
-707.914832
 20
-1305.501587
 30
0.0
 41
4.375
 42
4.375
 43
4.375
 50
180.0
  0
INSERT
  5
1C1
330
1B9
100
AcDbEntity
  8
0
 62
     1
370
    -2
100
AcDbBlockReference
  2
_CLOSED
 10
-713.314834
 20
-1305.501587
 30
0.0
 41
4.375
 42
4.375
 43
4.375
  0
MTEXT
  5
1C2
330
1B9
100
AcDbEntity
  8
0
 62
     2
370
     0
100
AcDbMText
 10
-693.897332
 20
-1301.926337
 30
0.0
 40
3.5
 41
0.0
 46
0.0
 71
     5
 72
     1
  1
\ftxt|b0|i0|c0|p0;5.4
 73
     1
 44
1.0
  0
POINT
  5
1C3
330
1B9
100
AcDbEntity
  8
DEFPOINTS
 62
     0
100
AcDbPoint
 10
-707.914832
 20
-1320.330499
 30
0.0
  0
POINT
  5
1C4
330
1B9
100
AcDbEntity
  8
DEFPOINTS
 62
     0
100
AcDbPoint
 10
-713.314834
 20
-1320.330499
 30
0.0
  0
POINT
  5
1C5
330
1B9
100
AcDbEntity
  8
DEFPOINTS
 62
     0
100
AcDbPoint
 10
-713.314834
 20
-1305.501587
 30
0.0
  0
ENDBLK
  5
1C7
330
1B9
100
AcDbEntity
  8
0
100
AcDbBlockEnd
  0
BLOCK
  5
1D3
330
1C9
100
AcDbEntity
  8
0
100
AcDbBlockBegin
  2
*D18
 70
     1
 10
0.0
 20
0.0
 30
0.0
  3
*D18
  1

  0
LINE
  5
1CA
330
1C9
100
AcDbEntity
  8
0
  6
Continuous
 62
     1
370
    -2
100
AcDbLine
 10
-312.415731
 20
-1149.508923
 30
0.0
 11
-265.296201
 21
-1149.508937
 31
0.0
  0
LINE
  5
1CB
330
1C9
100
AcDbEntity
  8
0
  6
Continuous
 62
     1
370
    -2
100
AcDbLine
 10
-312.41571
 20
-1079.508923
 30
0.0
 11
-265.29618
 21
-1079.508937
 31
0.0
  0
LINE
  5
1CC
330
1C9
100
AcDbEntity
  8
0
  6
Continuous
 62
     1
370
    -2
100
AcDbLine
 10
-265.9062
 20
-1146.508937
 30
0.0
 11
-265.906181
 21
-1082.508937
 31
0.0
  0
INSERT
  5
1CD
330
1C9
100
AcDbEntity
  8
0
 62
     1
370
    -2
100
AcDbBlockReference
  2
_CLOSED
 10
-265.906201
 20
-1149.508937
 30
0.0
 41
3.0
 42
3.0
 43
3.0
 50
269.999983
  0
INSERT
  5
1CE
330
1C9
100
AcDbEntity
  8
0
 62
     1
370
    -2
100
AcDbBlockReference
  2
_CLOSED
 10
-265.90618
 20
-1079.508937
 30
0.0
 41
3.0
 42
3.0
 43
3.0
 50
89.999983
  0
MTEXT
  5
1CF
330
1C9
100
AcDbEntity
  8
0
 62
     2
370
     0
100
AcDbMText
 10
-272.070238
 20
-1108.241942
 30
0.0
 40
6.099999
 41
0.0
 46
0.0
 71
     5
 72
     1
  1
\ftxt|b0|i0|c0|p0;70
 11
3.000000000546082E-7
 21
0.9999999999999551
 31
0.0
 73
     1
 44
1.0
  0
POINT
  5
1D0
330
1C9
100
AcDbEntity
  8
DEFPOINTS
 62
     0
100
AcDbPoint
 10
-312.915731
 20
-1149.508923
 30
0.0
  0
POINT
  5
1D1
330
1C9
100
AcDbEntity
  8
DEFPOINTS
 62
     0
100
AcDbPoint
 10
-312.91571
 20
-1079.508923
 30
0.0
  0
POINT
  5
1D2
330
1C9
100
AcDbEntity
  8
DEFPOINTS
 62
     0
100
AcDbPoint
 10
-265.90618
 20
-1079.508937
 30
0.0
  0
ENDBLK
  5
1D4
330
1C9
100
AcDbEntity
  8
0
100
AcDbBlockEnd
  0
BLOCK
  5
1E0
330
1D6
100
AcDbEntity
  8
0
100
AcDbBlockBegin
  2
*D19
 70
     1
 10
0.0
 20
0.0
 30
0.0
  3
*D19
  1

  0
LINE
  5
1D7
330
1D6
100
AcDbEntity
  8
0
  6
Continuous
 62
     1
370
    -2
100
AcDbLine
 10
9800.781864
 20
5662.431464
 30
0.0
 11
9800.781864
 21
5540.651367
 31
0.0
  0
LINE
  5
1D8
330
1D6
100
AcDbEntity
  8
0
  6
Continuous
 62
     1
370
    -2
100
AcDbLine
 10
10618.981864
 20
5662.431464
 30
0.0
 11
10618.981864
 21
5540.651367
 31
0.0
  0
LINE
  5
1D9
330
1D6
100
AcDbEntity
  8
0
  6
Continuous
 62
     1
370
    -2
100
AcDbLine
 10
9820.781864
 20
5560.651367
 30
0.0
 11
10598.981864
 21
5560.651367
 31
0.0
  0
INSERT
  5
1DA
330
1D6
100
AcDbEntity
  8
0
 62
     1
370
    -2
100
AcDbBlockReference
  2
_CLOSED
 10
9800.781864
 20
5560.651367
 30
0.0
 41
20.0
 42
20.0
 43
20.0
 50
180.0
  0
INSERT
  5
1DB
330
1D6
100
AcDbEntity
  8
0
 62
     1
370
    -2
100
AcDbBlockReference
  2
_CLOSED
 10
10618.981864
 20
5560.651367
 30
0.0
 41
20.0
 42
20.0
 43
20.0
  0
MTEXT
  5
1DC
330
1D6
100
AcDbEntity
  8
0
 62
     2
370
     0
100
AcDbMText
 10
10220.381836
 20
5596.476367
 30
0.0
 40
50.0
 41
0.0
 46
0.0
 71
     5
 72
     1
  1
\fArial|b0|i0|c0|p0;{\fArial|b0|i0;32 1/4"}
 73
     1
 44
1.0
  0
POINT
  5
1DD
330
1D6
100
AcDbEntity
  8
DEFPOINTS
 62
     0
100
AcDbPoint
 10
9800.781864
 20
5712.431464
 30
0.0
  0
POINT
  5
1DE
330
1D6
100
AcDbEntity
  8
DEFPOINTS
 62
     0
100
AcDbPoint
 10
10618.981864
 20
5712.431464
 30
0.0
  0
POINT
  5
1DF
330
1D6
100
AcDbEntity
  8
DEFPOINTS
 62
     0
100
AcDbPoint
 10
10618.981864
 20
5560.651367
 30
0.0
  0
ENDBLK
  5
1E1
330
1D6
100
AcDbEntity
  8
0
100
AcDbBlockEnd
  0
BLOCK
  5
1ED
330
1E3
100
AcDbEntity
  8
0
100
AcDbBlockBegin
  2
*D20
 70
     1
 10
0.0
 20
0.0
 30
0.0
  3
*D20
  1

  0
LINE
  5
1E4
330
1E3
100
AcDbEntity
  8
0
  6
Continuous
 62
     1
370
    -2
100
AcDbLine
 10
10668.981864
 20
5712.431464
 30
0.0
 11
10786.685547
 21
5712.431464
 31
0.0
  0
LINE
  5
1E5
330
1E3
100
AcDbEntity
  8
0
  6
Continuous
 62
     1
370
    -2
100
AcDbLine
 10
10668.981864
 20
6251.231464
 30
0.0
 11
10786.685547
 21
6251.231464
 31
0.0
  0
LINE
  5
1E6
330
1E3
100
AcDbEntity
  8
0
  6
Continuous
 62
     1
370
    -2
100
AcDbLine
 10
10766.685547
 20
5732.431464
 30
0.0
 11
10766.685547
 21
6231.231464
 31
0.0
  0
INSERT
  5
1E7
330
1E3
100
AcDbEntity
  8
0
 62
     1
370
    -2
100
AcDbBlockReference
  2
_CLOSED
 10
10766.685547
 20
5712.431464
 30
0.0
 41
20.0
 42
20.0
 43
20.0
 50
270.0
  0
INSERT
  5
1E8
330
1E3
100
AcDbEntity
  8
0
 62
     1
370
    -2
100
AcDbBlockReference
  2
_CLOSED
 10
10766.685547
 20
6251.231464
 30
0.0
 41
20.0
 42
20.0
 43
20.0
 50
90.0
  0
MTEXT
  5
1E9
330
1E3
100
AcDbEntity
  8
0
 62
     2
370
     0
100
AcDbMText
 10
10730.860547
 20
5984.331543
 30
0.0
 40
50.0
 41
0.0
 46
0.0
 71
     5
 72
     1
  1
\fArial|b0|i0|c0|p0;{\fArial|b0|i0;21 1/4"}
 11
0.0
 21
1.0
 31
0.0
 73
     1
 44
1.0
  0
POINT
  5
1EA
330
1E3
100
AcDbEntity
  8
DEFPOINTS
 62
     0
100
AcDbPoint
 10
10618.981864
 20
5712.431464
 30
0.0
  0
POINT
  5
1EB
330
1E3
100
AcDbEntity
  8
DEFPOINTS
 62
     0
100
AcDbPoint
 10
10618.981864
 20
6251.231464
 30
0.0
  0
POINT
  5
1EC
330
1E3
100
AcDbEntity
  8
DEFPOINTS
 62
     0
100
AcDbPoint
 10
10766.685547
 20
6251.231464
 30
0.0
  0
ENDBLK
  5
1EE
330
1E3
100
AcDbEntity
  8
0
100
AcDbBlockEnd
  0
BLOCK
  5
1FA
330
1F0
100
AcDbEntity
  8
0
100
AcDbBlockBegin
  2
*D21
 70
     1
 10
0.0
 20
0.0
 30
0.0
  3
*D21
  1

  0
LINE
  5
1F1
330
1F0
100
AcDbEntity
  8
0
  6
Continuous
 62
     1
370
    -2
100
AcDbLine
 10
9770.779223
 20
6579.00984
 30
0.0
 11
9770.779209
 21
6498.700234
 31
0.0
  0
LINE
  5
1F2
330
1F0
100
AcDbEntity
  8
0
  6
Continuous
 62
     1
370
    -2
100
AcDbLine
 10
10648.981748
 20
6579.009684
 30
0.0
 11
10648.981734
 21
6498.700078
 31
0.0
  0
LINE
  5
1F3
330
1F0
100
AcDbEntity
  8
0
  6
Continuous
 62
     1
370
    -2
100
AcDbLine
 10
9790.779212
 20
6518.700231
 30
0.0
 11
10628.981737
 21
6518.700082
 31
0.0
  0
INSERT
  5
1F4
330
1F0
100
AcDbEntity
  8
0
 62
     1
370
    -2
100
AcDbBlockReference
  2
_CLOSED
 10
9770.779212
 20
6518.700234
 30
0.0
 41
20.0
 42
20.0
 43
20.0
 50
179.99999
  0
INSERT
  5
1F5
330
1F0
100
AcDbEntity
  8
0
 62
     1
370
    -2
100
AcDbBlockReference
  2
_CLOSED
 10
10648.981737
 20
6518.700078
 30
0.0
 41
20.0
 42
20.0
 43
20.0
 50
359.99999
  0
MTEXT
  5
1F6
330
1F0
100
AcDbEntity
  8
0
 62
     2
370
     0
100
AcDbMText
 10
10209.880481
 20
6554.550157
 30
0.0
 40
50.0
 41
0.0
 46
0.0
 71
     5
 72
     1
  1
\fArial|b0|i0|c0|p0;{\fArial|b0|i0;CABINET  36"}
 11
0.9999999999999842
 21
-1.776355631189775E-7
 31
0.0
 73
     1
 44
1.0
  0
POINT
  5
1F7
330
1F0
100
AcDbEntity
  8
DEFPOINTS
 62
     0
100
AcDbPoint
 10
9770.779232
 20
6629.00984
 30
0.0
  0
POINT
  5
1F8
330
1F0
100
AcDbEntity
  8
DEFPOINTS
 62
     0
100
AcDbPoint
 10
10648.981757
 20
6629.009684
 30
0.0
  0
POINT
  5
1F9
330
1F0
100
AcDbEntity
  8
DEFPOINTS
 62
     0
100
AcDbPoint
 10
10648.981737
 20
6518.700078
 30
0.0
  0
ENDBLK
  5
1FB
330
1F0
100
AcDbEntity
  8
0
100
AcDbBlockEnd
  0
BLOCK
  5
202
330
1FC
100
AcDbEntity
  8
0
100
AcDbBlockBegin
  2
.TD_DIMENSION_3
 70
     0
 10
9761.18457
 20
6108.171875
 30
0.0
  3
.TD_DIMENSION_3
  1

  0
LINE
  5
1FD
330
1FC
100
AcDbEntity
  8
0
  6
Continuous
 62
     1
420
 16711680
100
AcDbLine
 10
9805.389648
 20
6249.652832
 30
0.0
 11
9810.782227
 21
6241.231445
 31
0.0
  0
LINE
  5
1FE
330
1FC
100
AcDbEntity
  8
0
  6
Continuous
 62
     1
420
 16711680
100
AcDbLine
 10
9810.782227
 20
6241.231445
 30
0.0
 11
9895.982422
 21
6108.171875
 31
0.0
  0
MTEXT
  5
1FF
330
1FC
100
AcDbEntity
  8
0
  6
Continuous
 62
     1
420
 16711680
100
AcDbMText
 10
9860.911556
 20
6251.9565
 30
0.0
 40
40.0
 41
0.0
 46
0.0
 71
     1
 72
     1
  1
{\W1.03;{\fArial|b0|i0;R3/8"}}
 11
0.5392445227901593
 21
-0.8421492413110715
 31
0.0
 73
     1
 44
1.0
  0
LWPOLYLINE
  5
200
330
1FC
100
AcDbEntity
  8
0
  6
Continuous
 62
     1
420
 16711680
100
AcDbPolyline
 90
        4
 70
     0
 43
0.0
 10
9816.631836
 20
6237.852051
 10
9805.389648
 20
6249.652832
 10
9811.40332
 20
6234.504395
 10
9816.631836
 20
6237.852051
  0
ENDBLK
  5
203
330
1FC
100
AcDbEntity
  8
0
100
AcDbBlockEnd
  0
BLOCK
  5
20F
330
205
100
AcDbEntity
  8
0
100
AcDbBlockBegin
  2
*D23
 70
     1
 10
0.0
 20
0.0
 30
0.0
  3
*D23
  1

  0
LINE
  5
206
330
205
100
AcDbEntity
  8
0
  6
Continuous
 62
     1
370
    -2
100
AcDbLine
 10
9790.781864
 20
7887.698972
 30
0.0
 11
9790.781864
 21
8028.672364
 31
0.0
  0
LINE
  5
207
330
205
100
AcDbEntity
  8
0
  6
Continuous
 62
     1
370
    -2
100
AcDbLine
 10
10628.981864
 20
7887.698972
 30
0.0
 11
10628.981864
 21
8028.672364
 31
0.0
  0
LINE
  5
208
330
205
100
AcDbEntity
  8
0
  6
Continuous
 62
     1
370
    -2
100
AcDbLine
 10
9806.781864
 20
8012.672363
 30
0.0
 11
10612.981864
 21
8012.672363
 31
0.0
  0
INSERT
  5
209
330
205
100
AcDbEntity
  8
0
 62
     1
370
    -2
100
AcDbBlockReference
  2
_CLOSED
 10
9790.781864
 20
8012.672363
 30
0.0
 41
16.0
 42
16.0
 43
16.0
 50
180.0
  0
INSERT
  5
20A
330
205
100
AcDbEntity
  8
0
 62
     1
370
    -2
100
AcDbBlockReference
  2
_CLOSED
 10
10628.981864
 20
8012.672363
 30
0.0
 41
16.0
 42
16.0
 43
16.0
  0
MTEXT
  5
20B
330
205
100
AcDbEntity
  8
0
 62
     2
370
     0
100
AcDbMText
 10
10166.28125
 20
8041.092363
 30
0.0
 40
40.0
 41
0.0
 46
0.0
 71
     5
 72
     1
  1
\fArial|b0|i0|c0|p0;{\fArial|b0|i0;33"}
 73
     1
 44
1.0
  0
POINT
  5
20C
330
205
100
AcDbEntity
  8
DEFPOINTS
 62
     0
100
AcDbPoint
 10
9790.781864
 20
7847.698972
 30
0.0
  0
POINT
  5
20D
330
205
100
AcDbEntity
  8
DEFPOINTS
 62
     0
100
AcDbPoint
 10
10628.981864
 20
7847.698972
 30
0.0
  0
POINT
  5
20E
330
205
100
AcDbEntity
  8
DEFPOINTS
 62
     0
100
AcDbPoint
 10
10628.981864
 20
8012.672363
 30
0.0
  0
ENDBLK
  5
210
330
205
100
AcDbEntity
  8
0
100
AcDbBlockEnd
  0
BLOCK
  5
21C
330
212
100
AcDbEntity
  8
0
100
AcDbBlockBegin
  2
*D24
 70
     1
 10
0.0
 20
0.0
 30
0.0
  3
*D24
  1

  0
LINE
  5
213
330
212
100
AcDbEntity
  8
0
  6
Continuous
 62
     1
370
    -2
100
AcDbLine
 10
9755.781864
 20
7852.698972
 30
0.0
 11
9572.568359
 21
7852.698972
 31
0.0
  0
LINE
  5
214
330
212
100
AcDbEntity
  8
0
  6
Continuous
 62
     1
370
    -2
100
AcDbLine
 10
9755.781864
 20
7293.898972
 30
0.0
 11
9572.568359
 21
7293.898972
 31
0.0
  0
LINE
  5
215
330
212
100
AcDbEntity
  8
0
  6
Continuous
 62
     1
370
    -2
100
AcDbLine
 10
9588.568359
 20
7836.698972
 30
0.0
 11
9588.568359
 21
7309.898972
 31
0.0
  0
INSERT
  5
216
330
212
100
AcDbEntity
  8
0
 62
     1
370
    -2
100
AcDbBlockReference
  2
_CLOSED
 10
9588.568359
 20
7852.698972
 30
0.0
 41
16.0
 42
16.0
 43
16.0
 50
90.0
  0
INSERT
  5
217
330
212
100
AcDbEntity
  8
0
 62
     1
370
    -2
100
AcDbBlockReference
  2
_CLOSED
 10
9588.568359
 20
7293.898972
 30
0.0
 41
16.0
 42
16.0
 43
16.0
 50
270.0
  0
MTEXT
  5
218
330
212
100
AcDbEntity
  8
0
 62
     2
370
     0
100
AcDbMText
 10
9560.488359
 20
7529.69873
 30
0.0
 40
40.0
 41
0.0
 46
0.0
 71
     5
 72
     1
  1
\fArial|b0|i0|c0|p0;{\fArial|b0|i0;22"}
 11
0.0
 21
1.0
 31
0.0
 73
     1
 44
1.0
  0
POINT
  5
219
330
212
100
AcDbEntity
  8
DEFPOINTS
 62
     0
100
AcDbPoint
 10
9795.781864
 20
7852.698972
 30
0.0
  0
POINT
  5
21A
330
212
100
AcDbEntity
  8
DEFPOINTS
 62
     0
100
AcDbPoint
 10
9795.781864
 20
7293.898972
 30
0.0
  0
POINT
  5
21B
330
212
100
AcDbEntity
  8
DEFPOINTS
 62
     0
100
AcDbPoint
 10
9588.568359
 20
7293.898972
 30
0.0
  0
ENDBLK
  5
21D
330
212
100
AcDbEntity
  8
0
100
AcDbBlockEnd
  0
BLOCK
  5
229
330
21F
100
AcDbEntity
  8
0
100
AcDbBlockBegin
  2
*D25
 70
     1
 10
0.0
 20
0.0
 30
0.0
  3
*D25
  1

  0
LINE
  5
220
330
21F
100
AcDbEntity
  8
0
  6
Continuous
 62
     1
370
    -2
100
AcDbLine
 10
10269.881864
 20
7298.898972
 30
0.0
 11
10269.881864
 21
7191.134277
 31
0.0
  0
LINE
  5
221
330
21F
100
AcDbEntity
  8
0
  6
Continuous
 62
     1
370
    -2
100
AcDbLine
 10
10593.981864
 20
7298.898972
 30
0.0
 11
10593.981864
 21
7191.134277
 31
0.0
  0
LINE
  5
222
330
21F
100
AcDbEntity
  8
0
  6
Continuous
 62
     1
370
    -2
100
AcDbLine
 10
10285.881864
 20
7207.134277
 30
0.0
 11
10577.981864
 21
7207.134277
 31
0.0
  0
INSERT
  5
223
330
21F
100
AcDbEntity
  8
0
 62
     1
370
    -2
100
AcDbBlockReference
  2
_CLOSED
 10
10269.881864
 20
7207.134277
 30
0.0
 41
16.0
 42
16.0
 43
16.0
 50
180.0
  0
INSERT
  5
224
330
21F
100
AcDbEntity
  8
0
 62
     1
370
    -2
100
AcDbBlockReference
  2
_CLOSED
 10
10593.981864
 20
7207.134277
 30
0.0
 41
16.0
 42
16.0
 43
16.0
  0
MTEXT
  5
225
330
21F
100
AcDbEntity
  8
0
 62
     2
370
     0
100
AcDbMText
 10
10440.332031
 20
7235.794277
 30
0.0
 40
40.0
 41
0.0
 46
0.0
 71
     5
 72
     1
  1
\fArial|b0|i0|c0|p0;{\fArial|b0|i0;12 3/4"}
 73
     1
 44
1.0
  0
POINT
  5
226
330
21F
100
AcDbEntity
  8
DEFPOINTS
 62
     0
100
AcDbPoint
 10
10269.881864
 20
7338.898972
 30
0.0
  0
POINT
  5
227
330
21F
100
AcDbEntity
  8
DEFPOINTS
 62
     0
100
AcDbPoint
 10
10593.981864
 20
7338.898972
 30
0.0
  0
POINT
  5
228
330
21F
100
AcDbEntity
  8
DEFPOINTS
 62
     0
100
AcDbPoint
 10
10593.981864
 20
7207.134277
 30
0.0
  0
ENDBLK
  5
22A
330
21F
100
AcDbEntity
  8
0
100
AcDbBlockEnd
  0
BLOCK
  5
236
330
22C
100
AcDbEntity
  8
0
100
AcDbBlockBegin
  2
*D26
 70
     1
 10
0.0
 20
0.0
 30
0.0
  3
*D26
  1

  0
LINE
  5
22D
330
22C
100
AcDbEntity
  8
0
  6
Continuous
 62
     1
370
    -2
100
AcDbLine
 10
10241.881864
 20
7298.898972
 30
0.0
 11
10241.881864
 21
7189.866699
 31
0.0
  0
LINE
  5
22E
330
22C
100
AcDbEntity
  8
0
  6
Continuous
 62
     1
370
    -2
100
AcDbLine
 10
9825.781864
 20
7298.898972
 30
0.0
 11
9825.781864
 21
7189.866699
 31
0.0
  0
LINE
  5
22F
330
22C
100
AcDbEntity
  8
0
  6
Continuous
 62
     1
370
    -2
100
AcDbLine
 10
10225.881864
 20
7205.866699
 30
0.0
 11
9841.781864
 21
7205.866699
 31
0.0
  0
INSERT
  5
230
330
22C
100
AcDbEntity
  8
0
 62
     1
370
    -2
100
AcDbBlockReference
  2
_CLOSED
 10
10241.881864
 20
7205.866699
 30
0.0
 41
16.0
 42
16.0
 43
16.0
  0
INSERT
  5
231
330
22C
100
AcDbEntity
  8
0
 62
     1
370
    -2
100
AcDbBlockReference
  2
_CLOSED
 10
9825.781864
 20
7205.866699
 30
0.0
 41
16.0
 42
16.0
 43
16.0
 50
180.0
  0
MTEXT
  5
232
330
22C
100
AcDbEntity
  8
0
 62
     2
370
     0
100
AcDbMText
 10
10048.631836
 20
7234.526699
 30
0.0
 40
40.0
 41
0.0
 46
0.0
 71
     5
 72
     1
  1
\fArial|b0|i0|c0|p0;{\fArial|b0|i0;16 3/8"}
 73
     1
 44
1.0
  0
POINT
  5
233
330
22C
100
AcDbEntity
  8
DEFPOINTS
 62
     0
100
AcDbPoint
 10
10241.881864
 20
7338.898972
 30
0.0
  0
POINT
  5
234
330
22C
100
AcDbEntity
  8
DEFPOINTS
 62
     0
100
AcDbPoint
 10
9825.781864
 20
7338.898972
 30
0.0
  0
POINT
  5
235
330
22C
100
AcDbEntity
  8
DEFPOINTS
 62
     0
100
AcDbPoint
 10
9825.781864
 20
7205.866699
 30
0.0
  0
ENDBLK
  5
237
330
22C
100
AcDbEntity
  8
0
100
AcDbBlockEnd
  0
BLOCK
  5
246
330
239
100
AcDbEntity
  8
0
100
AcDbBlockBegin
  2
*D27
 70
     1
 10
0.0
 20
0.0
 30
0.0
  3
*D27
  1

  0
LINE
  5
23A
330
239
100
AcDbEntity
  8
0
  6
Continuous
 62
     1
370
    -2
100
AcDbLine
 10
10241.881864
 20
7298.898972
 30
0.0
 11
10241.881864
 21
7056.292969
 31
0.0
  0
LINE
  5
23B
330
239
100
AcDbEntity
  8
0
  6
Continuous
 62
     1
370
    -2
100
AcDbLine
 10
10269.881864
 20
7298.898972
 30
0.0
 11
10269.881864
 21
7056.292969
 31
0.0
  0
LINE
  5
23C
330
239
100
AcDbEntity
  8
0
  6
Continuous
 62
     1
370
    -2
100
AcDbLine
 10
10269.881864
 20
7072.292969
 30
0.0
 11
10485.161484
 21
7072.292969
 31
0.0
  0
LINE
  5
23D
330
239
100
AcDbEntity
  8
0
  6
Continuous
 62
     1
370
    -2
100
AcDbLine
 10
10241.881864
 20
7072.292969
 30
0.0
 11
10269.881864
 21
7072.292969
 31
0.0
  0
LINE
  5
23E
330
239
100
AcDbEntity
  8
0
  6
Continuous
 62
     1
370
    -2
100
AcDbLine
 10
10225.881864
 20
7072.292969
 30
0.0
 11
10209.881864
 21
7072.292969
 31
0.0
  0
LINE
  5
23F
330
239
100
AcDbEntity
  8
0
  6
Continuous
 62
     1
370
    -2
100
AcDbLine
 10
10285.881864
 20
7072.292969
 30
0.0
 11
10301.881864
 21
7072.292969
 31
0.0
  0
INSERT
  5
240
330
239
100
AcDbEntity
  8
0
 62
     1
370
    -2
100
AcDbBlockReference
  2
_CLOSED
 10
10241.881864
 20
7072.292969
 30
0.0
 41
16.0
 42
16.0
 43
16.0
  0
INSERT
  5
241
330
239
100
AcDbEntity
  8
0
 62
     1
370
    -2
100
AcDbBlockReference
  2
_CLOSED
 10
10269.881864
 20
7072.292969
 30
0.0
 41
16.0
 42
16.0
 43
16.0
 50
180.0
  0
MTEXT
  5
242
330
239
100
AcDbEntity
  8
0
 62
     2
370
     0
100
AcDbMText
 10
10409.521484
 20
7100.952969
 30
0.0
 40
40.0
 41
0.0
 46
0.0
 71
     5
 72
     1
  1
\fArial|b0|i0|c0|p0;{\fArial|b0|i0;1 1/8"}
 73
     1
 44
1.0
  0
POINT
  5
243
330
239
100
AcDbEntity
  8
DEFPOINTS
 62
     0
100
AcDbPoint
 10
10241.881864
 20
7338.898972
 30
0.0
  0
POINT
  5
244
330
239
100
AcDbEntity
  8
DEFPOINTS
 62
     0
100
AcDbPoint
 10
10269.881864
 20
7338.898972
 30
0.0
  0
POINT
  5
245
330
239
100
AcDbEntity
  8
DEFPOINTS
 62
     0
100
AcDbPoint
 10
10269.881864
 20
7072.292969
 30
0.0
  0
ENDBLK
  5
247
330
239
100
AcDbEntity
  8
0
100
AcDbBlockEnd
  0
BLOCK
  5
253
330
249
100
AcDbEntity
  8
0
100
AcDbBlockBegin
  2
*D28
 70
     1
 10
0.0
 20
0.0
 30
0.0
  3
*D28
  1

  0
LINE
  5
24A
330
249
100
AcDbEntity
  8
0
  6
Continuous
 62
     1
370
    -2
100
AcDbLine
 10
10568.418415
 20
6946.509455
 30
0.0
 11
10162.194336
 21
6946.509455
 31
0.0
  0
LINE
  5
24B
330
249
100
AcDbEntity
  8
0
  6
Continuous
 62
     1
370
    -2
100
AcDbLine
 10
10215.881854
 20
6844.909748
 30
0.0
 11
10162.194336
 21
6844.909748
 31
0.0
  0
LINE
  5
24C
330
249
100
AcDbEntity
  8
0
  6
Continuous
 62
     1
370
    -2
100
AcDbLine
 10
10178.194336
 20
6930.509455
 30
0.0
 11
10178.194336
 21
6860.909748
 31
0.0
  0
INSERT
  5
24D
330
249
100
AcDbEntity
  8
0
 62
     1
370
    -2
100
AcDbBlockReference
  2
_CLOSED
 10
10178.194336
 20
6946.509455
 30
0.0
 41
16.0
 42
16.0
 43
16.0
 50
90.0
  0
INSERT
  5
24E
330
249
100
AcDbEntity
  8
0
 62
     1
370
    -2
100
AcDbBlockReference
  2
_CLOSED
 10
10178.194336
 20
6844.909748
 30
0.0
 41
16.0
 42
16.0
 43
16.0
 50
270.0
  0
MTEXT
  5
24F
330
249
100
AcDbEntity
  8
0
 62
     2
370
     0
100
AcDbMText
 10
10150.194336
 20
6895.709602
 30
0.0
 40
40.0
 41
0.0
 46
0.0
 71
     5
 72
     1
  1
\fArial|b0|i0|c0|p0;{\fArial|b0|i0;4"}
 11
0.0
 21
1.0
 31
0.0
 73
     1
 44
1.0
  0
POINT
  5
250
330
249
100
AcDbEntity
  8
DEFPOINTS
 62
     0
100
AcDbPoint
 10
10608.418415
 20
6946.509455
 30
0.0
  0
POINT
  5
251
330
249
100
AcDbEntity
  8
DEFPOINTS
 62
     0
100
AcDbPoint
 10
10255.881854
 20
6844.909748
 30
0.0
  0
POINT
  5
252
330
249
100
AcDbEntity
  8
DEFPOINTS
 62
     0
100
AcDbPoint
 10
10178.194336
 20
6844.909748
 30
0.0
  0
ENDBLK
  5
254
330
249
100
AcDbEntity
  8
0
100
AcDbBlockEnd
  0
BLOCK
  5
260
330
256
100
AcDbEntity
  8
0
100
AcDbBlockBegin
  2
*D29
 70
     1
 10
0.0
 20
0.0
 30
0.0
  3
*D29
  1

  0
LINE
  5
257
330
256
100
AcDbEntity
  8
0
  6
Continuous
 62
     1
370
    -2
100
AcDbLine
 10
10643.981864
 20
7328.898972
 30
0.0
 11
10793.679688
 21
7328.898972
 31
0.0
  0
LINE
  5
258
330
256
100
AcDbEntity
  8
0
  6
Continuous
 62
     1
370
    -2
100
AcDbLine
 10
10645.097172
 20
7763.723779
 30
0.0
 11
10793.679688
 21
7763.723779
 31
0.0
  0
LINE
  5
259
330
256
100
AcDbEntity
  8
0
  6
Continuous
 62
     1
370
    -2
100
AcDbLine
 10
10777.679688
 20
7344.898972
 30
0.0
 11
10777.679688
 21
7747.723779
 31
0.0
  0
INSERT
  5
25A
330
256
100
AcDbEntity
  8
0
 62
     1
370
    -2
100
AcDbBlockReference
  2
_CLOSED
 10
10777.679688
 20
7328.898972
 30
0.0
 41
16.0
 42
16.0
 43
16.0
 50
270.0
  0
INSERT
  5
25B
330
256
100
AcDbEntity
  8
0
 62
     1
370
    -2
100
AcDbBlockReference
  2
_CLOSED
 10
10777.679688
 20
7763.723779
 30
0.0
 41
16.0
 42
16.0
 43
16.0
 50
90.0
  0
MTEXT
  5
25C
330
256
100
AcDbEntity
  8
0
 62
     2
370
     0
100
AcDbMText
 10
10749.019687
 20
7546.311376
 30
0.0
 40
40.0
 41
0.0
 46
0.0
 71
     5
 72
     1
  1
\fArial|b0|i0|c0|p0;{\fArial|b0|i0;17 1/8"}
 11
0.0
 21
1.0
 31
0.0
 73
     1
 44
1.0
  0
POINT
  5
25D
330
256
100
AcDbEntity
  8
DEFPOINTS
 62
     0
100
AcDbPoint
 10
10583.981864
 20
7328.898972
 30
0.0
  0
POINT
  5
25E
330
256
100
AcDbEntity
  8
DEFPOINTS
 62
     0
100
AcDbPoint
 10
10585.097172
 20
7763.723779
 30
0.0
  0
POINT
  5
25F
330
256
100
AcDbEntity
  8
DEFPOINTS
 62
     0
100
AcDbPoint
 10
10777.679688
 20
7763.723779
 30
0.0
  0
ENDBLK
  5
261
330
256
100
AcDbEntity
  8
0
100
AcDbBlockEnd
  0
BLOCK
  5
26D
330
263
100
AcDbEntity
  8
0
100
AcDbBlockBegin
  2
*D30
 70
     1
 10
0.0
 20
0.0
 30
0.0
  3
*D30
  1

  0
LINE
  5
264
330
263
100
AcDbEntity
  8
0
  6
Continuous
 62
     1
370
    -2
100
AcDbLine
 10
9750.781864
 20
7817.673348
 30
0.0
 11
9693.999023
 21
7817.673348
 31
0.0
  0
LINE
  5
265
330
263
100
AcDbEntity
  8
0
  6
Continuous
 62
     1
370
    -2
100
AcDbLine
 10
9750.781864
 20
7328.898972
 30
0.0
 11
9693.999023
 21
7328.898972
 31
0.0
  0
LINE
  5
266
330
263
100
AcDbEntity
  8
0
  6
Continuous
 62
     1
370
    -2
100
AcDbLine
 10
9709.999023
 20
7801.673348
 30
0.0
 11
9709.999023
 21
7344.898972
 31
0.0
  0
INSERT
  5
267
330
263
100
AcDbEntity
  8
0
 62
     1
370
    -2
100
AcDbBlockReference
  2
_CLOSED
 10
9709.999023
 20
7817.673348
 30
0.0
 41
16.0
 42
16.0
 43
16.0
 50
90.0
  0
INSERT
  5
268
330
263
100
AcDbEntity
  8
0
 62
     1
370
    -2
100
AcDbBlockReference
  2
_CLOSED
 10
9709.999023
 20
7328.898972
 30
0.0
 41
16.0
 42
16.0
 43
16.0
 50
270.0
  0
MTEXT
  5
269
330
263
100
AcDbEntity
  8
0
 62
     2
370
     0
100
AcDbMText
 10
9681.339023
 20
7555.88623
 30
0.0
 40
40.0
 41
0.0
 46
0.0
 71
     5
 72
     1
  1
\fArial|b0|i0|c0|p0;{\fArial|b0|i0;19 1/4"}
 11
0.0
 21
1.0
 31
0.0
 73
     1
 44
1.0
  0
POINT
  5
26A
330
263
100
AcDbEntity
  8
DEFPOINTS
 62
     0
100
AcDbPoint
 10
9790.781864
 20
7817.673348
 30
0.0
  0
POINT
  5
26B
330
263
100
AcDbEntity
  8
DEFPOINTS
 62
     0
100
AcDbPoint
 10
9790.781864
 20
7328.898972
 30
0.0
  0
POINT
  5
26C
330
263
100
AcDbEntity
  8
DEFPOINTS
 62
     0
100
AcDbPoint
 10
9709.999023
 20
7328.898972
 30
0.0
  0
ENDBLK
  5
26E
330
263
100
AcDbEntity
  8
0
100
AcDbBlockEnd
  0
BLOCK
  5
27D
330
270
100
AcDbEntity
  8
0
100
AcDbBlockBegin
  2
*D31
 70
     1
 10
0.0
 20
0.0
 30
0.0
  3
*D31
  1

  0
LINE
  5
271
330
270
100
AcDbEntity
  8
0
  6
Continuous
 62
     1
370
    -2
100
AcDbLine
 10
9790.781864
 20
7887.698972
 30
0.0
 11
9790.781864
 21
7909.591309
 31
0.0
  0
LINE
  5
272
330
270
100
AcDbEntity
  8
0
  6
Continuous
 62
     1
370
    -2
100
AcDbLine
 10
9834.281864
 20
7847.698972
 30
0.0
 11
9834.281864
 21
7909.591309
 31
0.0
  0
LINE
  5
273
330
270
100
AcDbEntity
  8
0
  6
Continuous
 62
     1
370
    -2
100
AcDbLine
 10
9834.281864
 20
7893.591309
 30
0.0
 11
10088.561875
 21
7893.591309
 31
0.0
  0
LINE
  5
274
330
270
100
AcDbEntity
  8
0
  6
Continuous
 62
     1
370
    -2
100
AcDbLine
 10
9790.781864
 20
7893.591309
 30
0.0
 11
9834.281864
 21
7893.591309
 31
0.0
  0
LINE
  5
275
330
270
100
AcDbEntity
  8
0
  6
Continuous
 62
     1
370
    -2
100
AcDbLine
 10
9774.781864
 20
7893.591309
 30
0.0
 11
9758.781864
 21
7893.591309
 31
0.0
  0
LINE
  5
276
330
270
100
AcDbEntity
  8
0
  6
Continuous
 62
     1
370
    -2
100
AcDbLine
 10
9850.281864
 20
7893.591309
 30
0.0
 11
9866.281864
 21
7893.591309
 31
0.0
  0
INSERT
  5
277
330
270
100
AcDbEntity
  8
0
 62
     1
370
    -2
100
AcDbBlockReference
  2
_CLOSED
 10
9790.781864
 20
7893.591309
 30
0.0
 41
16.0
 42
16.0
 43
16.0
  0
INSERT
  5
278
330
270
100
AcDbEntity
  8
0
 62
     1
370
    -2
100
AcDbBlockReference
  2
_CLOSED
 10
9834.281864
 20
7893.591309
 30
0.0
 41
16.0
 42
16.0
 43
16.0
 50
180.0
  0
MTEXT
  5
279
330
270
100
AcDbEntity
  8
0
 62
     2
370
     0
100
AcDbMText
 10
10012.921875
 20
7922.251309
 30
0.0
 40
40.0
 41
0.0
 46
0.0
 71
     5
 72
     1
  1
\fArial|b0|i0|c0|p0;{\fArial|b0|i0;1 3/4"}
 73
     1
 44
1.0
  0
POINT
  5
27A
330
270
100
AcDbEntity
  8
DEFPOINTS
 62
     0
100
AcDbPoint
 10
9790.781864
 20
7847.698972
 30
0.0
  0
POINT
  5
27B
330
270
100
AcDbEntity
  8
DEFPOINTS
 62
     0
100
AcDbPoint
 10
9834.281864
 20
7807.698972
 30
0.0
  0
POINT
  5
27C
330
270
100
AcDbEntity
  8
DEFPOINTS
 62
     0
100
AcDbPoint
 10
9834.281864
 20
7893.591309
 30
0.0
  0
ENDBLK
  5
27E
330
270
100
AcDbEntity
  8
0
100
AcDbBlockEnd
  0
BLOCK
  5
28A
330
280
100
AcDbEntity
  8
0
100
AcDbBlockBegin
  2
*D32
 70
     1
 10
0.0
 20
0.0
 30
0.0
  3
*D32
  1

  0
LINE
  5
281
330
280
100
AcDbEntity
  8
0
  6
Continuous
 62
     1
370
    -2
100
AcDbLine
 10
10565.481864
 20
7847.698972
 30
0.0
 11
10565.481864
 21
7909.591309
 31
0.0
  0
LINE
  5
282
330
280
100
AcDbEntity
  8
0
  6
Continuous
 62
     1
370
    -2
100
AcDbLine
 10
10463.881864
 20
7847.698972
 30
0.0
 11
10463.881864
 21
7909.591309
 31
0.0
  0
LINE
  5
283
330
280
100
AcDbEntity
  8
0
  6
Continuous
 62
     1
370
    -2
100
AcDbLine
 10
10549.481864
 20
7893.591309
 30
0.0
 11
10479.881864
 21
7893.591309
 31
0.0
  0
INSERT
  5
284
330
280
100
AcDbEntity
  8
0
 62
     1
370
    -2
100
AcDbBlockReference
  2
_CLOSED
 10
10565.481864
 20
7893.591309
 30
0.0
 41
16.0
 42
16.0
 43
16.0
  0
INSERT
  5
285
330
280
100
AcDbEntity
  8
0
 62
     1
370
    -2
100
AcDbBlockReference
  2
_CLOSED
 10
10463.881864
 20
7893.591309
 30
0.0
 41
16.0
 42
16.0
 43
16.0
 50
180.0
  0
MTEXT
  5
286
330
280
100
AcDbEntity
  8
0
 62
     2
370
     0
100
AcDbMText
 10
10514.681864
 20
7921.591309
 30
0.0
 40
40.0
 41
0.0
 46
0.0
 71
     5
 72
     1
  1
\fArial|b0|i0|c0|p0;{\fArial|b0|i0;4"}
 73
     1
 44
1.0
  0
POINT
  5
287
330
280
100
AcDbEntity
  8
DEFPOINTS
 62
     0
100
AcDbPoint
 10
10565.481864
 20
7807.698972
 30
0.0
  0
POINT
  5
288
330
280
100
AcDbEntity
  8
DEFPOINTS
 62
     0
100
AcDbPoint
 10
10463.881864
 20
7807.698972
 30
0.0
  0
POINT
  5
289
330
280
100
AcDbEntity
  8
DEFPOINTS
 62
     0
100
AcDbPoint
 10
10463.881864
 20
7893.591309
 30
0.0
  0
ENDBLK
  5
28B
330
280
100
AcDbEntity
  8
0
100
AcDbBlockEnd
  0
BLOCK
  5
297
330
28D
100
AcDbEntity
  8
0
100
AcDbBlockBegin
  2
*D33
 70
     1
 10
0.0
 20
0.0
 30
0.0
  3
*D33
  1

  0
LINE
  5
28E
330
28D
100
AcDbEntity
  8
0
  6
Continuous
 62
     1
370
    -2
100
AcDbLine
 10
10463.881864
 20
7847.698972
 30
0.0
 11
10463.881864
 21
7909.591309
 31
0.0
  0
LINE
  5
28F
330
28D
100
AcDbEntity
  8
0
  6
Continuous
 62
     1
370
    -2
100
AcDbLine
 10
10362.281864
 20
7847.698972
 30
0.0
 11
10362.281864
 21
7909.591309
 31
0.0
  0
LINE
  5
290
330
28D
100
AcDbEntity
  8
0
  6
Continuous
 62
     1
370
    -2
100
AcDbLine
 10
10447.881864
 20
7893.591309
 30
0.0
 11
10378.281864
 21
7893.591309
 31
0.0
  0
INSERT
  5
291
330
28D
100
AcDbEntity
  8
0
 62
     1
370
    -2
100
AcDbBlockReference
  2
_CLOSED
 10
10463.881864
 20
7893.591309
 30
0.0
 41
16.0
 42
16.0
 43
16.0
  0
INSERT
  5
292
330
28D
100
AcDbEntity
  8
0
 62
     1
370
    -2
100
AcDbBlockReference
  2
_CLOSED
 10
10362.281864
 20
7893.591309
 30
0.0
 41
16.0
 42
16.0
 43
16.0
 50
180.0
  0
MTEXT
  5
293
330
28D
100
AcDbEntity
  8
0
 62
     2
370
     0
100
AcDbMText
 10
10413.081864
 20
7921.591309
 30
0.0
 40
40.0
 41
0.0
 46
0.0
 71
     5
 72
     1
  1
\fArial|b0|i0|c0|p0;{\fArial|b0|i0;4"}
 73
     1
 44
1.0
  0
POINT
  5
294
330
28D
100
AcDbEntity
  8
DEFPOINTS
 62
     0
100
AcDbPoint
 10
10463.881864
 20
7807.698972
 30
0.0
  0
POINT
  5
295
330
28D
100
AcDbEntity
  8
DEFPOINTS
 62
     0
100
AcDbPoint
 10
10362.281864
 20
7807.698972
 30
0.0
  0
POINT
  5
296
330
28D
100
AcDbEntity
  8
DEFPOINTS
 62
     0
100
AcDbPoint
 10
10362.281864
 20
7893.591309
 30
0.0
  0
ENDBLK
  5
298
330
28D
100
AcDbEntity
  8
0
100
AcDbBlockEnd
  0
BLOCK
  5
2A4
330
29A
100
AcDbEntity
  8
0
100
AcDbBlockBegin
  2
*D34
 70
     1
 10
0.0
 20
0.0
 30
0.0
  3
*D34
  1

  0
LINE
  5
29B
330
29A
100
AcDbEntity
  8
0
  6
Continuous
 62
     1
370
    -2
100
AcDbLine
 10
10362.281864
 20
7847.698972
 30
0.0
 11
10362.281864
 21
7909.591309
 31
0.0
  0
LINE
  5
29C
330
29A
100
AcDbEntity
  8
0
  6
Continuous
 62
     1
370
    -2
100
AcDbLine
 10
10260.681864
 20
7847.698972
 30
0.0
 11
10260.681864
 21
7909.591309
 31
0.0
  0
LINE
  5
29D
330
29A
100
AcDbEntity
  8
0
  6
Continuous
 62
     1
370
    -2
100
AcDbLine
 10
10346.281864
 20
7893.591309
 30
0.0
 11
10276.681864
 21
7893.591309
 31
0.0
  0
INSERT
  5
29E
330
29A
100
AcDbEntity
  8
0
 62
     1
370
    -2
100
AcDbBlockReference
  2
_CLOSED
 10
10362.281864
 20
7893.591309
 30
0.0
 41
16.0
 42
16.0
 43
16.0
  0
INSERT
  5
29F
330
29A
100
AcDbEntity
  8
0
 62
     1
370
    -2
100
AcDbBlockReference
  2
_CLOSED
 10
10260.681864
 20
7893.591309
 30
0.0
 41
16.0
 42
16.0
 43
16.0
 50
180.0
  0
MTEXT
  5
2A0
330
29A
100
AcDbEntity
  8
0
 62
     2
370
     0
100
AcDbMText
 10
10311.481864
 20
7921.591309
 30
0.0
 40
40.0
 41
0.0
 46
0.0
 71
     5
 72
     1
  1
\fArial|b0|i0|c0|p0;{\fArial|b0|i0;4"}
 73
     1
 44
1.0
  0
POINT
  5
2A1
330
29A
100
AcDbEntity
  8
DEFPOINTS
 62
     0
100
AcDbPoint
 10
10362.281864
 20
7807.698972
 30
0.0
  0
POINT
  5
2A2
330
29A
100
AcDbEntity
  8
DEFPOINTS
 62
     0
100
AcDbPoint
 10
10260.681864
 20
7807.698972
 30
0.0
  0
POINT
  5
2A3
330
29A
100
AcDbEntity
  8
DEFPOINTS
 62
     0
100
AcDbPoint
 10
10260.681864
 20
7893.591309
 30
0.0
  0
ENDBLK
  5
2A5
330
29A
100
AcDbEntity
  8
0
100
AcDbBlockEnd
  0
BLOCK
  5
2B1
330
2A7
100
AcDbEntity
  8
0
100
AcDbBlockBegin
  2
*D35
 70
     1
 10
0.0
 20
0.0
 30
0.0
  3
*D35
  1

  0
LINE
  5
2A8
330
2A7
100
AcDbEntity
  8
0
  6
Continuous
 62
     1
370
    -2
100
AcDbLine
 10
10684.310416
 20
6946.509725
 30
0.0
 11
10866.934571
 21
6946.509725
 31
0.0
  0
LINE
  5
2A9
330
2A7
100
AcDbEntity
  8
0
  6
Continuous
 62
     1
370
    -2
100
AcDbLine
 10
10615.027147
 20
6701.50962
 30
0.0
 11
10866.934571
 21
6701.50962
 31
0.0
  0
LINE
  5
2AA
330
2A7
100
AcDbEntity
  8
0
  6
Continuous
 62
     1
370
    -2
100
AcDbLine
 10
10850.93457
 20
6930.509725
 30
0.0
 11
10850.93457
 21
6717.50962
 31
0.0
  0
INSERT
  5
2AB
330
2A7
100
AcDbEntity
  8
0
 62
     1
370
    -2
100
AcDbBlockReference
  2
_CLOSED
 10
10850.93457
 20
6946.509725
 30
0.0
 41
16.0
 42
16.0
 43
16.0
 50
90.0
  0
INSERT
  5
2AC
330
2A7
100
AcDbEntity
  8
0
 62
     1
370
    -2
100
AcDbBlockReference
  2
_CLOSED
 10
10850.93457
 20
6701.50962
 30
0.0
 41
16.0
 42
16.0
 43
16.0
 50
270.0
  0
MTEXT
  5
2AD
330
2A7
100
AcDbEntity
  8
0
 62
     2
370
     0
100
AcDbMText
 10
10822.27457
 20
6824.009673
 30
0.0
 40
40.0
 41
0.0
 46
0.0
 71
     5
 72
     1
  1
\fArial|b0|i0|c0|p0;{\fArial|b0|i0;9 1/2"}
 11
0.0
 21
1.0
 31
0.0
 73
     1
 44
1.0
  0
POINT
  5
2AE
330
2A7
100
AcDbEntity
  8
DEFPOINTS
 62
     0
100
AcDbPoint
 10
10624.310416
 20
6946.509725
 30
0.0
  0
POINT
  5
2AF
330
2A7
100
AcDbEntity
  8
DEFPOINTS
 62
     0
100
AcDbPoint
 10
10555.027147
 20
6701.50962
 30
0.0
  0
POINT
  5
2B0
330
2A7
100
AcDbEntity
  8
DEFPOINTS
 62
     0
100
AcDbPoint
 10
10850.93457
 20
6701.50962
 30
0.0
  0
ENDBLK
  5
2B2
330
2A7
100
AcDbEntity
  8
0
100
AcDbBlockEnd
  0
BLOCK
  5
2B9
330
2B3
100
AcDbEntity
  8
0
100
AcDbBlockBegin
  2
.TD_DIMENSION_4
 70
     0
 10
95.660583
 20
-1207.328369
 30
0.0
  3
.TD_DIMENSION_4
  1

  0
LINE
  5
2B4
330
2B3
100
AcDbEntity
  8
0
  6
Continuous
 62
     2
420
 16776960
100
AcDbLine
 10
98.458374
 20
-1103.926514
 30
0.0
 11
163.903076
 21
-1192.178345
 31
0.0
  0
LINE
  5
2B5
330
2B3
100
AcDbEntity
  8
0
  6
Continuous
 62
     2
420
 16776960
100
AcDbLine
 10
163.903076
 20
-1192.178345
 30
0.0
 11
164.903076
 21
-1192.178345
 31
0.0
  0
TEXT
  5
2B6
330
2B3
100
AcDbEntity
  8
0
  6
Continuous
 62
     2
420
 16776960
100
AcDbText
 10
166.403076
 20
-1199.678345
 30
0.0
 40
15.0
  1
zona piana
100
AcDbText
  0
LWPOLYLINE
  5
2B7
330
2B3
100
AcDbEntity
  8
0
  6
Continuous
 62
     2
420
 16776960
100
AcDbPolyline
 90
        4
 70
     0
 43
0.0
 10
99.209862
 20
-1104.614136
 10
98.458374
 20
-1103.926514
 10
98.898201
 20
-1104.845337
 10
99.209862
 20
-1104.614136
  0
ENDBLK
  5
2BA
330
2B3
100
AcDbEntity
  8
0
100
AcDbBlockEnd
  0
ENDSEC
  0
SECTION
  2
ENTITIES
  0
POINT
  5
65
330
1F
100
AcDbEntity
  8
0
  6
Continuous
 62
     2
420
 16776960
 60
     1
370
     0
100
AcDbPoint
 10
-742.91571
 20
-1068.208923
 30
0.0
  0
LINE
  5
67
330
1F
100
AcDbEntity
  8
0
  6
CENTER2
 62
     2
420
 16776960
 60
     1
370
     0
100
AcDbLine
 10
-742.91571
 20
-1068.208923
 30
0.0
 11
-699.571317
 21
-1111.553382
 31
0.0
  0
POINT
  5
68
330
1F
100
AcDbEntity
  8
0
  6
Continuous
 62
     1
420
 16711680
 60
     1
370
     0
100
AcDbPoint
 10
-699.571317
 20
-1111.553382
 30
0.0
  0
LINE
  5
69
330
1F
100
AcDbEntity
  8
0
  6
CENTER2
 62
     2
420
 16776960
 60
     1
370
     0
100
AcDbLine
 10
-312.91574
 20
-1053.371393
 30
0.0
 11
-312.915649
 21
-1587.289604
 31
0.0
  0
LINE
  5
6B
330
1F
100
AcDbEntity
  8
0
  6
BORDER
 62
     2
420
 16776960
 60
     1
370
     0
100
AcDbLine
 10
-787.178833
 20
-1320.330499
 30
0.0
 11
182.606445
 21
-1320.330498
 31
0.0
  0
ARC
  5
6C
330
1F
100
AcDbEntity
  8
0
  6
Continuous
 62
     1
420
 16711680
 60
     1
370
     0
100
AcDbCircle
 10
-312.91571
 20
-10065.574962
 30
0.0
 40
8962.36603880329
100
AcDbArc
 50
92.301805
 51
92.47263
  0
ARC
  5
6D
330
1F
100
AcDbEntity
  8
0
  6
Continuous
 62
     1
420
 16711680
 60
     1
370
     0
100
AcDbCircle
 10
1855.250956
 20
-1318.208923
 30
0.0
 40
2563.166666666646
100
AcDbArc
 50
175.375503
 51
175.975332
  0
INSERT
  5
9A
330
1F
100
AcDbEntity
  8
0
  6
Continuous
 62
     1
420
 16711680
 60
     1
370
     0
100
AcDbBlockReference
  2
.TD_DIMENSION_1
 10
-1414.65857
 20
-2284.251954
 30
0.0
  0
INSERT
  5
A4
330
1F
100
AcDbEntity
  8
0
  6
Continuous
 62
     1
420
 16711680
 60
     1
370
     0
100
AcDbBlockReference
  2
.TD_DIMENSION_2
 10
-177.062362
 20
-3072.79248
 30
0.0
  0
LINE
  5
A5
330
1F
100
AcDbEntity
  8
0
  6
Continuous
 62
     6
420
 16711935
370
     0
100
AcDbLine
 10
9795.781864
 20
7852.698972
 30
0.0
 11
10623.981864
 21
7852.698972
 31
0.0
  0
LINE
  5
A6
330
1F
100
AcDbEntity
  8
0
  6
Continuous
 62
     6
420
 16711935
370
     0
100
AcDbLine
 10
10628.981864
 20
7847.698972
 30
0.0
 11
10628.981864
 21
7298.898972
 31
0.0
  0
LINE
  5
A7
330
1F
100
AcDbEntity
  8
0
  6
Continuous
 62
     6
420
 16711935
370
     0
100
AcDbLine
 10
10623.981864
 20
7293.898972
 30
0.0
 11
9795.781864
 21
7293.898972
 31
0.0
  0
LINE
  5
A8
330
1F
100
AcDbEntity
  8
0
  6
Continuous
 62
     6
420
 16711935
370
     0
100
AcDbLine
 10
9790.781864
 20
7298.898972
 30
0.0
 11
9790.781864
 21
7847.698972
 31
0.0
  0
LINE
  5
A9
330
1F
100
AcDbEntity
  8
0
  6
Continuous
 62
     6
420
 16711935
370
     0
100
AcDbLine
 10
10593.981864
 20
7338.898972
 30
0.0
 11
10593.981864
 21
7753.78617
 31
0.0
  0
LINE
  5
AA
330
1F
100
AcDbEntity
  8
0
  6
Continuous
 62
     6
420
 16711935
370
     0
100
AcDbLine
 10
9825.781864
 20
7756.556101
 30
0.0
 11
9825.781864
 21
7338.898972
 31
0.0
  0
LINE
  5
AB
330
1F
100
AcDbEntity
  8
0
  6
Continuous
 62
     6
420
 16711935
370
     0
100
AcDbLine
 10
9835.781864
 20
7328.898972
 30
0.0
 11
10583.981864
 21
7328.898972
 31
0.0
  0
SPLINE
  5
AC
330
1F
100
AcDbEntity
  8
0
  6
Continuous
 62
     6
420
 16711935
370
     0
100
AcDbSpline
210
0.0
220
0.0
230
1.0
 70
     8
 71
     3
 72
     9
 73
     5
 74
     0
 42
0.0
 43
0.0
 40
0.0128901626816506
 40
0.0128901626816506
 40
0.0128901626816506
 40
0.0128901626816506
 40
0.4879978249719527
 40
0.9548324329387667
 40
0.9548324329387667
 40
0.9548324329387667
 40
0.9548324329387667
 10
9831.308716631225
 20
7765.499867179142
 30
0.0
 10
9899.214686649399
 20
7799.4624470767
 30
0.0
 10
10034.04589890929
 20
7833.958869034304
 30
0.0
 10
10169.27703769883
 20
7803.352393825126
 30
0.0
 10
10236.396974389
 20
7772.19248286639
 30
0.0
  0
SPLINE
  5
AD
330
1F
100
AcDbEntity
  8
0
  6
Continuous
 62
     6
420
 16711935
370
     0
100
AcDbSpline
210
0.0
220
0.0
230
1.0
 70
     8
 71
     3
 72
     9
 73
     5
 74
     0
 42
0.0
 43
0.0
 40
0.0661733825996742
 40
0.0661733825996742
 40
0.0661733825996742
 40
0.0661733825996742
 40
0.5162105923986747
 40
0.9737158858232361
 40
0.9737158858232361
 40
0.9737158858232361
 40
0.9737158858232361
 10
10278.25983468377
 20
7765.173351417213
 30
0.0
 10
10328.98903426595
 20
7770.385179621164
 30
0.0
 10
10431.27878644593
 20
7775.443887566706
 30
0.0
 10
10533.54743284264
 20
7769.509261451478
 30
0.0
 10
10585.0971720325
 20
7763.72377946332
 30
0.0
  0
ARC
  5
AE
330
1F
100
AcDbEntity
  8
0
  6
Continuous
 62
     6
420
 16711935
370
     0
100
AcDbCircle
 10
10270.083285
 20
7844.754405
 30
0.0
 40
80.0
100
AcDbArc
 50
245.09728
 51
275.865906
  0
ARC
  5
AF
330
1F
100
AcDbEntity
  8
0
  6
Continuous
 62
     6
420
 16711935
370
     0
100
AcDbCircle
 10
9795.781864
 20
7847.698972
 30
0.0
 40
5.0
100
AcDbArc
 50
90.0
 51
180.0
  0
ARC
  5
B0
330
1F
100
AcDbEntity
  8
0
  6
Continuous
 62
     6
420
 16711935
370
     0
100
AcDbCircle
 10
9795.781864
 20
7298.898972
 30
0.0
 40
5.0
100
AcDbArc
 50
180.0
 51
270.0
  0
ARC
  5
B1
330
1F
100
AcDbEntity
  8
0
  6
Continuous
 62
     6
420
 16711935
370
     0
100
AcDbCircle
 10
10623.981864
 20
7298.898972
 30
0.0
 40
5.0
100
AcDbArc
 50
270.0
 51
0.0
  0
ARC
  5
B2
330
1F
100
AcDbEntity
  8
0
  6
Continuous
 62
     6
420
 16711935
370
     0
100
AcDbCircle
 10
10623.981864
 20
7847.698972
 30
0.0
 40
5.0
100
AcDbArc
 50
0.0
 51
90.0
  0
ARC
  5
B3
330
1F
100
AcDbEntity
  8
0
  6
Continuous
 62
     6
420
 16711935
370
     0
100
AcDbCircle
 10
9835.781864
 20
7756.556101
 30
0.0
 40
10.0
100
AcDbArc
 50
116.571527
 51
180.0
  0
ARC
  5
B4
330
1F
100
AcDbEntity
  8
0
  6
Continuous
 62
     6
420
 16711935
370
     0
100
AcDbCircle
 10
9835.781864
 20
7338.898972
 30
0.0
 40
10.0
100
AcDbArc
 50
180.0
 51
270.0
  0
ARC
  5
B5
330
1F
100
AcDbEntity
  8
0
  6
Continuous
 62
     6
420
 16711935
370
     0
100
AcDbCircle
 10
10583.981864
 20
7338.898972
 30
0.0
 40
10.0
100
AcDbArc
 50
270.0
 51
0.0
  0
ARC
  5
B6
330
1F
100
AcDbEntity
  8
0
  6
Continuous
 62
     6
420
 16711935
370
     0
100
AcDbCircle
 10
10583.981864
 20
7753.78617
 30
0.0
 40
10.0
100
AcDbArc
 50
0.0
 51
83.59643
  0
CIRCLE
  5
B7
330
1F
100
AcDbEntity
  8
0
  6
Continuous
 62
     2
420
 16776960
370
     0
100
AcDbCircle
 10
10033.831864
 20
7730.853348
 30
0.0
 40
42.0
  0
CIRCLE
  5
B8
330
1F
100
AcDbEntity
  8
0
  6
Continuous
 62
     1
420
 16711680
370
     0
100
AcDbCircle
 10
10033.831864
 20
7730.853348
 30
0.0
 40
55.0
  0
LINE
  5
BA
330
1F
100
AcDbEntity
  8
0
  6
DASHDOT
 62
     1
420
 16711680
370
     0
100
AcDbLine
 10
10033.831864
 20
7800.853348
 30
0.0
 11
10033.831864
 21
7660.853348
 31
0.0
  0
LINE
  5
BB
330
1F
100
AcDbEntity
  8
0
  6
DASHDOT
 62
     1
420
 16711680
370
     0
100
AcDbLine
 10
10103.831864
 20
7730.853348
 30
0.0
 11
9963.831864
 21
7730.853348
 31
0.0
  0
CIRCLE
  5
BC
330
1F
100
AcDbEntity
  8
0
  6
Continuous
 62
     2
420
 16776960
370
     0
100
AcDbCircle
 10
10431.694333
 20
7685.873566
 30
0.0
 40
42.0
  0
CIRCLE
  5
BD
330
1F
100
AcDbEntity
  8
0
  6
Continuous
 62
     1
420
 16711680
370
     0
100
AcDbCircle
 10
10431.694333
 20
7685.873566
 30
0.0
 40
55.0
  0
LINE
  5
BE
330
1F
100
AcDbEntity
  8
0
  6
DASHDOT
 62
     1
420
 16711680
370
     0
100
AcDbLine
 10
10431.694333
 20
7755.873566
 30
0.0
 11
10431.694333
 21
7615.873566
 31
0.0
  0
LINE
  5
BF
330
1F
100
AcDbEntity
  8
0
  6
DASHDOT
 62
     1
420
 16711680
370
     0
100
AcDbLine
 10
10501.694333
 20
7685.873566
 30
0.0
 11
10361.694333
 21
7685.873566
 31
0.0
  0
LINE
  5
C0
330
1F
100
AcDbEntity
  8
0
  6
Continuous
 62
     6
420
 16711935
370
     0
100
AcDbLine
 10
11117.111012
 20
8215.742783
 30
0.0
 11
11117.111012
 21
5423.292973
 31
0.0
  0
LINE
  5
C1
330
1F
100
AcDbEntity
  8
0
  6
Continuous
 62
     6
420
 16711935
370
     0
100
AcDbLine
 10
9292.730519
 20
5423.292973
 30
0.0
 11
9292.730519
 21
8215.742783
 31
0.0
  0
LINE
  5
C2
330
1F
100
AcDbEntity
  8
0
  6
Continuous
 62
     6
420
 16711935
370
     0
100
AcDbLine
 10
9292.730519
 20
8215.742783
 30
0.0
 11
11117.111012
 21
8215.742783
 31
0.0
  0
MTEXT
  5
C3
330
1F
100
AcDbEntity
  8
0
  6
Continuous
 62
     7
420
 16777215
370
     0
100
AcDbMText
 10
10726.421875
 20
8402.045898
 30
0.0
 40
126.719994
 41
0.0
 46
0.0
 71
     3
 72
     1
  1
{\fArial|b0|i0;Code AM8420}
  7
ANSI
 73
     2
 44
0.99598
  0
LINE
  5
C4
330
1F
100
AcDbEntity
  8
0
  6
Continuous
 62
     6
420
 16711935
370
     0
100
AcDbLine
 10
9810.781864
 20
6251.231464
 30
0.0
 11
10608.981864
 21
6251.231464
 31
0.0
  0
LINE
  5
C5
330
1F
100
AcDbEntity
  8
0
  6
Continuous
 62
     6
420
 16711935
370
     0
100
AcDbLine
 10
10608.981864
 20
5712.431464
 30
0.0
 11
9810.781864
 21
5712.431464
 31
0.0
  0
LINE
  5
C6
330
1F
100
AcDbEntity
  8
0
  6
Continuous
 62
     6
420
 16711935
370
     0
100
AcDbLine
 10
9800.781864
 20
5722.431464
 30
0.0
 11
9800.781864
 21
6241.231464
 31
0.0
  0
LINE
  5
C7
330
1F
100
AcDbEntity
  8
0
  6
Continuous
 62
     6
420
 16711935
370
     0
100
AcDbLine
 10
10618.981864
 20
5722.431464
 30
0.0
 11
10618.981864
 21
6241.231464
 31
0.0
  0
LINE
  5
C8
330
1F
100
AcDbEntity
  8
0
  6
Continuous
 62
     2
420
 16776960
370
     0
100
AcDbLine
 10
9770.779232
 20
6905.00984
 30
0.0
 11
9770.779232
 21
6629.00984
 31
0.0
  0
LINE
  5
C9
330
1F
100
AcDbEntity
  8
0
  6
Continuous
 62
     2
420
 16776960
370
     0
100
AcDbLine
 10
9770.779232
 20
6629.00984
 30
0.0
 11
9788.779232
 21
6629.00984
 31
0.0
  0
LINE
  5
CA
330
1F
100
AcDbEntity
  8
0
  6
Continuous
 62
     2
420
 16776960
370
     0
100
AcDbLine
 10
9788.779232
 20
6629.00984
 30
0.0
 11
9788.779232
 21
6905.00984
 31
0.0
  0
LINE
  5
CB
330
1F
100
AcDbEntity
  8
0
  6
Continuous
 62
     2
420
 16776960
370
     0
100
AcDbLine
 10
10630.981757
 20
6905.009684
 30
0.0
 11
10630.981757
 21
6629.009684
 31
0.0
  0
LINE
  5
CC
330
1F
100
AcDbEntity
  8
0
  6
Continuous
 62
     2
420
 16776960
370
     0
100
AcDbLine
 10
10648.981757
 20
6629.009684
 30
0.0
 11
10648.981757
 21
6905.009684
 31
0.0
  0
LINE
  5
CD
330
1F
100
AcDbEntity
  8
0
  6
Continuous
 62
     2
420
 16776960
370
     0
100
AcDbLine
 10
10630.981778
 20
6629.009695
 30
0.0
 11
10648.981778
 21
6629.009695
 31
0.0
  0
LINE
  5
CE
330
1F
100
AcDbEntity
  8
0
  6
Continuous
 62
     3
420
    65280
370
     0
100
AcDbLine
 10
9770.779232
 20
6905.00984
 30
0.0
 11
9788.779232
 21
6905.00984
 31
0.0
  0
LINE
  5
CF
330
1F
100
AcDbEntity
  8
0
  6
Continuous
 62
     2
420
 16776960
370
     0
100
AcDbLine
 10
10618.981757
 20
6905.009684
 30
0.0
 11
10704.397479
 21
6905.009684
 31
0.0
  0
SPLINE
  5
D0
330
1F
100
AcDbEntity
  8
0
  6
Continuous
 62
     2
420
 16776960
370
     0
100
AcDbSpline
210
0.0
220
0.0
230
1.0
 70
     8
 71
     3
 72
     8
 73
     4
 74
     0
 42
0.0
 43
0.0
 40
0.0
 40
0.0
 40
0.0
 40
0.0
 40
1.0
 40
1.0
 40
1.0
 40
1.0
 10
10704.3974788052
 20
6905.009683744038
 30
0.0
 10
10699.10082492611
 20
6916.042591094521
 30
0.0
 10
10705.79462893278
 20
6927.468297893671
 30
0.0
 10
10707.16191787817
 20
6935.009683744038
 30
0.0
  0
LINE
  5
D1
330
1F
100
AcDbEntity
  8
0
  6
Continuous
 62
     2
420
 16776960
370
     0
100
AcDbLine
 10
10707.161918
 20
6935.009684
 30
0.0
 11
10618.981757
 21
6935.009684
 31
0.0
  0
LINE
  5
D2
330
1F
100
AcDbEntity
  8
0
  6
Continuous
 62
     2
420
 16776960
370
     0
100
AcDbLine
 10
10618.981757
 20
6935.009684
 30
0.0
 11
10618.981757
 21
6905.009684
 31
0.0
  0
LINE
  5
D3
330
1F
100
AcDbEntity
  8
0
  6
Continuous
 62
     2
420
 16776960
370
     0
100
AcDbLine
 10
9712.599072
 20
6935.00984
 30
0.0
 11
9800.779232
 21
6935.00984
 31
0.0
  0
SPLINE
  5
D4
330
1F
100
AcDbEntity
  8
0
  6
Continuous
 62
     2
420
 16776960
370
     0
100
AcDbSpline
210
0.0
220
0.0
230
1.0
 70
     8
 71
     3
 72
     8
 73
     4
 74
     0
 42
0.0
 43
0.0
 40
0.0
 40
0.0
 40
0.0
 40
0.0
 40
1.0
 40
1.0
 40
1.0
 40
1.0
 10
9715.363510802614
 20
6905.009840146626
 30
0.0
 10
9720.660164681707
 20
6916.042747497109
 30
0.0
 10
9713.96636067504
 20
6927.468454296259
 30
0.0
 10
9712.599071729644
 20
6935.009840146626
 30
0.0
  0
LINE
  5
D5
330
1F
100
AcDbEntity
  8
0
  6
Continuous
 62
     2
420
 16776960
370
     0
100
AcDbLine
 10
9800.779232
 20
6905.00984
 30
0.0
 11
9715.363511
 21
6905.00984
 31
0.0
  0
LINE
  5
D6
330
1F
100
AcDbEntity
  8
0
  6
Continuous
 62
     2
420
 16776960
370
     0
100
AcDbLine
 10
9800.779232
 20
6935.00984
 30
0.0
 11
9800.779232
 21
6905.00984
 31
0.0
  0
LINE
  5
D7
330
1F
100
AcDbEntity
  8
0
  6
Continuous
 62
     5
420
      255
370
     0
100
AcDbLine
 10
10621.955019
 20
6935.009725
 30
0.0
 11
10628.981757
 21
6935.009725
 31
0.0
  0
LINE
  5
D8
330
1F
100
AcDbEntity
  8
0
  6
Continuous
 62
     5
420
      255
370
     0
100
AcDbLine
 10
10621.955019
 20
6935.009725
 30
0.0
 11
10621.808535
 21
6936.684036
 31
0.0
  0
LINE
  5
D9
330
1F
100
AcDbEntity
  8
0
  6
Continuous
 62
     5
420
      255
370
     0
100
AcDbLine
 10
10628.981864
 20
6935.009684
 30
0.0
 11
10628.295194
 21
6942.858348
 31
0.0
  0
LINE
  5
DA
330
1F
100
AcDbEntity
  8
0
  6
Continuous
 62
     5
420
      255
370
     0
100
AcDbLine
 10
10593.567556
 20
6943.135462
 30
0.0
 11
10565.960119
 21
6718.290926
 31
0.0
  0
ARC
  5
DB
330
1F
100
AcDbEntity
  8
0
  6
Continuous
 62
     5
420
      255
370
     0
100
AcDbCircle
 10
10597.51831
 20
6942.509725
 30
0.0
 40
4.0
100
AcDbArc
 50
90.0
 51
171.0
  0
ARC
  5
DC
330
1F
100
AcDbEntity
  8
0
  6
Continuous
 62
     5
420
      255
370
     0
100
AcDbCircle
 10
10624.310416
 20
6942.509725
 30
0.0
 40
4.0
100
AcDbArc
 50
5.0
 51
90.0
  0
LINE
  5
DD
330
1F
100
AcDbEntity
  8
0
  6
Continuous
 62
     5
420
      255
370
     0
100
AcDbLine
 10
10270.52875
 20
6839.640964
 30
0.0
 11
10285.428661
 21
6718.290926
 31
0.0
  0
LINE
  5
DE
330
1F
100
AcDbEntity
  8
0
  6
Continuous
 62
     5
420
      255
370
     0
100
AcDbLine
 10
10264.242816
 20
6833.397225
 30
0.0
 11
10278.495802
 21
6717.315972
 31
0.0
  0
ARC
  5
DF
330
1F
100
AcDbEntity
  8
0
  6
Continuous
 62
     5
420
      255
370
     0
100
AcDbCircle
 10
10619.816146
 20
6936.509725
 30
0.0
 40
2.0
100
AcDbArc
 50
5.0
 51
90.0
  0
LINE
  5
E0
330
1F
100
AcDbEntity
  8
0
  6
Continuous
 62
     5
420
      255
370
     0
100
AcDbLine
 10
10601.821606
 20
6938.509725
 30
0.0
 11
10619.816146
 21
6938.509725
 31
0.0
  0
ARC
  5
E1
330
1F
100
AcDbEntity
  8
0
  6
Continuous
 62
     5
420
      255
370
     0
100
AcDbCircle
 10
10601.821606
 20
6936.509725
 30
0.0
 40
2.0
100
AcDbArc
 50
90.0
 51
173.0
  0
LINE
  5
E2
330
1F
100
AcDbEntity
  8
0
  6
Continuous
 62
     5
420
      255
370
     0
100
AcDbLine
 10
10572.892978
 20
6717.315972
 30
0.0
 11
10599.836514
 21
6936.753463
 31
0.0
  0
LINE
  5
E3
330
1F
100
AcDbEntity
  8
0
  6
Continuous
 62
     5
420
      255
370
     0
100
AcDbLine
 10
10296.361633
 20
6701.50962
 30
0.0
 11
10555.027147
 21
6701.50962
 31
0.0
  0
LINE
  5
E4
330
1F
100
AcDbEntity
  8
0
  6
Continuous
 62
     5
420
      255
370
     0
100
AcDbLine
 10
9797.808709
 20
6935.009725
 30
0.0
 11
9790.78197
 21
6935.009725
 31
0.0
  0
LINE
  5
E5
330
1F
100
AcDbEntity
  8
0
  6
Continuous
 62
     5
420
      255
370
     0
100
AcDbLine
 10
9797.808709
 20
6935.009725
 30
0.0
 11
9797.955192
 21
6936.684036
 31
0.0
  0
LINE
  5
E6
330
1F
100
AcDbEntity
  8
0
  6
Continuous
 62
     5
420
      255
370
     0
100
AcDbLine
 10
9790.781864
 20
6935.009684
 30
0.0
 11
9791.468533
 21
6942.858348
 31
0.0
  0
LINE
  5
E7
330
1F
100
AcDbEntity
  8
0
  6
Continuous
 62
     5
420
      255
370
     0
100
AcDbLine
 10
9826.196171
 20
6943.135462
 30
0.0
 11
9853.803633
 21
6718.290729
 31
0.0
  0
ARC
  5
E8
330
1F
100
AcDbEntity
  8
0
  6
Continuous
 62
     5
420
      255
370
     0
100
AcDbCircle
 10
9822.245417
 20
6942.509725
 30
0.0
 40
4.0
100
AcDbArc
 50
9.0
 51
90.0
  0
ARC
  5
E9
330
1F
100
AcDbEntity
  8
0
  6
Continuous
 62
     5
420
      255
370
     0
100
AcDbCircle
 10
9795.453311
 20
6942.509725
 30
0.0
 40
4.0
100
AcDbArc
 50
90.0
 51
175.0
  0
ARC
  5
EA
330
1F
100
AcDbEntity
  8
0
  6
Continuous
 62
     5
420
      255
370
     0
100
AcDbCircle
 10
9799.947581
 20
6936.509725
 30
0.0
 40
2.0
100
AcDbArc
 50
90.0
 51
175.0
  0
LINE
  5
EB
330
1F
100
AcDbEntity
  8
0
  6
Continuous
 62
     5
420
      255
370
     0
100
AcDbLine
 10
9817.942121
 20
6938.509725
 30
0.0
 11
9799.947581
 21
6938.509725
 31
0.0
  0
ARC
  5
EC
330
1F
100
AcDbEntity
  8
0
  6
Continuous
 62
     5
420
      255
370
     0
100
AcDbCircle
 10
9817.942121
 20
6936.509725
 30
0.0
 40
2.0
100
AcDbArc
 50
7.0
 51
90.0
  0
LINE
  5
ED
330
1F
100
AcDbEntity
  8
0
  6
Continuous
 62
     5
420
      255
370
     0
100
AcDbLine
 10
9846.870773
 20
6717.315774
 30
0.0
 11
9819.927213
 21
6936.753463
 31
0.0
  0
LINE
  5
EE
330
1F
100
AcDbEntity
  8
0
  6
Continuous
 62
     5
420
      255
370
     0
100
AcDbLine
 10
10215.402051
 20
6701.509423
 30
0.0
 11
9864.736604
 21
6701.509423
 31
0.0
  0
LINE
  5
EF
330
1F
100
AcDbEntity
  8
0
  6
Continuous
 62
     1
420
 16711680
370
     0
100
AcDbLine
 10
9811.345417
 20
6946.50941
 30
0.0
 11
10608.418415
 21
6946.509455
 31
0.0
  0
LINE
  5
F0
330
1F
100
AcDbEntity
  8
0
  6
Continuous
 62
     5
420
      255
370
     0
100
AcDbLine
 10
10597.51831
 20
6946.509725
 30
0.0
 11
10624.310416
 21
6946.509725
 31
0.0
  0
LINE
  5
F1
330
1F
100
AcDbEntity
  8
0
  6
Continuous
 62
     5
420
      255
370
     0
100
AcDbLine
 10
9822.245417
 20
6946.509725
 30
0.0
 11
9795.453311
 21
6946.509725
 31
0.0
  0
ARC
  5
F2
330
1F
100
AcDbEntity
  8
0
  6
Continuous
 62
     5
420
      255
370
     0
100
AcDbCircle
 10
10260.272631
 20
6832.909747
 30
0.0
 40
4.0
100
AcDbArc
 50
7.0
 51
90.000003
  0
ARC
  5
F3
330
1F
100
AcDbEntity
  8
0
  6
Continuous
 62
     5
420
      255
370
     0
100
AcDbCircle
 10
10251.491076
 20
6832.909748
 30
0.0
 40
4.0
100
AcDbArc
 50
89.999997
 51
173.0
  0
LINE
  5
F4
330
1F
100
AcDbEntity
  8
0
  6
Continuous
 62
     5
420
      255
370
     0
100
AcDbLine
 10
10241.234958
 20
6839.640964
 30
0.0
 11
10226.335022
 21
6718.290729
 31
0.0
  0
LINE
  5
F5
330
1F
100
AcDbEntity
  8
0
  6
Continuous
 62
     5
420
      255
370
     0
100
AcDbLine
 10
10247.520892
 20
6833.397225
 30
0.0
 11
10233.267882
 21
6717.315774
 31
0.0
  0
LINE
  5
F6
330
1F
100
AcDbEntity
  8
0
  6
Continuous
 62
     5
420
      255
370
     0
100
AcDbLine
 10
9863.729094
 20
6709.509423
 30
0.0
 11
10216.409561
 21
6709.509423
 31
0.0
  0
LINE
  5
F7
330
1F
100
AcDbEntity
  8
0
  6
Continuous
 62
     5
420
      255
370
     0
100
AcDbLine
 10
10556.034657
 20
6709.50962
 30
0.0
 11
10295.354123
 21
6709.50962
 31
0.0
  0
LINE
  5
F8
330
1F
100
AcDbEntity
  8
0
  6
Continuous
 62
     2
420
 16776960
370
     0
100
AcDbLine
 10
10630.981757
 20
6905.009684
 30
0.0
 11
10648.981757
 21
6905.009684
 31
0.0
  0
ARC
  5
F9
330
1F
100
AcDbEntity
  8
0
  6
Continuous
 62
     6
420
 16711935
370
     0
100
AcDbCircle
 10
9810.781864
 20
6241.231464
 30
0.0
 40
10.0
100
AcDbArc
 50
90.0
 51
180.0
  0
ARC
  5
FA
330
1F
100
AcDbEntity
  8
0
  6
Continuous
 62
     6
420
 16711935
370
     0
100
AcDbCircle
 10
10608.981864
 20
6241.231464
 30
0.0
 40
10.0
100
AcDbArc
 50
0.0
 51
90.0
  0
ARC
  5
FB
330
1F
100
AcDbEntity
  8
0
  6
Continuous
 62
     6
420
 16711935
370
     0
100
AcDbCircle
 10
10608.981864
 20
5722.431464
 30
0.0
 40
10.0
100
AcDbArc
 50
270.0
 51
0.0
  0
ARC
  5
FC
330
1F
100
AcDbEntity
  8
0
  6
Continuous
 62
     6
420
 16711935
370
     0
100
AcDbCircle
 10
9810.781864
 20
5722.431464
 30
0.0
 40
10.0
100
AcDbArc
 50
180.0
 51
270.0
  0
LINE
  5
FD
330
1F
100
AcDbEntity
  8
0
  6
Continuous
 62
     6
420
 16711935
370
     0
100
AcDbLine
 10
10241.881864
 20
7763.263411
 30
0.0
 11
10241.881864
 21
7338.898972
 31
0.0
  0
LINE
  5
FE
330
1F
100
AcDbEntity
  8
0
  6
Continuous
 62
     6
420
 16711935
370
     0
100
AcDbLine
 10
10269.881864
 20
7338.898972
 30
0.0
 11
10269.881864
 21
7755.287232
 31
0.0
  0
ARC
  5
FF
330
1F
100
AcDbEntity
  8
0
  6
Continuous
 62
     6
420
 16711935
370
     0
100
AcDbCircle
 10
10279.881864
 20
7755.287232
 30
0.0
 40
10.0
100
AcDbArc
 50
95.841901
 51
180.0
  0
ARC
  5
100
330
1F
100
AcDbEntity
  8
0
  6
Continuous
 62
     6
420
 16711935
370
     0
100
AcDbCircle
 10
10231.881864
 20
7763.263411
 30
0.0
 40
10.0
100
AcDbArc
 50
0.0
 51
65.131745
  0
ARC
  5
101
330
1F
100
AcDbEntity
  8
0
  6
Continuous
 62
     6
420
 16711935
370
     0
100
AcDbCircle
 10
10279.881864
 20
7338.898972
 30
0.0
 40
10.0
100
AcDbArc
 50
180.0
 51
270.0
  0
ARC
  5
102
330
1F
100
AcDbEntity
  8
0
  6
Continuous
 62
     6
420
 16711935
370
     0
100
AcDbCircle
 10
10231.881864
 20
7338.898972
 30
0.0
 40
10.0
100
AcDbArc
 50
270.0
 51
0.0
  0
LINE
  5
103
330
1F
100
AcDbEntity
  8
0
  6
Continuous
 62
     5
420
      255
370
     0
100
AcDbLine
 10
10251.491076
 20
6836.909748
 30
0.0
 11
10260.272631
 21
6836.909747
 31
0.0
  0
LINE
  5
104
330
1F
100
AcDbEntity
  8
0
  6
Continuous
 62
     5
420
      255
370
     0
100
AcDbLine
 10
10247.190235
 20
6844.909748
 30
0.0
 11
10264.573473
 21
6844.909748
 31
0.0
  0
ARC
  5
105
330
1F
100
AcDbEntity
  8
0
  6
Continuous
 62
     5
420
      255
370
     0
100
AcDbCircle
 10
10247.190234
 20
6838.909748
 30
0.0
 40
6.0
100
AcDbArc
 50
89.999999
 51
173.0
  0
ARC
  5
106
330
1F
100
AcDbEntity
  8
0
  6
Continuous
 62
     5
420
      255
370
     0
100
AcDbCircle
 10
10264.573473
 20
6838.909748
 30
0.0
 40
6.0
100
AcDbArc
 50
7.0
 51
89.999999
  0
CIRCLE
  5
108
330
1F
100
AcDbEntity
  8
0
  6
HIDDEN2
 62
     1
420
 16711680
370
     0
100
AcDbCircle
 10
10565.481864
 20
7807.698972
 30
0.0
 40
17.5
  0
CIRCLE
  5
109
330
1F
100
AcDbEntity
  8
0
  6
HIDDEN2
 62
     1
420
 16711680
370
     0
100
AcDbCircle
 10
10463.881864
 20
7807.698972
 30
0.0
 40
17.5
  0
CIRCLE
  5
10A
330
1F
100
AcDbEntity
  8
0
  6
HIDDEN2
 62
     1
420
 16711680
370
     0
100
AcDbCircle
 10
10362.281864
 20
7807.698972
 30
0.0
 40
17.5
  0
CIRCLE
  5
10B
330
1F
100
AcDbEntity
  8
0
  6
HIDDEN2
 62
     1
420
 16711680
370
     0
100
AcDbCircle
 10
10260.681864
 20
7807.698972
 30
0.0
 40
17.5
  0
LINE
  5
10C
330
1F
100
AcDbEntity
  8
0
  6
Continuous
 62
     6
420
 16711935
370
     0
100
AcDbLine
 10
9292.730519
 20
5423.292973
 30
0.0
 11
11117.111012
 21
5423.292973
 31
0.0
  0
CIRCLE
  5
10D
330
1F
100
AcDbEntity
  8
0
  6
HIDDEN2
 62
     1
420
 16711680
370
     0
100
AcDbCircle
 10
9834.281864
 20
7807.698972
 30
0.0
 40
17.5
  0
ARC
  5
10E
330
1F
100
AcDbEntity
  8
0
  6
Continuous
 62
     5
420
      255
370
     0
100
AcDbCircle
 10
9863.729094
 20
6719.509423
 30
0.0
 40
10.0
100
AcDbArc
 50
187.0
 51
270.0
  0
ARC
  5
10F
330
1F
100
AcDbEntity
  8
0
  6
Continuous
 62
     5
420
      255
370
     0
100
AcDbCircle
 10
10216.409561
 20
6719.509423
 30
0.0
 40
10.0
100
AcDbArc
 50
270.0
 51
353.0
  0
ARC
  5
110
330
1F
100
AcDbEntity
  8
0
  6
Continuous
 62
     5
420
      255
370
     0
100
AcDbCircle
 10
10295.354123
 20
6719.50962
 30
0.0
 40
10.0
100
AcDbArc
 50
187.0
 51
270.0
  0
ARC
  5
111
330
1F
100
AcDbEntity
  8
0
  6
Continuous
 62
     5
420
      255
370
     0
100
AcDbCircle
 10
10556.034657
 20
6719.50962
 30
0.0
 40
10.0
100
AcDbArc
 50
270.0
 51
353.0
  0
ARC
  5
112
330
1F
100
AcDbEntity
  8
0
  6
Continuous
 62
     5
420
      255
370
     0
100
AcDbCircle
 10
9864.736604
 20
6719.509423
 30
0.0
 40
18.0
100
AcDbArc
 50
187.0
 51
270.0
  0
ARC
  5
113
330
1F
100
AcDbEntity
  8
0
  6
Continuous
 62
     5
420
      255
370
     0
100
AcDbCircle
 10
10215.402051
 20
6719.509423
 30
0.0
 40
18.0
100
AcDbArc
 50
270.0
 51
353.0
  0
ARC
  5
114
330
1F
100
AcDbEntity
  8
0
  6
Continuous
 62
     5
420
      255
370
     0
100
AcDbCircle
 10
10296.361633
 20
6719.50962
 30
0.0
 40
18.0
100
AcDbArc
 50
187.0
 51
270.0
  0
ARC
  5
115
330
1F
100
AcDbEntity
  8
0
  6
Continuous
 62
     5
420
      255
370
     0
100
AcDbCircle
 10
10555.027147
 20
6719.50962
 30
0.0
 40
18.0
100
AcDbArc
 50
270.0
 51
353.0
  0
MTEXT
  5
116
330
1F
100
AcDbEntity
  8
0
  6
Continuous
 62
     7
420
 16777215
370
     0
100
AcDbMText
 10
9817.192383
 20
8174.112305
 30
0.0
 40
50.687996
 41
0.0
 46
0.0
 71
     3
 72
     1
  1
{\fArial|b0|i0;Code AM8420}
  7
ANSI
 73
     2
 44
0.99598
  0
MTEXT
  5
117
330
1F
100
AcDbEntity
  8
0
  6
Continuous
 62
     7
420
 16777215
370
     0
100
AcDbMText
 10
10509.516602
 20
5971.677734
 30
0.0
 40
59.799164
 41
0.0
 46
0.0
 71
     3
 72
     1
  1
{\fArial|b0|i0;Countertop hole}
  7
ANSI
 73
     2
 44
0.99598
  0
DIMENSION
  5
118
330
1F
100
AcDbEntity
  8
0
  6
Continuous
 62
     2
420
 16776960
 60
     1
370
     0
100
AcDbDimension
280
     0
  2
*D4
 10
-754.91571
 20
-987.708252
 30
0.0
 11
-297.435699
 21
-987.708252
 31
0.0
 70
   161
  1
\ftxt|b0|i0|c0|p0;<>
 71
     5
 42
884.0
 73
     0
 74
     0
 75
     0
  3
ISO-25
100
AcDbAlignedDimension
 13
129.08429
 23
-1318.208923
 33
0.0
 14
-754.91571
 24
-1318.208923
 34
0.0
1001
ACAD
1000
DSTYLE
1002
{
1070
   280
1070
     0
1070
   344
1005
0
1070
   343
1005
0
1070
    76
1070
     0
1070
    75
1070
     0
1070
   279
1070
     0
1070
    41
1040
3.0
1070
   342
1005
5A
1070
   176
1070
     1
1070
   177
1070
     1
1070
   178
1070
     2
1070
   278
1070
    46
1070
    44
1040
0.61
1070
    42
1040
0.5
1070
   147
1040
3.049999
1070
   272
1070
     3
1070
   146
1040
0.4
1070
   140
1040
6.099999
1002
}
  0
DIMENSION
  5
125
330
1F
100
AcDbEntity
  8
0
  6
Continuous
 62
     2
420
 16776960
 60
     1
370
     0
100
AcDbDimension
280
     0
  2
*D5
 10
-816.267944
 20
-1568.208923
 30
0.0
 11
-816.267944
 21
-1284.544189
 31
0.0
 70
   161
  1
\ftxt|b0|i0|c0|p0;<>
 71
     5
 42
500.0
 73
     0
 74
     0
 75
     0
  3
ISO-25
100
AcDbAlignedDimension
 13
-312.91571
 23
-1068.208923
 33
0.0
 14
-312.91571
 24
-1568.208923
 34
0.0
1001
ACAD
1000
DSTYLE
1002
{
1070
   280
1070
     0
1070
   344
1005
0
1070
   343
1005
0
1070
    76
1070
     0
1070
    75
1070
     0
1070
   279
1070
     0
1070
    41
1040
3.0
1070
   342
1005
5A
1070
   176
1070
     1
1070
   177
1070
     1
1070
   178
1070
     2
1070
   278
1070
    46
1070
    44
1040
0.61
1070
    42
1040
0.5
1070
   147
1040
3.049999
1070
   272
1070
     3
1070
   146
1040
0.4
1070
   140
1040
6.099999
1002
}
  0
DIMENSION
  5
132
330
1F
100
AcDbEntity
  8
0
  6
Continuous
 62
     2
420
 16776960
 60
     1
370
     0
100
AcDbDimension
280
     0
  2
*D6
 10
-742.91571
 20
-1027.710571
 30
0.0
 11
-296.985748
 21
-1027.710571
 31
0.0
 70
   161
  1
\ftxt|b0|i0|c0|p0;<>
 71
     5
 42
860.0
 73
     0
 74
     0
 75
     0
  3
ISO-25
100
AcDbAlignedDimension
 13
117.08429
 23
-1068.208923
 33
0.0
 14
-742.91571
 24
-1068.208923
 34
0.0
1001
ACAD
1000
DSTYLE
1002
{
1070
   280
1070
     0
1070
   344
1005
0
1070
   343
1005
0
1070
    76
1070
     0
1070
    75
1070
     0
1070
   279
1070
     0
1070
    41
1040
3.0
1070
   342
1005
5A
1070
   176
1070
     1
1070
   177
1070
     1
1070
   178
1070
     2
1070
   278
1070
    46
1070
    44
1040
0.61
1070
    42
1040
0.5
1070
   147
1040
3.049999
1070
   272
1070
     3
1070
   146
1040
0.4
1070
   140
1040
6.099999
1002
}
  0
DIMENSION
  5
13F
330
1F
100
AcDbEntity
  8
0
  6
Continuous
 62
     4
420
    65535
 60
     1
370
     0
100
AcDbDimension
280
     0
  2
*D7
 10
106.160562
 20
-1556.208923
 30
0.0
 11
144.927023
 21
-1567.821391
 31
0.0
 70
   164
  1
R<>
 71
     5
 42
12.000001
 73
     0
 74
     0
 75
     0
  3
ISO-25
100
AcDbRadialDimension
 15
117.655903
 25
-1559.652345
 35
0.0
 40
0.0
1001
ACAD
1000
DSTYLE
1002
{
1070
    41
1040
3.0
1070
   342
1005
5A
1070
   176
1070
     1
1070
   178
1070
     2
1070
   278
1070
    46
1070
   147
1040
3.049999
1070
     3
1000
<>
1070
   272
1070
     3
1070
   146
1040
0.4
1070
   172
1070
     0
1070
   140
1040
6.099999
1002
}
  0
DIMENSION
  5
14A
330
1F
100
AcDbEntity
  8
0
  6
Continuous
 62
     1
420
 16711680
 60
     1
370
     0
100
AcDbDimension
280
     0
  2
*D8
 10
-742.91571
 20
-1068.208923
 30
0.0
 11
-725.214005
 21
-1118.171082
 31
0.0
 70
   162
  1
<>
 71
     5
 42
0.785396
 73
     0
 74
     0
 75
     0
  3
ISO-25
100
AcDb2LineAngularDimension
 13
-742.915649
 23
-1107.547661
 33
0.0
 14
-742.91571
 24
-1068.208923
 34
0.0
 15
-699.571317
 25
-1111.553382
 35
0.0
 16
-716.413032
 26
-1114.112907
 36
0.0
1001
ACAD
1000
DSTYLE
1002
{
1070
   279
1070
     0
1070
    41
1040
3.0
1070
   342
1005
5A
1070
   176
1070
     1
1070
   177
1070
     1
1070
   178
1070
     2
1070
    44
1040
0.61
1070
    42
1040
0.5
1070
   147
1040
3.049999
1070
   146
1040
0.4
1070
   140
1040
6.099999
1070
   284
1070
    12
1002
}
  0
DIMENSION
  5
158
330
1F
100
AcDbEntity
  8
0
  6
Continuous
 62
     1
420
 16711680
 60
     1
370
     0
100
AcDbDimension
280
     0
  2
*D9
 10
-312.91563
 20
-1568.208923
 30
0.0
 11
-312.915649
 21
-1581.659302
 31
0.0
 70
   161
  1
\ftxt|b0|i0|c0|p0;<>
 71
     5
 42
35.0
 73
     0
 74
     0
 75
     0
  3
ISO-25
100
AcDbAlignedDimension
 13
-312.915659
 23
-1533.208923
 33
0.0
 14
-312.91571
 24
-1568.208923
 34
0.0
1001
ACAD
1000
DSTYLE
1002
{
1070
   280
1070
     0
1070
   344
1005
0
1070
   343
1005
0
1070
    76
1070
     0
1070
    75
1070
     0
1070
   279
1070
     0
1070
    41
1040
3.0
1070
   342
1005
5A
1070
   176
1070
     1
1070
   177
1070
     1
1070
   178
1070
     2
1070
   278
1070
    46
1070
    44
1040
0.61
1070
    42
1040
0.5
1070
   147
1040
3.049999
1070
   272
1070
     3
1070
   146
1040
0.4
1070
   140
1040
6.099999
1002
}
  0
DIMENSION
  5
166
330
1F
100
AcDbEntity
  8
0
  6
Continuous
 62
     1
420
 16711680
 60
     1
370
     0
100
AcDbDimension
280
     0
  2
*D10
 10
129.08429
 20
-1320.250854
 30
0.0
 11
143.655426
 21
-1320.250854
 31
0.0
 70
   161
  1
\ftxt|b0|i0|c0|p0;<>
 71
     5
 42
47.0
 73
     0
 74
     0
 75
     0
  3
ISO-25
100
AcDbAlignedDimension
 13
82.08429
 23
-1318.208923
 33
0.0
 14
129.08429
 24
-1318.208923
 34
0.0
1001
ACAD
1000
DSTYLE
1002
{
1070
   279
1070
     0
1070
    41
1040
3.0
1070
   342
1005
5A
1070
   176
1070
     1
1070
   177
1070
     1
1070
   178
1070
     2
1070
   278
1070
    46
1070
    44
1040
0.6
1070
    42
1040
0.5
1070
   147
1040
3.0
1070
   272
1070
     3
1070
   146
1040
0.4
1070
   140
1040
6.0
1002
}
  0
DIMENSION
  5
174
330
1F
100
AcDbEntity
  8
0
  6
Continuous
 62
     1
420
 16711680
 60
     1
370
     0
100
AcDbDimension
280
     0
  2
*D11
 10
-2387.112456
 20
-1127.583971
 30
0.0
 11
-626.35055
 21
-1233.948343
 31
0.0
 70
   164
  1
R<>
 71
     5
 42
30.0
 73
     0
 74
     0
 75
     0
  3
ISO-25
100
AcDbRadialDimension
 15
-2417.057868
 25
-1125.775024
 35
0.0
 40
0.0
1001
ACAD
1000
DSTYLE
1002
{
1070
    41
1040
3.0
1070
   342
1005
5A
1070
   176
1070
     1
1070
   178
1070
     2
1070
   278
1070
    46
1070
   147
1040
3.049999
1070
     3
1000
<>
1070
   272
1070
     3
1070
   146
1040
0.4
1070
   172
1070
     0
1070
   140
1040
6.099999
1002
}
  0
DIMENSION
  5
17E
330
1F
100
AcDbEntity
  8
0
  6
Continuous
 62
     1
420
 16711680
 60
     1
370
     0
100
AcDbDimension
280
     0
  2
*D12
 10
1855.250956
 20
-1318.208923
 30
0.0
 11
-780.69841
 21
-1141.159141
 31
0.0
 70
   164
  1
R<>
 71
     5
 42
2610.166667
 73
     0
 74
     0
 75
     0
  3
ISO-25
100
AcDbRadialDimension
 15
-749.047733
 25
-1143.285034
 35
0.0
 40
0.0
1001
ACAD
1000
DSTYLE
1002
{
1070
    41
1040
3.0
1070
   342
1005
5A
1070
   176
1070
     1
1070
   178
1070
     2
1070
   278
1070
    46
1070
   147
1040
3.049999
1070
     3
1000
<>
1070
   272
1070
     3
1070
   146
1040
0.4
1070
   172
1070
     0
1070
   140
1040
6.099999
1002
}
  0
DIMENSION
  5
189
330
1F
100
AcDbEntity
  8
0
  6
Continuous
 62
     1
420
 16711680
 60
     1
370
     0
100
AcDbDimension
280
     0
  2
*D13
 10
-754.91571
 20
-1027.710571
 30
0.0
 11
-768.089309
 21
-1027.710571
 31
0.0
 70
   160
  1
\ftxt|b0|i0|c0|p0;<>
 71
     5
 42
12.0
 73
     0
 74
     0
 75
     0
  3
ISO-25
100
AcDbAlignedDimension
 13
-742.91571
 23
-1068.208923
 33
0.0
 14
-754.91571
 24
-1318.208923
 34
0.0
100
AcDbRotatedDimension
1001
ACAD
1000
DSTYLE
1002
{
1070
   280
1070
     0
1070
   344
1005
0
1070
   343
1005
0
1070
    76
1070
     0
1070
    75
1070
     0
1070
   279
1070
     0
1070
    41
1040
3.0
1070
   342
1005
5A
1070
   176
1070
     1
1070
   177
1070
     1
1070
   178
1070
     2
1070
   278
1070
    46
1070
    44
1040
0.61
1070
    42
1040
0.5
1070
   147
1040
3.049999
1070
   272
1070
     3
1070
   146
1040
0.4
1070
   140
1040
6.099999
1002
}
  0
DIMENSION
  5
199
330
1F
100
AcDbEntity
  8
0
  6
Continuous
 62
     1
420
 16711680
 60
     1
370
     0
100
AcDbDimension
280
     0
  2
*D14
 10
-714.325584
 20
-1099.508923
 30
0.0
 11
-774.232784
 21
-1059.154959
 31
0.0
 70
   164
  1
R<>
 71
     5
 42
19.999999
 73
     0
 74
     0
 75
     0
  3
ISO-25
100
AcDbRadialDimension
 15
-730.913257
 25
-1088.335335
 35
0.0
 40
0.0
1001
ACAD
1000
DSTYLE
1002
{
1070
    41
1040
3.0
1070
   342
1005
5A
1070
   176
1070
     1
1070
   178
1070
     2
1070
   278
1070
    46
1070
   147
1040
3.049999
1070
     3
1000
<>
1070
   272
1070
     3
1070
   146
1040
0.4
1070
   172
1070
     0
1070
   140
1040
6.099999
1002
}
  0
DIMENSION
  5
1A4
330
1F
100
AcDbEntity
  8
0
  6
Continuous
 62
     1
420
 16711680
 60
     1
370
     0
100
AcDbDimension
280
     0
  2
*D15
 10
-704.657244
 20
-1106.269193
 30
0.0
 11
-773.774916
 21
-1090.217712
 31
0.0
 70
   164
  1
R<>
 71
     5
 42
15.000001
 73
     0
 74
     0
 75
     0
  3
ISO-25
100
AcDbRadialDimension
 15
-719.268409
 25
-1102.875982
 35
0.0
 40
0.0
1001
ACAD
1000
DSTYLE
1002
{
1070
    41
1040
3.0
1070
   342
1005
5A
1070
   176
1070
     1
1070
   178
1070
     2
1070
   278
1070
    46
1070
   147
1040
3.049999
1070
     3
1000
<>
1070
   272
1070
     3
1070
   146
1040
0.4
1070
   172
1070
     0
1070
   140
1040
6.099999
1002
}
  0
DIMENSION
  5
1AF
330
1F
100
AcDbEntity
  8
0
  6
Continuous
 62
     1
420
 16711680
 60
     1
370
     0
100
AcDbDimension
280
     0
  2
*D16
 10
-640.178652
 20
-1172.728638
 30
0.0
 11
-637.859098
 21
-1174.252259
 31
0.0
 70
   164
  1
R<>
 71
     5
 42
20.0
 73
     0
 74
     0
 75
     0
  3
ISO-25
100
AcDbRadialDimension
 15
-656.894935
 25
-1161.748388
 35
0.0
 40
0.0
1001
ACAD
1000
DSTYLE
1002
{
1070
    41
1040
3.0
1070
   342
1005
5A
1070
   176
1070
     1
1070
   178
1070
     2
1070
   278
1070
    46
1070
   147
1040
3.049999
1070
     3
1000
<>
1070
   272
1070
     3
1070
   146
1040
0.4
1070
   172
1070
     0
1070
   140
1040
6.099999
1002
}
  0
DIMENSION
  5
1B8
330
1F
100
AcDbEntity
  8
0
  6
Continuous
 62
     1
420
 16711680
 60
     1
370
     0
100
AcDbDimension
280
     0
  2
*D17
 10
-713.314834
 20
-1305.501587
 30
0.0
 11
-693.897332
 21
-1305.501587
 31
0.0
 70
   161
  1
\ftxt|b0|i0|c0|p0;<>
 71
     5
 42
5.400002
 73
     0
 74
     0
 75
     0
  3
ISO-25
100
AcDbAlignedDimension
 13
-707.914832
 23
-1320.330499
 33
0.0
 14
-713.314834
 24
-1320.330499
 34
0.0
1001
ACAD
1000
DSTYLE
1002
{
1070
   280
1070
     0
1070
   344
1005
0
1070
   343
1005
0
1070
    76
1070
     0
1070
    75
1070
     0
1070
   279
1070
     0
1070
    41
1040
4.375
1070
   342
1005
5A
1070
   176
1070
     1
1070
   177
1070
     1
1070
   178
1070
     2
1070
   278
1070
    46
1070
    44
1040
2.1
1070
    42
1040
1.05
1070
   147
1040
1.75
1070
   272
1070
     3
1070
   146
1040
0.4
1070
   140
1040
3.5
1002
}
  0
DIMENSION
  5
1C8
330
1F
100
AcDbEntity
  8
0
  6
Continuous
 62
     2
420
 16776960
 60
     1
370
     0
100
AcDbDimension
280
     0
  2
*D18
 10
-265.90618
 20
-1079.508937
 30
0.0
 11
-265.906189
 21
-1108.241943
 31
0.0
 70
   161
  1
\ftxt|b0|i0|c0|p0;<>
 71
     5
 42
70.0
 73
     0
 74
     0
 75
     0
  3
ISO-25
100
AcDbAlignedDimension
 13
-312.915731
 23
-1149.508923
 33
0.0
 14
-312.91571
 24
-1079.508923
 34
0.0
1001
ACAD
1000
DSTYLE
1002
{
1070
   279
1070
     0
1070
    41
1040
3.0
1070
   342
1005
5A
1070
   176
1070
     1
1070
   177
1070
     1
1070
   178
1070
     2
1070
   278
1070
    46
1070
    44
1040
0.61
1070
    42
1040
0.5
1070
   147
1040
3.049999
1070
   272
1070
     3
1070
   146
1040
0.4
1070
   140
1040
6.099999
1002
}
  0
DIMENSION
  5
1D5
330
1F
100
AcDbEntity
  8
0
  6
Continuous
 62
     7
420
 16777215
370
     0
100
AcDbDimension
280
     0
  2
*D19
 10
10618.981864
 20
5560.651367
 30
0.0
 11
10220.381836
 21
5560.651367
 31
0.0
 70
   161
  1
\fArial|b0|i0|c0|p0;{\fArial|b0|i0;32 1/4"}
 71
     5
 42
818.2
 73
     0
 74
     0
 75
     0
  3
ISO-25
100
AcDbAlignedDimension
 13
9800.781864
 23
5712.431464
 33
0.0
 14
10618.981864
 24
5712.431464
 34
0.0
1001
ACAD
1000
DSTYLE
1002
{
1070
   279
1070
     0
1070
    41
1040
20.0
1070
   342
1005
5A
1070
   176
1070
     1
1070
   177
1070
     1
1070
   178
1070
     2
1070
   278
1070
    46
1070
    44
1040
20.0
1070
    42
1040
50.0
1070
   147
1040
10.0
1070
   272
1070
     3
1070
   146
1040
0.4
1070
   140
1040
50.0
1002
}
  0
DIMENSION
  5
1E2
330
1F
100
AcDbEntity
  8
0
  6
Continuous
 62
     7
420
 16777215
370
     0
100
AcDbDimension
280
     0
  2
*D20
 10
10766.685547
 20
6251.231464
 30
0.0
 11
10766.685547
 21
5984.331543
 31
0.0
 70
   161
  1
\fArial|b0|i0|c0|p0;{\fArial|b0|i0;21 1/4"}
 71
     5
 42
538.8
 73
     0
 74
     0
 75
     0
  3
ISO-25
100
AcDbAlignedDimension
 13
10618.981864
 23
5712.431464
 33
0.0
 14
10618.981864
 24
6251.231464
 34
0.0
1001
ACAD
1000
DSTYLE
1002
{
1070
   279
1070
     0
1070
    41
1040
20.0
1070
   342
1005
5A
1070
   176
1070
     1
1070
   177
1070
     1
1070
   178
1070
     2
1070
   278
1070
    46
1070
    44
1040
20.0
1070
    42
1040
50.0
1070
   147
1040
10.0
1070
   272
1070
     3
1070
   146
1040
0.4
1070
   140
1040
50.0
1002
}
  0
DIMENSION
  5
1EF
330
1F
100
AcDbEntity
  8
0
  6
Continuous
 62
     7
420
 16777215
370
     0
100
AcDbDimension
280
     0
  2
*D21
 10
10648.981737
 20
6518.700078
 30
0.0
 11
10209.880481
 21
6554.550157
 31
0.0
 70
    33
  1
\fArial|b0|i0|c0|p0;{\fArial|b0|i0;CABINET  36"}
 71
     5
 42
878.202525
 73
     0
 74
     0
 75
     0
  3
ISO-25
100
AcDbAlignedDimension
 13
9770.779232
 23
6629.00984
 33
0.0
 14
10648.981757
 24
6629.009684
 34
0.0
1001
ACAD
1000
DSTYLE
1002
{
1070
    41
1040
20.0
1070
   342
1005
5A
1070
   176
1070
     1
1070
   177
1070
     1
1070
   178
1070
     2
1070
   278
1070
    46
1070
    44
1040
20.0
1070
    42
1040
50.0
1070
   147
1040
10.0
1070
   272
1070
     3
1070
   146
1040
0.4
1070
   140
1040
50.0
1002
}
  0
INSERT
  5
201
330
1F
100
AcDbEntity
  8
0
  6
Continuous
 62
     7
420
 16777215
370
     0
100
AcDbBlockReference
  2
.TD_DIMENSION_3
 10
9761.18457
 20
6108.171875
 30
0.0
  0
DIMENSION
  5
204
330
1F
100
AcDbEntity
  8
0
  6
Continuous
 62
     7
420
 16777215
370
     0
100
AcDbDimension
280
     0
  2
*D23
 10
10628.981864
 20
8012.672363
 30
0.0
 11
10166.28125
 21
8012.672363
 31
0.0
 70
   161
  1
\fArial|b0|i0|c0|p0;{\fArial|b0|i0;33"}
 71
     5
 42
838.2
 73
     0
 74
     0
 75
     0
  3
ISO-25
100
AcDbAlignedDimension
 13
9790.781864
 23
7847.698972
 33
0.0
 14
10628.981864
 24
7847.698972
 34
0.0
1001
ACAD
1000
DSTYLE
1002
{
1070
   279
1070
     0
1070
    41
1040
16.0
1070
   342
1005
5A
1070
   176
1070
     1
1070
   177
1070
     1
1070
   178
1070
     2
1070
   278
1070
    46
1070
    44
1040
16.0
1070
    42
1040
40.0
1070
   147
1040
8.0
1070
   272
1070
     3
1070
   146
1040
0.4
1070
   140
1040
40.0
1002
}
  0
DIMENSION
  5
211
330
1F
100
AcDbEntity
  8
0
  6
Continuous
 62
     7
420
 16777215
370
     0
100
AcDbDimension
280
     0
  2
*D24
 10
9588.568359
 20
7293.898972
 30
0.0
 11
9588.568359
 21
7529.69873
 31
0.0
 70
   161
  1
\fArial|b0|i0|c0|p0;{\fArial|b0|i0;22"}
 71
     5
 42
558.8
 73
     0
 74
     0
 75
     0
  3
ISO-25
100
AcDbAlignedDimension
 13
9795.781864
 23
7852.698972
 33
0.0
 14
9795.781864
 24
7293.898972
 34
0.0
1001
ACAD
1000
DSTYLE
1002
{
1070
   280
1070
     0
1070
   344
1005
0
1070
   343
1005
0
1070
    76
1070
     0
1070
    75
1070
     0
1070
   279
1070
     0
1070
    41
1040
16.0
1070
   342
1005
5A
1070
   176
1070
     1
1070
   177
1070
     1
1070
   178
1070
     2
1070
   278
1070
    46
1070
    44
1040
16.0
1070
    42
1040
40.0
1070
   147
1040
8.0
1070
   272
1070
     3
1070
   146
1040
0.4
1070
   140
1040
40.0
1002
}
  0
DIMENSION
  5
21E
330
1F
100
AcDbEntity
  8
0
  6
Continuous
 62
     7
420
 16777215
370
     0
100
AcDbDimension
280
     0
  2
*D25
 10
10593.981864
 20
7207.134277
 30
0.0
 11
10440.332031
 21
7207.134277
 31
0.0
 70
   161
  1
\fArial|b0|i0|c0|p0;{\fArial|b0|i0;12 3/4"}
 71
     5
 42
324.1
 73
     0
 74
     0
 75
     0
  3
ISO-25
100
AcDbAlignedDimension
 13
10269.881864
 23
7338.898972
 33
0.0
 14
10593.981864
 24
7338.898972
 34
0.0
1001
ACAD
1000
DSTYLE
1002
{
1070
   279
1070
     0
1070
    41
1040
16.0
1070
   342
1005
5A
1070
   176
1070
     1
1070
   177
1070
     1
1070
   178
1070
     2
1070
   278
1070
    46
1070
    44
1040
16.0
1070
    42
1040
40.0
1070
   147
1040
8.0
1070
   272
1070
     3
1070
   146
1040
0.4
1070
   140
1040
40.0
1002
}
  0
DIMENSION
  5
22B
330
1F
100
AcDbEntity
  8
0
  6
Continuous
 62
     7
420
 16777215
370
     0
100
AcDbDimension
280
     0
  2
*D26
 10
9825.781864
 20
7205.866699
 30
0.0
 11
10048.631836
 21
7205.866699
 31
0.0
 70
   161
  1
\fArial|b0|i0|c0|p0;{\fArial|b0|i0;16 3/8"}
 71
     5
 42
416.1
 73
     0
 74
     0
 75
     0
  3
ISO-25
100
AcDbAlignedDimension
 13
10241.881864
 23
7338.898972
 33
0.0
 14
9825.781864
 24
7338.898972
 34
0.0
1001
ACAD
1000
DSTYLE
1002
{
1070
   280
1070
     0
1070
   344
1005
0
1070
   343
1005
0
1070
    76
1070
     0
1070
    75
1070
     0
1070
   279
1070
     0
1070
    41
1040
16.0
1070
   342
1005
5A
1070
   176
1070
     1
1070
   177
1070
     1
1070
   178
1070
     2
1070
   278
1070
    46
1070
    44
1040
16.0
1070
    42
1040
40.0
1070
   147
1040
8.0
1070
   272
1070
     3
1070
   146
1040
0.4
1070
   140
1040
40.0
1002
}
  0
DIMENSION
  5
238
330
1F
100
AcDbEntity
  8
0
  6
Continuous
 62
     7
420
 16777215
370
     0
100
AcDbDimension
280
     0
  2
*D27
 10
10269.881864
 20
7072.292969
 30
0.0
 11
10409.521484
 21
7072.292969
 31
0.0
 70
   161
  1
\fArial|b0|i0|c0|p0;{\fArial|b0|i0;1 1/8"}
 71
     5
 42
28.0
 73
     0
 74
     0
 75
     0
  3
ISO-25
100
AcDbAlignedDimension
 13
10241.881864
 23
7338.898972
 33
0.0
 14
10269.881864
 24
7338.898972
 34
0.0
1001
ACAD
1000
DSTYLE
1002
{
1070
   279
1070
     0
1070
    41
1040
16.0
1070
   342
1005
5A
1070
   176
1070
     1
1070
   177
1070
     1
1070
   178
1070
     2
1070
   278
1070
    46
1070
    44
1040
16.0
1070
    42
1040
40.0
1070
   147
1040
8.0
1070
   272
1070
     3
1070
   146
1040
0.4
1070
   140
1040
40.0
1002
}
  0
DIMENSION
  5
248
330
1F
100
AcDbEntity
  8
0
  6
Continuous
 62
     7
420
 16777215
370
     0
100
AcDbDimension
280
     0
  2
*D28
 10
10178.194336
 20
6844.909748
 30
0.0
 11
10150.194336
 21
6895.709602
 31
0.0
 70
    32
  1
\fArial|b0|i0|c0|p0;{\fArial|b0|i0;4"}
 71
     5
 42
101.599707
 73
     0
 74
     0
 75
     0
  3
ISO-25
100
AcDbAlignedDimension
 13
10608.418415
 23
6946.509455
 33
0.0
 14
10255.881854
 24
6844.909748
 34
0.0
 50
90.0
100
AcDbRotatedDimension
1001
ACAD
1000
DSTYLE
1002
{
1070
   280
1070
     0
1070
   344
1005
0
1070
   343
1005
0
1070
    76
1070
     0
1070
    75
1070
     0
1070
    41
1040
16.0
1070
   342
1005
5A
1070
   176
1070
     1
1070
   177
1070
     1
1070
   178
1070
     2
1070
   278
1070
    46
1070
    44
1040
16.0
1070
    42
1040
40.0
1070
   147
1040
8.0
1070
   272
1070
     3
1070
   146
1040
0.4
1070
   140
1040
40.0
1002
}
  0
DIMENSION
  5
255
330
1F
100
AcDbEntity
  8
0
  6
Continuous
 62
     7
420
 16777215
370
     0
100
AcDbDimension
280
     0
  2
*D29
 10
10777.679688
 20
7763.723779
 30
0.0
 11
10749.019687
 21
7546.311376
 31
0.0
 70
    32
  1
\fArial|b0|i0|c0|p0;{\fArial|b0|i0;17 1/8"}
 71
     5
 42
434.824807
 73
     0
 74
     0
 75
     0
  3
ISO-25
100
AcDbAlignedDimension
 13
10583.981864
 23
7328.898972
 33
0.0
 14
10585.097172
 24
7763.723779
 34
0.0
 50
90.0
100
AcDbRotatedDimension
1001
ACAD
1000
DSTYLE
1002
{
1070
    41
1040
16.0
1070
   342
1005
5A
1070
   176
1070
     1
1070
   177
1070
     1
1070
   178
1070
     2
1070
   278
1070
    46
1070
    44
1040
16.0
1070
    42
1040
60.0
1070
   147
1040
8.0
1070
   272
1070
     3
1070
   146
1040
0.4
1070
   140
1040
40.0
1002
}
  0
DIMENSION
  5
262
330
1F
100
AcDbEntity
  8
0
  6
Continuous
 62
     7
420
 16777215
370
     0
100
AcDbDimension
280
     0
  2
*D30
 10
9709.999023
 20
7328.898972
 30
0.0
 11
9709.999023
 21
7555.88623
 31
0.0
 70
   161
  1
\fArial|b0|i0|c0|p0;{\fArial|b0|i0;19 1/4"}
 71
     5
 42
488.774376
 73
     0
 74
     0
 75
     0
  3
ISO-25
100
AcDbAlignedDimension
 13
9790.781864
 23
7817.673348
 33
0.0
 14
9790.781864
 24
7328.898972
 34
0.0
1001
ACAD
1000
DSTYLE
1002
{
1070
   280
1070
     0
1070
   344
1005
0
1070
   343
1005
0
1070
    76
1070
     0
1070
    75
1070
     0
1070
   279
1070
     0
1070
    41
1040
16.0
1070
   342
1005
5A
1070
   176
1070
     1
1070
   177
1070
     1
1070
   178
1070
     2
1070
   278
1070
    46
1070
    44
1040
16.0
1070
    42
1040
40.0
1070
   147
1040
8.0
1070
   272
1070
     3
1070
   146
1040
0.4
1070
   140
1040
40.0
1002
}
  0
DIMENSION
  5
26F
330
1F
100
AcDbEntity
  8
0
  6
Continuous
 62
     7
420
 16777215
370
     0
100
AcDbDimension
280
     0
  2
*D31
 10
9834.281864
 20
7893.591309
 30
0.0
 11
10012.921875
 21
7893.591309
 31
0.0
 70
   160
  1
\fArial|b0|i0|c0|p0;{\fArial|b0|i0;1 3/4"}
 71
     5
 42
43.5
 73
     0
 74
     0
 75
     0
  3
ISO-25
100
AcDbAlignedDimension
 13
9790.781864
 23
7847.698972
 33
0.0
 14
9834.281864
 24
7807.698972
 34
0.0
100
AcDbRotatedDimension
1001
ACAD
1000
DSTYLE
1002
{
1070
   279
1070
     0
1070
    41
1040
16.0
1070
   342
1005
5A
1070
   176
1070
     1
1070
   177
1070
     1
1070
   178
1070
     2
1070
   278
1070
    46
1070
    44
1040
16.0
1070
    42
1040
40.0
1070
   147
1040
8.0
1070
   272
1070
     3
1070
   146
1040
0.4
1070
   140
1040
40.0
1002
}
  0
DIMENSION
  5
27F
330
1F
100
AcDbEntity
  8
0
  6
Continuous
 62
     7
420
 16777215
370
     0
100
AcDbDimension
280
     0
  2
*D32
 10
10463.881864
 20
7893.591309
 30
0.0
 11
10514.681864
 21
7921.591309
 31
0.0
 70
    33
  1
\fArial|b0|i0|c0|p0;{\fArial|b0|i0;4"}
 71
     5
 42
101.6
 73
     0
 74
     0
 75
     0
  3
ISO-25
100
AcDbAlignedDimension
 13
10565.481864
 23
7807.698972
 33
0.0
 14
10463.881864
 24
7807.698972
 34
0.0
1001
ACAD
1000
DSTYLE
1002
{
1070
   280
1070
     0
1070
   344
1005
0
1070
   343
1005
0
1070
    76
1070
     0
1070
    75
1070
     0
1070
    41
1040
16.0
1070
   342
1005
5A
1070
   176
1070
     1
1070
   177
1070
     1
1070
   178
1070
     2
1070
   278
1070
    46
1070
    44
1040
16.0
1070
    42
1040
40.0
1070
   147
1040
8.0
1070
   272
1070
     3
1070
   146
1040
0.4
1070
   140
1040
40.0
1002
}
  0
DIMENSION
  5
28C
330
1F
100
AcDbEntity
  8
0
  6
Continuous
 62
     7
420
 16777215
370
     0
100
AcDbDimension
280
     0
  2
*D33
 10
10362.281864
 20
7893.591309
 30
0.0
 11
10413.081864
 21
7921.591309
 31
0.0
 70
    33
  1
\fArial|b0|i0|c0|p0;{\fArial|b0|i0;4"}
 71
     5
 42
101.6
 73
     0
 74
     0
 75
     0
  3
ISO-25
100
AcDbAlignedDimension
 13
10463.881864
 23
7807.698972
 33
0.0
 14
10362.281864
 24
7807.698972
 34
0.0
1001
ACAD
1000
DSTYLE
1002
{
1070
   280
1070
     0
1070
   344
1005
0
1070
   343
1005
0
1070
    76
1070
     0
1070
    75
1070
     0
1070
    41
1040
16.0
1070
   342
1005
5A
1070
   176
1070
     1
1070
   177
1070
     1
1070
   178
1070
     2
1070
   278
1070
    46
1070
    44
1040
16.0
1070
    42
1040
40.0
1070
   147
1040
8.0
1070
   272
1070
     3
1070
   146
1040
0.4
1070
   140
1040
40.0
1002
}
  0
DIMENSION
  5
299
330
1F
100
AcDbEntity
  8
0
  6
Continuous
 62
     7
420
 16777215
370
     0
100
AcDbDimension
280
     0
  2
*D34
 10
10260.681864
 20
7893.591309
 30
0.0
 11
10311.481864
 21
7921.591309
 31
0.0
 70
    33
  1
\fArial|b0|i0|c0|p0;{\fArial|b0|i0;4"}
 71
     5
 42
101.6
 73
     0
 74
     0
 75
     0
  3
ISO-25
100
AcDbAlignedDimension
 13
10362.281864
 23
7807.698972
 33
0.0
 14
10260.681864
 24
7807.698972
 34
0.0
1001
ACAD
1000
DSTYLE
1002
{
1070
   280
1070
     0
1070
   344
1005
0
1070
   343
1005
0
1070
    76
1070
     0
1070
    75
1070
     0
1070
    41
1040
16.0
1070
   342
1005
5A
1070
   176
1070
     1
1070
   177
1070
     1
1070
   178
1070
     2
1070
   278
1070
    46
1070
    44
1040
16.0
1070
    42
1040
40.0
1070
   147
1040
8.0
1070
   272
1070
     3
1070
   146
1040
0.4
1070
   140
1040
40.0
1002
}
  0
DIMENSION
  5
2A6
330
1F
100
AcDbEntity
  8
0
  6
Continuous
 62
     7
420
 16777215
370
     0
100
AcDbDimension
280
     0
  2
*D35
 10
10850.93457
 20
6701.50962
 30
0.0
 11
10822.27457
 21
6824.009673
 31
0.0
 70
    32
  1
\fArial|b0|i0|c0|p0;{\fArial|b0|i0;9 1/2"}
 71
     5
 42
245.000105
 73
     0
 74
     0
 75
     0
  3
ISO-25
100
AcDbAlignedDimension
 13
10624.310416
 23
6946.509725
 33
0.0
 14
10555.027147
 24
6701.50962
 34
0.0
 50
90.0
100
AcDbRotatedDimension
1001
ACAD
1000
DSTYLE
1002
{
1070
   280
1070
     0
1070
   344
1005
0
1070
   343
1005
0
1070
    76
1070
     0
1070
    75
1070
     0
1070
    41
1040
16.0
1070
   342
1005
5A
1070
   176
1070
     1
1070
   177
1070
     1
1070
   178
1070
     2
1070
   278
1070
    46
1070
    44
1040
16.0
1070
    42
1040
60.0
1070
   147
1040
8.0
1070
   272
1070
     3
1070
   146
1040
0.4
1070
   140
1040
40.0
1002
}
  0
INSERT
  5
2B8
330
1F
100
AcDbEntity
  8
0
  6
Continuous
 62
     2
420
 16776960
 60
     1
370
     0
100
AcDbBlockReference
  2
.TD_DIMENSION_4
 10
95.660583
 20
-1207.328369
 30
0.0
  0
ENDSEC
  0
SECTION
  2
OBJECTS
  0
DICTIONARY
  5
C
330
0
100
AcDbDictionary
281
     1
  3
ACAD_GROUP
350
D
  3
ACAD_LAYOUT
350
1A
  3
ACAD_MATERIAL
350
3B
  3
ACAD_MLEADERSTYLE
350
2BE
  3
ACAD_MLINESTYLE
350
17
  3
ACAD_PLOTSETTINGS
350
19
  3
ACAD_PLOTSTYLENAME
350
E
  3
ACAD_SCALELIST
350
71
  3
ACAD_TABLESTYLE
350
2BD
  3
ACAD_VISUALSTYLE
350
2A
  3
AcDbVariableDictionary
350
2BB
  0
DICTIONARY
  5
D
102
{ACAD_REACTORS
330
C
102
}
330
C
100
AcDbDictionary
281
     1
  0
DICTIONARY
  5
1A
102
{ACAD_REACTORS
330
C
102
}
330
C
100
AcDbDictionary
281
     1
  3
Layout1
350
1E
  3
Layout2
350
26
  3
Model
350
22
  0
DICTIONARY
  5
3B
102
{ACAD_REACTORS
330
C
102
}
330
C
100
AcDbDictionary
281
     1
  3
ByBlock
350
3D
  3
ByLayer
350
3C
  3
Global
350
3E
  0
DICTIONARY
  5
2BE
102
{ACAD_REACTORS
330
C
102
}
330
C
100
AcDbDictionary
281
     1
  0
DICTIONARY
  5
17
102
{ACAD_REACTORS
330
C
102
}
330
C
100
AcDbDictionary
281
     1
  3
Standard
350
18
  0
DICTIONARY
  5
19
102
{ACAD_REACTORS
330
C
102
}
330
C
100
AcDbDictionary
281
     1
  0
ACDBDICTIONARYWDFLT
  5
E
102
{ACAD_REACTORS
330
C
102
}
330
C
100
AcDbDictionary
281
     1
  3
Normal
350
F
100
AcDbDictionaryWithDefault
340
F
  0
DICTIONARY
  5
71
102
{ACAD_REACTORS
330
C
102
}
330
C
100
AcDbDictionary
281
     1
  3
A0
350
72
  3
A1
350
73
  3
A2
350
74
  3
A3
350
75
  3
A4
350
76
  3
A5
350
77
  3
A6
350
78
  3
A7
350
79
  3
A8
350
7A
  3
A9
350
7B
  3
B0
350
7C
  3
B1
350
7D
  3
B2
350
7E
  3
B3
350
7F
  3
B4
350
80
  3
B5
350
81
  3
B6
350
82
  3
B7
350
83
  3
B8
350
84
  3
B9
350
85
  3
C0
350
86
  3
C1
350
87
  3
C2
350
88
  3
C3
350
89
  3
C4
350
8A
  3
C5
350
8B
  3
C6
350
8C
  3
C7
350
8D
  3
C8
350
8E
  3
C9
350
8F
  3
D0
350
90
  3
D1
350
91
  3
D2
350
92
  0
DICTIONARY
  5
2BD
102
{ACAD_REACTORS
330
C
102
}
330
C
100
AcDbDictionary
281
     1
  0
DICTIONARY
  5
2A
102
{ACAD_REACTORS
330
C
102
}
330
C
100
AcDbDictionary
281
     1
  3
2dWireframe
350
2F
  3
3D Hidden
350
31
  3
3dWireframe
350
30
  3
Basic
350
32
  3
Brighten
350
36
  3
ColorChange
350
3A
  3
Conceptual
350
34
  3
Dim
350
35
  3
Facepattern
350
39
  3
Flat
350
2B
  3
FlatWithEdges
350
2C
  3
Gouraud
350
2D
  3
GouraudWithEdges
350
2E
  3
Linepattern
350
38
  3
Realistic
350
33
  3
Thicken
350
37
  0
DICTIONARY
  5
2BB
102
{ACAD_REACTORS
330
C
102
}
330
C
100
AcDbDictionary
281
     1
  3
CANNOSCALE
350
2BC
  0
LAYOUT
  5
1E
102
{ACAD_REACTORS
330
1A
102
}
330
1A
100
AcDbPlotSettings
  1

  2
none_device
  4

  6

 40
0.0
 41
0.0
 42
0.0
 43
0.0
 44
0.0
 45
0.0
 46
0.0
 47
0.0
 48
0.0
 49
0.0
140
0.0
141
0.0
142
1.0
143
1.0
 70
   688
 72
     0
 73
     0
 74
     5
  7

 75
    16
 76
     0
 77
     2
 78
   300
147
1.0
148
0.0
149
0.0
100
AcDbLayout
  1
Layout1
 70
     1
 71
     1
 10
0.0
 20
0.0
 11
420.0
 21
297.0
 12
0.0
 22
0.0
 32
0.0
 14
1.000000E+20
 24
1.000000E+20
 34
1.000000E+20
 15
-1.000000E+20
 25
-1.000000E+20
 35
-1.000000E+20
146
0.0
 13
0.0
 23
0.0
 33
0.0
 16
1.0
 26
0.0
 36
0.0
 17
0.0
 27
1.0
 37
0.0
 76
     0
330
1B
  0
LAYOUT
  5
26
102
{ACAD_REACTORS
330
1A
102
}
330
1A
100
AcDbPlotSettings
  1

  2
none_device
  4

  6

 40
0.0
 41
0.0
 42
0.0
 43
0.0
 44
0.0
 45
0.0
 46
0.0
 47
0.0
 48
0.0
 49
0.0
140
0.0
141
0.0
142
1.0
143
1.0
 70
   688
 72
     0
 73
     0
 74
     5
  7

 75
    16
 76
     0
 77
     2
 78
   300
147
1.0
148
0.0
149
0.0
100
AcDbLayout
  1
Layout2
 70
     1
 71
     2
 10
0.0
 20
0.0
 11
0.0
 21
0.0
 12
0.0
 22
0.0
 32
0.0
 14
0.0
 24
0.0
 34
0.0
 15
0.0
 25
0.0
 35
0.0
146
0.0
 13
0.0
 23
0.0
 33
0.0
 16
1.0
 26
0.0
 36
0.0
 17
0.0
 27
1.0
 37
0.0
 76
     0
330
23
  0
LAYOUT
  5
22
102
{ACAD_REACTORS
330
1A
102
}
330
1A
100
AcDbPlotSettings
  1

  2
none_device
  4

  6

 40
0.0
 41
0.0
 42
0.0
 43
0.0
 44
0.0
 45
0.0
 46
0.0
 47
0.0
 48
0.0
 49
0.0
140
0.0
141
0.0
142
1.0
143
1.0
 70
  1712
 72
     0
 73
     0
 74
     0
  7

 75
     0
 76
     0
 77
     2
 78
   300
147
1.0
148
0.0
149
0.0
100
AcDbLayout
  1
Model
 70
     1
 71
     0
 10
0.0
 20
0.0
 11
420.0
 21
297.0
 12
0.0
 22
0.0
 32
0.0
 14
1.000000E+20
 24
1.000000E+20
 34
1.000000E+20
 15
-1.000000E+20
 25
-1.000000E+20
 35
-1.000000E+20
146
0.0
 13
0.0
 23
0.0
 33
0.0
 16
1.0
 26
0.0
 36
0.0
 17
0.0
 27
1.0
 37
0.0
 76
     0
330
1F
331
29
  0
MATERIAL
  5
3D
102
{ACAD_REACTORS
330
3B
102
}
330
3B
100
AcDbMaterial
  1
ByBlock
 72
     1
 94
      127
  0
MATERIAL
  5
3C
102
{ACAD_REACTORS
330
3B
102
}
330
3B
100
AcDbMaterial
  1
ByLayer
 72
     1
 94
      127
  0
MATERIAL
  5
3E
102
{ACAD_REACTORS
330
3B
102
}
330
3B
100
AcDbMaterial
  1
Global
 72
     1
 94
      127
  0
MLINESTYLE
  5
18
102
{ACAD_REACTORS
330
17
102
}
330
17
100
AcDbMlineStyle
  2
Standard
 70
     0
  3

 62
   256
 51
90.0
 52
90.0
 71
     2
 49
0.5
 62
   256
  6
BYLAYER
 49
-0.5
 62
   256
  6
BYLAYER
  0
ACDBPLACEHOLDER
  5
F
102
{ACAD_REACTORS
330
E
102
}
330
E
  0
SCALE
  5
72
102
{ACAD_REACTORS
330
71
102
}
330
71
100
AcDbScale
 70
     0
300
1:1
140
1.0
141
1.0
290
     1
  0
SCALE
  5
73
102
{ACAD_REACTORS
330
71
102
}
330
71
100
AcDbScale
 70
     0
300
1:2
140
1.0
141
2.0
290
     0
  0
SCALE
  5
74
102
{ACAD_REACTORS
330
71
102
}
330
71
100
AcDbScale
 70
     0
300
1:4
140
1.0
141
4.0
290
     0
  0
SCALE
  5
75
102
{ACAD_REACTORS
330
71
102
}
330
71
100
AcDbScale
 70
     0
300
1:5
140
1.0
141
5.0
290
     0
  0
SCALE
  5
76
102
{ACAD_REACTORS
330
71
102
}
330
71
100
AcDbScale
 70
     0
300
1:8
140
1.0
141
8.0
290
     0
  0
SCALE
  5
77
102
{ACAD_REACTORS
330
71
102
}
330
71
100
AcDbScale
 70
     0
300
1:10
140
1.0
141
10.0
290
     0
  0
SCALE
  5
78
102
{ACAD_REACTORS
330
71
102
}
330
71
100
AcDbScale
 70
     0
300
1:16
140
1.0
141
16.0
290
     0
  0
SCALE
  5
79
102
{ACAD_REACTORS
330
71
102
}
330
71
100
AcDbScale
 70
     0
300
1:20
140
1.0
141
20.0
290
     0
  0
SCALE
  5
7A
102
{ACAD_REACTORS
330
71
102
}
330
71
100
AcDbScale
 70
     0
300
1:30
140
1.0
141
30.0
290
     0
  0
SCALE
  5
7B
102
{ACAD_REACTORS
330
71
102
}
330
71
100
AcDbScale
 70
     0
300
1:40
140
1.0
141
40.0
290
     0
  0
SCALE
  5
7C
102
{ACAD_REACTORS
330
71
102
}
330
71
100
AcDbScale
 70
     0
300
1:50
140
1.0
141
50.0
290
     0
  0
SCALE
  5
7D
102
{ACAD_REACTORS
330
71
102
}
330
71
100
AcDbScale
 70
     0
300
1:100
140
1.0
141
100.0
290
     0
  0
SCALE
  5
7E
102
{ACAD_REACTORS
330
71
102
}
330
71
100
AcDbScale
 70
     0
300
2:1
140
2.0
141
1.0
290
     0
  0
SCALE
  5
7F
102
{ACAD_REACTORS
330
71
102
}
330
71
100
AcDbScale
 70
     0
300
4:1
140
4.0
141
1.0
290
     0
  0
SCALE
  5
80
102
{ACAD_REACTORS
330
71
102
}
330
71
100
AcDbScale
 70
     0
300
8:1
140
8.0
141
1.0
290
     0
  0
SCALE
  5
81
102
{ACAD_REACTORS
330
71
102
}
330
71
100
AcDbScale
 70
     0
300
10:1
140
10.0
141
1.0
290
     0
  0
SCALE
  5
82
102
{ACAD_REACTORS
330
71
102
}
330
71
100
AcDbScale
 70
     0
300
100:1
140
100.0
141
1.0
290
     0
  0
SCALE
  5
83
102
{ACAD_REACTORS
330
71
102
}
330
71
100
AcDbScale
 70
     0
300
1/128" = 1'-0"
140
0.007812
141
12.0
290
     0
  0
SCALE
  5
84
102
{ACAD_REACTORS
330
71
102
}
330
71
100
AcDbScale
 70
     0
300
1/64" = 1'-0"
140
0.015625
141
12.0
290
     0
  0
SCALE
  5
85
102
{ACAD_REACTORS
330
71
102
}
330
71
100
AcDbScale
 70
     0
300
1/32" = 1'-0"
140
0.03125
141
12.0
290
     0
  0
SCALE
  5
86
102
{ACAD_REACTORS
330
71
102
}
330
71
100
AcDbScale
 70
     0
300
1/16" = 1'-0"
140
0.0625
141
12.0
290
     0
  0
SCALE
  5
87
102
{ACAD_REACTORS
330
71
102
}
330
71
100
AcDbScale
 70
     0
300
3/32" = 1'-0"
140
0.09375
141
12.0
290
     0
  0
SCALE
  5
88
102
{ACAD_REACTORS
330
71
102
}
330
71
100
AcDbScale
 70
     0
300
1/8" = 1'-0"
140
0.125
141
12.0
290
     0
  0
SCALE
  5
89
102
{ACAD_REACTORS
330
71
102
}
330
71
100
AcDbScale
 70
     0
300
3/16" = 1'-0"
140
0.1875
141
12.0
290
     0
  0
SCALE
  5
8A
102
{ACAD_REACTORS
330
71
102
}
330
71
100
AcDbScale
 70
     0
300
1/4" = 1'-0"
140
0.25
141
12.0
290
     0
  0
SCALE
  5
8B
102
{ACAD_REACTORS
330
71
102
}
330
71
100
AcDbScale
 70
     0
300
3/8" = 1'-0"
140
0.375
141
12.0
290
     0
  0
SCALE
  5
8C
102
{ACAD_REACTORS
330
71
102
}
330
71
100
AcDbScale
 70
     0
300
1/2" = 1'-0"
140
0.5
141
12.0
290
     0
  0
SCALE
  5
8D
102
{ACAD_REACTORS
330
71
102
}
330
71
100
AcDbScale
 70
     0
300
3/4" = 1'-0"
140
0.75
141
12.0
290
     0
  0
SCALE
  5
8E
102
{ACAD_REACTORS
330
71
102
}
330
71
100
AcDbScale
 70
     0
300
1" = 1'-0"
140
1.0
141
12.0
290
     0
  0
SCALE
  5
8F
102
{ACAD_REACTORS
330
71
102
}
330
71
100
AcDbScale
 70
     0
300
1-1/2" = 1'-0"
140
1.5
141
12.0
290
     0
  0
SCALE
  5
90
102
{ACAD_REACTORS
330
71
102
}
330
71
100
AcDbScale
 70
     0
300
3" = 1'-0"
140
3.0
141
12.0
290
     0
  0
SCALE
  5
91
102
{ACAD_REACTORS
330
71
102
}
330
71
100
AcDbScale
 70
     0
300
6" = 1'-0"
140
6.0
141
12.0
290
     0
  0
SCALE
  5
92
102
{ACAD_REACTORS
330
71
102
}
330
71
100
AcDbScale
 70
     0
300
1'-0" = 1'-0"
140
12.0
141
12.0
290
     0
  0
VISUALSTYLE
  5
2F
102
{ACAD_REACTORS
330
2A
102
}
330
2A
100
AcDbVisualStyle
  2
2dWireframe
 70
     4
177
     2
291
     0
 71
     0
176
     1
 72
     2
176
     1
 73
     0
176
     1
 90
        0
176
     1
 40
-0.6
176
     1
 41
-30.0
176
     1
 62
     5
 63
     7
421
 16777215
176
     1
 74
     1
176
     1
 91
        4
176
     1
 64
     7
176
     1
 65
   257
176
     1
 75
     1
176
     1
175
     1
176
     1
 42
1.0
176
     1
 92
        0
176
     1
 66
   257
176
     1
 43
1.0
176
     1
 76
     1
176
     1
 77
     6
176
     1
 78
     2
176
     1
 67
     7
176
     1
 79
     5
176
     1
170
     0
176
     1
171
     0
176
     1
290
     0
176
     1
 93
        1
176
     1
 44
0.0
176
     1
173
     0
176
     1
  0
VISUALSTYLE
  5
31
102
{ACAD_REACTORS
330
2A
102
}
330
2A
100
AcDbVisualStyle
  2
3D Hidden
 70
     6
177
     2
291
     0
 71
     1
176
     1
 72
     2
176
     1
 73
     2
176
     1
 90
        0
176
     1
 40
-0.6
176
     1
 41
-30.0
176
     1
 62
     5
 63
     7
421
 16777215
176
     1
 74
     2
176
     1
 91
        2
176
     1
 64
     7
176
     1
 65
   257
176
     1
 75
     2
176
     1
175
     1
176
     1
 42
40.0
176
     1
 92
        0
176
     1
 66
   257
176
     1
 43
1.0
176
     1
 76
     1
176
     1
 77
     6
176
     1
 78
     2
176
     1
 67
     7
176
     1
 79
     3
176
     1
170
     0
176
     1
171
     0
176
     1
290
     0
176
     1
 93
        1
176
     1
 44
0.0
176
     1
173
     0
176
     1
  0
VISUALSTYLE
  5
30
102
{ACAD_REACTORS
330
2A
102
}
330
2A
100
AcDbVisualStyle
  2
3dWireframe
 70
     5
177
     2
291
     0
 71
     0
176
     1
 72
     2
176
     1
 73
     0
176
     1
 90
        0
176
     1
 40
-0.6
176
     1
 41
-30.0
176
     1
 62
     5
 63
     7
421
 16777215
176
     1
 74
     1
176
     1
 91
        4
176
     1
 64
     7
176
     1
 65
   257
176
     1
 75
     1
176
     1
175
     1
176
     1
 42
1.0
176
     1
 92
        0
176
     1
 66
   257
176
     1
 43
1.0
176
     1
 76
     1
176
     1
 77
     6
176
     1
 78
     2
176
     1
 67
     7
176
     1
 79
     5
176
     1
170
     0
176
     1
171
     0
176
     1
290
     0
176
     1
 93
        1
176
     1
 44
0.0
176
     1
173
     0
176
     1
  0
VISUALSTYLE
  5
32
102
{ACAD_REACTORS
330
2A
102
}
330
2A
100
AcDbVisualStyle
  2
Basic
 70
     7
177
     2
291
     1
 71
     1
176
     1
 72
     0
176
     1
 73
     1
176
     1
 90
        0
176
     1
 40
-0.6
176
     1
 41
-30.0
176
     1
 62
     5
 63
     7
421
 16777215
176
     1
 74
     0
176
     1
 91
        4
176
     1
 64
     7
176
     1
 65
   257
176
     1
 75
     1
176
     1
175
     1
176
     1
 42
1.0
176
     1
 92
        8
176
     1
 66
     7
176
     1
 43
1.0
176
     1
 76
     1
176
     1
 77
     6
176
     1
 78
     2
176
     1
 67
     7
176
     1
 79
     5
176
     1
170
     0
176
     1
171
     0
176
     1
290
     0
176
     1
 93
        1
176
     1
 44
0.0
176
     1
173
     0
176
     1
  0
VISUALSTYLE
  5
36
102
{ACAD_REACTORS
330
2A
102
}
330
2A
100
AcDbVisualStyle
  2
Brighten
 70
    12
177
     2
291
     1
 71
     2
176
     1
 72
     2
176
     1
 73
     0
176
     1
 90
        0
176
     1
 40
-0.6
176
     1
 41
-30.0
176
     1
 62
     5
 63
     7
421
 16777215
176
     1
 74
     1
176
     1
 91
        4
176
     1
 64
     7
176
     1
 65
   257
176
     1
 75
     1
176
     1
175
     1
176
     1
 42
1.0
176
     1
 92
        8
176
     1
 66
     7
176
     1
 43
1.0
176
     1
 76
     1
176
     1
 77
     6
176
     1
 78
     2
176
     1
 67
     7
176
     1
 79
     5
176
     1
170
     0
176
     1
171
     0
176
     1
290
     0
176
     1
 93
        1
176
     1
 44
50.0
176
     1
173
     0
176
     1
  0
VISUALSTYLE
  5
3A
102
{ACAD_REACTORS
330
2A
102
}
330
2A
100
AcDbVisualStyle
  2
ColorChange
 70
    16
177
     2
291
     1
 71
     2
176
     1
 72
     2
176
     1
 73
     3
176
     1
 90
        0
176
     1
 40
-0.6
176
     1
 41
-30.0
176
     1
 62
     5
 63
     8
421
  8421504
176
     1
 74
     1
176
     1
 91
        4
176
     1
 64
     7
176
     1
 65
   257
176
     1
 75
     1
176
     1
175
     1
176
     1
 42
1.0
176
     1
 92
        8
176
     1
 66
     8
424
  8421504
176
     1
 43
1.0
176
     1
 76
     1
176
     1
 77
     6
176
     1
 78
     2
176
     1
 67
     7
176
     1
 79
     5
176
     1
170
     0
176
     1
171
     0
176
     1
290
     0
176
     1
 93
        1
176
     1
 44
0.0
176
     1
173
     0
176
     1
  0
VISUALSTYLE
  5
34
102
{ACAD_REACTORS
330
2A
102
}
330
2A
100
AcDbVisualStyle
  2
Conceptual
 70
     9
177
     2
291
     0
 71
     3
176
     1
 72
     2
176
     1
 73
     0
176
     1
 90
        0
176
     1
 40
-0.6
176
     1
 41
-30.0
176
     1
 62
     5
 63
     7
421
 16777215
176
     1
 74
     2
176
     1
 91
        2
176
     1
 64
     7
176
     1
 65
   257
176
     1
 75
     1
176
     1
175
     1
176
     1
 42
40.0
176
     1
 92
        8
176
     1
 66
     7
176
     1
 43
1.0
176
     1
 76
     1
176
     1
 77
     6
176
     1
 78
     2
176
     1
 67
     7
176
     1
 79
     3
176
     1
170
     0
176
     1
171
     0
176
     1
290
     0
176
     1
 93
        1
176
     1
 44
0.0
176
     1
173
     0
176
     1
  0
VISUALSTYLE
  5
35
102
{ACAD_REACTORS
330
2A
102
}
330
2A
100
AcDbVisualStyle
  2
Dim
 70
    11
177
     2
291
     1
 71
     2
176
     1
 72
     2
176
     1
 73
     0
176
     1
 90
        0
176
     1
 40
-0.6
176
     1
 41
-30.0
176
     1
 62
     5
 63
     7
421
 16777215
176
     1
 74
     1
176
     1
 91
        4
176
     1
 64
     7
176
     1
 65
   257
176
     1
 75
     1
176
     1
175
     1
176
     1
 42
1.0
176
     1
 92
        8
176
     1
 66
     7
176
     1
 43
1.0
176
     1
 76
     1
176
     1
 77
     6
176
     1
 78
     2
176
     1
 67
     7
176
     1
 79
     5
176
     1
170
     0
176
     1
171
     0
176
     1
290
     0
176
     1
 93
        1
176
     1
 44
-50.0
176
     1
173
     0
176
     1
  0
VISUALSTYLE
  5
39
102
{ACAD_REACTORS
330
2A
102
}
330
2A
100
AcDbVisualStyle
  2
Facepattern
 70
    15
177
     2
291
     1
 71
     2
176
     1
 72
     2
176
     1
 73
     0
176
     1
 90
        0
176
     1
 40
-0.6
176
     1
 41
-30.0
176
     1
 62
     5
 63
     7
421
 16777215
176
     1
 74
     1
176
     1
 91
        4
176
     1
 64
     7
176
     1
 65
   257
176
     1
 75
     1
176
     1
175
     1
176
     1
 42
1.0
176
     1
 92
        8
176
     1
 66
     7
176
     1
 43
1.0
176
     1
 76
     1
176
     1
 77
     6
176
     1
 78
     2
176
     1
 67
     7
176
     1
 79
     5
176
     1
170
     0
176
     1
171
     0
176
     1
290
     0
176
     1
 93
        1
176
     1
 44
0.0
176
     1
173
     0
176
     1
  0
VISUALSTYLE
  5
2B
102
{ACAD_REACTORS
330
2A
102
}
330
2A
100
AcDbVisualStyle
  2
Flat
 70
     0
177
     2
291
     1
 71
     2
176
     1
 72
     1
176
     1
 73
     1
176
     1
 90
        2
176
     1
 40
-0.6
176
     1
 41
30.0
176
     1
 62
     5
 63
     7
421
 16777215
176
     1
 74
     0
176
     1
 91
        4
176
     1
 64
     7
176
     1
 65
   257
176
     1
 75
     1
176
     1
175
     1
176
     1
 42
1.0
176
     1
 92
        8
176
     1
 66
     7
176
     1
 43
1.0
176
     1
 76
     1
176
     1
 77
     6
176
     1
 78
     2
176
     1
 67
     7
176
     1
 79
     5
176
     1
170
     0
176
     1
171
     0
176
     1
290
     0
176
     1
 93
       13
176
     1
 44
0.0
176
     1
173
     0
176
     1
  0
VISUALSTYLE
  5
2C
102
{ACAD_REACTORS
330
2A
102
}
330
2A
100
AcDbVisualStyle
  2
FlatWithEdges
 70
     1
177
     2
291
     1
 71
     2
176
     1
 72
     1
176
     1
 73
     1
176
     1
 90
        2
176
     1
 40
-0.6
176
     1
 41
30.0
176
     1
 62
     5
 63
     7
421
 16777215
176
     1
 74
     1
176
     1
 91
        4
176
     1
 64
     7
176
     1
 65
   257
176
     1
 75
     1
176
     1
175
     1
176
     1
 42
1.0
176
     1
 92
        0
176
     1
 66
   257
176
     1
 43
1.0
176
     1
 76
     1
176
     1
 77
     6
176
     1
 78
     2
176
     1
 67
     7
176
     1
 79
     5
176
     1
170
     0
176
     1
171
     0
176
     1
290
     0
176
     1
 93
       13
176
     1
 44
0.0
176
     1
173
     0
176
     1
  0
VISUALSTYLE
  5
2D
102
{ACAD_REACTORS
330
2A
102
}
330
2A
100
AcDbVisualStyle
  2
Gouraud
 70
     2
177
     2
291
     1
 71
     2
176
     1
 72
     2
176
     1
 73
     1
176
     1
 90
        2
176
     1
 40
-0.6
176
     1
 41
30.0
176
     1
 62
     5
 63
     7
421
 16777215
176
     1
 74
     0
176
     1
 91
        4
176
     1
 64
     7
176
     1
 65
   257
176
     1
 75
     1
176
     1
175
     1
176
     1
 42
1.0
176
     1
 92
        0
176
     1
 66
     7
176
     1
 43
1.0
176
     1
 76
     1
176
     1
 77
     6
176
     1
 78
     2
176
     1
 67
     7
176
     1
 79
     5
176
     1
170
     0
176
     1
171
     0
176
     1
290
     0
176
     1
 93
       13
176
     1
 44
0.0
176
     1
173
     0
176
     1
  0
VISUALSTYLE
  5
2E
102
{ACAD_REACTORS
330
2A
102
}
330
2A
100
AcDbVisualStyle
  2
GouraudWithEdges
 70
     3
177
     2
291
     1
 71
     2
176
     1
 72
     2
176
     1
 73
     1
176
     1
 90
        2
176
     1
 40
-0.6
176
     1
 41
30.0
176
     1
 62
     5
 63
     7
421
 16777215
176
     1
 74
     1
176
     1
 91
        4
176
     1
 64
     7
176
     1
 65
   257
176
     1
 75
     1
176
     1
175
     1
176
     1
 42
1.0
176
     1
 92
        0
176
     1
 66
   257
176
     1
 43
1.0
176
     1
 76
     1
176
     1
 77
     6
176
     1
 78
     2
176
     1
 67
     7
176
     1
 79
     5
176
     1
170
     0
176
     1
171
     0
176
     1
290
     0
176
     1
 93
       13
176
     1
 44
0.0
176
     1
173
     0
176
     1
  0
VISUALSTYLE
  5
38
102
{ACAD_REACTORS
330
2A
102
}
330
2A
100
AcDbVisualStyle
  2
Linepattern
 70
    14
177
     2
291
     1
 71
     2
176
     1
 72
     2
176
     1
 73
     0
176
     1
 90
        0
176
     1
 40
-0.6
176
     1
 41
-30.0
176
     1
 62
     5
 63
     7
421
 16777215
176
     1
 74
     1
176
     1
 91
        4
176
     1
 64
     7
176
     1
 65
   257
176
     1
 75
     7
176
     1
175
     7
176
     1
 42
1.0
176
     1
 92
        8
176
     1
 66
     7
176
     1
 43
1.0
176
     1
 76
     1
176
     1
 77
     6
176
     1
 78
     2
176
     1
 67
     7
176
     1
 79
     5
176
     1
170
     0
176
     1
171
     0
176
     1
290
     0
176
     1
 93
        1
176
     1
 44
0.0
176
     1
173
     0
176
     1
  0
VISUALSTYLE
  5
33
102
{ACAD_REACTORS
330
2A
102
}
330
2A
100
AcDbVisualStyle
  2
Realistic
 70
     8
177
     2
291
     0
 71
     2
176
     1
 72
     2
176
     1
 73
     0
176
     1
 90
        0
176
     1
 40
-0.6
176
     1
 41
-30.0
176
     1
 62
     5
 63
     7
421
 16777215
176
     1
 74
     1
176
     1
 91
        0
176
     1
 64
     7
176
     1
 65
   257
176
     1
 75
     1
176
     1
175
     1
176
     1
 42
1.0
176
     1
 92
        8
176
     1
 66
     8
424
  7895160
176
     1
 43
1.0
176
     1
 76
     1
176
     1
 77
     6
176
     1
 78
     2
176
     1
 67
     7
176
     1
 79
     5
176
     1
170
     0
176
     1
171
     0
176
     1
290
     0
176
     1
 93
       13
176
     1
 44
0.0
176
     1
173
     0
176
     1
  0
VISUALSTYLE
  5
37
102
{ACAD_REACTORS
330
2A
102
}
330
2A
100
AcDbVisualStyle
  2
Thicken
 70
    13
177
     2
291
     1
 71
     2
176
     1
 72
     2
176
     1
 73
     0
176
     1
 90
        0
176
     1
 40
-0.6
176
     1
 41
-30.0
176
     1
 62
     5
 63
     7
421
 16777215
176
     1
 74
     1
176
     1
 91
        4
176
     1
 64
     7
176
     1
 65
   257
176
     1
 75
     1
176
     1
175
     1
176
     1
 42
1.0
176
     1
 92
       12
176
     1
 66
     7
176
     1
 43
1.0
176
     1
 76
     1
176
     1
 77
     6
176
     1
 78
     2
176
     1
 67
     7
176
     1
 79
     5
176
     1
170
     0
176
     1
171
     0
176
     1
290
     0
176
     1
 93
        1
176
     1
 44
0.0
176
     1
173
     0
176
     1
  0
DICTIONARYVAR
  5
2BC
102
{ACAD_REACTORS
330
2BB
102
}
330
2BB
100
DictionaryVariables
280
     0
  1
1:1
  0
ENDSEC
  0
EOF
