<?xml version="1.0" standalone="no"?>
<!DOCTYPE svg PUBLIC "-//W3C//DTD SVG 1.1//EN" "http://www.w3.org/Graphics/SVG/1.1/DTD/svg11.dtd" >
<svg xmlns="http://www.w3.org/2000/svg" xmlns:xlink="http://www.w3.org/1999/xlink" version="1.1">
<metadata></metadata>
<defs>
<font id="redaction_20bold" horiz-adv-x="1064" >
<font-face units-per-em="2048" ascent="1536" descent="-512" />
<missing-glyph horiz-adv-x="491" />
<glyph horiz-adv-x="0" />
<glyph unicode="&#xd;" horiz-adv-x="681" />
<glyph unicode=" "  horiz-adv-x="491" />
<glyph unicode="&#x09;" horiz-adv-x="491" />
<glyph unicode="&#xa0;" horiz-adv-x="491" />
<glyph unicode="!" horiz-adv-x="491" d="M82 0v287h328v-287h-328zM82 1065v328h41v41h41v41h123v-41h82v-41h41v-328h-41v-205h-41v-205h-41v-204h-41v41h-41v204h-41v164h-41v205h-41z" />
<glyph unicode="&#x22;" horiz-adv-x="819" d="M82 1270v82h41v82h82v41h41v-41h82v-41h41v-205h-41v-82h-41v-123h-41v-82h-41v123h-41v123h-41v123h-41zM451 1188v205h41v41h81v41h41v-41h82v-82h41v-82h-41v-123h-41v-123h-41v-123h-41v41h-41v123h-40v123h-41z" />
<glyph unicode="#" horiz-adv-x="1515" d="M41 451v41h41v40h369v82h41v164h40v123h-368v41h41v41h368v82h41v123h41v164h41v82h82v-123h-41v-123h-41v-164h-41v-41h369v123h41v164h41v164h123v-41h-41v-123h-41v-164h-41v-123h369v-82h-410v-82h-41v-164h-41v-123h369v-40h-41v-41h-369v-41h-41v-164h-41v-164h-41 v-82h-82v123h41v123h41v164h41v41h-368v-123h-41v-164h-41v-164h-123v41h41v123h41v164h41v123h-369zM532 532h328v41h41v123h41v164h41v41h-328v-41h-41v-123h-41v-123h-41v-82z" />
<glyph unicode="$" horiz-adv-x="1187" d="M82 901v205h41v82h41v82h41v41h82v41h41v41h204v163h82v-163h164v-41h82v-41h82v-41h41v-82h41v-164h-41v-41h-205v41h-41v123h41v82h-41v41h-41v41h-82v-369h-41v41h-41v328h-81v-41h-41v-41h-41v-41h-41v-123h41v-82h82v-41h81v-41h82v-41h82v-41h82v-41h123v-41h41 v-41h41v-41h41v-82h41v-245h-41v-82h-41v-82h-41v-41h-82v-41h-41v-41h-205v-205h-82v205h-204v41h-82v41h-41v41h-41v41h-41v205h41v41h164v-41h41v-164h-41v-41h41v-41h41v-41h122v369h82v-369h82v41h82v82h41v164h-41v41h-41v41h-82v40h-123v41h-81v41h-82v41h-82v41h-41 v41h-82v82h-41v82h-41z" />
<glyph unicode="%" horiz-adv-x="1720" d="M41 942v205h41v123h41v41h41v41h41v41h41v41h286v-41h82v-41h41v-41h41v-82h41v-328h-41v-82h-41v-41h-41v-41h-41v-41h-41v-41h-245v41h-82v41h-41v41h-41v41h-41v123h-41zM287 819h41v-82h123v41h41v123h40v246h-40v164h-41v41h-41v41h-82v-82h-41v-492zM369 0v82h41 v41h41v82h41v41h40v82h41v41h41v82h41v41h41v81h41v41h41v82h41v82h41v41h41v82h41v41h41v82h41v41h41v82h41v82h41v41h41v82h41v41h41v41h82v-41h-41v-82h-41v-82h-41v-41h-41v-82h-41v-41h-41v-82h-41v-41h-41v-82h-41v-41h-41v-82h-41v-82h-41v-41h-41v-82h-41v-40h-41 v-82h-41v-41h-41v-82h-41v-82h-41v-41h-41v-82h-40v-41h-41v-41h-82zM983 205v368h41v41h41v82h41v41h82v41h246v-41h82v-41h40v-41h41v-123h41v-286h-41v-123h-41v-41h-40v-41h-41v-41h-287v41h-82v41h-41v41h-41v82h-41zM1188 287h41v-164h41v-41h41v-41h41v41h41v41h41 v491h-41v82h-123v-41h-41v-123h-41v-245z" />
<glyph unicode="&#x26;" horiz-adv-x="1556" d="M41 205v287h41v40h41v41h41v41h41v41h41v41h82v41h41v82h-41v82h-41v82h-41v164h41v123h41v41h41v41h41v41h82v41h409v-41h82v-41h41v-82h41v-164h-41v-41h-41v-41h-41v-41h-41v-41h-82v-41h-82v-41h-41v-82h41v-41h41v-41h41v-41h41v-82h41v-41h41v-40h41v-41h41v-41h41 v41h41v81h41v123h41v123h-82v41h-41v41h410v-82h-82v-41h-41v-41h-41v-82h-41v-41h-41v-81h-41v-82h-41v-123h41v-41h82v-41h82v-41h204v-41h-40v-41h-82v-41h-82v-41h-287v41h-82v82h-82v-41h-41v-41h-82v-41h-491v41h-82v41h-41v41h-41v41h-41v41h-41zM328 369h41v-123h41 v-82h41v-41h122v-41h123v41h123v82h-41v41h-41v41h-41v41h-41v82h-41v41h-41v41h-41v81h-40v41h-41v82h-41v-82h-41v-122h-41v-123zM532 1106h41v-82h41v-82h41v-41h41v41h41v41h41v82h41v205h-41v82h-164v-41h-41v-41h-41v-164zM1556 164v41h41v-41h-41z" />
<glyph unicode="'" horiz-adv-x="491" d="M123 1147v246h41v41h41v41h41v-41h82v-41h41v-205h-41v-123h-41v-123h-41v-41h-41v164h-41v82h-41z" />
<glyph unicode="(" horiz-adv-x="901" d="M82 287v491h41v123h41v82h41v82h41v82h41v41h41v41h41v41h41v41h41v41h41v41h81v41h41v41h123v41h82v-41h-41v-41h-41v-41h-41v-41h-41v-41h-41v-41h-41v-82h-41v-82h-40v-123h-41v-123h-41v-655h41v-164h41v-82h40v-82h41v-82h41v-41h41v-41h41v-41h41v-41h41v-41h41 v-41h-82v41h-82v41h-82v41h-81v41h-41v41h-41v41h-41v41h-41v41h-41v41h-41v82h-41v41h-41v123h-41v123h-41z" />
<glyph unicode=")" horiz-adv-x="901" d="M82 -410h41v41h41v41h41v41h41v41h41v41h41v82h41v82h41v82h41v164h41v655h-41v123h-41v123h-41v82h-41v82h-41v41h-41v41h-41v41h-41v41h-41v41h-41v41h82v-41h82v-41h82v-41h82v-41h41v-41h41v-41h40v-41h41v-41h41v-41h41v-82h41v-41h41v-123h41v-123h41v-491h-41 v-123h-41v-82h-41v-82h-41v-82h-41v-41h-41v-41h-41v-41h-40v-41h-41v-41h-41v-41h-41v-41h-82v-41h-123v-41h-82v41z" />
<glyph unicode="*" horiz-adv-x="860" d="M82 778v123h82v41h41v41h82v82h-41v41h-82v41h-82v123h41v-41h82v-41h82v-41h41v-41h41v-164h-41v-41h-41v-41h-82v-41h-82v-41h-41zM369 614v328h123v-328h-123zM369 1106v328h123v-328h40v41h41v41h82v41h82v41h41v-123h-82v-41h-82v-41h-41v-82h41v-41h82v-41h82v-123 h-41v41h-82v41h-41v41h-82v41h-40v164h-123z" />
<glyph unicode="+" d="M82 614v82h410v410h81v-410h410v-82h-410v-409h-81v409h-410z" />
<glyph unicode="," horiz-adv-x="491" d="M82 82v164h41v41h205v-41h41v-41h41v-205h-41v-82h-41v-82h-41v-41h-82v-41h-41v41h41v41h41v41h41v205h-41v-82h-82v41h-41v41h-41z" />
<glyph unicode="-" horiz-adv-x="860" d="M82 614v82h696v-82h-696z" />
<glyph unicode="." horiz-adv-x="491" d="M82 0v287h328v-287h-328z" />
<glyph unicode="/" horiz-adv-x="737" d="M-164 -410h41v123h41v82h41v82h41v123h41v82h41v82h41v123h41v82h41v82h41v122h41v82h41v82h41v123h41v82h41v82h41v123h40v82h41v82h41v123h123v-41h-41v-82h-41v-82h-41v-123h-41v-82h-41v-123h-40v-82h-41v-82h-41v-123h-41v-82h-41v-81h-41v-82h-41v-123h-41v-82h-41 v-82h-41v-123h-41v-82h-41v-123h-41v-82h-41v-82h-41v-82h-82v82z" />
<glyph unicode="0" horiz-adv-x="1310" d="M82 451v532h41v82h41v82h41v82h41v41h41v41h41v41h41v41h82v41h122v41h123v-41h164v-41h82v-41h41v-41h41v-41h41v-41h41v-41h41v-82h41v-123h41v-532h-41v-123h-41v-41h-41v-82h-41v-41h-41v-41h-41v-41h-41v-41h-82v-41h-123v-41h-123v41h-163v41h-82v41h-41v41h-41v41 h-41v41h-41v41h-41v82h-41v123h-41zM410 410h41v-164h41v-41h40v-82h82v-41h123v41h41v41h41v82h41v123h41v655h-41v123h-41v82h-41v82h-82v41h-123v-41h-41v-41h-40v-41h-41v-123h-41v-696z" />
<glyph unicode="1" horiz-adv-x="737" d="M41 0v82h123v41h41v1147h-82v41h-82v41h123v41h164v41h123v41h81v-1352h41v-41h123v-82h-655z" />
<glyph unicode="2" horiz-adv-x="1105" d="M41 0v41h41v41h41v82h41v41h41v41h41v41h41v82h41v41h41v41h41v41h41v81h41v41h40v41h41v82h41v41h41v123h41v328h-41v41h-41v41h-41v41h-204v-41h-41v-41h-41v-123h41v-164h-41v-41h-205v41h-41v205h41v82h41v41h41v41h82v41h82v41h450v-41h82v-41h41v-41h41v-41h41v-41 h41v-287h-41v-82h-41v-41h-41v-82h-41v-41h-41v-41h-41v-41h-41v-41h-41v-41h-82v-40h-41v-41h-41v-41h-40v-41h-41v-41h-41v-41h-41v-41h-41v-41h-41v-41h41v41h450v41h82v41h41v41h41v41h41v82h82v-123h-41v-328h-983z" />
<glyph unicode="3" horiz-adv-x="1105" d="M41 246v123h41v82h164v-41h41v-41h41v-82h-82v-82h41v-82h41v-41h245v41h41v41h82v82h41v286h-41v82h-82v41h-82v41h-204v82h41v41h41v41h41v41h41v41h40v41h41v82h41v41h41v41h41v41h41v41h41v41h-82v-41h-286v-41h-164v-41h-41v-82h-41v-41h-82v123h41v287h901v-41h-41 v-41h-41v-82h-41v-41h-41v-41h-41v-41h-41v-41h-41v-41h-41v-82h-41v-41h-41v-41h82v-41h123v-41h41v-41h82v-82h41v-41h41v-163h41v-41h-41v-164h-41v-82h-41v-41h-41v-41h-41v-41h-41v-41h-82v-41h-164v-41h-163v41h-164v41h-41v41h-82v82h-41v82h-41z" />
<glyph unicode="4" horiz-adv-x="1310" d="M41 369v41h41v41h41v41h41v81h41v41h41v41h41v82h41v41h41v82h41v41h41v82h41v41h40v164h41v164h-41v41h123v41h205v41h82v-82h-41v-123h-41v-41h-41v-82h-41v-41h-41v-41h-41v-82h-41v-41h-41v-41h-41v-41h-41v-41h-40v-82h-41v-41h-41v-41h-41v-41h-41v-41h409v287h82 v41h82v41h82v41h41v-369h82v41h41v82h41v41h82v-123h-41v-286h-287v-41h82v-205h41v-41h123v-82h-615v82h123v41h41v246h-696z" />
<glyph unicode="5" horiz-adv-x="1105" d="M41 246v123h41v82h205v-82h41v-82h-82v-82h41v-82h82v-41h245v41h41v41h41v41h41v123h41v164h-41v81h-41v82h-82v41h-163v41h-41v-41h-287v123h41v451h41v164h655v41h41v81h82v-327h-655v82h-41v-164h-41v-246h41v41h409v-41h123v-41h41v-41h41v-41h41v-41h41v-82h41 v-327h-41v-82h-41v-82h-41v-41h-41v-41h-41v-41h-82v-41h-164v-41h-122v41h-164v41h-82v41h-41v41h-41v41h-41v82h-41z" />
<glyph unicode="6" horiz-adv-x="1228" d="M82 451v450h41v123h41v123h41v41h41v41h41v82h82v41h41v41h82v41h122v41h123v-41h164v-41h82v-41h41v-82h41v-205h-41v-41h-164v41h-41v164h41v82h-41v41h-205v-41h-82v-41h-40v-82h-41v-82h-41v-205h-41v-164h-41v-82h41v41h41v41h41v41h41v41h40v41h123v41h123v-41h164 v-41h41v-41h41v-41h41v-41h41v-41h41v-327h-41v-82h-41v-82h-41v-41h-41v-41h-41v-41h-82v-41h-164v-41h-82v41h-163v41h-82v41h-41v41h-41v41h-41v41h-41v41h-41v82h-41v123h-41zM369 573h41v-245h41v-123h41v-41h40v-41h41v-41h164v41h41v41h41v82h41v286h-41v123h-41v41 h-41v41h-205v-41h-81v-41h-41v-41h-41v-41z" />
<glyph unicode="7" horiz-adv-x="1105" d="M41 1024v164h41v246h983v-82h-41v-82h-41v-41h-41v-82h-41v-82h-41v-41h-41v-82h-41v-82h-41v-82h-41v-82h-41v-82h-41v-122h-41v-492h-163v-41h-164v246h41v123h41v82h41v82h41v81h41v82h41v41h40v82h41v41h41v82h41v41h41v82h41v41h41v41h41v82h41v41h41v41h-82v-41 h-573v-41h-82v-82h-41v-82h-82z" />
<glyph unicode="8" horiz-adv-x="1228" d="M82 246v246h41v40h41v82h41v41h82v41h82v41h-41v41h-82v41h-41v82h-41v82h-41v164h41v82h41v82h41v41h41v41h82v41h204v41h41v-41h246v-41h82v-41h41v-41h41v-82h41v-205h-41v-82h-41v-41h-41v-41h-41v-41h-82v-41h-82v-41h82v41h82v-41h41v-41h82v-41h41v-41h41v-82h41 v-245h-41v-82h-41v-82h-82v-41h-41v-41h-82v-41h-205v-41h-82v41h-204v41h-82v41h-82v41h-41v41h-41v82h-41zM369 246h41v-82h41v-41h41v-41h245v41h41v41h41v82h41v123h-41v82h-41v41h-41v40h-41v41h-82v41h-82v41h-81v-41h-41v-41h-41v-327zM369 737h82v41h-82v-41z M410 1065h41v-41h41v-41h40v-41h41v-41h82v-41h82v41h41v82h41v205h-41v82h-41v82h-123v41h-41v-41h-122v-41h-41v-246z" />
<glyph unicode="9" horiz-adv-x="1228" d="M82 778v369h41v82h41v41h41v41h41v41h41v41h82v41h123v41h122v-41h164v-41h82v-41h41v-41h41v-41h41v-41h41v-41h41v-82h41v-123h41v-451h-41v-122h-41v-82h-41v-82h-41v-41h-41v-41h-41v-41h-41v-41h-41v-41h-82v-41h-164v-41h-81v41h-164v41h-82v41h-41v41h-41v41h-41 v164h41v41h41v41h164v-41h41v-164h-41v-82h41v-41h204v41h82v41h41v82h41v82h41v286h41v82h41v82h-41v-41h-41v-41h-41v-41h-41v-41h-82v-41h-163v-41h-82v41h-123v41h-82v41h-41v41h-41v82h-41zM369 901h41v-123h41v-41h81v-41h164v41h82v41h41v41h41v164h-41v164h-41v82 h-41v41h-41v41h-41v41h-163v-41h-41v-41h-41v-82h-41v-287z" />
<glyph unicode=":" horiz-adv-x="491" d="M82 0v287h328v-287h-328zM82 737v328h328v-328h-328z" />
<glyph unicode=";" horiz-adv-x="491" d="M82 82v164h41v41h205v-41h41v-41h41v-205h-41v-82h-41v-82h-41v-41h-82v-41h-41v41h41v41h41v41h41v205h-41v-82h-82v41h-41v41h-41zM82 737v328h328v-328h-328z" />
<glyph unicode="=" d="M82 451v81h901v-81h-901zM82 737v123h901v-123h-901z" />
<glyph unicode="?" d="M41 1024v205h41v41h41v82h82v41h82v41h450v-41h123v-41h41v-41h41v-41h41v-123h41v-82h-41v-123h-41v-41h-41v-82h-82v-41h-41v-41h-82v-41h-82v-41h-41v-41h-41v-163h-81v41h-41v204h41v41h41v41h40v41h41v41h41v41h41v82h41v123h41v82h-41v82h-41v41h-41v41h-245v-41 h-82v-82h-41v-82h82v-82h-41v-82h-82v-41h-41v41h-82v41h-41zM328 0v287h327v-287h-327z" />
<glyph unicode="@" horiz-adv-x="1597" d="M82 205v409h41v123h41v82h41v41h41v82h41v41h41v41h41v41h82v41h41v41h122v41h123v41h287v-41h123v-41h82v-41h82v-41h41v-41h41v-41h41v-41h41v-123h41v-368h-41v-123h-41v-41h-41v-41h-41v-41h-41v-41h-41v-41h-123v-41h-164v41h-123v41h-41v41h41v41h41v82h-41v-41 h-41v-82h-41v-41h-82v-41h-82v-41h-82v41h-81v41h-41v41h-41v246h41v122h41v82h41v41h40v41h41v41h82v41h82v41h246v-41h205v41h82v-41h-41v-123h-41v-82h-41v-122h-41v-82h-41v-123h-41v-41h41v-41h164v41h82v41h41v82h41v82h41v327h-41v82h-41v82h-41v41h-41v41h-41v41 h-82v41h-123v41h-246v-41h-164v-41h-82v-41h-40v-41h-82v-41h-41v-41h-41v-82h-41v-41h-41v-82h-41v-123h-41v-327h41v-123h41v-82h41v-41h41v-41h41v-41h82v-41h41v-41h163v-41h246v41h164v41h82v41h41v-41h-41v-41h-41v-41h-82v-41h-205v-41h-164v41h-163v41h-82v41h-82 v41h-41v41h-41v41h-41v41h-41v82h-41v123h-41zM614 246h41v-41h41v41h82v41h41v82h41v82h41v122h41v82h41v123h-205v-41h-41v-82h-41v-82h-41v-81h-41v-246z" />
<glyph unicode="A" horiz-adv-x="1556" d="M0 0v82h82v41h41v41h41v41h41v82h41v123h41v82h41v81h41v123h41v82h41v82h41v82h40v123h41v82h41v82h41v123h41v82h41v41h123v-123h41v-82h41v-82h41v-123h41v-82h41v-82h41v-123h41v-82h41v-82h41v-82h41v-122h41v-82h41v-82h41v-82h41v-41h41v-41h81v-82h-655v82h82 v205h-41v82h82v41h-41v41h-573v-41h-41v-82h-41v-123h-41v-41h41v-82h123v-82h-451zM451 532h409v82h-41v82h-41v123h-41v82h-41v82h-82v-123h-41v-82h-41v-82h-40v-82h-41v-82z" />
<glyph unicode="B" horiz-adv-x="1474" d="M41 0v82h164v41h41v1188h-41v41h-164v82h983v-41h123v-41h41v-41h82v-82h41v-82h41v-123h-41v-82h-41v-41h-41v-41h-41v-41h-82v-41h-82v-41h164v-41h41v-41h82v-41h41v-82h41v-245h-41v-82h-41v-82h-41v-41h-82v-41h-123v-41h-1024zM492 82h368v41h82v41h41v41h41v41h41 v286h-41v82h-41v41h-82v41h-328v-573h-81v-41zM492 1311h81v-492h287v41h41v41h41v41h41v287h-41v41h-41v41h-82v41h-327v-41z" />
<glyph unicode="C" horiz-adv-x="1351" d="M41 573v287h41v123h41v82h41v82h41v41h41v82h41v41h82v41h41v41h82v41h204v41h41v-41h205v-41h82v-41h41v-41h41v-41h41v-41h41v82h-41v41h-41v41h82v41h82v-492h-82v82h-41v82h-41v41h-41v82h-82v41h-41v41h-287v-41h-82v-41h-41v-82h-40v-41h-41v-123h-41v-410h41v-122 h41v-82h40v-82h41v-41h41v-41h82v-41h328v41h82v41h82v41h41v41h41v-41h-41v-82h-41v-41h-41v-41h-41v-41h-41v-41h-82v-41h-491v41h-82v41h-82v41h-41v41h-41v41h-41v41h-41v82h-41v82h-41v163h-41zM1270 369v41h41v-41h-41z" />
<glyph unicode="D" horiz-adv-x="1638" d="M41 0v82h164v41h41v1147h-41v82h-164v82h901v-41h164v-41h82v-41h82v-41h82v-41h41v-41h41v-41h41v-82h41v-41h40v-123h41v-328h-41v-122h-40v-82h-41v-41h-41v-82h-41v-41h-82v-41h-41v-41h-82v-41h-82v-41h-123v-41h-942zM492 82h327v41h123v41h82v41h41v41h41v82h41 v82h41v163h41v205h-41v205h-41v82h-41v82h-41v41h-41v41h-41v41h-82v41h-123v41h-286v-41h81v-1147h-81v-82z" />
<glyph unicode="E" horiz-adv-x="1433" d="M41 0v82h123v41h41v41h41v1065h-41v82h-41v41h-123v82h1270v-492h-82v82h-41v164h-41v41h-41v41h-41v41h-123v41h-450v-41h81v-533h205v41h82v41h41v164h82v-573h-82v122h-41v82h-82v41h-205v-573h-81v-41h491v41h123v41h41v41h41v41h41v123h41v82h41v41h82v-41h-41v-328 h-41v-123h-1270z" />
<glyph unicode="F" horiz-adv-x="1433" d="M41 0v82h164v41h41v1188h-41v41h-164v82h1270v-328h41v-164h-123v164h-41v82h-41v82h-82v41h-82v41h-491v-41h81v-533h246v41h41v41h41v82h41v82h82v-614h-82v82h-41v122h-41v41h-82v41h-286v-41h81v-532h41v-41h164v-82h-737z" />
<glyph unicode="G" horiz-adv-x="1597" d="M41 614v164h41v205h41v82h41v82h41v41h41v41h41v41h41v41h41v41h82v41h81v41h451v-41h82v-41h82v-41h41v-41h41v41h-41v41h-41v41h82v41h123v-492h-82v41h-41v82h-41v82h-41v41h-41v41h-41v41h-82v41h-287v-41h-82v-41h-41v-41h-41v-41h-40v-82h-41v-123h-41v-410h41 v-122h41v-82h40v-82h41v-41h41v-41h82v-41h328v41h82v41h82v41h41v82h-41v-41h-41v-41h-41v327h-41v41h-123v82h655v-82h-163v-614h-41v41h-82v41h-41v41h-82v-41h-82v-41h-82v-41h-532v41h-82v41h-82v41h-41v41h-41v41h-41v41h-41v82h-41v82h-41v204h-41z" />
<glyph unicode="H" horiz-adv-x="1720" d="M41 0v82h164v82h41v1106h-41v82h-164v82h737v-82h-164v-41h-41v-533h574v533h-41v41h-164v82h737v-82h-163v-41h-41v-1188h41v-41h163v-82h-737v82h164v41h41v532h82v41h-737v-41h81v-532h41v-41h164v-82h-737z" />
<glyph unicode="I" horiz-adv-x="819" d="M41 0v82h164v41h41v1147h-41v82h-164v82h737v-82h-164v-41h-41v-1188h41v-41h164v-82h-737z" />
<glyph unicode="J" horiz-adv-x="1351" d="M41 246v164h41v41h41v41h123v-41h41v-41h41v-123h-41v-123h41v-41h82v-41h163v41h82v41h41v41h41v82h41v1024h-41v41h-123v82h697v-82h-123v-41h-82v-983h-41v-82h-41v-82h-41v-41h-41v-41h-41v-41h-82v-41h-205v-41h-122v41h-205v41h-82v41h-41v41h-41v41h-41v82h-41z " />
<glyph unicode="K" horiz-adv-x="1679" d="M41 0v82h164v41h41v1188h-41v41h-164v82h737v-82h-164v-41h-41v-615h-41v-41h-40v-41h40v41h41v41h41v41h41v41h41v41h41v41h41v41h41v41h41v41h41v41h41v41h41v41h41v41h41v41h41v41h41v123h-82v82h491v-82h-122v-41h-82v-41h-41v-41h-82v-41h-41v-41h-41v-41h-41v-41 h-41v-41h-41v-41h-41v-41h-41v-82h41v-41h41v-41h41v-82h41v-41h41v-41h41v-82h41v-40h41v-82h41v-41h41v-82h41v-41h41v-82h82v-41h40v-41h82v-82h-491v82h-41v41h-41v82h-41v41h-41v82h-41v41h-41v82h-41v41h-41v81h-41v41h-41v82h-41v-41h-41v-41h-41v-41h-41v-450h41 v-41h164v-82h-737z" />
<glyph unicode="L" horiz-adv-x="1392" d="M41 0v82h123v41h41v82h41v1024h-41v82h-41v41h-123v82h696v-82h-123v-41h-41v-1147h-81v-82h450v41h123v41h41v41h41v41h41v82h41v123h41v41h82v-164h-41v-287h-41v-41h-1229z" />
<glyph unicode="M" horiz-adv-x="2007" d="M41 0v82h123v41h41v41h41v1106h-41v41h-41v41h-123v82h614v-123h41v-82h41v-123h41v-82h41v-82h41v-123h41v-82h41v-123h41v-122h-41v-41h82v122h41v82h41v123h41v82h41v123h41v82h41v123h41v82h41v123h41v41h573v-82h-123v-41h-41v-41h-41v-1106h41v-41h41v-41h123v-82 h-696v82h123v41h41v1024h41v82h-41v-41h-41v-123h-41v-82h-41v-123h-41v-82h-41v-82h-41v-123h-41v-81h-41v-123h-41v-82h-41v-123h-41v-82h-41v-82h-41v-41h-41v123h-41v123h-41v82h-41v82h-41v123h-41v81h-41v123h-41v82h-41v123h-40v82h-41v82h-41v123h-41v-1065h41v-41 h163v-82h-532z" />
<glyph unicode="N" horiz-adv-x="1638" d="M41 0v82h123v41h41v41h41v1065h-41v41h-41v41h-41v41h-41v41h-41v41h491v-41h41v-41h41v-41h41v-41h41v-41h41v-41h41v-41h41v-82h41v-41h41v-41h41v-41h41v-41h41v-41h41v-41h41v-41h41v-41h41v-41h41v-164h41v779h-41v41h-123v82h491v-82h-122v-41h-41v-123h-41v-1188 h-41v41h-41v41h-41v41h-41v41h-41v41h-41v41h-41v41h-41v82h-41v41h-41v41h-41v41h-41v40h-41v41h-41v41h-41v41h-41v41h-41v82h-41v41h-41v41h-41v41h-41v41h-40v41h-41v41h-41v41h-41v-942h41v-41h163v-82h-532z" />
<glyph unicode="O" horiz-adv-x="1597" d="M41 573v246h41v164h41v82h41v82h41v41h41v41h41v41h41v41h41v41h82v41h81v41h164v41h164v-41h205v-41h82v-41h82v-41h41v-41h82v-82h41v-41h41v-41h41v-82h41v-164h40v-246h-40v-163h-41v-82h-41v-82h-41v-41h-41v-41h-41v-41h-41v-41h-41v-41h-82v-41h-82v-41h-205v-41 h-123v41h-205v41h-81v41h-82v41h-41v41h-41v41h-41v41h-41v41h-41v41h-41v123h-41v122h-41zM410 532h41v-163h41v-82h40v-82h41v-41h41v-41h82v-41h205v41h82v41h41v41h41v41h41v82h41v123h41v450h-41v164h-41v82h-41v82h-41v41h-41v41h-82v41h-205v-41h-82v-41h-41v-41h-41 v-41h-40v-82h-41v-123h-41v-451z" />
<glyph unicode="P" horiz-adv-x="1474" d="M41 0v82h164v41h41v1188h-41v41h-164v82h1024v-41h123v-41h41v-41h82v-41h41v-82h41v-246h-41v-123h-41v-41h-41v-41h-41v-41h-82v-41h-164v-41h-451v-41h41v-450h41v-41h164v-82h-737zM532 1311h41v-615h205v41h123v41h41v41h41v41h41v123h41v82h-41v164h-41v41h-41v41 h-123v41h-287v-41z" />
<glyph unicode="Q" horiz-adv-x="1597" d="M41 573v246h41v164h41v82h41v82h41v41h41v41h41v41h41v41h41v41h82v41h81v41h164v41h205v-41h164v-41h82v-41h82v-41h41v-41h82v-41h41v-82h41v-41h41v-82h41v-123h40v-328h-40v-122h-41v-82h-41v-82h-41v-41h-41v-41h-41v-41h-41v-41h-41v-41h-82v-123h41v-41h41v-82h41 v-41h82v41h82v-41h-41v-41h-41v-41h-82v-41h-205v41h-82v82h-41v82h-41v41h-41v82h-41v82h-41v82h-41v82h-41v41h-41v41h-82v-41h-41v-41h41v-82h82v-41h41v-41h82v-82h41v-41h-82v41h-205v41h-81v41h-82v41h-41v41h-41v41h-41v41h-41v41h-41v41h-41v123h-41v122h-41z M410 532h41v-163h81v41h82v41h205v-41h82v-41h41v-41h41v-82h41v-41h41v41h41v82h41v164h41v368h-41v164h-41v123h-41v41h-41v82h-82v41h-41v41h-246v-41h-41v-41h-41v-41h-41v-41h-40v-82h-41v-123h-41v-451z" />
<glyph unicode="R" horiz-adv-x="1597" d="M41 0v82h164v41h41v1188h-41v41h-164v82h983v-41h123v-41h82v-41h41v-41h41v-82h41v-246h-41v-82h-41v-41h-41v-41h-41v-41h-123v-41h82v-41h82v-41h41v-82h41v-81h41v-82h41v-123h41v-82h41v-82h122v-82h-450v41h-41v123h-41v82h-41v123h-41v123h-41v81h-41v82h-409v-41 h81v-491h41v-41h164v-82h-737zM492 1311h81v-533h328v41h41v41h41v41h41v287h-41v41h-41v41h-41v41h-82v41h-327v-41z" />
<glyph unicode="S" horiz-adv-x="1310" d="M82 942v123h41v123h41v82h41v41h41v41h41v41h82v41h368v-41h82v-41h41v-41h41v-41h41v-41h41v82h-41v41h-41v41h82v41h123v-492h-82v41h-41v82h-41v41h-41v41h-41v82h-82v41h-41v41h-286v-41h-41v-41h-41v-205h41v-41h82v-41h122v-41h82v-41h123v-41h123v-41h82v-41h82 v-41h41v-82h41v-82h41v-204h-41v-82h-41v-82h-41v-41h-41v-41h-82v-41h-82v-41h-409v41h-82v41h-41v41h-82v41h-41v-41h41v-41h41v-41h-82v-41h-82v-41h-41v533h82v-41h41v-82h41v-82h41v-41h41v-41h41v-41h82v-41h163v-41h41v41h164v41h41v41h41v164h-41v82h-82v41h-82v40 h-123v41h-122v41h-123v41h-82v41h-41v41h-41v41h-41v41h-41v123h-41z" />
<glyph unicode="T" horiz-adv-x="1433" d="M0 942v369h41v123h1352v-164h41v-328h-82v82h-41v123h-41v82h-41v41h-41v41h-123v41h-246v-41h41v-1147h41v-41h41v-41h123v-82h-696v82h123v41h40v1229h-163v-41h-123v-41h-41v-41h-41v-82h-41v-123h-41v-82h-82z" />
<glyph unicode="U" horiz-adv-x="1638" d="M41 1352v82h737v-82h-164v-41h-41v-942h41v-82h41v-41h41v-41h41v-41h328v41h82v41h41v82h41v82h41v860h-41v82h-164v82h532v-82h-122v-41h-41v-82h-41v-860h-41v-123h-41v-41h-41v-41h-41v-41h-41v-41h-41v-41h-82v-41h-205v-41h-123v41h-164v41h-122v41h-41v41h-41v41 h-41v41h-41v82h-41v942h-41v82h-41v41h-123z" />
<glyph unicode="V" horiz-adv-x="1556" d="M0 1352v82h655v-82h-82v-41h-41v-82h41v-123h41v-82h41v-82h41v-82h41v-123h41v-82h41v-82h41v-122h-41v-41h82v82h41v81h41v82h41v123h41v82h41v82h41v82h41v82h41v123h41v41h-41v82h-123v82h450v-82h-81v-41h-41v-41h-41v-41h-41v-82h-41v-123h-41v-82h-41v-82h-41v-82 h-41v-82h-41v-123h-41v-81h-41v-82h-41v-82h-41v-82h-41v-123h-41v-82h-41v-82h-82v41h-41v82h-41v123h-41v82h-41v82h-41v82h-40v81h-41v123h-41v82h-41v82h-41v82h-41v123h-41v82h-41v82h-41v82h-41v41h-41v41h-82z" />
<glyph unicode="W" horiz-adv-x="2211" d="M41 1352v82h614v-82h-123v-164h41v-123h41v-123h41v-123h41v-82h41v-123h41v-245h41v82h41v81h41v82h41v82h41v82h41v123h41v82h-41v82h-41v82h-41v123h-41v41h-41v41h-82v82h615v-82h-82v-164h41v-123h41v-123h41v-82h41v-123h41v-123h40v-245h41v123h41v122h41v123h41 v123h41v123h41v82h41v164h41v82h-41v41h-82v82h410v-82h-41v-41h-82v-82h-41v-82h-41v-123h-41v-82h-41v-123h-41v-123h-41v-82h-41v-122h-41v-82h-41v-123h-41v-82h-41v-123h-41v-82h-40v-41h-82v123h-41v82h-41v123h-41v82h-41v123h-41v81h-41v123h-41v82h-41v-41h-41 v-123h-41v-82h-41v-81h-41v-82h-41v-82h-41v-82h-41v-123h-41v-82h-41v-41h-82v82h-41v123h-41v82h-41v123h-40v82h-41v122h-41v123h-41v82h-41v123h-41v82h-41v123h-41v82h-41v123h-41v41h-82z" />
<glyph unicode="X" horiz-adv-x="1597" d="M41 0v82h82v41h82v41h41v41h41v41h41v82h41v41h41v41h41v41h41v41h40v40h41v82h41v41h41v41h-41v41h-41v82h-41v41h-40v82h-41v41h-41v41h-41v82h-41v41h-41v82h-41v41h-41v41h-41v41h-82v82h696v-82h-123v-123h41v-82h41v-82h41v-41h41v-82h-41v-41h41v41h41v41h41v41 h41v41h41v41h41v41h41v82h41v41h41v41h-41v41h-82v82h451v-82h-82v-41h-82v-41h-41v-41h-41v-41h-41v-41h-41v-41h-41v-41h-41v-82h-41v-41h-41v-41h-41v-123h41v-41h41v-82h41v-41h41v-82h41v-40h41v-41h41v-82h41v-41h41v-82h41v-41h41v-41h41v-41h41v-41h81v-82h-696v82 h82v41h41v82h-41v82h-41v41h-41v41h-41v82h-41v41h-41v40h41v41h41v82h-41v-41h-41v-41h-41v-41h-41v-40h-41v-41h-41v-41h-41v-82h-40v-41h-41v-41h-41v-41h-41v-82h41v-41h82v-82h-451z" />
<glyph unicode="Y" horiz-adv-x="1515" d="M0 1352v82h655v-82h-123v-164h41v-41h41v-82h41v-41h41v-82h41v-82h41v-41h41v-123h-41v-41h82v82h41v41h41v82h41v82h41v41h41v82h41v82h41v82h41v123h-123v82h410v-82h-41v-41h-41v-41h-41v-41h-41v-41h-41v-82h-41v-41h-41v-82h-41v-41h-41v-82h-41v-41h-41v-82h-41 v-41h-41v-82h-41v-409h41v-82h41v-41h123v-82h-696v82h122v41h41v41h41v450h-41v41h-41v82h-40v41h-41v82h-41v41h-41v82h-41v41h-41v82h-41v41h-41v82h-41v41h-41v41h-41v41h-82z" />
<glyph unicode="Z" horiz-adv-x="1392" d="M41 0v41h41v82h41v41h41v82h41v82h41v41h41v82h41v41h41v81h41v41h41v82h41v41h40v82h41v41h41v82h41v82h41v41h41v82h41v41h41v82h123v82h-491v-41h-82v-41h-41v-41h-41v-41h-41v-123h-41v-123h-123v41h41v451h1188v-41h-41v-41h-41v-82h-41v-82h-41v-41h-41v-82h-41 v-41h-41v-82h-41v-41h-41v-82h-41v-41h-41v-82h-41v-41h-41v-82h-41v-41h-41v-81h-41v-82h-41v-41h-41v-82h-41v-41h-40v-82h-82v-41h573v41h82v41h41v41h41v41h41v82h41v123h41v41h82v-205h-41v-287h-1270z" />
<glyph unicode="[" horiz-adv-x="778" d="M123 -410v1926h614v-82h-368v-41h82v-1721h286v-82h-614z" />
<glyph unicode="\" horiz-adv-x="737" d="M41 1352v82h82v-41h41v-123h41v-82h41v-82h41v-123h41v-82h41v-82h41v-123h41v-82h41v-82h40v-122h41v-82h41v-82h41v-123h41v-82h41v-82h41v-82h41v-123h41v-82h41v-123h41v-41h-82v41h-41v82h-41v82h-41v123h-41v82h-41v82h-41v82h-41v123h-41v82h-40v82h-41v123h-41 v81h-41v82h-41v123h-41v82h-41v123h-41v82h-41v82h-41v82h-41v123h-41z" />
<glyph unicode="]" horiz-adv-x="778" d="M41 -328h287v1721h82v41h-369v82h614v-1926h-614v82z" />
<glyph unicode="^" horiz-adv-x="1146" d="M82 737v41h41v41h41v82h41v41h41v82h41v41h41v82h41v82h41v41h41v82h41v41h40v41h82v-41h41v-41h41v-82h41v-41h41v-82h41v-41h41v-82h41v-82h41v-41h41v-82h41v-41h41v-41h-123v41h-41v41h-41v82h-41v41h-41v82h-41v41h-41v82h-41v41h-41v82h-82v-82h-40v-41h-41v-82 h-41v-41h-41v-82h-41v-41h-41v-82h-41v-41h-41v-41h-123z" />
<glyph unicode="_" horiz-adv-x="901" d="M0 -246h901v-82h-901v82z" />
<glyph unicode="`" horiz-adv-x="1024" d="M205 1352v123h41v41h41v40h82v-40h82v-41h41v-82h40v-41h41v-82h41v-41h41v-82h-41v41h-82v41h-81v41h-123v41h-82v41h-41z" />
<glyph unicode="a" horiz-adv-x="1105" d="M41 82v246h41v41h41v41h82v41h82v41h123v40h122v41h123v246h-41v41h-41v41h-245v-41h-41v-41h41v-164h-41v-41h-164v41h-41v164h41v82h41v41h41v41h123v41h368v-41h82v-41h82v-41h41v-123h41v-655h123v-41h-41v-41h-41v-41h-287v41h-41v82h41v82h41v41h-41v-41h-41v-41 h-41v-41h-41v-41h-41v-41h-40v-41h-123v-41h-123v41h-123v41h-41v41h-41zM328 164h82v-41h82v41h81v41h41v41h41v246h-123v-41h-122v-41h-41v-41h-41v-205zM1065 123v41h41v-41h-41z" />
<glyph unicode="b" horiz-adv-x="1228" d="M41 1352v82h164v41h164v41h82v-574h-41v-82h-41v-41h41v41h41v41h41v41h40v41h82v41h287v-41h82v-41h41v-41h41v-41h41v-41h41v-164h41v-163h-41v-164h-41v-82h-41v-41h-41v-82h-82v-41h-41v-41h-82v-41h-491v41h-41v-41h-123v1311h-41v41h-82zM451 123h41v-41h204v41h82 v41h41v82h41v123h41v204h-41v164h-41v82h-41v41h-246v-41h-81v-696z" />
<glyph unicode="c" horiz-adv-x="1024" d="M82 246v450h41v82h41v41h41v82h82v41h41v41h82v41h368v-41h82v-41h41v-41h41v-41h41v-164h-41v-82h-164v41h-41v164h41v41h-41v41h-41v41h-164v-41h-40v-41h-41v-41h-41v-82h-41v-368h41v-82h41v-41h41v-41h40v-41h287v41h82v82h41v-82h-41v-41h-41v-41h-41v-41h-41v-41 h-41v-41h-123v-41h-122v41h-164v41h-41v41h-82v41h-41v82h-41v41h-41z" />
<glyph unicode="d" horiz-adv-x="1269" d="M82 246v409h41v82h41v82h41v41h41v41h41v41h82v41h82v41h327v287h-41v41h-41v82h164v41h164v41h41v-1352h41v-41h41v-41h82v-41h-164v-41h-246v-41h-41v164h41v41h41v82h-41v-82h-41v-41h-41v-41h-41v-41h-82v-41h-327v41h-41v41h-41v41h-41v41h-41v82h-41zM369 328h41 v-82h41v-41h41v-41h40v-41h123v41h82v41h41v696h-41v41h-205v-41h-40v-41h-41v-41h-41v-41h-41v-450z" />
<glyph unicode="e" d="M41 410v163h41v123h41v82h41v82h41v41h41v41h82v41h82v41h327v-41h82v-41h41v-41h41v-41h41v-41h41v-123h41v-164h-737v-40h82v-123h41v-82h41v-41h41v-41h40v-41h328v41h41v41h41v41h41v-41h-41v-82h-41v-41h-41v-41h-41v-41h-82v-41h-82v-41h-123v41h-163v41h-82v41 h-82v41h-41v82h-41v41h-41v164h-41zM369 614h409v82h-41v123h-41v82h-82v41h-82v-41h-81v-41h-41v-82h-41v-164z" />
<glyph unicode="f" horiz-adv-x="737" d="M0 942v82h164v123h41v123h41v82h41v41h41v41h41v41h163v41h164v-41h123v-41h41v-41h41v-205h-41v-41h-82v41h-82v82h-41v41h41v82h-164v-41h-40v-41h-41v-287h245v-82h-327v-41h82v-778h41v-41h122v-82h-573v82h123v860h-164z" />
<glyph unicode="g" d="M0 -164h41v41h82v41h123v41h-123v82h-41v82h41v82h41v41h41v41h82v41h82v41h-164v41h-41v41h-41v41h-41v286h41v82h41v41h41v41h41v41h123v41h327v-41h41v41h41v41h41v41h41v41h246v-41h41v-41h41v-123h-41v-41h-164v41h-41v82h41v41h-82v-41h-82v-41h-41v-41h82v-41h41 v-41h41v-82h41v-205h-41v-81h-41v-41h-41v-41h-41v-41h-41v-41h-123v-41h-327v-41h-41v-41h41v-41h41v-41h450v-41h164v-41h41v-41h41v-82h41v-123h-41v-82h-41v-82h-82v-41h-41v-41h-164v-41h-491v41h-123v41h-82v41h-41v205zM205 -164v-123h41v-41h41v-41h82v-41h327v41 h123v41h41v164h-82v41h-532v-41h-41zM246 0v-41h41v41h-41zM369 492h41v-41h41v-41h41v-41h81v41h41v41h41v41h41v327h-41v41h-41v41h-41v41h-122v-41h-41v-41h-41v-368z" />
<glyph unicode="h" horiz-adv-x="1310" d="M41 0v82h123v41h41v1147h-41v82h-82v82h164v41h164v41h82v-615h-41v-41h-41v-82h41v41h41v41h40v41h41v41h41v41h82v41h287v-41h41v-41h41v-41h41v-123h41v-696h123v-82h-574v82h123v82h41v573h-41v82h-41v41h-205v-41h-41v-41h-40v-696h122v-82h-573z" />
<glyph unicode="i" horiz-adv-x="655" d="M41 0v82h123v82h41v614h-41v82h-82v41h-41v41h123v41h164v41h164v-942h122v-82h-573zM205 1188v287h287v-287h-287z" />
<glyph unicode="j" horiz-adv-x="655" d="M-205 -205h41v41h164v-82h41v-82h-41v-82h123v41h41v41h41v1147h-41v41h-82v41h-41v41h164v41h164v41h123v-1270h-41v-82h-41v-41h-41v-41h-41v-41h-82v-41h-287v41h-82v41h-41v41h-41v164zM205 1188v287h287v-287h-287z" />
<glyph unicode="k" horiz-adv-x="1269" d="M41 0v82h123v1229h-41v41h-41v82h164v41h164v41h41v-1024h-41v-41h41v41h41v40h40v41h41v41h41v41h41v41h41v41h41v41h41v41h41v41h41v41h-41v41h-82v82h492v-82h-82v-41h-123v-41h-41v-41h-82v-41h-41v-41h-41v-41h-41v-82h41v-41h41v-41h41v-81h41v-41h41v-41h41v-82 h41v-41h41v-82h41v-41h41v-41h82v-82h-410v82h-41v41h-41v82h-41v41h-41v82h-41v41h-41v82h-82v-41h-40v-41h-41v-205h41v-82h122v-82h-573z" />
<glyph unicode="l" horiz-adv-x="655" d="M41 0v82h123v1229h-41v41h-41v82h164v41h164v41h82v-1434h122v-82h-573z" />
<glyph unicode="m" horiz-adv-x="1884" d="M41 0v82h123v778h-82v41h-41v41h123v41h164v41h164v-123h-41v-41h-41v-82h41v41h41v41h40v41h41v41h41v41h41v41h287v-41h41v-41h41v-41h41v-82h-41v-41h41v41h41v41h41v41h41v41h41v41h41v41h286v-41h82v-41h41v-123h41v-696h41v-41h82v-82h-532v82h82v41h41v655h-41v41 h-41v41h-164v-41h-41v-41h-41v-696h123v-82h-533v82h82v41h41v614h-41v82h-41v41h-164v-41h-81v-737h81v-82h-532z" />
<glyph unicode="n" horiz-adv-x="1310" d="M41 0v82h123v41h41v696h-41v41h-82v41h-41v41h164v41h123v41h164v-123h-41v-82h-41v-41h41v41h41v41h40v41h41v41h41v41h82v41h287v-41h41v-41h41v-41h41v-123h41v-696h123v-82h-574v82h123v41h41v614h-41v82h-41v41h-205v-41h-41v-41h-40v-696h122v-82h-573z" />
<glyph unicode="o" horiz-adv-x="1146" d="M41 410v163h41v164h41v82h41v41h41v41h41v41h41v41h123v41h327v-41h123v-41h41v-41h41v-41h41v-41h41v-82h41v-123h41v-204h-41v-123h-41v-82h-41v-41h-41v-41h-41v-41h-41v-41h-82v-41h-123v-41h-163v41h-123v41h-82v41h-41v41h-41v41h-41v41h-41v41h-41v164h-41z M369 287h41v-123h41v-41h41v-41h163v41h41v41h41v82h41v491h-41v82h-41v82h-82v41h-122v-41h-41v-41h-41v-82h-41v-491z" />
<glyph unicode="p" horiz-adv-x="1269" d="M41 -410h82v41h41v41h41v1106h-41v82h-82v41h-41v41h123v41h123v41h164v41h41v-164h-41v-41h-41v-82h41v41h41v82h40v41h82v41h41v41h287v-41h82v-41h41v-41h41v-41h41v-82h41v-450h-41v-82h-41v-41h-41v-41h-41v-41h-41v-41h-41v-41h-82v-41h-368v-369h40v-41h82v-82 h-573v82zM492 123h40v-41h205v41h82v82h41v82h41v409h-41v82h-41v41h-41v41h-205v-41h-41v-41h-40v-655z" />
<glyph unicode="q" horiz-adv-x="1228" d="M41 328v204h41v164h41v82h41v41h41v41h41v41h41v41h82v41h82v41h409v-41h123v41h82v-1393h41v-41h82v-82h-533v82h82v41h41v492h41v41h41v82h-41v-82h-41v-41h-41v-41h-41v-41h-41v-41h-368v41h-82v41h-41v41h-41v82h-41v123h-41zM328 451h41v-164h41v-82h41v-41h81v-41 h123v41h82v41h41v696h-41v41h-205v-41h-40v-41h-41v-41h-41v-41h-41v-123h-41v-204z" />
<glyph unicode="r" horiz-adv-x="983" d="M41 0v82h123v82h41v614h-41v82h-82v41h-41v41h123v41h164v41h164v-123h-41v-82h-41v-82h41v82h41v41h40v41h41v41h41v41h41v41h246v-41h41v-41h41v-164h-41v-41h-205v164h41v41h-82v-41h-82v-41h-41v-41h-41v-82h-40v-655h122v-82h-573z" />
<glyph unicode="s" horiz-adv-x="901" d="M41 -41v410h82v-41h41v-41h41v-82h41v-41h41v-41h82v-41h163v41h82v164h-41v41h-122v41h-82v41h-123v41h-82v41h-41v40h-41v41h-41v246h41v82h41v41h41v41h82v41h246v-41h81v-41h41v-41h41v-41h41v82h-41v82h123v-369h-82v41h-41v82h-41v41h-41v41h-41v41h-245v-205h82 v-41h123v-41h122v-41h82v-41h82v-40h41v-82h41v-246h-41v-41h-41v-41h-41v-41h-82v-41h-327v41h-82v41h-41v41h-41v-82h41v-41h-123v-41h-41z" />
<glyph unicode="t" horiz-adv-x="819" d="M41 942v41h41v41h41v41h82v41h41v41h41v41h41v82h41v41h41v41h41v-328h327v-82h-409v-41h82v-655h41v-82h204v41h41v41h41v-82h-41v-41h-41v-82h-82v-41h-327v41h-41v41h-41v82h-41v778h-123z" />
<glyph unicode="u" horiz-adv-x="1310" d="M41 901v41h123v41h164v41h164v-819h40v-41h41v-41h123v41h82v41h41v655h-82v41h-41v41h123v41h164v41h164v-901h41v-41h82v-41h-164v-41h-287v123h41v41h41v41h-41v-41h-41v-41h-41v-41h-41v-41h-82v-41h-123v-41h-81v41h-123v41h-41v41h-41v41h-41v655h-41v82h-82v41 h-41z" />
<glyph unicode="v" horiz-adv-x="1228" d="M0 942v82h614v-82h-82v-41h-40v-82h40v-82h41v-82h41v-82h41v-81h41v-123h-41v-41h82v82h41v82h41v81h41v82h41v82h41v164h-41v41h-82v82h410v-82h-41v-41h-82v-82h-41v-82h-41v-82h-41v-41h-41v-82h-41v-81h-41v-82h-41v-82h-41v-82h-41v-82h-41v-82h-41v-41h-82v41h-41 v82h-40v82h-41v82h-41v82h-41v82h-41v81h-41v82h-41v82h-41v82h-41v82h-41v41h-41v41h-82z" />
<glyph unicode="w" horiz-adv-x="1843" d="M41 942v82h532v-82h-81v-164h40v-82h41v-123h41v-81h41v-205h41v82h41v82h41v81h41v82h41v123h-41v123h-41v41h-41v41h-41v82h492v-82h-41v-41h-41v-82h41v-123h41v-82h41v-122h41v-205h41v82h41v82h41v81h41v82h41v82h41v82h40v123h-40v41h-123v82h409v-82h-41v-41h-41 v-41h-41v-41h-41v-82h-41v-123h-41v-82h-40v-81h-41v-82h-41v-82h-41v-82h-41v-82h-41v-82h-41v-41h-123v82h-41v82h-41v82h-41v123h-41v82h-41v81h-41v-40h-41v-82h-41v-123h-41v-82h-41v-82h-41v-82h-41v-41h-123v82h-40v82h-41v82h-41v82h-41v82h-41v82h-41v122h-41v82 h-41v82h-41v82h-41v41h-41v41h-41z" />
<glyph unicode="x" horiz-adv-x="1228" d="M0 0v82h123v41h41v41h41v41h41v41h41v41h41v41h41v41h41v41h41v82h-41v81h-41v41h-41v41h-41v82h-41v41h-41v41h-41v41h-41v41h-41v41h-41v82h573v-82h-82v-123h41v-41h41v-82h-41v-41h82v41h41v41h41v41h41v41h41v123h-82v82h410v-82h-82v-41h-41v-41h-82v-41h-41v-41 h-41v-41h-41v-82h-41v-41h-41v-82h41v-40h41v-41h41v-41h41v-82h41v-41h41v-41h41v-82h41v-41h41v-41h123v-82h-656v82h123v82h-41v82h-41v41h-41v82h41v41h-82v-41h-40v-41h-41v-41h-41v-82h-41v-41h-41v-82h82v-82h-410z" />
<glyph unicode="y" horiz-adv-x="1269" d="M0 -205h82v41h41v-41h82v-41h41v-82h-82v-41h164v41h41v41h41v123h41v41h41v82h40v164h-40v123h-41v41h-41v82h-41v82h-41v81h-41v82h-41v82h-41v82h-41v82h-41v41h-41v41h-82v82h655v-82h-123v-164h41v-82h41v-82h41v-82h41v-163h41v41h41v82h41v81h41v82h41v82h41v82 h41v41h-41v82h-123v82h410v-82h-41v-41h-41v-41h-41v-82h-41v-41h-41v-82h-41v-82h-41v-81h-41v-82h-41v-82h-41v-82h-41v-82h-41v-41h-41v-82h-41v-82h-41v-82h-41v-82h-41v-82h-40v-41h-41v-41h-41v-41h-41v-41h-82v-41h-164v41h-82v41h-41v205z" />
<glyph unicode="z" d="M41 0v41h41v82h41v41h41v82h41v41h41v82h41v41h41v82h41v40h41v82h41v41h41v82h40v41h41v82h41v41h82v41h-286v-41h-123v-41h-41v-41h-41v-123h-41v-82h-82v410h942v-41h-41v-41h-41v-82h-41v-41h-41v-82h-41v-41h-41v-82h-41v-41h-41v-81h-41v-41h-41v-82h-41v-41h-41 v-82h-40v-41h-41v-82h-123v-41h409v41h82v41h41v82h41v123h41v41h82v-82h-41v-328h-942z" />
<glyph unicode="{" horiz-adv-x="860" d="M41 532v41h164v41h82v41h41v82h41v82h-41v82h-41v82h-41v82h-41v246h41v82h41v41h82v41h82v41h368v-41h-164v-41h-82v-41h-41v-246h41v-82h41v-82h41v-205h-41v-82h-41v-41h-81v-41h-82v-41h-123v-41h123v-40h82v-41h40v-41h82v-82h41v-246h-41v-82h-41v-41h-41v-246h41 v-41h41v-41h123v-41h82v-41h-205v41h-163v41h-82v41h-82v41h-41v82h-41v205h41v82h41v82h41v82h41v123h-41v82h-82v81h-205z" />
<glyph unicode="|" horiz-adv-x="737" d="M328 -492v1926h82v-1926h-82z" />
<glyph unicode="}" horiz-adv-x="860" d="M41 -410h164v41h82v41h41v246h-41v82h-41v82h-41v205h41v82h41v41h82v41h82v41h122v40h-122v41h-82v41h-41v41h-82v82h-41v246h41v82h41v41h41v246h-41v41h-41v41h-123v41h-82v41h205v-41h164v-41h82v-41h81v-41h41v-82h41v-205h-41v-82h-41v-82h-41v-82h-40v-123h40v-82 h82v-82h205v-40h-164v-41h-82v-41h-41v-82h-40v-82h40v-82h41v-82h41v-82h41v-246h-41v-82h-41v-41h-81v-41h-82v-41h-369v41z" />
<glyph unicode="~" d="M41 492v40h41v123h41v82h41v41h41v41h327v-41h82v-41h123v-41h164v41h41v41h41v41h41v-82h-41v-82h-41v-82h-41v-41h-41v-40h-41v-41h-164v41h-123v40h-81v41h-328v-41h-41v-40h-41z" />
<glyph unicode="&#xa1;" horiz-adv-x="491" d="M82 41v328h41v204h41v205h41v205h41v-41h41v-205h41v-164h41v-204h41v-328h-41v-41h-41v-41h-123v41h-82v41h-41zM82 1147v287h328v-287h-328z" />
<glyph unicode="&#xa2;" horiz-adv-x="1024" d="M82 246v450h41v82h41v41h41v82h82v41h41v41h82v41h245v164h123v-41h-41v-123h41v-41h82v-41h41v-41h41v-41h41v-164h-41v-41h-41v-41h-164v82h-41v41h41v82h41v41h-41v41h-82v-123h-41v-164h-41v-122h-41v-123h-40v-123h-41v-123h-41v-123h-41v-164h-41v-41h-82v123h41 v82h41v41h-41v41h-82v41h-41v82h-41v41h-41zM369 410h41v-41h41v123h41v122h40v123h41v123h41v82h-41v-41h-81v-41h-41v-41h-41v-123h-41v-286zM451 0v41h41v164h40v-41h328v-41h-41v-41h-41v-41h-41v-41h-123v-41h-122v41h-41zM860 164v41h41v-41h-41z" />
<glyph unicode="&#xa3;" horiz-adv-x="1105" d="M0 123v41h41v82h41v41h41v41h287v82h-41v122h-41v123h41v41h-328v123h205v82h-41v246h41v123h41v41h41v41h41v41h82v41h409v-41h82v-41h41v-41h41v-41h41v-164h-41v-41h-41v-41h-164v41h-41v41h-41v123h41v82h-41v41h-164v-41h-41v-82h-40v-205h40v-164h41v-41h328v-123 h-328v-82h41v-163h-41v-164h-41v-41h451v41h82v82h41v-82h-41v-123h-41v-82h-41v-41h-41v-41h-123v-41h-82v41h-123v41h-41v41h-81v41h-41v-41h-41v-41h-41v-41h-123v-41h-41v41h-123v41h-41v82h-41zM123 82h205v41h41v82h-41v41h-205v-164z" />
<glyph unicode="&#xa5;" horiz-adv-x="1515" d="M0 1352v82h655v-82h-123v-41h-40v-41h40v-82h41v-41h41v-82h41v-41h41v-82h41v-82h41v-41h41v-82h41v-41h41v82h41v82h41v41h41v82h41v41h41v82h41v41h41v82h41v82h-41v41h-123v82h410v-82h-41v-41h-41v-41h-41v-41h-41v-41h-41v-82h-41v-41h-41v-41h-41v-82h-41v-41h-41 v-82h-41v-41h-41v-41h-41v-82h-41v-41h369v-82h-369v-81h369v-82h-369v-205h41v-41h41v-41h123v-82h-696v82h122v41h41v205h82v41h-409v82h327v81h-327v82h327v41h-41v82h-40v41h-41v82h-41v41h-41v82h-41v41h-41v82h-41v41h-41v82h-41v41h-41v41h-41v41h-82z" />
<glyph unicode="&#xa7;" horiz-adv-x="1146" d="M82 492v204h41v82h41v41h41v41h82v41h-41v41h-41v123h-41v123h41v82h41v82h41v41h82v41h163v41h82v-41h164v-41h82v-41h41v-41h41v-164h-41v-41h-164v41h-41v123h41v41h-41v41h-204v-41h-41v-41h-41v-164h41v-41h81v-41h123v-41h123v-41h82v-41h82v-41h41v-41h41v-41h41 v-246h-41v-40h-41v-41h-41v-41h-41v-41h-123v-41h82v-41h41v-41h41v-205h-41v-82h-41v-41h-41v-41h-82v-41h-123v-41h-245v41h-82v41h-82v82h-41v164h41v41h123v-41h41v-41h41v-41h-41v-41h-41v-41h41v-41h245v41h41v41h41v123h-41v41h-41v41h-82v41h-122v41h-82v41h-82v41 h-82v41h-41v82h-41zM287 901h82v41h-82v-41zM328 614h41v-41h82v-41h81v-40h123v-41h123v41h41v122h-41v41h-41v41h-123v41h-82v41h-81v41h-41v-41h-82v-164z" />
<glyph unicode="&#xa8;" horiz-adv-x="1024" d="M164 1188v287h287v-287h-287zM573 1188v287h287v-287h-287z" />
<glyph unicode="&#xa9;" horiz-adv-x="1597" d="M41 655v123h41v164h41v123h41v41h41v82h41v41h41v41h41v41h41v41h82v41h81v41h205v41h123v-41h164v-41h123v-41h41v-41h82v-41h41v-41h41v-41h41v-41h41v-82h41v-82h41v-205h40v-123h-40v-163h-41v-123h-41v-41h-41v-82h-41v-41h-41v-41h-41v-41h-41v-41h-82v-41h-82v-41 h-205v-41h-123v41h-164v41h-122v41h-41v41h-82v41h-41v41h-41v41h-41v41h-41v82h-41v82h-41v204h-41zM123 655h41v-163h41v-82h41v-82h41v-41h41v-41h41v-41h41v-41h82v-41h81v-41h164v-41h123v41h164v41h82v41h82v41h41v41h41v41h41v41h41v82h41v82h41v163h41v123h-41v164 h-41v82h-41v82h-41v41h-41v41h-41v41h-41v41h-82v41h-82v41h-164v41h-123v-41h-164v-41h-81v-41h-82v-41h-41v-41h-41v-41h-41v-41h-41v-82h-41v-82h-41v-164h-41v-123zM410 573v246h41v123h41v41h40v41h41v41h41v41h123v41h164v-41h82v-41h82v-82h41v-164h-164v82h-41v41 h41v82h-41v41h-82v-41h-82v-41h-41v-41h-41v-369h41v-41h41v-40h41v-41h246v41h41v40h41v-40h-41v-82h-41v-41h-82v-41h-82v-41h-123v41h-123v41h-82v41h-40v82h-41v81h-41z" />
<glyph unicode="&#xab;" horiz-adv-x="1138" d="M82 492v40h41v41h41v41h41v41h41v41h41v41h41v41h41v41h41v41h41v41h41v41h40v41h41v41h41v-41h-41v-82h-41v-82h-40v-41h-41v-82h-41v-82h-41v-82h-41v-40h41v-82h41v-82h41v-82h41v-41h40v-82h41v-82h41v-41h-41v41h-41v41h-40v41h-41v41h-41v41h-41v41h-41v41h-41v41 h-41v41h-41v41h-41v41h-41v41h-41zM532 492v40h41v41h41v41h41v41h41v41h41v41h41v41h41v41h41v41h41v41h41v41h41v41h41v41h41v-41h-41v-82h-41v-82h-41v-41h-41v-82h-41v-82h-41v-82h-41v-40h41v-82h41v-82h41v-82h41v-41h41v-82h41v-82h41v-41h-41v41h-41v41h-41v41h-41 v41h-41v41h-41v41h-41v41h-41v41h-41v41h-41v41h-41v41h-41v41h-41z" />
<glyph unicode="&#xad;" horiz-adv-x="860" d="M82 614v82h696v-82h-696z" />
<glyph unicode="&#xae;" horiz-adv-x="1228" d="M123 819v369h41v123h41v41h41v41h41v41h41v41h82v41h409v-41h82v-41h41v-41h41v-41h41v-41h41v-82h41v-369h-41v-82h-41v-82h-41v-41h-41v-41h-82v-41h-82v-41h-327v41h-82v41h-82v41h-41v41h-41v82h-41v41h-41zM164 901h41v-82h41v-82h41v-41h41v-41h82v-41h122v-41h164 v41h123v41h82v41h41v41h-205v123h-41v123h-41v41h-163v-41h40v-164h41v-41h41v-41h-245v41h41v492h-41v82h286v-41h123v-41h41v-41h41v-82h-41v-82h-41v-123h41v-82h41v-41h41v-41h41v-41h41v82h41v82h41v246h-41v82h-41v82h-41v41h-41v41h-41v41h-123v41h-245v-41h-82v-41 h-82v-41h-41v-41h-41v-82h-41v-82h-41v-246zM492 1229h40v-164h164v41h41v123h-41v41h-204v-41z" />
<glyph unicode="&#xaf;" horiz-adv-x="1024" d="M164 1229v205h696v-205h-696z" />
<glyph unicode="&#xb0;" horiz-adv-x="860" d="M82 983v246h41v82h41v41h41v41h41v41h164v41h41v-41h163v-41h41v-41h41v-41h41v-82h41v-246h-41v-82h-41v-41h-41v-41h-82v-41h-286v41h-82v41h-41v41h-41v82h-41zM205 1024h41v-82h41v-41h82v-41h123v41h81v41h41v82h41v164h-41v82h-41v41h-41v41h-163v-41h-82v-41h-41 v-41h-41v-205z" />
<glyph unicode="&#xb2;" horiz-adv-x="655" d="M41 655v41h41v82h41v41h41v41h41v41h41v41h41v41h41v82h41v41h41v205h-41v41h-41v41h-82v-41h-41v-41h-41v-41h41v-123h-164v164h41v41h41v41h41v41h287v-41h81v-41h41v-82h41v-82h-41v-82h-41v-41h-40v-41h-41v-41h-41v-41h-41v-41h-41v-41h-82v-41h-41v-41h82v41h205 v41h40v41h41v41h41v-164h-41v-123h-532z" />
<glyph unicode="&#xb3;" horiz-adv-x="655" d="M41 778v123h41v41h82v-41h41v-82h-41v-41h41v-41h41v-41h82v41h82v82h41v82h-41v82h-41v41h-164v41h41v41h41v82h41v41h41v41h41v41h-41v-41h-246v-82h-41v246h491v-82h-41v-41h-40v-41h-41v-41h-41v-82h41v-41h81v-41h41v-41h41v-205h-41v-82h-41v-41h-81v-41h-287v41 h-41v41h-41v41h-41z" />
<glyph unicode="&#xb4;" horiz-adv-x="1024" d="M369 1147h41v41h82v41h81v41h123v41h82v41h41v123h-41v41h-41v40h-82v-40h-82v-41h-41v-82h-40v-41h-41v-82h-41v-41h-41v-82z" />
<glyph unicode="&#xb6;" horiz-adv-x="1392" d="M41 778v287h41v82h41v82h41v41h41v41h41v41h82v41h123v41h860v-82h-123v-41h-41v-1803h-164v1844h-287v-82h123v-1762h-164v861h-163v41h-123v41h-82v41h-82v40h-41v82h-41v41h-41v123h-41z" />
<glyph unicode="&#xb7;" horiz-adv-x="491" d="M82 614v287h328v-287h-328z" />
<glyph unicode="&#xb8;" horiz-adv-x="1024" d="M410 -164h41v82h41v41h40v41h41v41h82v-41h-41v-41h-41v-41h-41v-82h41v41h41v41h41v-41h82v-41h41v-205h-41v-41h-82v-41h-204v41h122v41h41v82h-41v41h-81v41h-82v41z" />
<glyph unicode="&#xb9;" horiz-adv-x="450" d="M0 655v41h41v41h82v574h-41v41h-82v41h164v41h164v-697h41v-41h82v-41h-451z" />
<glyph unicode="&#xbb;" horiz-adv-x="1138" d="M82 0v41h41v82h41v82h41v41h41v82h41v82h41v82h41v40h-41v82h-41v82h-41v82h-41v41h-41v82h-41v82h-41v41h41v-41h41v-41h41v-41h41v-41h41v-41h41v-41h41v-41h41v-41h41v-41h41v-41h40v-41h41v-41h41v-40h-41v-41h-41v-41h-40v-41h-41v-41h-41v-41h-41v-41h-41v-41h-41 v-41h-41v-41h-41v-41h-41v-41h-41v-41h-41zM532 0v41h41v82h41v82h41v41h41v82h41v82h41v82h41v40h-41v82h-41v82h-41v82h-41v41h-41v82h-41v82h-41v41h41v-41h41v-41h41v-41h41v-41h41v-41h41v-41h41v-41h41v-41h41v-41h41v-41h41v-41h41v-41h41v-40h-41v-41h-41v-41h-41 v-41h-41v-41h-41v-41h-41v-41h-41v-41h-41v-41h-41v-41h-41v-41h-41v-41h-41v-41h-41z" />
<glyph unicode="&#xbc;" horiz-adv-x="1310" d="M0 655v41h41v41h82v574h-41v41h-41v41h123v41h164v-697h41v-41h82v-41h-451zM123 0v82h41v41h41v82h41v41h41v82h41v41h41v82h41v81h41v41h41v82h40v41h41v82h41v41h41v82h41v41h41v82h41v82h41v41h41v82h41v41h41v82h41v41h41v41h82v-41h-41v-82h-41v-41h-41v-82h-41 v-41h-41v-82h-41v-82h-41v-41h-41v-82h-41v-41h-41v-82h-41v-41h-41v-82h-41v-82h-41v-40h-40v-82h-41v-41h-41v-82h-41v-41h-41v-82h-41v-41h-41v-82h-41v-41h-82zM614 205v41h41v41h41v82h41v41h41v82h41v81h41v82h-41v82h123v41h164v-41h-41v-82h-41v-41h-41v-82h-41v-40 h-41v-41h-41v-41h-41v-41h-41v-41h205v123h41v41h82v40h41v-204h41v41h41v41h41v-205h-164v-41h41v-82h41v-41h82v-41h-410v41h82v41h41v123h-369z" />
<glyph unicode="&#xbd;" horiz-adv-x="1351" d="M41 655v82h82v574h-41v41h-41v41h123v41h164v41h41v-738h41v-41h41v-41h-410zM123 0v41h41v82h41v41h41v82h41v41h41v82h41v82h41v41h41v81h41v41h40v82h41v41h41v82h41v82h41v41h41v82h41v41h41v82h41v41h41v82h41v41h41v82h41v41h82v-82h-41v-41h-41v-82h-41v-41h-41 v-82h-41v-82h-41v-41h-41v-82h-41v-41h-41v-82h-41v-41h-41v-82h-41v-41h-41v-82h-41v-81h-40v-41h-41v-82h-41v-41h-41v-82h-41v-41h-41v-82h-41v-41h-41v-41h-82zM737 0v41h41v41h41v41h41v41h41v82h41v41h41v41h41v41h41v82h41v204h-41v41h-164v-41h-41v-41h41v-122h-41 v-41h-82v41h-41v163h41v41h41v41h82v41h246v-41h82v-41h41v-82h41v-82h-41v-81h-41v-82h-82v-41h-41v-41h-41v-41h-41v-41h-41v-41h-82v-41h82v41h246v82h82v-164h-41v-82h-533z" />
<glyph unicode="&#xbe;" horiz-adv-x="1515" d="M41 778v123h41v41h82v-41h41v-82h-41v-41h41v-41h41v-41h82v41h82v82h41v82h-41v82h-41v41h-164v41h41v41h41v82h41v41h41v41h41v41h-41v-41h-246v-82h-41v246h491v-82h-41v-41h-40v-41h-41v-41h-41v-82h41v-41h81v-41h41v-41h41v-205h-41v-82h-41v-41h-81v-41h-287v41 h-41v41h-41v41h-41zM287 0v41h41v82h41v41h41v82h41v41h41v82h40v41h41v82h41v81h41v41h41v82h41v41h41v82h41v41h41v82h41v41h41v82h41v82h41v41h41v82h41v41h41v82h41v41h123v-41h-41v-41h-41v-82h-41v-41h-41v-82h-41v-41h-41v-82h-41v-82h-41v-41h-41v-82h-41v-41h-41 v-82h-41v-41h-41v-82h-41v-41h-41v-81h-41v-41h-41v-82h-41v-41h-41v-82h-40v-41h-41v-82h-41v-82h-123zM819 205v41h41v41h41v41h41v82h41v82h41v245h123v41h123v-123h-41v-41h-41v-41h-41v-81h-41v-41h-41v-41h-41v-41h-41v-41h164v123h41v41h82v40h82v-204h41v41h41v41 h41v-164h-41v-41h-123v-41h41v-82h41v-41h41v-41h-369v41h41v41h41v123h-328z" />
<glyph unicode="&#xbf;" d="M41 246v164h41v82h41v81h41v41h41v41h82v41h82v41h41v41h82v41h40v164h82v-41h41v-164h-41v-82h-41v-41h-41v-41h-40v-41h-41v-41h-41v-81h-41v-82h-41v-123h41v-82h41v-41h41v-41h245v41h82v82h41v82h-82v123h41v41h41v41h82v-41h82v-41h41v-164h-41v-82h-41v-41h-41 v-41h-41v-41h-82v-41h-491v41h-82v41h-41v41h-41v41h-41v82h-41zM410 1147v287h286v-287h-286z" />
<glyph unicode="&#xc0;" horiz-adv-x="1556" d="M0 0v82h82v41h41v41h41v41h41v82h41v123h41v82h41v81h41v123h41v82h41v82h41v82h40v123h41v82h41v82h41v123h41v82h41v41h123v-123h41v-82h41v-82h41v-123h41v-82h41v-82h41v-123h41v-82h41v-82h41v-82h41v-122h41v-82h41v-82h41v-82h41v-41h41v-41h81v-82h-655v82h82 v205h-41v82h82v41h-41v41h-573v-41h-41v-82h-41v-123h-41v-41h41v-82h123v-82h-451zM451 532h409v82h-41v82h-41v123h-41v82h-41v82h-82v-123h-41v-82h-41v-82h-40v-82h-41v-82zM471 1776v122h41v41h41v41h82v-41h82v-41h41v-81h41v-41h41v-82h41v-41h41v-82h-41v41h-82v41 h-82v41h-123v41h-82v41h-41z" />
<glyph unicode="&#xc1;" horiz-adv-x="1556" d="M0 0v82h82v41h41v41h41v41h41v82h41v123h41v82h41v81h41v123h41v82h41v82h41v82h40v123h41v82h41v82h41v123h41v82h41v41h123v-123h41v-82h41v-82h41v-123h41v-82h41v-82h41v-123h41v-82h41v-82h41v-82h41v-122h41v-82h41v-82h41v-82h41v-41h41v-41h81v-82h-655v82h82 v205h-41v82h82v41h-41v41h-573v-41h-41v-82h-41v-123h-41v-41h41v-82h123v-82h-451zM451 532h409v82h-41v82h-41v123h-41v82h-41v82h-82v-123h-41v-82h-41v-82h-40v-82h-41v-82zM614 1556h41v41h82v41h82v41h123v41h82v41h41v123h-41v41h-41v41h-82v-41h-82v-41h-41v-82h-41 v-41h-41v-82h-41v-41h-41v-82z" />
<glyph unicode="&#xc2;" horiz-adv-x="1556" d="M0 0v82h82v41h41v41h41v41h41v82h41v123h41v82h41v81h41v123h41v82h41v82h41v82h40v123h41v82h41v82h41v123h41v82h41v41h123v-123h41v-82h41v-82h41v-123h41v-82h41v-82h41v-123h41v-82h41v-82h41v-82h41v-122h41v-82h41v-82h41v-82h41v-41h41v-41h81v-82h-655v82h82 v205h-41v82h82v41h-41v41h-573v-41h-41v-82h-41v-123h-41v-41h41v-82h123v-82h-451zM410 1556v41h41v41h41v41h40v41h41v41h41v82h41v41h287v-41h41v-41h41v-82h41v-41h41v-41h41v-41h41v-41h-82v41h-123v41h-164v41h-82v41h82v41h-82v-41h-41v-41h-82v-41h-82v-41h-81v-41 h-41zM451 532h409v82h-41v82h-41v123h-41v82h-41v82h-82v-123h-41v-82h-41v-82h-40v-82h-41v-82z" />
<glyph unicode="&#xc3;" horiz-adv-x="1556" d="M0 0v82h82v41h41v41h41v41h41v82h41v123h41v82h41v81h41v123h41v82h41v82h41v82h40v123h41v82h41v82h41v123h41v82h41v41h123v-123h41v-82h41v-82h41v-123h41v-82h41v-82h41v-123h41v-82h41v-82h41v-82h41v-122h41v-82h41v-82h41v-82h41v-41h41v-41h81v-82h-655v82h82 v205h-41v82h82v41h-41v41h-573v-41h-41v-82h-41v-123h-41v-41h41v-82h123v-82h-451zM410 1638v41h41v82h41v82h40v41h82v41h82v-41h123v-41h82v-41h82v-41h82v41h82v82h41v-82h-41v-82h-41v-82h-41v-41h-246v41h-82v41h-82v41h-123v-41h-81v-41h-41zM451 532h409v82h-41v82 h-41v123h-41v82h-41v82h-82v-123h-41v-82h-41v-82h-40v-82h-41v-82z" />
<glyph unicode="&#xc4;" horiz-adv-x="1556" d="M0 0v82h82v41h41v41h41v41h41v82h41v123h41v82h41v81h41v123h41v82h41v82h41v82h40v123h41v82h41v82h41v123h41v82h41v41h123v-123h41v-82h41v-82h41v-123h41v-82h41v-82h41v-123h41v-82h41v-82h41v-82h41v-122h41v-82h41v-82h41v-82h41v-41h41v-41h81v-82h-655v82h82 v205h-41v82h82v41h-41v41h-573v-41h-41v-82h-41v-123h-41v-41h41v-82h123v-82h-451zM451 532h409v82h-41v82h-41v123h-41v82h-41v82h-82v-123h-41v-82h-41v-82h-40v-82h-41v-82zM451 1597v287h286v-287h-286zM860 1597v287h287v-287h-287z" />
<glyph unicode="&#xc5;" horiz-adv-x="1556" d="M0 0v82h82v41h41v41h41v41h41v82h41v123h41v82h41v81h41v123h41v82h41v82h41v82h40v123h41v82h41v82h41v123h41v82h41v41h123v-123h41v-82h41v-82h41v-123h41v-82h41v-82h41v-123h41v-82h41v-82h41v-82h41v-122h41v-82h41v-82h41v-82h41v-41h41v-41h81v-82h-655v82h82 v205h-41v82h82v41h-41v41h-573v-41h-41v-82h-41v-123h-41v-41h41v-82h123v-82h-451zM451 532h409v82h-41v82h-41v123h-41v82h-41v82h-82v-123h-41v-82h-41v-82h-40v-82h-41v-82zM573 1679v164h41v41h41v41h41v41h205v-41h41v-41h41v-41h41v-164h-41v-82h-82v-41h-205v41h-82 v82h-41zM696 1679h41v-41h123v41h41v164h-41v41h-123v-41h-41v-164z" />
<glyph unicode="&#xc6;" horiz-adv-x="2252" d="M0 0v82h82v41h82v41h41v41h41v41h41v41h41v82h41v41h41v82h41v40h41v82h40v82h41v41h41v82h41v41h41v82h41v82h41v41h41v82h41v82h41v82h-41v41h-82v82h1352v-451h41v-41h-123v123h-41v123h-41v41h-41v41h-41v41h-123v41h-368v-574h204v41h82v41h41v123h41v41h41v-573 h-82v163h-41v41h-82v41h-204v-573h-82v-41h491v41h123v41h41v41h41v41h41v82h41v123h41v41h82v-82h-41v-287h-41v-123h-1270v82h164v82h41v328h-533v-41h-40v-82h-41v-82h-41v-41h-41v-123h41v-41h82v-82h-492zM614 573h451v656h41v82h-41v-41h-41v-41h-41v-82h-41v-82h-41 v-41h-41v-82h-41v-41h-41v-82h-41v-41h-41v-82h-41v-82h-41v-41z" />
<glyph unicode="&#xc7;" horiz-adv-x="1351" d="M41 573v287h41v123h41v82h41v82h41v41h41v82h41v41h82v41h41v41h82v41h204v41h41v-41h205v-41h41v-41h82v-41h41v-82h41v123h-41v41h82v41h82v-492h-82v41h-41v123h-41v41h-41v82h-82v41h-41v41h-287v-41h-82v-41h-41v-82h-40v-41h-41v-123h-41v-410h41v-122h41v-82h40 v-82h41v-41h41v-41h82v-41h328v41h82v41h82v41h41v41h41v-41h-41v-82h-41v-41h-41v-41h-41v-41h-82v-41h-41v-41h-205v-41h-41v-41h-41v-82h41v41h41v41h41v-41h82v-41h41v-205h-41v-41h-82v-41h-205v41h123v41h41v82h-41v41h-82v41h-82v82h41v41h41v41h41v41h-204v41h-82 v41h-82v41h-41v41h-41v41h-41v41h-41v82h-41v82h-41v163h-41zM1270 369v41h41v-41h-41z" />
<glyph unicode="&#xc8;" horiz-adv-x="1433" d="M41 0v82h123v41h41v41h41v1065h-41v82h-41v41h-123v82h1270v-492h-82v82h-41v164h-41v41h-41v41h-41v41h-123v41h-450v-41h81v-533h205v41h82v41h41v164h82v-573h-82v122h-41v82h-82v41h-205v-573h-81v-41h491v41h123v41h41v41h41v41h41v123h41v82h41v41h82v-41h-41v-328 h-41v-123h-1270zM430 1776v122h41v41h41v41h82v-41h82v-41h41v-81h41v-41h41v-82h41v-41h41v-82h-41v41h-82v41h-82v41h-123v41h-82v41h-41z" />
<glyph unicode="&#xc9;" horiz-adv-x="1433" d="M41 0v82h123v41h41v41h41v1065h-41v82h-41v41h-123v82h1270v-492h-82v82h-41v164h-41v41h-41v41h-41v41h-123v41h-450v-41h81v-533h205v41h82v41h41v164h82v-573h-82v122h-41v82h-82v41h-205v-573h-81v-41h491v41h123v41h41v41h41v41h41v123h41v82h41v41h82v-41h-41v-328 h-41v-123h-1270zM573 1556h41v41h82v41h82v41h123v41h82v41h41v123h-41v41h-41v41h-82v-41h-82v-41h-41v-82h-41v-41h-41v-82h-41v-41h-41v-82z" />
<glyph unicode="&#xca;" horiz-adv-x="1433" d="M41 0v82h123v41h41v41h41v1065h-41v82h-41v41h-123v82h1270v-492h-82v82h-41v164h-41v41h-41v41h-41v41h-123v41h-450v-41h81v-533h205v41h82v41h41v164h82v-573h-82v122h-41v82h-82v41h-205v-573h-81v-41h491v41h123v41h41v41h41v41h41v123h41v82h41v41h82v-41h-41v-328 h-41v-123h-1270zM369 1556v41h41v41h41v41h41v41h40v41h41v82h41v41h287v-41h41v-41h41v-82h41v-41h41v-41h41v-41h41v-41h-82v41h-123v41h-164v41h-82v41h82v41h-82v-41h-41v-41h-82v-41h-81v-41h-82v-41h-41z" />
<glyph unicode="&#xcb;" horiz-adv-x="1433" d="M41 0v82h123v41h41v41h41v1065h-41v82h-41v41h-123v82h1270v-492h-82v82h-41v164h-41v41h-41v41h-41v41h-123v41h-450v-41h81v-533h205v41h82v41h41v164h82v-573h-82v122h-41v82h-82v41h-205v-573h-81v-41h491v41h123v41h41v41h41v41h41v123h41v82h41v41h82v-41h-41v-328 h-41v-123h-1270zM410 1597v287h286v-287h-286zM819 1597v287h287v-287h-287z" />
<glyph unicode="&#xcc;" horiz-adv-x="819" d="M41 0v82h164v41h41v1147h-41v82h-164v82h737v-82h-164v-41h-41v-1188h41v-41h164v-82h-737zM102 1776v122h41v41h41v41h82v-41h82v-41h41v-81h41v-41h41v-82h41v-41h41v-82h-41v41h-82v41h-82v41h-123v41h-82v41h-41z" />
<glyph unicode="&#xcd;" horiz-adv-x="819" d="M41 0v82h164v41h41v1147h-41v82h-164v82h737v-82h-164v-41h-41v-1188h41v-41h164v-82h-737zM246 1556h41v41h82v41h82v41h122v41h82v41h41v123h-41v41h-41v41h-82v-41h-81v-41h-41v-82h-41v-41h-41v-82h-41v-41h-41v-82z" />
<glyph unicode="&#xce;" horiz-adv-x="819" d="M41 0v82h164v41h41v1147h-41v82h-164v82h737v-82h-164v-41h-41v-1188h41v-41h164v-82h-737zM41 1556v41h41v41h41v41h41v41h41v41h41v82h41v41h286v-41h41v-41h41v-82h41v-41h41v-41h41v-41h41v-41h-82v41h-123v41h-163v41h-82v41h82v41h-82v-41h-41v-41h-82v-41h-82v-41 h-82v-41h-41z" />
<glyph unicode="&#xcf;" horiz-adv-x="819" d="M41 0v82h164v41h41v1147h-41v82h-164v82h737v-82h-164v-41h-41v-1188h41v-41h164v-82h-737zM82 1597v287h287v-287h-287zM492 1597v287h286v-287h-286z" />
<glyph unicode="&#xd0;" horiz-adv-x="1638" d="M41 0v82h164v82h41v491h82v41h-287v82h205v492h-41v82h-164v82h901v-41h164v-41h82v-41h82v-41h82v-41h41v-41h41v-41h41v-82h41v-41h40v-123h41v-328h-41v-122h-40v-82h-41v-41h-41v-82h-41v-41h-82v-41h-41v-41h-82v-41h-82v-41h-123v-41h-942zM492 82h327v41h123v41 h82v41h41v41h41v82h41v82h41v163h41v205h-41v205h-41v82h-41v82h-41v41h-41v41h-41v41h-82v41h-123v41h-286v-41h81v-533h205v-82h-205v-532h-81v-82z" />
<glyph unicode="&#xd1;" horiz-adv-x="1638" d="M41 0v82h123v41h41v41h41v1065h-41v41h-41v41h-41v41h-41v41h-41v41h491v-41h41v-41h41v-41h41v-41h41v-41h41v-41h41v-41h41v-82h41v-41h41v-41h41v-41h41v-41h41v-41h41v-41h41v-41h41v-41h41v-41h41v-164h41v779h-41v41h-123v82h491v-82h-122v-41h-41v-123h-41v-1188 h-41v41h-41v41h-41v41h-41v41h-41v41h-41v41h-41v41h-41v82h-41v41h-41v41h-41v41h-41v40h-41v41h-41v41h-41v41h-41v41h-41v82h-41v41h-41v41h-41v41h-41v41h-40v41h-41v41h-41v41h-41v-942h41v-41h163v-82h-532zM451 1638v41h41v82h40v82h41v41h82v41h82v-41h123v-41h82 v-41h82v-41h82v41h82v82h41v-82h-41v-82h-41v-82h-41v-41h-246v41h-82v41h-82v41h-123v-41h-81v-41h-41z" />
<glyph unicode="&#xd2;" horiz-adv-x="1597" d="M41 573v246h41v164h41v82h41v82h41v41h41v41h41v41h41v41h41v41h82v41h81v41h164v41h164v-41h205v-41h82v-41h82v-41h41v-41h82v-82h41v-41h41v-41h41v-82h41v-164h40v-246h-40v-163h-41v-82h-41v-82h-41v-41h-41v-41h-41v-41h-41v-41h-41v-41h-82v-41h-82v-41h-205v-41 h-123v41h-205v41h-81v41h-82v41h-41v41h-41v41h-41v41h-41v41h-41v41h-41v123h-41v122h-41zM410 532h41v-163h41v-82h40v-82h41v-41h41v-41h82v-41h205v41h82v41h41v41h41v41h41v82h41v123h41v450h-41v164h-41v82h-41v82h-41v41h-41v41h-82v41h-205v-41h-82v-41h-41v-41h-41 v-41h-40v-82h-41v-123h-41v-451zM471 1776v122h41v41h41v41h82v-41h82v-41h41v-81h41v-41h41v-82h41v-41h41v-82h-41v41h-82v41h-82v41h-123v41h-82v41h-41z" />
<glyph unicode="&#xd3;" horiz-adv-x="1597" d="M41 573v246h41v164h41v82h41v82h41v41h41v41h41v41h41v41h41v41h82v41h81v41h164v41h164v-41h205v-41h82v-41h82v-41h41v-41h82v-82h41v-41h41v-41h41v-82h41v-164h40v-246h-40v-163h-41v-82h-41v-82h-41v-41h-41v-41h-41v-41h-41v-41h-41v-41h-82v-41h-82v-41h-205v-41 h-123v41h-205v41h-81v41h-82v41h-41v41h-41v41h-41v41h-41v41h-41v41h-41v123h-41v122h-41zM410 532h41v-163h41v-82h40v-82h41v-41h41v-41h82v-41h205v41h82v41h41v41h41v41h41v82h41v123h41v450h-41v164h-41v82h-41v82h-41v41h-41v41h-82v41h-205v-41h-82v-41h-41v-41h-41 v-41h-40v-82h-41v-123h-41v-451zM614 1556h41v41h82v41h82v41h123v41h82v41h41v123h-41v41h-41v41h-82v-41h-82v-41h-41v-82h-41v-41h-41v-82h-41v-41h-41v-82z" />
<glyph unicode="&#xd4;" horiz-adv-x="1597" d="M41 573v246h41v164h41v82h41v82h41v41h41v41h41v41h41v41h41v41h82v41h81v41h164v41h164v-41h205v-41h82v-41h82v-41h41v-41h82v-82h41v-41h41v-41h41v-82h41v-164h40v-246h-40v-163h-41v-82h-41v-82h-41v-41h-41v-41h-41v-41h-41v-41h-41v-41h-82v-41h-82v-41h-205v-41 h-123v41h-205v41h-81v41h-82v41h-41v41h-41v41h-41v41h-41v41h-41v41h-41v123h-41v122h-41zM410 532h41v-163h41v-82h40v-82h41v-41h41v-41h82v-41h205v41h82v41h41v41h41v41h41v82h41v123h41v450h-41v164h-41v82h-41v82h-41v41h-41v41h-82v41h-205v-41h-82v-41h-41v-41h-41 v-41h-40v-82h-41v-123h-41v-451zM410 1556v41h41v41h41v41h40v41h41v41h41v82h41v41h287v-41h41v-41h41v-82h41v-41h41v-41h41v-41h41v-41h-82v41h-123v41h-164v41h-82v41h82v41h-82v-41h-41v-41h-82v-41h-82v-41h-81v-41h-41z" />
<glyph unicode="&#xd5;" horiz-adv-x="1597" d="M41 573v246h41v164h41v82h41v82h41v41h41v41h41v41h41v41h41v41h82v41h81v41h164v41h164v-41h205v-41h82v-41h82v-41h41v-41h82v-82h41v-41h41v-41h41v-82h41v-164h40v-246h-40v-163h-41v-82h-41v-82h-41v-41h-41v-41h-41v-41h-41v-41h-41v-41h-82v-41h-82v-41h-205v-41 h-123v41h-205v41h-81v41h-82v41h-41v41h-41v41h-41v41h-41v41h-41v41h-41v123h-41v122h-41zM410 532h41v-163h41v-82h40v-82h41v-41h41v-41h82v-41h205v41h82v41h41v41h41v41h41v82h41v123h41v450h-41v164h-41v82h-41v82h-41v41h-41v41h-82v41h-205v-41h-82v-41h-41v-41h-41 v-41h-40v-82h-41v-123h-41v-451zM410 1638v41h41v82h41v82h40v41h82v41h82v-41h123v-41h82v-41h82v-41h82v41h82v82h41v-82h-41v-82h-41v-82h-41v-41h-246v41h-82v41h-82v41h-123v-41h-81v-41h-41z" />
<glyph unicode="&#xd6;" horiz-adv-x="1597" d="M41 573v246h41v164h41v82h41v82h41v41h41v41h41v41h41v41h41v41h82v41h81v41h164v41h164v-41h205v-41h82v-41h82v-41h41v-41h82v-82h41v-41h41v-41h41v-82h41v-164h40v-246h-40v-163h-41v-82h-41v-82h-41v-41h-41v-41h-41v-41h-41v-41h-41v-41h-82v-41h-82v-41h-205v-41 h-123v41h-205v41h-81v41h-82v41h-41v41h-41v41h-41v41h-41v41h-41v41h-41v123h-41v122h-41zM410 532h41v-163h41v-82h40v-82h41v-41h41v-41h82v-41h205v41h82v41h41v41h41v41h41v82h41v123h41v450h-41v164h-41v82h-41v82h-41v41h-41v41h-82v41h-205v-41h-82v-41h-41v-41h-41 v-41h-40v-82h-41v-123h-41v-451zM451 1597v287h286v-287h-286zM860 1597v287h287v-287h-287z" />
<glyph unicode="&#xd7;" d="M164 328v41h41v41h41v41h41v41h41v40h41v41h41v41h41v41h-41v82h-41v41h-41v41h-41v41h-41v41h-41v82h82v-41h41v-41h41v-41h41v-41h41v-41h41v-41h81v41h41v41h41v41h41v41h41v41h41v41h82v-82h-41v-41h-41v-41h-41v-41h-41v-41h-41v-41h-41v-82h41v-41h41v-41h41v-40 h41v-41h41v-41h41v-41h41v-41h-41v-41h-82v82h-41v41h-41v41h-41v41h-41v40h-41v41h-41v-41h-81v-40h-41v-41h-41v-41h-41v-41h-41v-41h-41v-41h-41v41h-41z" />
<glyph unicode="&#xd8;" horiz-adv-x="1597" d="M41 0v82h41v41h41v41h41v41h41v41h41v41h41v82h-41v-41h-41v-41h-41v41h-41v123h-41v122h-41v246h41v164h41v82h41v82h41v41h41v41h41v41h41v41h41v41h82v41h81v41h164v41h205v-41h164v-41h82v-41h82v-41h41v-41h41v41h41v41h41v41h41v41h122v-82h-40v-41h-41v-41h-41 v-41h-41v-41h-41v-41h-41v-41h41v41h82v-41h41v-82h41v-164h40v-246h-40v-163h-41v-82h-41v-82h-41v-41h-41v-41h-41v-41h-41v-41h-41v-41h-82v-41h-82v-41h-205v-41h-123v41h-205v41h-81v41h-82v41h-41v41h-41v-41h-41v-41h-41v-41h-41v-41h-123zM410 532h41v-81h41v41h40 v40h41v41h41v41h41v41h41v41h41v41h41v41h41v41h41v41h41v41h41v41h41v41h41v41h41v41h41v82h-41v41h-41v82h-41v41h-82v41h-205v-41h-82v-41h-41v-41h-41v-41h-40v-82h-41v-123h-41v-451zM492 287h40v-41h41v-82h41v-41h82v-41h205v41h82v41h41v41h41v41h41v82h41v204h41 v328h-41v82h-82v-41h-41v-41h-41v-41h-41v-41h-41v-41h-41v-41h-41v-41h-41v-41h-41v-41h-41v-41h-41v-40h-41v-41h-41v-41h-41v-41h-40v-82z" />
<glyph unicode="&#xd9;" horiz-adv-x="1638" d="M41 1352v82h737v-82h-164v-41h-41v-942h41v-82h41v-41h41v-41h41v-41h328v41h82v41h41v82h41v82h41v860h-41v82h-164v82h532v-82h-122v-41h-41v-82h-41v-860h-41v-123h-41v-41h-41v-41h-41v-41h-41v-41h-41v-41h-82v-41h-205v-41h-123v41h-164v41h-122v41h-41v41h-41v41 h-41v41h-41v82h-41v942h-41v82h-41v41h-123zM594 1776v122h41v41h41v41h82v-41h82v-41h41v-81h41v-41h41v-82h41v-41h40v-82h-40v41h-82v41h-82v41h-123v41h-82v41h-41z" />
<glyph unicode="&#xda;" horiz-adv-x="1638" d="M41 1352v82h737v-82h-164v-41h-41v-942h41v-82h41v-41h41v-41h41v-41h328v41h82v41h41v82h41v82h41v860h-41v82h-164v82h532v-82h-122v-41h-41v-82h-41v-860h-41v-123h-41v-41h-41v-41h-41v-41h-41v-41h-41v-41h-82v-41h-205v-41h-123v41h-164v41h-122v41h-41v41h-41v41 h-41v41h-41v82h-41v942h-41v82h-41v41h-123zM737 1556h41v41h82v41h82v41h123v41h82v41h41v123h-41v41h-41v41h-82v-41h-82v-41h-41v-82h-41v-41h-41v-82h-41v-41h-41v-82z" />
<glyph unicode="&#xdb;" horiz-adv-x="1638" d="M41 1352v82h737v-82h-164v-41h-41v-942h41v-82h41v-41h41v-41h41v-41h328v41h82v41h41v82h41v82h41v860h-41v82h-164v82h532v-82h-122v-41h-41v-82h-41v-860h-41v-123h-41v-41h-41v-41h-41v-41h-41v-41h-41v-41h-82v-41h-205v-41h-123v41h-164v41h-122v41h-41v41h-41v41 h-41v41h-41v82h-41v942h-41v82h-41v41h-123zM532 1556v41h41v41h41v41h41v41h41v41h41v82h41v41h287v-41h41v-41h41v-82h41v-41h41v-41h41v-41h41v-41h-82v41h-123v41h-164v41h-82v41h82v41h-82v-41h-41v-41h-82v-41h-82v-41h-82v-41h-41z" />
<glyph unicode="&#xdc;" horiz-adv-x="1638" d="M41 1352v82h737v-82h-164v-41h-41v-942h41v-82h41v-41h41v-41h41v-41h328v41h82v41h41v82h41v82h41v860h-41v82h-164v82h532v-82h-122v-41h-41v-82h-41v-860h-41v-123h-41v-41h-41v-41h-41v-41h-41v-41h-41v-41h-82v-41h-205v-41h-123v41h-164v41h-122v41h-41v41h-41v41 h-41v41h-41v82h-41v942h-41v82h-41v41h-123zM573 1597v287h287v-287h-287zM983 1597v287h287v-287h-287z" />
<glyph unicode="&#xdd;" horiz-adv-x="1515" d="M0 1352v82h655v-82h-123v-164h41v-41h41v-82h41v-41h41v-82h41v-82h41v-41h41v-123h-41v-41h82v82h41v41h41v82h41v82h41v41h41v82h41v82h41v82h41v123h-123v82h410v-82h-41v-41h-41v-41h-41v-41h-41v-41h-41v-82h-41v-41h-41v-82h-41v-41h-41v-82h-41v-41h-41v-82h-41 v-41h-41v-82h-41v-409h41v-82h41v-41h123v-82h-696v82h122v41h41v41h41v450h-41v41h-41v82h-40v41h-41v82h-41v41h-41v82h-41v41h-41v82h-41v41h-41v82h-41v41h-41v41h-41v41h-82zM655 1556h41v41h82v41h82v41h123v41h82v41h41v123h-41v41h-41v41h-82v-41h-82v-41h-41v-82 h-41v-41h-41v-82h-41v-41h-41v-82z" />
<glyph unicode="&#xde;" horiz-adv-x="1474" d="M41 0v82h164v41h41v1188h-41v41h-164v82h737v-82h-164v-41h-41v-164h492v-41h123v-41h82v-41h41v-41h41v-82h41v-246h-41v-82h-41v-81h-41v-41h-82v-41h-82v-41h-574v-82h41v-164h41v-41h164v-82h-737zM532 1024h41v-573h328v41h41v40h41v41h41v123h41v123h-41v123h-41 v41h-41v41h-82v41h-328v-41z" />
<glyph unicode="&#xdf;" horiz-adv-x="1310" d="M0 0v41h82v41h41v41h41v778h82v41h-246v82h164v123h41v123h41v41h41v41h41v41h41v41h123v41h286v-41h123v-41h82v-41h41v-82h41v-164h-41v-41h-41v-82h-82v-41h-41v-41h-82v-82h82v-41h41v-41h82v-41h41v-41h82v-41h41v-41h41v-41h41v-81h41v-246h-41v-82h-41v-41h-41 v-41h-82v-41h-369v41h-82v41h-41v41h-41v246h41v41h205v-82h41v-82h-41v-41h-41v-82h41v-41h205v41h41v246h-41v41h-41v41h-82v41h-41v40h-82v41h-41v41h-41v41h-41v41h-41v82h41v82h41v41h41v41h41v82h41v287h-41v41h-41v41h-164v-41h-40v-41h-41v-1311h-451z" />
<glyph unicode="&#xe0;" horiz-adv-x="1105" d="M41 82v246h41v41h41v41h82v41h82v41h123v40h122v41h123v246h-41v41h-41v41h-245v-41h-41v-41h41v-164h-41v-41h-164v41h-41v164h41v82h41v41h41v41h123v41h368v-41h82v-41h82v-41h41v-123h41v-655h123v-41h-41v-41h-41v-41h-287v41h-41v82h41v82h41v41h-41v-41h-41v-41 h-41v-41h-41v-41h-41v-41h-40v-41h-123v-41h-123v41h-123v41h-41v41h-41zM184 1366v123h41v41h41v41h82v-41h82v-41h41v-82h41v-41h41v-82h41v-41h41v-82h-41v41h-82v41h-82v41h-123v41h-82v41h-41zM328 164h82v-41h82v41h81v41h41v41h41v246h-123v-41h-122v-41h-41v-41h-41 v-205zM1065 123v41h41v-41h-41z" />
<glyph unicode="&#xe1;" horiz-adv-x="1105" d="M41 82v246h41v41h41v41h82v41h82v41h123v40h122v41h123v246h-41v41h-41v41h-245v-41h-41v-41h41v-164h-41v-41h-164v41h-41v164h41v82h41v41h41v41h123v41h368v-41h82v-41h82v-41h41v-123h41v-655h123v-41h-41v-41h-41v-41h-287v41h-41v82h41v82h41v41h-41v-41h-41v-41 h-41v-41h-41v-41h-41v-41h-40v-41h-123v-41h-123v41h-123v41h-41v41h-41zM328 164h82v-41h82v41h81v41h41v41h41v246h-123v-41h-122v-41h-41v-41h-41v-205zM328 1147h41v41h82v41h81v41h123v41h82v41h41v123h-41v41h-41v40h-82v-40h-82v-41h-40v-82h-41v-41h-41v-82h-41v-41 h-41v-82zM1065 123v41h41v-41h-41z" />
<glyph unicode="&#xe2;" horiz-adv-x="1105" d="M41 82v246h41v41h41v41h82v41h82v41h123v40h122v41h123v246h-41v41h-41v41h-245v-41h-41v-41h41v-164h-41v-41h-164v41h-41v164h41v82h41v41h41v41h123v41h368v-41h82v-41h82v-41h41v-123h41v-655h123v-41h-41v-41h-41v-41h-287v41h-41v82h41v82h41v41h-41v-41h-41v-41 h-41v-41h-41v-41h-41v-41h-40v-41h-123v-41h-123v41h-123v41h-41v41h-41zM123 1147v41h41v41h41v41h41v41h41v41h41v82h41v41h286v-41h41v-41h41v-82h41v-41h41v-41h41v-41h41v-41h-82v41h-123v41h-164v41h-81v41h81v41h-81v-41h-41v-41h-82v-41h-82v-41h-82v-41h-41z M328 164h82v-41h82v41h81v41h41v41h41v246h-123v-41h-122v-41h-41v-41h-41v-205zM1065 123v41h41v-41h-41z" />
<glyph unicode="&#xe3;" horiz-adv-x="1105" d="M41 82v246h41v41h41v41h82v41h82v41h123v40h122v41h123v246h-41v41h-41v41h-245v-41h-41v-41h41v-164h-41v-41h-164v41h-41v164h41v82h41v41h41v41h123v41h368v-41h82v-41h82v-41h41v-123h41v-655h123v-41h-41v-41h-41v-41h-287v41h-41v82h41v82h41v41h-41v-41h-41v-41 h-41v-41h-41v-41h-41v-41h-40v-41h-123v-41h-123v41h-123v41h-41v41h-41zM123 1229v41h41v82h41v82h41v41h82v41h82v-41h122v-41h82v-41h82v-41h82v41h82v82h41v-82h-41v-82h-41v-82h-41v-41h-246v41h-81v41h-82v41h-123v-41h-82v-41h-41zM328 164h82v-41h82v41h81v41h41v41 h41v246h-123v-41h-122v-41h-41v-41h-41v-205zM1065 123v41h41v-41h-41z" />
<glyph unicode="&#xe4;" horiz-adv-x="1105" d="M41 82v246h41v41h41v41h82v41h82v41h123v40h122v41h123v246h-41v41h-41v41h-245v-41h-41v-41h41v-164h-41v-41h-164v41h-41v164h41v82h41v41h41v41h123v41h368v-41h82v-41h82v-41h41v-123h41v-655h123v-41h-41v-41h-41v-41h-287v41h-41v82h41v82h41v41h-41v-41h-41v-41 h-41v-41h-41v-41h-41v-41h-40v-41h-123v-41h-123v41h-123v41h-41v41h-41zM164 1188v287h287v-287h-287zM328 164h82v-41h82v41h81v41h41v41h41v246h-123v-41h-122v-41h-41v-41h-41v-205zM573 1188v287h287v-287h-287zM1065 123v41h41v-41h-41z" />
<glyph unicode="&#xe5;" horiz-adv-x="1105" d="M41 82v246h41v41h41v41h82v41h82v41h123v40h122v41h123v246h-41v41h-41v41h-245v-41h-41v-41h41v-164h-41v-41h-164v41h-41v164h41v82h41v41h41v41h123v41h368v-41h82v-41h82v-41h41v-123h41v-655h123v-41h-41v-41h-41v-41h-287v41h-41v82h41v82h41v41h-41v-41h-41v-41 h-41v-41h-41v-41h-41v-41h-40v-41h-123v-41h-123v41h-123v41h-41v41h-41zM287 1270v164h41v41h41v41h41v40h204v-40h41v-41h41v-41h41v-164h-41v-82h-82v-41h-204v41h-82v82h-41zM328 164h82v-41h82v41h81v41h41v41h41v246h-123v-41h-122v-41h-41v-41h-41v-205zM410 1270h41 v-41h122v41h41v164h-41v41h-122v-41h-41v-164zM1065 123v41h41v-41h-41z" />
<glyph unicode="&#xe6;" horiz-adv-x="1638" d="M41 123v164h41v82h41v41h82v41h82v41h123v40h122v41h123v246h-41v41h-41v41h-245v-41h-41v-41h41v-164h-41v-41h-164v41h-41v164h41v82h41v41h82v41h82v41h368v-41h82v-41h41v-41h41v41h41v41h82v41h328v-41h82v-41h41v-41h41v-41h41v-41h40v-123h41v-164h-737v-40h82 v-123h41v-82h41v-41h41v-41h41v-41h328v41h41v41h41v41h40v-41h-40v-82h-41v-41h-41v-41h-41v-41h-82v-41h-82v-41h-123v41h-164v41h-82v41h-41v41h-41v41h-41v82h-41v-82h-41v-41h-41v-41h-41v-41h-81v-41h-123v-41h-82v41h-164v41h-41v82h-41zM328 164h82v-41h82v41h81v41 h41v41h41v41h41v41h-41v164h-123v-41h-122v-41h-41v-41h-41v-205zM942 614h410v123h-41v82h-41v82h-82v41h-82v-41h-82v-41h-41v-82h-41v-164z" />
<glyph unicode="&#xe7;" horiz-adv-x="1024" d="M82 287v409h41v82h41v41h41v82h82v41h41v41h82v41h368v-41h82v-41h41v-41h41v-41h41v-164h-41v-82h-164v41h-41v164h41v41h-41v41h-41v41h-164v-41h-40v-41h-41v-41h-41v-82h-41v-368h41v-82h41v-41h41v-41h40v-41h287v41h82v82h41v-82h-41v-41h-41v-41h-41v-41h-41v-41 h-41v-41h-123v-41h-41v-41h-41v-41h-40v-41h40v41h41v41h41v-41h82v-41h41v-41h41v-82h-41v-82h-41v-41h-82v-41h-204v41h122v41h41v82h-41v41h-81v41h-82v41h41v41h41v82h41v41h-164v41h-41v41h-82v41h-41v82h-41v82h-41z" />
<glyph unicode="&#xe8;" d="M41 410v163h41v123h41v82h41v82h41v41h41v41h82v41h82v41h327v-41h82v-41h41v-41h41v-41h41v-41h41v-123h41v-164h-737v-40h82v-123h41v-82h41v-41h41v-41h40v-41h328v41h41v41h41v41h41v-41h-41v-82h-41v-41h-41v-41h-41v-41h-82v-41h-82v-41h-123v41h-163v41h-82v41 h-82v41h-41v82h-41v41h-41v164h-41zM266 1366v123h41v41h41v41h82v-41h82v-41h41v-82h41v-41h41v-82h41v-41h41v-82h-41v41h-82v41h-82v41h-123v41h-82v41h-41zM369 614h409v82h-41v123h-41v82h-82v41h-82v-41h-81v-41h-41v-82h-41v-164z" />
<glyph unicode="&#xe9;" d="M41 410v163h41v123h41v82h41v82h41v41h41v41h82v41h82v41h327v-41h82v-41h41v-41h41v-41h41v-41h41v-123h41v-164h-737v-40h82v-123h41v-82h41v-41h41v-41h40v-41h328v41h41v41h41v41h41v-41h-41v-82h-41v-41h-41v-41h-41v-41h-82v-41h-82v-41h-123v41h-163v41h-82v41 h-82v41h-41v82h-41v41h-41v164h-41zM369 614h409v82h-41v123h-41v82h-82v41h-82v-41h-81v-41h-41v-82h-41v-164zM410 1147h41v41h81v41h82v41h123v41h82v41h41v123h-41v41h-41v40h-82v-40h-82v-41h-41v-82h-41v-41h-40v-82h-41v-41h-41v-82z" />
<glyph unicode="&#xea;" d="M41 410v163h41v123h41v82h41v82h41v41h41v41h82v41h82v41h327v-41h82v-41h41v-41h41v-41h41v-41h41v-123h41v-164h-737v-40h82v-123h41v-82h41v-41h41v-41h40v-41h328v41h41v41h41v41h41v-41h-41v-82h-41v-41h-41v-41h-41v-41h-82v-41h-82v-41h-123v41h-163v41h-82v41 h-82v41h-41v82h-41v41h-41v164h-41zM205 1147v41h41v41h41v41h41v41h41v41h41v82h41v41h286v-41h41v-41h41v-82h41v-41h41v-41h41v-41h41v-41h-82v41h-123v41h-164v41h-82v41h82v41h-82v-41h-40v-41h-82v-41h-82v-41h-82v-41h-41zM369 614h409v82h-41v123h-41v82h-82v41h-82 v-41h-81v-41h-41v-82h-41v-164z" />
<glyph unicode="&#xeb;" d="M41 410v163h41v123h41v82h41v82h41v41h41v41h82v41h82v41h327v-41h82v-41h41v-41h41v-41h41v-41h41v-123h41v-164h-737v-40h82v-123h41v-82h41v-41h41v-41h40v-41h328v41h41v41h41v41h41v-41h-41v-82h-41v-41h-41v-41h-41v-41h-82v-41h-82v-41h-123v41h-163v41h-82v41 h-82v41h-41v82h-41v41h-41v164h-41zM246 1188v287h286v-287h-286zM369 614h409v82h-41v123h-41v82h-82v41h-82v-41h-81v-41h-41v-82h-41v-164zM655 1188v287h287v-287h-287z" />
<glyph unicode="&#xec;" horiz-adv-x="655" d="M20 1366v123h41v41h41v41h82v-41h82v-41h41v-82h41v-41h41v-82h41v-41h41v-82h-41v41h-82v41h-82v41h-123v41h-82v41h-41zM41 0v82h123v82h41v614h-41v82h-82v41h-41v41h123v41h164v41h164v-942h122v-82h-573z" />
<glyph unicode="&#xed;" horiz-adv-x="655" d="M41 0v82h123v82h41v614h-41v82h-82v41h-41v41h123v41h164v41h164v-942h122v-82h-573zM164 1147h41v41h82v41h82v41h123v41h81v41h41v123h-41v41h-41v40h-81v-40h-82v-41h-41v-82h-41v-41h-41v-82h-41v-41h-41v-82z" />
<glyph unicode="&#xee;" horiz-adv-x="655" d="M-41 1147v41h41v41h41v41h41v41h41v41h41v82h41v41h287v-41h40v-41h41v-82h41v-41h41v-41h41v-41h41v-41h-82v41h-123v41h-163v41h-82v41h82v41h-82v-41h-41v-41h-82v-41h-82v-41h-82v-41h-41zM41 0v82h123v82h41v614h-41v82h-82v41h-41v41h123v41h164v41h164v-942h122 v-82h-573z" />
<glyph unicode="&#xef;" horiz-adv-x="655" d="M0 1188v287h287v-287h-287zM41 0v82h123v82h41v614h-41v82h-82v41h-41v41h123v41h164v41h164v-942h122v-82h-573zM410 1188v287h286v-287h-286z" />
<glyph unicode="&#xf0;" horiz-adv-x="1146" d="M41 410v163h41v164h41v41h41v82h41v41h41v41h82v41h123v41h163v-41h82v82h-41v82h82v41h82v-41h41v-82h41v-41h41v-41h41v-82h41v-82h41v-164h41v-163h-41v-164h-41v-123h-41v-41h-41v-41h-41v-41h-41v-41h-82v-41h-164v-41h-82v41h-163v41h-82v41h-41v41h-41v41h-41v41 h-41v82h-41v123h-41zM246 1065v41h41v41h82v41h123v41h40v41h-40v41h-41v41h-82v41h-82v41h123v-41h82v-41h81v-41h82v-41h41v41h123v41h82v41h82v-82h-41v-41h-82v-41h-123v-41h-123v-41h-82v-41h-122v-41h-82v-41h-41v41h-41zM369 287h41v-123h41v-41h41v-41h163v41h82v82 h41v164h41v245h-41v205h-41v41h-41v41h-41v41h-123v-41h-81v-41h-41v-82h-41v-491z" />
<glyph unicode="&#xf1;" horiz-adv-x="1310" d="M41 0v82h123v41h41v696h-41v41h-82v41h-41v41h164v41h123v41h164v-123h-41v-82h-41v-41h41v41h41v41h40v41h41v41h41v41h82v41h287v-41h41v-41h41v-41h41v-123h41v-696h123v-82h-574v82h123v41h41v614h-41v82h-41v41h-205v-41h-41v-41h-40v-696h122v-82h-573zM287 1229 v41h41v82h41v82h41v41h82v41h81v-41h123v-41h82v-41h82v-41h82v41h82v82h41v-82h-41v-82h-41v-82h-41v-41h-246v41h-82v41h-82v41h-122v-41h-82v-41h-41z" />
<glyph unicode="&#xf2;" horiz-adv-x="1146" d="M41 410v163h41v164h41v82h41v41h41v41h41v41h41v41h123v41h327v-41h123v-41h41v-41h41v-41h41v-41h41v-82h41v-123h41v-204h-41v-123h-41v-82h-41v-41h-41v-41h-41v-41h-41v-41h-82v-41h-123v-41h-163v41h-123v41h-82v41h-41v41h-41v41h-41v41h-41v41h-41v164h-41z M266 1366v123h41v41h41v41h82v-41h82v-41h41v-82h41v-41h41v-82h41v-41h41v-82h-41v41h-82v41h-82v41h-123v41h-82v41h-41zM369 287h41v-123h41v-41h41v-41h163v41h41v41h41v82h41v491h-41v82h-41v82h-82v41h-122v-41h-41v-41h-41v-82h-41v-491z" />
<glyph unicode="&#xf3;" horiz-adv-x="1146" d="M41 410v163h41v164h41v82h41v41h41v41h41v41h41v41h123v41h327v-41h123v-41h41v-41h41v-41h41v-41h41v-82h41v-123h41v-204h-41v-123h-41v-82h-41v-41h-41v-41h-41v-41h-41v-41h-82v-41h-123v-41h-163v41h-123v41h-82v41h-41v41h-41v41h-41v41h-41v41h-41v164h-41z M369 287h41v-123h41v-41h41v-41h163v41h41v41h41v82h41v491h-41v82h-41v82h-82v41h-122v-41h-41v-41h-41v-82h-41v-491zM410 1147h41v41h81v41h82v41h123v41h82v41h41v123h-41v41h-41v40h-82v-40h-82v-41h-41v-82h-41v-41h-40v-82h-41v-41h-41v-82z" />
<glyph unicode="&#xf4;" horiz-adv-x="1146" d="M41 410v163h41v164h41v82h41v41h41v41h41v41h41v41h123v41h327v-41h123v-41h41v-41h41v-41h41v-41h41v-82h41v-123h41v-204h-41v-123h-41v-82h-41v-41h-41v-41h-41v-41h-41v-41h-82v-41h-123v-41h-163v41h-123v41h-82v41h-41v41h-41v41h-41v41h-41v41h-41v164h-41z M205 1147v41h41v41h41v41h41v41h41v41h41v82h41v41h286v-41h41v-41h41v-82h41v-41h41v-41h41v-41h41v-41h-82v41h-123v41h-164v41h-82v41h82v41h-82v-41h-40v-41h-82v-41h-82v-41h-82v-41h-41zM369 287h41v-123h41v-41h41v-41h163v41h41v41h41v82h41v491h-41v82h-41v82h-82 v41h-122v-41h-41v-41h-41v-82h-41v-491z" />
<glyph unicode="&#xf5;" horiz-adv-x="1146" d="M41 410v163h41v164h41v82h41v41h41v41h41v41h41v41h123v41h327v-41h123v-41h41v-41h41v-41h41v-41h41v-82h41v-123h41v-204h-41v-123h-41v-82h-41v-41h-41v-41h-41v-41h-41v-41h-82v-41h-123v-41h-163v41h-123v41h-82v41h-41v41h-41v41h-41v41h-41v41h-41v164h-41z M205 1229v41h41v82h41v82h41v41h82v41h82v-41h122v-41h82v-41h82v-41h82v41h82v82h41v-82h-41v-82h-41v-82h-41v-41h-246v41h-82v41h-81v41h-123v-41h-82v-41h-41zM369 287h41v-123h41v-41h41v-41h163v41h41v41h41v82h41v491h-41v82h-41v82h-82v41h-122v-41h-41v-41h-41v-82 h-41v-491z" />
<glyph unicode="&#xf6;" horiz-adv-x="1146" d="M41 410v163h41v164h41v82h41v41h41v41h41v41h41v41h123v41h327v-41h123v-41h41v-41h41v-41h41v-41h41v-82h41v-123h41v-204h-41v-123h-41v-82h-41v-41h-41v-41h-41v-41h-41v-41h-82v-41h-123v-41h-163v41h-123v41h-82v41h-41v41h-41v41h-41v41h-41v41h-41v164h-41z M246 1188v287h286v-287h-286zM369 287h41v-123h41v-41h41v-41h163v41h41v41h41v82h41v491h-41v82h-41v82h-82v41h-122v-41h-41v-41h-41v-82h-41v-491zM655 1188v287h287v-287h-287z" />
<glyph unicode="&#xf8;" horiz-adv-x="1146" d="M41 0v82h82v41h41v41h41v41h41v82h-41v-41h-41v-41h-41v82h-41v123h-41v163h41v164h41v82h41v41h41v41h41v41h41v41h123v41h327v-41h123v-41h41v-41h41v41h41v41h41v41h123v-41h-41v-41h-41v-41h-41v-41h-41v-41h-41v-41h-41v-41h82v41h41v-41h41v-123h41v-204h-41v-123 h-41v-82h-41v-41h-41v-41h-41v-41h-41v-41h-82v-41h-123v-41h-163v41h-123v41h-82v41h-41v41h-41v-41h-41v-41h-41v-41h-82zM369 410h82v41h41v41h40v40h41v41h41v41h41v41h41v41h41v123h-41v41h-41v41h-41v41h-122v-41h-41v-41h-41v-82h-41v-368zM410 164h41v-41h41v-41 h163v41h41v41h41v82h41v368h-41v-41h-41v-41h-41v-40h-41v-41h-41v-41h-41v-41h-81v-41h-41v-164z" />
<glyph unicode="&#xf9;" horiz-adv-x="1310" d="M41 901v41h123v41h164v41h164v-819h40v-41h41v-41h123v41h82v41h41v655h-82v41h-41v41h123v41h164v41h164v-901h41v-41h82v-41h-164v-41h-287v123h41v41h41v41h-41v-41h-41v-41h-41v-41h-41v-41h-82v-41h-123v-41h-81v41h-123v41h-41v41h-41v41h-41v655h-41v82h-82v41 h-41zM348 1366v123h41v41h41v41h82v-41h82v-41h41v-82h41v-41h41v-82h41v-41h41v-82h-41v41h-82v41h-82v41h-123v41h-82v41h-41z" />
<glyph unicode="&#xfa;" horiz-adv-x="1310" d="M41 901v41h123v41h164v41h164v-819h40v-41h41v-41h123v41h82v41h41v655h-82v41h-41v41h123v41h164v41h164v-901h41v-41h82v-41h-164v-41h-287v123h41v41h41v41h-41v-41h-41v-41h-41v-41h-41v-41h-82v-41h-123v-41h-81v41h-123v41h-41v41h-41v41h-41v655h-41v82h-82v41 h-41zM492 1147h40v41h82v41h82v41h123v41h82v41h41v123h-41v41h-41v40h-82v-40h-82v-41h-41v-82h-41v-41h-41v-82h-41v-41h-40v-82z" />
<glyph unicode="&#xfb;" horiz-adv-x="1310" d="M41 901v41h123v41h164v41h164v-819h40v-41h41v-41h123v41h82v41h41v655h-82v41h-41v41h123v41h164v41h164v-901h41v-41h82v-41h-164v-41h-287v123h41v41h41v41h-41v-41h-41v-41h-41v-41h-41v-41h-82v-41h-123v-41h-81v41h-123v41h-41v41h-41v41h-41v655h-41v82h-82v41 h-41zM287 1147v41h41v41h41v41h41v41h41v41h41v82h40v41h287v-41h41v-41h41v-82h41v-41h41v-41h41v-41h41v-41h-82v41h-123v41h-164v41h-82v41h82v41h-82v-41h-41v-41h-81v-41h-82v-41h-82v-41h-41z" />
<glyph unicode="&#xfc;" horiz-adv-x="1310" d="M41 901v41h123v41h164v41h164v-819h40v-41h41v-41h123v41h82v41h41v655h-82v41h-41v41h123v41h164v41h164v-901h41v-41h82v-41h-164v-41h-287v123h41v41h41v41h-41v-41h-41v-41h-41v-41h-41v-41h-82v-41h-123v-41h-81v41h-123v41h-41v41h-41v41h-41v655h-41v82h-82v41 h-41zM328 1188v287h286v-287h-286zM737 1188v287h287v-287h-287z" />
<glyph unicode="&#xfd;" horiz-adv-x="1269" d="M0 -205h82v41h41v-41h82v-41h41v-82h-82v-41h164v41h41v41h41v123h41v41h41v82h40v164h-40v123h-41v41h-41v82h-41v82h-41v81h-41v82h-41v82h-41v82h-41v82h-41v41h-41v41h-82v82h655v-82h-123v-164h41v-82h41v-82h41v-82h41v-163h41v41h41v82h41v81h41v82h41v82h41v82 h41v41h-41v82h-123v82h410v-82h-41v-41h-41v-41h-41v-82h-41v-41h-41v-82h-41v-82h-41v-81h-41v-82h-41v-82h-41v-82h-41v-82h-41v-41h-41v-82h-41v-82h-41v-82h-41v-82h-41v-82h-40v-41h-41v-41h-41v-41h-41v-41h-82v-41h-164v41h-82v41h-41v205zM573 1147h41v41h82v41h82 v41h123v41h82v41h41v123h-41v41h-41v40h-82v-40h-82v-41h-41v-82h-41v-41h-41v-82h-41v-41h-41v-82z" />
<glyph unicode="&#xfe;" horiz-adv-x="1228" d="M0 -410h82v41h41v41h41v1557h-41v41h-41v41h-82v41h41v41h164v41h123v41h123v-574h-41v-41h-41v-82h41v41h41v82h41v41h81v41h41v41h287v-41h82v-41h41v-41h41v-41h41v-82h41v-450h-41v-82h-41v-41h-41v-41h-41v-41h-41v-41h-41v-41h-82v-41h-368v-369h41v-41h81v-82 h-573v82zM451 123h41v-41h204v41h82v82h41v82h41v409h-41v82h-41v41h-41v41h-205v-41h-40v-41h-41v-655z" />
<glyph unicode="&#xff;" horiz-adv-x="1269" d="M0 -205h82v41h41v-41h82v-41h41v-82h-82v-41h164v41h41v41h41v123h41v41h41v82h40v164h-40v123h-41v41h-41v82h-41v82h-41v81h-41v82h-41v82h-41v82h-41v82h-41v41h-41v41h-82v82h655v-82h-123v-164h41v-82h41v-82h41v-82h41v-163h41v41h41v82h41v81h41v82h41v82h41v82 h41v41h-41v82h-123v82h410v-82h-41v-41h-41v-41h-41v-82h-41v-41h-41v-82h-41v-82h-41v-81h-41v-82h-41v-82h-41v-82h-41v-82h-41v-41h-41v-82h-41v-82h-41v-82h-41v-82h-41v-82h-40v-41h-41v-41h-41v-41h-41v-41h-82v-41h-164v41h-82v41h-41v205zM410 1188v287h286v-287 h-286zM819 1188v287h287v-287h-287z" />
<glyph unicode="&#x152;" horiz-adv-x="2252" d="M41 573v287h41v123h41v82h41v82h41v41h41v41h41v41h82v41h41v41h82v41h163v41h1475v-492h-82v82h-41v123h-41v82h-41v41h-41v41h-123v41h-409v-574h245v41h82v82h41v123h82v-573h-82v122h-41v82h-82v41h-245v-573h-41v-41h491v41h123v41h41v41h41v82h41v82h41v123h82 v-287h-41v-205h-1475v41h-123v41h-81v41h-82v41h-82v41h-41v41h-41v82h-41v41h-41v82h-41v122h-41zM410 492h41v-123h41v-82h40v-41h41v-41h41v-41h41v-41h123v-41h246v1229h82v41h-246v-41h-164v-41h-41v-41h-82v-41h-41v-82h-40v-82h-41v-123h-41v-409z" />
<glyph unicode="&#x153;" horiz-adv-x="1802" d="M41 451v81h41v164h41v82h41v82h41v41h41v41h82v41h82v41h327v-41h82v-41h82v-41h123v41h41v41h82v41h328v-41h81v-41h41v-41h41v-41h41v-41h41v-123h41v-164h-737v-40h82v-123h41v-82h41v-41h41v-41h41v-41h327v41h41v41h41v41h41v-41h-41v-82h-41v-41h-41v-41h-41v-41 h-81v-41h-82v-41h-164v41h-123v41h-82v41h-41v41h-82v-41h-41v-41h-82v-41h-123v-41h-123v41h-163v41h-82v41h-41v41h-41v41h-41v41h-41v82h-41v164h-41zM369 287h41v-82h41v-82h41v-41h163v41h41v41h41v41h41v532h-41v82h-41v82h-82v41h-122v-41h-41v-41h-41v-123h-41v-450 zM1106 614h410v82h-41v123h-41v82h-82v41h-82v-41h-82v-41h-41v-82h-41v-164z" />
<glyph unicode="&#x178;" horiz-adv-x="1515" d="M0 1352v82h655v-82h-123v-164h41v-41h41v-82h41v-41h41v-82h41v-82h41v-41h41v-123h-41v-41h82v82h41v41h41v82h41v82h41v41h41v82h41v82h41v82h41v123h-123v82h410v-82h-41v-41h-41v-41h-41v-41h-41v-41h-41v-82h-41v-41h-41v-82h-41v-41h-41v-82h-41v-41h-41v-82h-41 v-41h-41v-82h-41v-409h41v-82h41v-41h123v-82h-696v82h122v41h41v41h41v450h-41v41h-41v82h-40v41h-41v82h-41v41h-41v82h-41v41h-41v82h-41v41h-41v82h-41v41h-41v41h-41v41h-82zM492 1597v287h286v-287h-286zM901 1597v287h287v-287h-287z" />
<glyph unicode="&#x2c6;" horiz-adv-x="1024" d="M123 1147v41h41v41h41v41h41v41h41v41h41v82h41v41h286v-41h41v-41h41v-82h41v-41h41v-41h41v-41h41v-41h-82v41h-123v41h-164v41h-81v41h81v41h-81v-41h-41v-41h-82v-41h-82v-41h-82v-41h-41z" />
<glyph unicode="&#x2dc;" horiz-adv-x="1024" d="M123 1229v41h41v82h41v82h41v41h82v41h82v-41h122v-41h82v-41h82v-41h82v41h82v82h41v-82h-41v-82h-41v-82h-41v-41h-246v41h-81v41h-82v41h-123v-41h-82v-41h-41z" />
<glyph unicode="&#x2000;" horiz-adv-x="990" />
<glyph unicode="&#x2001;" horiz-adv-x="1980" />
<glyph unicode="&#x2002;" horiz-adv-x="990" />
<glyph unicode="&#x2003;" horiz-adv-x="1980" />
<glyph unicode="&#x2004;" horiz-adv-x="660" />
<glyph unicode="&#x2005;" horiz-adv-x="495" />
<glyph unicode="&#x2006;" horiz-adv-x="330" />
<glyph unicode="&#x2007;" horiz-adv-x="330" />
<glyph unicode="&#x2008;" horiz-adv-x="247" />
<glyph unicode="&#x2009;" horiz-adv-x="396" />
<glyph unicode="&#x200a;" horiz-adv-x="110" />
<glyph unicode="&#x2010;" horiz-adv-x="860" d="M82 614v82h696v-82h-696z" />
<glyph unicode="&#x2011;" horiz-adv-x="860" d="M82 614v82h696v-82h-696z" />
<glyph unicode="&#x2012;" horiz-adv-x="860" d="M82 614v82h696v-82h-696z" />
<glyph unicode="&#x2013;" d="M82 614v82h901v-82h-901z" />
<glyph unicode="&#x2014;" horiz-adv-x="1351" d="M82 614v82h1188v-82h-1188z" />
<glyph unicode="&#x2018;" horiz-adv-x="491" d="M82 1024v205h41v82h41v41h41v41h41v41h82v41h41v-41h-41v-41h-82v-82h-41v-164h41v41h123v-41h41v-164h-41v-41h-41v-41h-123v41h-82v82h-41z" />
<glyph unicode="&#x2019;" horiz-adv-x="491" d="M82 1229v164h41v82h205v-41h41v-41h41v-246h-41v-82h-41v-41h-41v-41h-82v-41h-41v-41h-41v41h41v41h41v41h41v41h41v164h-41v-41h-82v41h-82z" />
<glyph unicode="&#x201a;" horiz-adv-x="487" d="M82 82v164h41v41h205v-41h41v-41h41v-205h-41v-82h-41v-82h-41v-41h-82v-41h-41v41h41v41h41v41h41v205h-41v-82h-82v41h-41v41h-41z" />
<glyph unicode="&#x201c;" horiz-adv-x="901" d="M82 1024v205h41v82h41v41h41v41h41v41h82v41h41v-41h-41v-41h-82v-82h-41v-164h41v41h123v-41h41v-164h-41v-41h-41v-41h-123v41h-82v82h-41zM492 1024v205h40v82h41v41h41v41h41v41h82v41h41v-41h-41v-41h-82v-41h-41v-82h-41v-123h82v41h123v-41h41v-164h-41v-41h-41 v-41h-123v41h-82v82h-40z" />
<glyph unicode="&#x201d;" horiz-adv-x="901" d="M82 1270v164h41v41h205v-41h41v-41h41v-205h-41v-82h-41v-82h-41v-41h-82v-41h-41v41h41v41h41v41h41v164h-41v-41h-82v41h-41v41h-41zM492 1270v164h40v41h205v-41h41v-41h41v-205h-41v-82h-41v-82h-41v-41h-82v-41h-41v41h41v41h41v41h41v164h-41v-41h-82v41h-41v41 h-40z" />
<glyph unicode="&#x201e;" horiz-adv-x="811" d="M82 49v164h41v41h205v-41h41v-41h41v-205h-41v-82h-41v-82h-41v-41h-82v-41h-41v41h41v41h41v41h41v164h-41v-41h-82v41h-41v41h-41zM492 49v164h40v41h205v-41h41v-41h41v-205h-41v-82h-41v-82h-41v-41h-82v-41h-41v41h41v41h41v41h41v164h-41v-41h-82v41h-41v41h-40z " />
<glyph unicode="&#x2022;" horiz-adv-x="655" d="M123 492v450h409v-450h-409z" />
<glyph unicode="&#x2026;" horiz-adv-x="1474" d="M82 0v287h328v-287h-328zM573 0v287h328v-287h-328zM1065 0v287h328v-287h-328z" />
<glyph unicode="&#x202f;" horiz-adv-x="396" />
<glyph unicode="&#x2039;" horiz-adv-x="696" d="M82 492v40h41v41h41v41h41v41h41v41h41v41h41v41h41v41h41v41h41v41h41v41h40v41h41v41h41v-41h-41v-82h-41v-82h-40v-41h-41v-82h-41v-82h-41v-82h-41v-40h41v-82h41v-82h41v-82h41v-41h40v-82h41v-82h41v-41h-41v41h-41v41h-40v41h-41v41h-41v41h-41v41h-41v41h-41v41 h-41v41h-41v41h-41v41h-41v41h-41z" />
<glyph unicode="&#x203a;" horiz-adv-x="696" d="M82 0v41h41v82h41v82h41v41h41v82h41v82h41v82h41v40h-41v82h-41v82h-41v82h-41v41h-41v82h-41v82h-41v41h41v-41h41v-41h41v-41h41v-41h41v-41h41v-41h41v-41h41v-41h41v-41h41v-41h40v-41h41v-41h41v-40h-41v-41h-41v-41h-40v-41h-41v-41h-41v-41h-41v-41h-41v-41h-41 v-41h-41v-41h-41v-41h-41v-41h-41v-41h-41z" />
<glyph unicode="&#x205f;" horiz-adv-x="495" />
<glyph unicode="&#x20ac;" horiz-adv-x="1474" d="M41 573v82h164v82h-164v82h164v82h41v123h41v82h41v82h41v41h41v41h41v41h41v41h81v41h41v41h205v41h41v-41h164v-41h82v-41h41v-41h41v-41h41v-41h41v82h-41v41h-41v41h82v41h82v-492h-82v82h-41v82h-41v82h-41v41h-41v41h-82v41h-246v-41h-82v-41h-41v-41h-41v-82h-41 v-123h-41v-164h697v-41h-41v-41h-656v-82h574v-41h-41v-41h-533v-41h41v-122h41v-82h41v-41h41v-41h41v-41h82v-41h328v41h82v41h41v41h41v41h41v-41h-41v-82h-41v-41h-41v-41h-41v-41h-41v-41h-82v-41h-451v41h-82v41h-40v41h-41v41h-41v41h-41v41h-41v41h-41v82h-41v123 h82v81h-287zM1352 369v41h41v-41h-41z" />
<glyph unicode="&#x2122;" horiz-adv-x="2007" d="M0 1147v164h41v123h778v-287h-41v123h-41v41h-41v41h-204v-41h40v-615h41v-41h41v-41h-409v41h82v41h41v656h-164v-41h-41v-41h-41v-123h-82zM901 614v41h41v41h41v656h-82v82h287v-41h41v-82h41v-123h41v-82h41v-123h41v-205h41v-123h-41v-82h-41v82h-41v123h-41v82h-41 v82h-41v123h-41v82h-41v123h-41v-574h41v-41h82v-41h-287zM1434 778v123h41v82h41v123h40v82h41v123h41v82h41v41h328v-82h-123v-656h41v-41h82v-41h-410v41h41v41h41v574h41v41h-41v-41h-41v-82h-41v-123h-41v-82h-40v-123h-41v-82h-41z" />
<glyph unicode="&#x25fc;" horiz-adv-x="1024" d="M0 0v1024h1024v-1024h-1024z" />
<glyph unicode="&#xfb01;" horiz-adv-x="1392" d="M0 942v82h164v123h41v123h41v82h41v41h41v41h41v41h163v41h164v-41h123v-41h41v-41h41v-205h-41v-41h-82v41h-82v82h-41v41h41v82h-164v-41h-40v-41h-41v-287h245v-82h-327v-41h82v-778h41v-41h122v-82h-573v82h123v860h-164zM778 0v82h123v82h41v614h-41v82h-82v41h-41 v41h123v41h164v41h164v-942h123v-82h-574zM942 1188v287h287v-287h-287z" />
<glyph unicode="&#xfb02;" horiz-adv-x="1392" d="M0 942v82h164v123h41v123h41v82h41v41h41v41h41v41h163v41h164v-41h123v-41h164v41h164v41h82v-1434h123v-82h-574v82h123v1106h-41v-41h-82v41h-82v82h-41v41h41v82h-164v-41h-40v-41h-41v-287h245v-82h-327v-41h82v-778h41v-41h122v-82h-573v82h123v860h-164z" />
</font>
</defs>
</svg>
